  0
SECTION
  2
HEADER
  9
$ACADVER
  1
AC1009
  9
$INSBASE
 10
0.0
 20
0.0
 30
0.0
  9
$EXTMIN
 10
-0.0186766752635776
 20
-0.0260917282728315
 30
-0.000000000000013
  9
$EXTMAX
 10
289.51982717130642
 20
420.03173814330961
 30
0.0000000000000023
  9
$LIMMIN
 10
0.0
 20
0.0
  9
$LIMMAX
 10
289.5
 20
420.00000000000011
  9
$ORTHOMODE
 70
     0
  9
$REGENMODE
 70
     1
  9
$FILLMODE
 70
     1
  9
$QTEXTMODE
 70
     0
  9
$MIRRTEXT
 70
     1
  9
$DRAGMODE
 70
     2
  9
$LTSCALE
 40
1.5
  9
$OSMODE
 70
   431
  9
$ATTMODE
 70
     1
  9
$TEXTSIZE
 40
73.985717453579113
  9
$TRACEWID
 40
1.0
  9
$TEXTSTYLE
  7
STANDARD
  9
$CLAYER
  8
ﾊ_ﾈﾙ
  9
$CELTYPE
  6
BYLAYER
  9
$CECOLOR
 62
   256
  9
$DIMSCALE
 40
1.5
  9
$DIMASZ
 40
2.5
  9
$DIMEXO
 40
1.0
  9
$DIMDLI
 40
10.0
  9
$DIMRND
 40
0.0
  9
$DIMDLE
 40
0.0
  9
$DIMEXE
 40
1.0
  9
$DIMTP
 40
0.1
  9
$DIMTM
 40
0.1
  9
$DIMTXT
 40
3.5
  9
$DIMCEN
 40
0.0
  9
$DIMTSZ
 40
0.0
  9
$DIMTOL
 70
     0
  9
$DIMLIM
 70
     0
  9
$DIMTIH
 70
     0
  9
$DIMTOH
 70
     0
  9
$DIMSE1
 70
     0
  9
$DIMSE2
 70
     0
  9
$DIMTAD
 70
     1
  9
$DIMZIN
 70
     8
  9
$DIMBLK
  1
OPEN30
  9
$DIMASO
 70
     1
  9
$DIMSHO
 70
     1
  9
$DIMPOST
  1

  9
$DIMAPOST
  1
"
  9
$DIMALT
 70
     0
  9
$DIMALTD
 70
     2
  9
$DIMALTF
 40
0.0393701
  9
$DIMLFAC
 40
1.0
  9
$DIMTOFL
 70
     1
  9
$DIMTVP
 40
0.0
  9
$DIMTIX
 70
     0
  9
$DIMSOXD
 70
     0
  9
$DIMSAH
 70
     0
  9
$DIMBLK1
  1

  9
$DIMBLK2
  1

  9
$DIMSTYLE
  2
AM_ISO
  9
$DIMCLRD
 70
   256
  9
$DIMCLRE
 70
   256
  9
$DIMCLRT
 70
     2
  9
$DIMTFAC
 40
0.71
  9
$DIMGAP
 40
1.5
  9
$LUNITS
 70
     2
  9
$LUPREC
 70
     2
  9
$SKETCHINC
 40
1.0
  9
$FILLETRAD
 40
3.75
  9
$AUNITS
 70
     0
  9
$AUPREC
 70
     0
  9
$MENU
  1
.
  9
$ELEVATION
 40
0.0
  9
$PELEVATION
 40
0.0
  9
$THICKNESS
 40
0.0
  9
$LIMCHECK
 70
     0
  9
$BLIPMODE
 70
     0
  9
$CHAMFERA
 40
3.75
  9
$CHAMFERB
 40
3.75
  9
$SKPOLY
 70
     0
  9
$TDCREATE
 40
2453626.5799819101
  9
$TDUPDATE
 40
2454767.7753003822
  9
$TDINDWG
 40
0.0478238773
  9
$TDUSRTIMER
 40
0.0478238773
  9
$USRTIMER
 70
     1
  9
$ANGBASE
 50
0.0
  9
$ANGDIR
 70
     0
  9
$PDMODE
 70
     0
  9
$PDSIZE
 40
0.0
  9
$PLINEWID
 40
0.0
  9
$COORDS
 70
     2
  9
$SPLFRAME
 70
     0
  9
$SPLINETYPE
 70
     6
  9
$SPLINESEGS
 70
     8
  9
$ATTDIA
 70
     1
  9
$ATTREQ
 70
     1
  9
$HANDLING
 70
     1
  9
$HANDSEED
  5
1608
  9
$SURFTAB1
 70
     6
  9
$SURFTAB2
 70
     6
  9
$SURFTYPE
 70
     6
  9
$SURFU
 70
     6
  9
$SURFV
 70
     6
  9
$UCSNAME
  2

  9
$UCSORG
 10
0.0
 20
0.0
 30
0.0
  9
$UCSXDIR
 10
1.0
 20
0.0
 30
0.0
  9
$UCSYDIR
 10
0.0
 20
1.0
 30
0.0
  9
$PUCSNAME
  2

  9
$PUCSORG
 10
0.0
 20
0.0
 30
0.0
  9
$PUCSXDIR
 10
1.0
 20
0.0
 30
0.0
  9
$PUCSYDIR
 10
0.0
 20
1.0
 30
0.0
  9
$USERI1
 70
     0
  9
$USERI2
 70
     0
  9
$USERI3
 70
     0
  9
$USERI4
 70
     0
  9
$USERI5
 70
     0
  9
$USERR1
 40
0.0
  9
$USERR2
 40
0.0
  9
$USERR3
 40
0.0
  9
$USERR4
 40
0.0
  9
$USERR5
 40
0.0
  9
$WORLDVIEW
 70
     1
  9
$SHADEDGE
 70
     3
  9
$SHADEDIF
 70
    70
  9
$TILEMODE
 70
     1
  9
$MAXACTVP
 70
    64
  9
$PLIMCHECK
 70
     0
  9
$PEXTMIN
 10
1.0000000000000000E+020
 20
1.0000000000000000E+020
 30
1.0000000000000000E+020
  9
$PEXTMAX
 10
-1.0000000000000000E+020
 20
-1.0000000000000000E+020
 30
-1.0000000000000000E+020
  9
$PLIMMIN
 10
-6.350006103515625
 20
-6.3499999046325684
  9
$PLIMMAX
 10
273.04998779296881
 20
209.54999399185181
  9
$UNITMODE
 70
     0
  9
$VISRETAIN
 70
     1
  9
$PLINEGEN
 70
     0
  9
$PSLTSCALE
 70
     1
  0
ENDSEC
  0
SECTION
  2
TABLES
  0
TABLE
  2
VPORT
 70
     3
  0
VPORT
  2
*ACTIVE
 70
     0
 10
0.0
 20
0.0
 11
1.0
 21
1.0
 12
144.75057524802139
 22
210.00282320751839
 13
0.0
 23
0.0
 14
3.75
 24
3.75
 15
15.0
 25
15.0
 16
0.0
 26
0.0
 36
1.0
 17
0.0
 27
0.0
 37
0.0
 40
423.3395316674542
 41
1.245110821382007
 42
50.0
 43
0.0
 44
0.0
 50
0.0
 51
0.0
 71
    16
 72
   100
 73
     1
 74
     3
 75
     0
 76
     0
 77
     0
 78
     0
  0
ENDTAB
  0
TABLE
  2
LTYPE
 70
    15
  0
LTYPE
  2
CONTINUOUS
 70
     0
  3
Solid line
 72
    65
 73
     0
 40
0.0
  0
LTYPE
  2
AM_ISO02W050
 70
     0
  3
__ __ __ __ __ __ __ __ __ __ __ __ __ __ __
 72
    65
 73
     2
 40
7.5
 49
6.0
 49
-1.5
  0
LTYPE
  2
AM_ISO08W050
 70
     0
  3
____ . ____ . ____ . ____ . ____ . ____ . ____
 72
    65
 73
     4
 40
18.0
 49
12.0
 49
-1.5
 49
3.0
 49
-1.5
  0
LTYPE
  2
AM_ISO09W050
 70
     0
  3
_____ . . _____ . . _____ . . ____ .. ____
 72
    65
 73
     6
 40
22.5
 49
12.0
 49
-1.5
 49
3.0
 49
-1.5
 49
3.0
 49
-1.5
  0
LTYPE
  2
AMCONSTR
 70
     0
  3
_______________________
 72
    65
 73
     2
 40
9999.0
 49
9999.0
 49
0.0
  0
LTYPE
  2
AM_ISO08W050X2
 70
     0
  3
__ . __ . __ . __ . __ . __
 72
    65
 73
     4
 40
9.0
 49
6.0
 49
-0.75
 49
1.5
 49
-0.75
  0
LTYPE
  2
AM_ISO02W050X2
 70
     0
  3
 _ _ _ _ _ _ _ _ _ _ _ _
 72
    65
 73
     2
 40
3.75
 49
3.0
 49
-0.75
  0
LTYPE
  2
AMZIGZAG
 70
     0
  3
/\/-/\/-/\/-/\/-/\/-/\/
 72
    65
 73
     2
 40
11.0001
 49
0.0001
 49
-11.0
  0
LTYPE
  2
ACISOWELD
 70
     0
  3
_ _ _ _ _
 72
    65
 73
     2
 40
2.0
 49
2.0
 49
-1.0
  0
LTYPE
  2
ACISOTGB
 70
     0
  3
__ . . __ . .
 72
    65
 73
     6
 40
9.0
 49
4.0
 49
-1.0
 49
1.0
 49
-1.0
 49
1.0
 49
-1.0
  0
LTYPE
  2
ACISOTGL
 70
     0
  3
_ _ _ _ _
 72
    65
 73
     2
 40
3.0
 49
2.0
 49
-1.0
  0
LTYPE
  2
CENTER
 70
     0
  3
__ . __
 72
    65
 73
     4
 40
7.0
 49
4.0
 49
-1.0
 49
1.0
 49
-1.0
  0
LTYPE
  2
HIDDEN
 70
     0
  3
Hidden __ __ __ __ __ __ __ __ __ __ __ __ __ _
 72
    65
 73
     2
 40
9.5249999999999986
 49
6.3499999999999988
 49
-3.1749999999999989
  0
LTYPE
  2
PHANTOM2
 70
     0
  3
Phantom (.5x) ___ _ _ ___ _ _ ___ _ _ ___ _ _
 72
    65
 73
     6
 40
31.75
 49
15.875
 49
-3.1749999999999989
 49
3.1749999999999989
 49
-3.1749999999999989
 49
3.1749999999999989
 49
-3.1749999999999989
  0
LTYPE
  2
GEN7A
 70
     0
  3
__ . __ . __
 72
    65
 73
     4
 40
6.875
 49
4.75
 49
-0.875
 49
0.375
 49
-0.875
  0
ENDTAB
  0
TABLE
  2
LAYER
 70
    12
  0
LAYER
  2
0
 70
     0
 62
     7
  6
CONTINUOUS
  0
LAYER
  2
DEFPOINTS
 70
     0
 62
     7
  6
CONTINUOUS
  0
LAYER
  2
ﾊ_ﾈﾙ
 70
     0
 62
    51
  6
CONTINUOUS
  0
LAYER
  2
ﾊ_ﾈﾙ0
 70
     0
 62
    51
  6
AM_ISO02W050X2
  0
LAYER
  2
7A
 70
     0
 62
     4
  6
GEN7A
  0
LAYER
  2
RAHM2
 70
     0
 62
     1
  6
CONTINUOUS
  0
LAYER
  2
AM_5
 70
     0
 62
     3
  6
CONTINUOUS
  0
LAYER
  2
AM_7
 70
     0
 62
     4
  6
AM_ISO08W050
  0
LAYER
  2
AM_12
 70
     0
 62
     7
  6
CONTINUOUS
  0
LAYER
  2
AM_PAREF
 70
     0
 62
     4
  6
CONTINUOUS
  0
LAYER
  2
ﾋ_ｽ
 70
     0
 62
     8
  6
CONTINUOUS
  0
LAYER
  2
ﾋ_ｽ0
 70
     0
 62
     8
  6
AM_ISO02W050X2
  0
ENDTAB
  0
TABLE
  2
STYLE
 70
     4
  0
STYLE
  2
STANDARD
 70
     0
 40
0.0
 41
1.0
 50
0.0
 71
     0
 42
73.985717453579113
  3
ISOCP.SHX
  4
bigfont.shx
  0
STYLE
  2

 70
     1
 40
0.0
 41
1.0
 50
0.0
 71
     0
 42
2.5
  3
ltypeshp.shx
  4

  0
STYLE
  2
ACISOTS
 70
     0
 40
1.0
 41
1.0
 50
0.0
 71
     0
 42
2.5
  3
isocp.shx
  4
extfont.shx
  0
STYLE
  2
ACISOGDT
 70
     0
 40
0.0
 41
1.0
 50
0.0
 71
     0
 42
2.5
  3
amgdt.shx
  4

  0
ENDTAB
  0
TABLE
  2
VIEW
 70
     6
  0
VIEW
  2
AM_VIEW1
 70
     0
 40
210.0
 10
130.703125
 20
315.00000000000011
 41
261.40625000000011
 11
0.0
 21
0.0
 31
1.0
 12
0.0
 22
0.0
 32
0.0
 42
50.0
 43
0.0
 44
0.0
 50
0.0
 71
    16
  0
VIEW
  2
AM_VIEW2
 70
     0
 40
210.0
 10
158.79687499999989
 20
315.00000000000011
 41
261.40625000000011
 11
0.0
 21
0.0
 31
1.0
 12
0.0
 22
0.0
 32
0.0
 42
50.0
 43
0.0
 44
0.0
 50
0.0
 71
    16
  0
VIEW
  2
AM_VIEW3
 70
     0
 40
210.0
 10
130.703125
 20
105.0
 41
261.40625000000011
 11
0.0
 21
0.0
 31
1.0
 12
0.0
 22
0.0
 32
0.0
 42
50.0
 43
0.0
 44
0.0
 50
0.0
 71
    16
  0
VIEW
  2
AM_VIEW4
 70
     0
 40
210.0
 10
158.79687499999989
 20
105.0
 41
261.40625000000011
 11
0.0
 21
0.0
 31
1.0
 12
0.0
 22
0.0
 32
0.0
 42
50.0
 43
0.0
 44
0.0
 50
0.0
 71
    16
  0
VIEW
  2
AM_VIEW5
 70
     0
 40
210.00000000000011
 10
144.75
 20
210.0
 41
261.40625000000011
 11
0.0
 21
0.0
 31
1.0
 12
0.0
 22
0.0
 32
0.0
 42
50.0
 43
0.0
 44
0.0
 50
0.0
 71
    16
  0
VIEW
  2
AM_VIEW6
 70
     0
 40
419.99580000000009
 10
144.75
 20
210.0
 41
522.80727187500008
 11
0.0
 21
0.0
 31
1.0
 12
0.0
 22
0.0
 32
0.0
 42
50.0
 43
0.0
 44
0.0
 50
0.0
 71
    16
  0
ENDTAB
  0
TABLE
  2
UCS
 70
     0
  0
ENDTAB
  0
TABLE
  2
APPID
 70
    35
  0
APPID
  2
ACAD
 70
     0
  0
APPID
  2
MCAD_NO_VIS
 70
     0
  0
APPID
  2
ACAD_TEMP_GRAPHIC
 70
     0
  0
APPID
  2
ACATTRIBSERVICES
 70
     0
  0
APPID
  2
AD_DRAW
 70
     0
  0
APPID
  2
DESIGNERASSEMBLIES
 70
     0
  0
APPID
  2
ACADM_DIM_EDIT
 70
     0
  0
APPID
  2
AMDT_DM_ADJ
 70
     0
  0
APPID
  2
GENIUS_GENREC_14
 70
     0
  0
APPID
  2
GENIUS_GENODEF_13
 70
     0
  0
APPID
  2
GENIUS_GENOBJ-N-REC_13
 70
     0
  0
APPID
  2
GENIUS_GENDIMSH_14
 70
     0
  0
APPID
  2
GENIUS_GENCFG_13
 70
     0
  0
APPID
  2
GENIUS_GENCFG0_13
 70
     0
  0
APPID
  2
GENIUS_GENCFG1_13
 70
     0
  0
APPID
  2
GENIUS_GENCFG2_13
 70
     0
  0
APPID
  2
GENIUS_GENCFG3_13
 70
     0
  0
APPID
  2
GENIUS_GENCFG4_13
 70
     0
  0
APPID
  2
GENIUS_GEVCFG0_13
 70
     0
  0
APPID
  2
GENIUS_GENOENT_13
 70
     0
  0
APPID
  2
GENIUS_GENOBJ-N-CRS_13
 70
     0
  0
APPID
  2
GENIUS_GENOREF_13
 70
     0
  0
APPID
  2
GENIUS_GENOLIS_13
 70
     0
  0
APPID
  2
GENIUS_GENOBJ-N-TIT_13
 70
     0
  0
APPID
  2
GENIUS_GENTITLE_13
 70
     0
  0
APPID
  2
GENIUS_GENSCREG_15
 70
     0
  0
APPID
  2
GENIUS_GENOBJ-N-SDF_13
 70
     0
  0
APPID
  2
GENIUS_GENOBJ-N-CEN_13
 70
     0
  0
APPID
  2
GENIUS_GENOBJ-N-HTC_13
 70
     0
  0
APPID
  2
GENIUS_GENHATCH_13
 70
     0
  0
APPID
  2
GENIUS_GENOBJ-N-ZOO_13
 70
     0
  0
APPID
  2
GENIUS_GENZOO_17
 70
     0
  0
APPID
  2
GENIUS_GENDTOL_13
 70
     0
  0
APPID
  2
GENIUS_GENOBJ-N-FIL_13
 70
     0
  0
APPID
  2
GENIUS_GENSCREG_13
 70
     0
  0
ENDTAB
  0
TABLE
  2
DIMSTYLE
 70
     8
  0
DIMSTYLE
  2
AM_ISO
 70
     0
  3

  4
"
  5
OPEN30
  6

  7

 40
1.0
 41
2.5
 42
1.0
 43
10.0
 44
1.0
 45
0.0
 46
0.0
 47
0.1
 48
0.1
140
3.5
141
0.0
142
0.0
143
0.0393701
144
1.0
145
0.0
146
0.71
147
1.5
 71
     0
 72
     0
 73
     0
 74
     0
 75
     0
 76
     0
 77
     1
 78
     8
170
     0
171
     2
172
     1
173
     0
174
     0
175
     0
176
   256
177
   256
178
     2
  0
DIMSTYLE
  2
AM_ISO$3
 70
     0
  3

  4
"
  5
OPEN30
  6

  7

 40
1.0
 41
2.5
 42
1.0
 43
10.0
 44
1.0
 45
0.0
 46
0.0
 47
0.1
 48
0.1
140
3.5
141
0.0
142
0.0
143
0.0393701
144
1.0
145
0.0
146
0.71
147
1.5
 71
     0
 72
     0
 73
     0
 74
     1
 75
     0
 76
     0
 77
     1
 78
     8
170
     0
171
     2
172
     0
173
     0
174
     0
175
     0
176
   256
177
   256
178
     2
  0
DIMSTYLE
  2
AM_ISO$4
 70
     0
  3

  4
"
  5
OPEN30
  6

  7

 40
1.0
 41
2.5
 42
1.0
 43
10.0
 44
1.0
 45
0.0
 46
0.0
 47
0.1
 48
0.1
140
3.5
141
0.0
142
0.0
143
0.0393701
144
1.0
145
0.0
146
0.71
147
1.5
 71
     0
 72
     0
 73
     0
 74
     1
 75
     0
 76
     0
 77
     1
 78
     8
170
     0
171
     2
172
     0
173
     0
174
     0
175
     0
176
   256
177
   256
178
     2
  0
DIMSTYLE
  2
AM_ISO$6
 70
     0
  3

  4
"
  5
OPEN30
  6

  7

 40
1.0
 41
2.5
 42
1.0
 43
10.0
 44
1.0
 45
0.0
 46
0.0
 47
0.1
 48
0.1
140
3.5
141
0.0
142
0.0
143
0.0393701
144
1.0
145
0.0
146
0.71
147
1.5
 71
     0
 72
     0
 73
     0
 74
     0
 75
     0
 76
     0
 77
     0
 78
     8
170
     0
171
     2
172
     1
173
     0
174
     0
175
     0
176
   256
177
   256
178
     2
  0
DIMSTYLE
  2
AM_ISO$7
 70
     0
  3

  4
"
  5
OPEN30
  6

  7

 40
1.0
 41
2.5
 42
1.0
 43
10.0
 44
1.0
 45
0.0
 46
0.0
 47
0.1
 48
0.1
140
5.0
141
0.0
142
0.0
143
0.0393701
144
1.0
145
0.0
146
0.71
147
1.5
 71
     0
 72
     0
 73
     0
 74
     0
 75
     0
 76
     0
 77
     1
 78
     8
170
     0
171
     2
172
     1
173
     0
174
     0
175
     0
176
   256
177
   256
178
     2
  0
DIMSTYLE
  2
AM_ISO$SF
 70
     0
  3

  4
"
  5
OPEN30
  6

  7

 40
1.0
 41
2.5
 42
1.0
 43
10.0
 44
1.0
 45
0.0
 46
0.0
 47
0.1
 48
0.1
140
3.5
141
0.0
142
0.0
143
0.0393701
144
1.0
145
0.0
146
0.71
147
1.5
 71
     0
 72
     0
 73
     0
 74
     0
 75
     1
 76
     1
 77
     1
 78
     8
170
     0
171
     2
172
     1
173
     0
174
     0
175
     0
176
   256
177
   256
178
     2
  0
DIMSTYLE
  2
AM_ISO$SH
 70
     0
  3

  4
"
  5

  6
GENAXEH
  7
OPEN30
 40
1.0
 41
2.5
 42
1.0
 43
10.0
 44
1.0
 45
0.0
 46
0.0
 47
0.1
 48
0.1
140
3.5
141
0.0
142
0.0
143
0.0393701
144
2.0
145
0.0
146
0.71
147
1.5
 71
     0
 72
     0
 73
     0
 74
     0
 75
     1
 76
     1
 77
     1
 78
     8
170
     0
171
     2
172
     1
173
     1
174
     0
175
     0
176
   256
177
   256
178
     2
  0
DIMSTYLE
  2
AM_ANSI
 70
     0
  3

  4
mm
  5

  6

  7

 40
1.0
 41
0.1
 42
0.05
 43
0.5
 44
0.1
 45
0.0
 46
0.0
 47
0.1
 48
0.1
140
0.12
141
0.0
142
0.0
143
25.399999999999999
144
1.0
145
0.0
146
0.71
147
0.06
 71
     0
 72
     0
 73
     1
 74
     1
 75
     0
 76
     0
 77
     0
 78
     7
170
     0
171
     2
172
     0
173
     0
174
     0
175
     0
176
   256
177
   256
178
     2
  0
ENDTAB
  0
ENDSEC
  0
SECTION
  2
BLOCKS
  0
BLOCK
  8
0
  2
$MODEL_SPACE
 70
     0
 10
0.0
 20
0.0
 30
0.0
  3
$MODEL_SPACE
  1

  0
ENDBLK
  5
21
  8
0
  0
BLOCK
 67
     1
  8
0
  2
$PAPER_SPACE
 70
     0
 10
0.0
 20
0.0
 30
0.0
  3
$PAPER_SPACE
  1

  0
ENDBLK
  5
25
 67
     1
  8
0
  0
BLOCK
  8
0
  2
GENAXEH
 70
     0
 10
0.0
 20
0.0
 30
0.0
  3
GENAXEH
  1

  0
LINE
  5
88
  8
0
 10
-1.0
 20
0.0
 30
0.0
 11
1.0
 21
0.0
 31
0.0
  0
ENDBLK
  5
8A
  8
0
  0
BLOCK
  8
0
  2
_OPEN30
 70
     0
 10
0.0
 20
0.0
 30
0.0
  3
_OPEN30
  1

  0
LINE
  5
408
  8
0
  6
BYBLOCK
 62
     0
 10
-1.0
 20
0.26794919
 30
0.0
 11
0.0
 21
0.0
 31
0.0
  0
LINE
  5
409
  8
0
  6
BYBLOCK
 62
     0
 10
0.0
 20
0.0
 30
0.0
 11
-1.0
 21
-0.26794919
 31
0.0
  0
LINE
  5
40A
  8
0
  6
BYBLOCK
 62
     0
 10
0.0
 20
0.0
 30
0.0
 11
-1.0
 21
0.0
 31
0.0
  0
ENDBLK
  5
40C
  8
0
  0
BLOCK
  8
0
  2
TAKACHI-A4
 70
     0
 10
0.0
 20
0.0
 30
0.0
  3
TAKACHI-A4
  1

  0
TEXT
  5
5A4
  8
0
 10
10.0
 20
54.999999999999943
 30
0.0
 40
2.5
  1
!GENTITLE-LL
  0
TEXT
  5
5A5
  8
0
 10
215.0
 20
15.0
 30
0.0
 40
2.5
  1
!GENTITLE-INSERT
  0
TEXT
  5
5A6
  8
0
 10
215.0
 20
285.00000000000011
 30
0.0
 40
2.5
  1
!GENTITLE-RU
  0
TEXT
  5
5A7
  8
0
 10
215.00000000000011
 20
290.0
 30
0.0
 40
2.5
  1
!GENTITLE-MAX
  0
LINE
  5
5A8
  8
0
 10
215.0
 20
290.00000000000011
 30
0.0
 11
20.000000000000028
 21
290.0
 31
0.0
1001
GENIUS_GENREC_14
1002
{
1000
PYDIR
1011
15.00000000000003
1021
0.0
1031
-0.0
1021
295.0
1031
0.0
1002
}
1002
{
1000
PXDIR
1011
215.0
1021
0.0
1031
-0.0
1021
15.0
1031
0.0
1002
}
1002
{
1000
PORI
1011
15.0
1021
0.0
1031
-0.0
1021
15.0
1031
0.0
1002
}
1002
{
1000
PINS
1011
115.0
1021
0.0
1031
-0.0
1021
155.0
1031
0.0
1002
}
1002
{
1000
HVAL
1000
280
1002
}
1002
{
1000
H
1070
     2
1002
}
1002
{
1000
WVAL
1000
200
1002
}
1002
{
1000
W
1070
     2
1002
}
1002
{
1000
C
1070
     4
1002
}
  0
LINE
  5
5A9
  8
0
 10
20.000000000000028
 20
290.0
 30
0.0
 11
19.999999999999972
 21
15.0
 31
0.0
1001
GENIUS_GENREC_14
1002
{
1000
PYDIR
1011
15.00000000000003
1021
0.0
1031
-0.0
1021
295.0
1031
0.0
1002
}
1002
{
1000
PXDIR
1011
215.0
1021
0.0
1031
-0.0
1021
15.0
1031
0.0
1002
}
1002
{
1000
PORI
1011
15.0
1021
0.0
1031
-0.0
1021
15.0
1031
0.0
1002
}
1002
{
1000
PINS
1011
115.0
1021
0.0
1031
-0.0
1021
155.0
1031
0.0
1002
}
1002
{
1000
HVAL
1000
280
1002
}
1002
{
1000
H
1070
     2
1002
}
1002
{
1000
WVAL
1000
200
1002
}
1002
{
1000
W
1070
     2
1002
}
1002
{
1000
C
1070
     4
1002
}
  0
LINE
  5
5AA
  8
0
 10
19.999999999999972
 20
15.0
 30
0.0
 11
215.0
 21
15.0
 31
0.0
1001
GENIUS_GENREC_14
1002
{
1000
PYDIR
1011
15.00000000000003
1021
0.0
1031
-0.0
1021
295.0
1031
0.0
1002
}
1002
{
1000
PXDIR
1011
215.0
1021
0.0
1031
-0.0
1021
15.0
1031
0.0
1002
}
1002
{
1000
PORI
1011
15.0
1021
0.0
1031
-0.0
1021
15.0
1031
0.0
1002
}
1002
{
1000
PINS
1011
115.0
1021
0.0
1031
-0.0
1021
155.0
1031
0.0
1002
}
1002
{
1000
HVAL
1000
280
1002
}
1002
{
1000
H
1070
     2
1002
}
1002
{
1000
WVAL
1000
200
1002
}
1002
{
1000
W
1070
     2
1002
}
1002
{
1000
C
1070
     4
1002
}
  0
LINE
  5
5AB
  8
0
 10
215.0
 20
15.0
 30
0.0
 11
215.00000000000011
 21
290.00000000000011
 31
0.0
1001
GENIUS_GENREC_14
1002
{
1000
PYDIR
1011
15.00000000000003
1021
0.0
1031
-0.0
1021
295.0
1031
0.0
1002
}
1002
{
1000
PXDIR
1011
215.0
1021
0.0
1031
-0.0
1021
15.0
1031
0.0
1002
}
1002
{
1000
PORI
1011
15.0
1021
0.0
1031
-0.0
1021
15.0
1031
0.0
1002
}
1002
{
1000
PINS
1011
115.0
1021
0.0
1031
-0.0
1021
155.0
1031
0.0
1002
}
1002
{
1000
HVAL
1000
280
1002
}
1002
{
1000
H
1070
     2
1002
}
1002
{
1000
WVAL
1000
200
1002
}
1002
{
1000
W
1070
     2
1002
}
1002
{
1000
C
1070
     4
1002
}
  0
LINE
  5
5AC
  8
0
 10
171.00000000000011
 20
285.00000000000011
 30
0.0
 11
215.00000000000011
 21
285.00000000000011
 31
0.0
  0
LINE
  5
5AD
  8
0
 10
171.00000000000011
 20
290.00000000000011
 30
0.0
 11
171.00000000000011
 21
285.00000000000011
 31
0.0
  0
INSERT
  5
5AE
  8
ﾊ_ﾈﾙ
  2
*U19
 10
0.0
 20
0.0
 30
0.0
  0
ENDBLK
  5
5AF
  8
0
  0
BLOCK
  8
0
  2
TAKACHI-TITLE
 70
     2
 10
0.0
 20
0.0
 30
0.0
  3
TAKACHI-TITLE
  1

  0
LINE
  5
5B3
  8
RAHM2
 10
-195.0
 20
30.000000000000028
 30
0.0
 11
-94.0
 21
30.000000000000028
 31
0.0
  0
LINE
  5
5B4
  8
RAHM2
 10
-195.0
 20
35.000000000000028
 30
0.0
 11
-94.0
 21
35.000000000000028
 31
0.0
  0
LINE
  5
5B5
  8
RAHM2
 10
-195.0
 20
40.000000000000021
 30
0.0
 11
-94.0
 21
40.000000000000021
 31
0.0
  0
LINE
  5
5B6
  8
RAHM2
 10
-195.0
 20
45.000000000000021
 30
0.0
 11
-94.0
 21
45.000000000000021
 31
0.0
  0
LINE
  5
5B7
  8
0
 10
-195.0
 20
7.0
 30
0.0
 11
-94.0
 21
7.0
 31
0.0
  0
LINE
  5
5B8
  8
0
 10
-195.0
 20
19.999999999999972
 30
0.0
 11
-94.0
 21
19.999999999999972
 31
0.0
  0
ATTDEF
  5
5B9
  8
0
 10
-183.24385271456069
 20
8.9508505244280823
 30
0.0
 40
2.5
  1

 11
-183.24385271456069
 21
8.6175171910947483
 31
0.0
  3
サブタイトル
  2
GEN-TITLE-DES2
 70
     0
 74
     1
  0
ATTDEF
  5
5BA
  8
0
 10
-183.24385271456069
 20
2.0175171910947478
 30
0.0
 40
3.0
  1

 11
-183.24385271456069
 21
1.6175171910947479
 31
0.0
  3
図番
  2
GEN-TITLE-NR
 70
     0
 74
     1
  0
INSERT
  5
5BB
  8
ﾊ_ﾈﾙ
  2
*U20
 10
0.0
 20
0.0
 30
0.0
  0
ATTDEF
  5
5BC
  8
0
 10
-183.24385271456069
 20
14.40728619501834
 30
0.0
 40
4.0
  1

 11
-183.24385271456069
 21
13.873952861685011
 31
0.0
  3
品名
  2
GEN-TITLE-DES1
 70
     0
 74
     1
  0
LINE
  5
5BD
  8
RAHM2
 10
-187.57512886940361
 20
30.400000000000041
 30
0.0
 11
-190.0
 21
34.60000000000003
 31
0.0
  0
LINE
  5
5BE
  8
RAHM2
 10
-190.0
 20
34.60000000000003
 30
0.0
 11
-192.42487113059639
 21
30.400000000000041
 31
0.0
  0
LINE
  5
5BF
  8
RAHM2
 10
-185.0
 20
50.000000000000028
 30
0.0
 11
-185.0
 21
19.99999999999994
 31
0.0
  0
LINE
  5
5C0
  8
RAHM2
 10
-192.42487113059639
 20
30.400000000000041
 30
0.0
 11
-187.57512886940361
 21
30.400000000000041
 31
0.0
  0
INSERT
  5
5C1
  8
ﾊ_ﾈﾙ
  2
*U21
 10
0.0
 20
0.0
 30
0.0
  0
INSERT
  5
5C2
  8
ﾊ_ﾈﾙ
  2
*U22
 10
0.0
 20
0.0
 30
0.0
  0
LINE
  5
5C3
  8
RAHM2
 10
-192.42487113059639
 20
45.400000000000027
 30
0.0
 11
-187.57512886940361
 21
45.400000000000027
 31
0.0
  0
LINE
  5
5C4
  8
RAHM2
 10
-187.57512886940361
 20
45.400000000000027
 30
0.0
 11
-190.0
 21
49.600000000000023
 31
0.0
  0
LINE
  5
5C5
  8
RAHM2
 10
-192.42487113059639
 20
40.400000000000027
 30
0.0
 11
-187.57512886940361
 21
40.400000000000027
 31
0.0
  0
LINE
  5
5C6
  8
RAHM2
 10
-187.57512886940361
 20
40.400000000000027
 30
0.0
 11
-190.0
 21
44.600000000000023
 31
0.0
  0
LINE
  5
5C7
  8
RAHM2
 10
-192.42487113059639
 20
35.400000000000041
 30
0.0
 11
-187.57512886940361
 21
35.400000000000041
 31
0.0
  0
LINE
  5
5C8
  8
RAHM2
 10
-187.57512886940361
 20
35.400000000000041
 30
0.0
 11
-190.0
 21
39.600000000000023
 31
0.0
  0
LINE
  5
5C9
  8
RAHM2
 10
-190.0
 20
39.600000000000023
 30
0.0
 11
-192.42487113059639
 21
35.400000000000041
 31
0.0
  0
LINE
  5
5CA
  8
RAHM2
 10
-190.0
 20
44.600000000000023
 30
0.0
 11
-192.42487113059639
 21
40.400000000000027
 31
0.0
  0
LINE
  5
5CB
  8
RAHM2
 10
-190.0
 20
49.600000000000023
 30
0.0
 11
-192.42487113059639
 21
45.400000000000027
 31
0.0
  0
LINE
  5
5CC
  8
RAHM2
 10
-129.0
 20
50.000000000000028
 30
0.0
 11
-129.0
 21
19.99999999999994
 31
0.0
  0
INSERT
  5
5CD
  8
ﾊ_ﾈﾙ
  2
*U23
 10
0.0
 20
0.0
 30
0.0
  0
LINE
  5
5CE
  8
0
 10
-34.0
 20
50.0
 30
0.0
 11
-34.0
 21
0.0
 31
0.0
  0
LINE
  5
5CF
  8
0
 10
-94.0
 20
50.0
 30
0.0
 11
-94.0
 21
0.0
 31
0.0
  0
INSERT
  5
5D0
  8
ﾊ_ﾈﾙ
  2
*U24
 10
0.0
 20
0.0
 30
0.0
  0
LINE
  5
5D1
  8
0
 10
-94.0
 20
10.0
 30
0.0
 11
-34.0
 21
10.0
 31
0.0
  0
ATTDEF
  5
5D2
  8
0
 10
-58.014051197997453
 20
39.255005561783491
 30
0.0
 40
3.0
  1

 72
     2
 11
-58.014051197997453
 21
39.255005561783491
 31
0.0
  3
尺度
  2
GEN-TITLE-SCA
 70
     0
  0
ATTDEF
  5
5D3
  8
0
 10
-77.002849666490064
 20
31.02180787943475
 30
0.0
 40
3.0
  1

 11
-77.002849666490064
 21
30.621807879434751
 31
0.0
  3
材質
  2
GEN-TITLE-MAT1
 70
     0
 74
     1
  0
ATTDEF
  5
5D4
  8
0
 10
-77.002849666490064
 20
21.02180787943475
 30
0.0
 40
3.0
  1

 11
-77.002849666490064
 21
20.621807879434751
 31
0.0
  3
表面処理
  2
GEN-TITLE-MAT2
 70
     0
 74
     1
  0
ATTDEF
  5
5D5
  8
0
 10
-77.002849666490064
 20
12.01751719109475
 30
0.0
 40
3.0
  1

 11
-77.002849666490064
 21
11.61751719109475
 31
0.0
  3
日付
  2
GEN-TITLE-DAT
 70
     0
 74
     1
  0
LINE
  5
5D6
  8
0
 10
-94.0
 20
37.5
 30
0.0
 11
-34.0
 21
37.5
 31
0.0
  0
LINE
  5
5D7
  8
0
 10
-94.0
 20
27.5
 30
0.0
 11
-34.0
 21
27.5
 31
0.0
  0
LINE
  5
5D8
  8
0
 10
-94.0
 20
17.5
 30
0.0
 11
-34.0
 21
17.5
 31
0.0
  0
LINE
  5
5D9
  8
RAHM2
 10
-109.0
 20
50.000000000000028
 30
0.0
 11
-109.0
 21
19.99999999999994
 31
0.0
  0
INSERT
  5
5DA
  8
ﾊ_ﾈﾙ
  2
*U25
 10
0.0
 20
0.0
 30
0.0
  0
INSERT
  5
5DB
  8
ﾊ_ﾈﾙ
  2
*U26
 10
0.0
 20
0.0
 30
0.0
  0
INSERT
  5
5DC
  8
ﾊ_ﾈﾙ
  2
*U27
 10
0.0
 20
0.0
 30
0.0
  0
INSERT
  5
5DD
  8
ﾊ_ﾈﾙ
  2
*U28
 10
0.0
 20
0.0
 30
0.0
  0
INSERT
  5
5DE
  8
ﾊ_ﾈﾙ
  2
*U29
 10
0.0
 20
0.0
 30
0.0
  0
INSERT
  5
5DF
  8
ﾊ_ﾈﾙ
  2
*U30
 10
0.0
 20
0.0
 30
0.0
  0
INSERT
  5
5E0
  8
ﾊ_ﾈﾙ
  2
*U31
 10
0.0
 20
0.0
 30
0.0
  0
INSERT
  5
5E1
  8
ﾊ_ﾈﾙ
  2
*U32
 10
0.0
 20
0.0
 30
0.0
  0
LINE
  5
5E2
  8
7A
 10
-89.0
 20
43.75
 30
0.0
 11
-75.218691599714703
 21
43.75
 31
0.0
1001
GENIUS_GENOREF_13
1005
5F5
  0
LINE
  5
5E3
  8
0
 10
-84.0
 20
45.75
 30
0.0
 11
-76.0
 21
46.749999999999993
 31
0.0
  0
LINE
  5
5E4
  8
0
 10
-76.0
 20
40.75
 30
0.0
 11
-84.0
 21
41.749999999999993
 31
0.0
  0
LINE
  5
5E5
  8
7A
 10
-89.0
 20
43.75
 30
0.0
 11
-89.0
 21
47.324786644731482
 31
0.0
1001
GENIUS_GENOREF_13
1005
5F5
  0
CIRCLE
  5
5E6
  8
0
 10
-89.0
 20
43.75
 30
0.0
 40
2.0
  0
CIRCLE
  5
5E7
  8
0
 10
-89.0
 20
43.75
 30
0.0
 40
3.0
  0
LINE
  5
5E8
  8
0
 10
-84.0
 20
41.749999999999993
 30
0.0
 11
-84.0
 21
45.75
 31
0.0
  0
INSERT
  5
5E9
  8
ﾊ_ﾈﾙ
  2
*U33
 10
0.0
 20
0.0
 30
0.0
  0
LINE
  5
5EA
  8
7A
 10
-89.0
 20
43.75
 30
0.0
 11
-92.723037371251166
 21
43.75
 31
0.0
1001
GENIUS_GENOREF_13
1005
5F5
  0
LINE
  5
5EB
  8
7A
 10
-89.0
 20
43.75
 30
0.0
 11
-89.0
 21
40.039917242284787
 31
0.0
1001
GENIUS_GENOREF_13
1005
5F5
  0
LINE
  5
5EC
  8
0
 10
-76.0
 20
46.749999999999993
 30
0.0
 11
-76.0
 21
40.75
 31
0.0
  0
LINE
  5
5ED
  8
0
 10
-74.0
 20
50.0
 30
0.0
 11
-74.0
 21
37.5
 31
0.0
  0
INSERT
  5
5EE
  8
ﾊ_ﾈﾙ
  2
*U34
 10
0.0
 20
0.0
 30
0.0
  0
ATTDEF
  5
5EF
  8
0
 10
-37.76317379391503
 20
39.255005561783491
 30
0.0
 40
3.0
  1

 72
     2
 11
-37.76317379391503
 21
39.255005561783491
 31
0.0
  3
数量
  2
GEN-TITLE-QTY
 70
     0
  0
LINE
  5
5F0
  8
0
 10
-34.0
 20
25.0
 30
0.0
 11
0.0
 21
25.0
 31
0.0
  0
LINE
  5
5F1
  8
0
 10
-54.0
 20
50.0
 30
0.0
 11
-54.0
 21
37.5
 31
0.0
  0
INSERT
  5
5F2
  8
ﾊ_ﾈﾙ
  2
*U35
 10
0.0
 20
0.0
 30
0.0
  0
INSERT
  5
5F3
  8
ﾊ_ﾈﾙ
  2
*U36
 10
0.0
 20
0.0
 30
0.0
  0
INSERT
  5
5F4
  8
ﾊ_ﾈﾙ
  2
*U37
 10
0.0
 20
0.0
 30
0.0
  0
POINT
  5
5F5
  8
0
 10
-320.5355579819676
 20
-138.11048412682541
 30
0.0
1001
GENIUS_GENODEF_13
1002
{
1000
HIER
1070
    10
1002
}
1002
{
1000
MANEDIT
1070
     0
1002
}
1002
{
1000
NOSEL
1070
     0
1002
}
1002
{
1000
BEHIND
1070
     0
1002
}
1002
{
1000
REACTOR
1002
}
1001
GENIUS_GENOBJ-N-CRS_13
1002
{
1000
OWNER
1000
GEN
1002
}
1001
GENIUS_GENOENT_13
1002
{
1000
MYREF
1005
5F5
1002
}
1002
{
1000
GRP
1005
0
1002
}
1001
GENIUS_GENOLIS_13
1002
{
1000
ENT
1005
5EB
1005
5EA
1005
5E5
1005
5E2
1002
}
  0
LINE
  5
5F6
  8
RAHM2
 10
-190.0
 20
29.600000000000019
 30
0.0
 11
-192.42487113059639
 21
25.400000000000041
 31
0.0
  0
LINE
  5
5F7
  8
RAHM2
 10
-187.57512886940361
 20
25.400000000000041
 30
0.0
 11
-190.0
 21
29.600000000000019
 31
0.0
  0
LINE
  5
5F8
  8
RAHM2
 10
-192.42487113059639
 20
25.400000000000041
 30
0.0
 11
-187.57512886940361
 21
25.400000000000041
 31
0.0
  0
LINE
  5
5F9
  8
RAHM2
 10
-195.0
 20
25.000000000000028
 30
0.0
 11
-94.0
 21
25.000000000000028
 31
0.0
  0
INSERT
  5
5FA
  8
ﾊ_ﾈﾙ
  2
*U38
 10
0.0
 20
0.0
 30
0.0
  0
TEXT
  5
5FB
  8
RAHM2
 10
-190.8155863565801
 20
25.98333333333337
 30
0.0
 40
2.5
  1
1
 72
     1
 11
-190.19058635658021
 21
25.650000000000031
 31
0.0
 73
     1
  0
TEXT
  5
5FC
  8
RAHM2
 10
-190.9183316929134
 20
30.98333333333337
 30
0.0
 40
2.5
  1
2
 72
     1
 11
-190.0
 21
30.650000000000031
 31
0.0
 73
     1
  0
TEXT
  5
5FD
  8
RAHM2
 10
-190.92677669529661
 20
35.983333333333341
 30
0.0
 40
2.5
  1
3
 72
     1
 11
-190.0
 21
35.650000000000013
 31
0.0
 73
     1
  0
TEXT
  5
5FE
  8
RAHM2
 10
-191.0
 20
40.98333333333337
 30
0.0
 40
2.5
  1
4
 72
     1
 11
-190.0
 21
40.650000000000027
 31
0.0
 73
     1
  0
TEXT
  5
5FF
  8
RAHM2
 10
-190.92677669529661
 20
45.98333333333337
 30
0.0
 40
2.5
  1
5
 72
     1
 11
-190.0
 21
45.650000000000027
 31
0.0
 73
     1
  0
LINE
  5
600
  8
0
 10
-17.0
 20
50.0
 30
0.0
 11
-17.0
 21
0.0
 31
0.0
  0
LINE
  5
601
  8
0
 10
-195.0
 20
0.0
 30
0.0
 11
0.0
 21
0.0
 31
0.0
1001
GENIUS_GENREC_14
1002
{
1000
PYDIR
1011
-184.0
1021
0.0
1031
-0.0
1021
50.0
1031
0.0
1002
}
1002
{
1000
PXDIR
1011
0.0
1021
0.0
1031
-0.0
1021
0.0
1031
0.0
1002
}
1002
{
1000
PORI
1011
-184.0
1021
0.0
1031
-0.0
1021
0.0
1031
0.0
1002
}
1002
{
1000
PINS
1011
-100.5
1021
0.0
1031
-0.0
1021
25.0
1031
0.0
1002
}
1002
{
1000
HVAL
1000
50
1002
}
1002
{
1000
H
1070
     2
1002
}
1002
{
1000
WVAL
1000
167
1002
}
1002
{
1000
W
1070
     2
1002
}
1002
{
1000
C
1070
     4
1002
}
1001
GENIUS_GENODEF_13
1002
{
1000
HIER
1070
     0
1002
}
1002
{
1000
MANEDIT
1070
     0
1002
}
1002
{
1000
NOSEL
1070
     0
1002
}
1002
{
1000
BEHIND
1070
     0
1002
}
1002
{
1000
REACTOR
1002
}
1001
GENIUS_GENOBJ-N-REC_13
1002
{
1000
OWNER
1000
GEN
1002
}
  0
LINE
  5
602
  8
0
 10
0.0
 20
0.0
 30
0.0
 11
0.0
 21
50.0
 31
0.0
1001
GENIUS_GENREC_14
1002
{
1000
PYDIR
1011
-184.0
1021
0.0
1031
-0.0
1021
50.0
1031
0.0
1002
}
1002
{
1000
PXDIR
1011
0.0
1021
0.0
1031
-0.0
1021
0.0
1031
0.0
1002
}
1002
{
1000
PORI
1011
-184.0
1021
0.0
1031
-0.0
1021
0.0
1031
0.0
1002
}
1002
{
1000
PINS
1011
-100.5
1021
0.0
1031
-0.0
1021
25.0
1031
0.0
1002
}
1002
{
1000
HVAL
1000
50
1002
}
1002
{
1000
H
1070
     2
1002
}
1002
{
1000
WVAL
1000
167
1002
}
1002
{
1000
W
1070
     2
1002
}
1002
{
1000
C
1070
     4
1002
}
1001
GENIUS_GENODEF_13
1002
{
1000
HIER
1070
     0
1002
}
1002
{
1000
MANEDIT
1070
     0
1002
}
1002
{
1000
NOSEL
1070
     0
1002
}
1002
{
1000
BEHIND
1070
     0
1002
}
1002
{
1000
REACTOR
1002
}
1001
GENIUS_GENOBJ-N-REC_13
1002
{
1000
OWNER
1000
GEN
1002
}
  0
LINE
  5
603
  8
0
 10
0.0
 20
50.0
 30
0.0
 11
-195.0
 21
50.000000000000028
 31
0.0
1001
GENIUS_GENREC_14
1002
{
1000
PYDIR
1011
-184.0
1021
0.0
1031
-0.0
1021
50.0
1031
0.0
1002
}
1002
{
1000
PXDIR
1011
0.0
1021
0.0
1031
-0.0
1021
0.0
1031
0.0
1002
}
1002
{
1000
PORI
1011
-184.0
1021
0.0
1031
-0.0
1021
0.0
1031
0.0
1002
}
1002
{
1000
PINS
1011
-100.5
1021
0.0
1031
-0.0
1021
25.0
1031
0.0
1002
}
1002
{
1000
HVAL
1000
50
1002
}
1002
{
1000
H
1070
     2
1002
}
1002
{
1000
WVAL
1000
167
1002
}
1002
{
1000
W
1070
     2
1002
}
1002
{
1000
C
1070
     4
1002
}
1001
GENIUS_GENODEF_13
1002
{
1000
HIER
1070
     0
1002
}
1002
{
1000
MANEDIT
1070
     0
1002
}
1002
{
1000
NOSEL
1070
     0
1002
}
1002
{
1000
BEHIND
1070
     0
1002
}
1002
{
1000
REACTOR
1002
}
1001
GENIUS_GENOBJ-N-REC_13
1002
{
1000
OWNER
1000
GEN
1002
}
  0
LINE
  5
604
  8
0
 10
-195.0
 20
50.000000000000028
 30
0.0
 11
-195.0
 21
0.0
 31
0.0
1001
GENIUS_GENREC_14
1002
{
1000
PYDIR
1011
-195.0
1021
0.0
1031
-0.0
1021
50.0
1031
0.0
1002
}
1002
{
1000
PXDIR
1011
-11.0
1021
0.0
1031
-0.0
1021
0.0
1031
0.0
1002
}
1002
{
1000
PORI
1011
-195.0
1021
0.0
1031
-0.0
1021
0.0
1031
0.0
1002
}
1002
{
1000
PINS
1011
-111.5
1021
0.0
1031
-0.0
1021
25.0
1031
0.0
1002
}
1002
{
1000
HVAL
1000
50
1002
}
1002
{
1000
H
1070
     2
1002
}
1002
{
1000
WVAL
1000
167
1002
}
1002
{
1000
W
1070
     2
1002
}
1002
{
1000
C
1070
     4
1002
}
1001
GENIUS_GENODEF_13
1002
{
1000
HIER
1070
     0
1002
}
1002
{
1000
MANEDIT
1070
     0
1002
}
1002
{
1000
NOSEL
1070
     0
1002
}
1002
{
1000
BEHIND
1070
     0
1002
}
1002
{
1000
REACTOR
1002
}
1001
GENIUS_GENOBJ-N-REC_13
1002
{
1000
OWNER
1000
GEN
1002
}
  0
INSERT
  5
605
  8
ﾊ_ﾈﾙ
  2
*U39
 10
0.0
 20
0.0
 30
0.0
  0
INSERT
  5
606
  8
ﾊ_ﾈﾙ
  2
*U40
 10
0.0
 20
0.0
 30
0.0
  0
ENDBLK
  5
607
  8
0
  0
BLOCK
  8
0
  2
*D6
 70
     1
 10
0.0
 20
0.0
 30
0.0
  3
*D6
  1

  0
LINE
  5
13AF
  8
AM_5
 10
91.692844546416026
 20
323.73170776321388
 30
0.0
 11
91.692844546416026
 21
341.73170876321387
 31
0.0
  0
LINE
  5
13B0
  8
AM_5
 10
151.49284454641611
 20
323.73170776321388
 30
0.0
 11
151.49284454641611
 21
341.73170876321387
 31
0.0
  0
LINE
  5
13B1
  8
AM_5
 10
95.442844546416026
 20
340.23170876321387
 30
0.0
 11
147.74284454641611
 21
340.23170876321387
 31
0.0
  0
INSERT
  5
13B2
  8
AM_5
  2
_OPEN30
 10
91.692844546416026
 20
340.23170876321387
 30
0.0
 41
3.75
 42
3.75
 43
3.75
 50
180.0
  0
INSERT
  5
13B3
  8
AM_5
  2
_OPEN30
 10
151.49284454641611
 20
340.23170876321387
 30
0.0
 41
3.75
 42
3.75
 43
3.75
  0
INSERT
  5
13B4
  8
ﾊ_ﾈﾙ
  2
*U65
 10
0.0
 20
0.0
 30
0.0
  0
POINT
  5
13B5
  8
DEFPOINTS
 62
     0
 10
91.692844546416026
 20
322.23170776321388
 30
0.0
  0
POINT
  5
13B6
  8
DEFPOINTS
 62
     0
 10
151.49284454641611
 20
322.23170776321388
 30
0.0
  0
POINT
  5
13B7
  8
DEFPOINTS
 62
     0
 10
151.49284454641611
 20
340.23170876321387
 30
0.0
  0
ENDBLK
  5
704
  8
0
  0
BLOCK
  8
0
  2
*D7
 70
     1
 10
0.0
 20
0.0
 30
0.0
  3
*D7
  1

  0
LINE
  5
13B8
  8
AM_5
 10
90.192844546416055
 20
322.23170776321388
 30
0.0
 11
75.019942171285976
 21
322.23170776321388
 31
0.0
  0
LINE
  5
13B9
  8
AM_5
 10
90.192844546416055
 20
103.2317077632139
 30
0.0
 11
75.019942171285933
 21
103.2317077632139
 31
0.0
  0
LINE
  5
13BA
  8
AM_5
 10
76.519942171285976
 20
318.48170776321388
 30
0.0
 11
76.519942171285933
 21
106.98170776321381
 31
0.0
  0
INSERT
  5
13BB
  8
AM_5
  2
_OPEN30
 10
76.519942171285976
 20
322.23170776321388
 30
0.0
 41
3.75
 42
3.75
 43
3.75
 50
90.0
  0
INSERT
  5
13BC
  8
AM_5
  2
_OPEN30
 10
76.519942171285933
 20
103.2317077632139
 30
0.0
 41
3.75
 42
3.75
 43
3.75
 50
270.0
  0
INSERT
  5
13BD
  8
ﾊ_ﾈﾙ
  2
*U66
 10
0.0
 20
0.0
 30
0.0
  0
POINT
  5
13BE
  8
DEFPOINTS
 62
     0
 10
91.692844546416026
 20
322.23170776321388
 30
0.0
  0
POINT
  5
13BF
  8
DEFPOINTS
 62
     0
 10
91.692844546416026
 20
103.2317077632139
 30
0.0
  0
POINT
  5
13C0
  8
DEFPOINTS
 62
     0
 10
76.519942171285933
 20
103.2317077632139
 30
0.0
  0
ENDBLK
  5
710
  8
0
  0
BLOCK
  8
0
  2
*D8
 70
     1
 10
0.0
 20
0.0
 30
0.0
  3
*D8
  1

  0
LINE
  5
139E
  8
AM_5
 10
140.54204646145419
 20
320.30973652933602
 30
0.0
 11
160.62566540459559
 21
339.77713087790721
 31
0.0
  0
LINE
  5
139F
  8
AM_5
 10
160.62566540459559
 20
339.77713087790721
 30
0.0
 11
183.04312752484151
 21
339.77713087790721
 31
0.0
  0
INSERT
  5
13A0
  8
AM_5
  2
_OPEN30
 10
137.84940879211001
 20
317.69971691607088
 30
0.0
 41
3.75
 42
3.75
 43
3.75
 50
224.1073752851085
  0
INSERT
  5
13A1
  8
ﾊ_ﾈﾙ
  2
*U63
 10
0.0
 20
0.0
 30
0.0
  0
POINT
  5
13A2
  8
DEFPOINTS
 62
     0
 10
137.84940879211001
 20
317.69971691607088
 30
0.0
  0
POINT
  5
13A3
  8
DEFPOINTS
 62
     0
 10
135.3362803007216
 20
315.26369861035641
 30
0.0
  0
ENDBLK
  5
734
  8
0
  0
BLOCK
  8
0
  2
*D9
 70
     1
 10
0.0
 20
0.0
 30
0.0
  3
*D9
  1

  0
LINE
  5
13A4
  8
AM_5
 10
202.05130251042081
 20
323.73170776321388
 30
0.0
 11
202.05130251042081
 21
341.73170776321399
 31
0.0
  0
LINE
  5
13A5
  8
AM_5
 10
214.05130251042081
 20
308.73170776321388
 30
0.0
 11
214.05130251042081
 21
341.73170776321399
 31
0.0
  0
LINE
  5
13A6
  8
AM_5
 10
198.30130251042081
 20
340.23170776321399
 30
0.0
 11
194.55130251042081
 21
340.23170776321399
 31
0.0
  0
LINE
  5
13A7
  8
AM_5
 10
217.80130251042081
 20
340.23170776321399
 30
0.0
 11
221.55130251042081
 21
340.23170776321399
 31
0.0
  0
LINE
  5
13A8
  8
AM_5
 10
202.05130251042081
 20
340.23170776321399
 30
0.0
 11
214.05130251042081
 21
340.23170776321399
 31
0.0
  0
INSERT
  5
13A9
  8
AM_5
  2
_OPEN30
 10
202.05130251042081
 20
340.23170776321399
 30
0.0
 41
3.75
 42
3.75
 43
3.75
  0
INSERT
  5
13AA
  8
AM_5
  2
_OPEN30
 10
214.05130251042081
 20
340.23170776321399
 30
0.0
 41
3.75
 42
3.75
 43
3.75
 50
180.0
  0
INSERT
  5
13AB
  8
ﾊ_ﾈﾙ
  2
*U64
 10
0.0
 20
0.0
 30
0.0
  0
POINT
  5
13AC
  8
DEFPOINTS
 62
     0
 10
202.05130251042081
 20
322.23170776321388
 30
0.0
  0
POINT
  5
13AD
  8
DEFPOINTS
 62
     0
 10
214.05130251042081
 20
307.23170776321388
 30
0.0
  0
POINT
  5
13AE
  8
DEFPOINTS
 62
     0
 10
214.05130251042081
 20
340.23170776321399
 30
0.0
  0
ENDBLK
  5
742
  8
0
  0
BLOCK
  8
0
  2
TK-A4
 70
     0
 10
0.0
 20
0.0
 30
0.0
  3
TK-A4
  1

  0
TEXT
  5
1329
  8
0
 10
0.0
 20
0.0
 30
0.0
 40
2.5
  1
!GENTITLE-LL
  0
TEXT
  5
132A
  8
0
 10
193.0
 20
280.0
 30
0.0
 40
2.5
  1
!GENTITLE-MAX
  0
TEXT
  5
132B
  8
0
 10
193.0
 20
0.0
 30
0.0
 40
2.5
  1
!GENTITLE-INSERT
  0
LINE
  5
132D
  8
0
 10
149.0
 20
280.00000000000011
 30
0.0
 11
149.0
 21
275.0
 31
0.0
  0
TEXT
  8
0
  40
2.5
  5
1607
  72
0
  71
0
 10
192.359
 20
272.859
 30
0.000000
  1
(文書番号：TY-34)2008.02.08
  0
LINE
  5
132F
  8
0
 10
149.0
 20
275.0
 30
0.0
 11
193.0
 21
275.0
 31
0.0
  0
ENDBLK
  5
1332
  8
0
  0
BLOCK
  8
0
  2
TK-TITLE
 70
     2
 10
0.0
 20
0.0
 30
0.0
  3
TK-TITLE
  1

  0
ATTDEF
  5
1337
  8
0
 10
-8.0023091895458265
 20
1.705189434395036
 30
0.0
 40
2.5
  1

  3
Rev.
  2
GEN-TITLE-NR2
 70
     0
  0
ATTDEF
  5
1338
  8
0
 10
-84.142519015853296
 20
12.82790432564377
 30
0.0
 40
3.5
  1

  3
品名
  2
GEN-TITLE-DES1
 70
     0
  0
LINE
  5
1339
  8
0
 10
0.0
 20
0.0
 30
0.0
 11
0.0
 21
50.0
 31
0.0
1001
GENIUS_GENREC_14
1002
{
1000
PYDIR
1011
-414.0
1021
0.0
1031
-0.0
1021
291.0
1031
0.0
1002
}
1002
{
1000
PXDIR
1011
6.0
1021
0.0
1031
-0.0
1021
-6.0
1031
0.0
1002
}
1002
{
1000
PORI
1011
-414.0
1021
0.0
1031
-0.0
1021
-6.0
1031
0.0
1002
}
1002
{
1000
PINS
1011
-414.0
1021
0.0
1031
-0.0
1021
-6.0
1031
0.0
1002
}
1002
{
1000
HVAL
1000
297
1002
}
1002
{
1000
H
1070
     2
1002
}
1002
{
1000
WVAL
1000
420
1002
}
1002
{
1000
W
1070
     2
1002
}
1002
{
1000
C
1070
     1
1002
}
1001
GENIUS_GENODEF_13
1002
{
1000
HIER
1070
     0
1002
}
1002
{
1000
MANEDIT
1070
     0
1002
}
1002
{
1000
NOSEL
1070
     0
1002
}
1002
{
1000
BEHIND
1070
     0
1002
}
1002
{
1000
OTHER
1070
     0
1002
}
1002
{
1000
REACTOR
1002
}
1001
GENIUS_GENOBJ-N-REC_13
1002
{
1000
OWNER
1000
GEN
1002
}
  0
ATTDEF
  5
133A
  8
0
 10
-84.0
 20
9.1499999999999488
 30
0.0
 40
2.5
  1

  3
サブタイトル
  2
GEN-TITLE-DES2
 70
     0
  0
ATTDEF
  5
133B
  8
0
 10
-84.0
 20
1.9999999999999569
 30
0.0
 40
3.0
  1

  3
図番
  2
GEN-TITLE-NR1
 70
     0
  0
LINE
  5
133C
  8
0
 10
-96.0
 20
50.000000000000007
 30
0.0
 11
-96.0
 21
-0.0000000000000142
 31
0.0
1001
GENIUS_GENREC_14
1002
{
1000
PYDIR
1011
-96.0
1021
0.0
1031
-0.0
1021
49.999999999999993
1031
0.0
1002
}
1002
{
1000
PXDIR
1011
88.0
1021
0.0
1031
-0.0
1021
-0.0000000000000142
1031
0.0
1002
}
1002
{
1000
PORI
1011
-96.0
1021
0.0
1031
-0.0
1021
-0.0000000000000142
1031
0.0
1002
}
1002
{
1000
PINS
1011
-12.5
1021
0.0
1031
-0.0
1021
24.999999999999989
1031
0.0
1002
}
1002
{
1000
HVAL
1000
50
1002
}
1002
{
1000
H
1070
     2
1002
}
1002
{
1000
WVAL
1000
167
1002
}
1002
{
1000
W
1070
     2
1002
}
1002
{
1000
C
1070
     4
1002
}
1001
GENIUS_GENODEF_13
1002
{
1000
HIER
1070
     0
1002
}
1002
{
1000
MANEDIT
1070
     0
1002
}
1002
{
1000
NOSEL
1070
     0
1002
}
1002
{
1000
BEHIND
1070
     0
1002
}
1002
{
1000
REACTOR
1002
}
1001
GENIUS_GENOBJ-N-REC_13
1002
{
1000
OWNER
1000
GEN
1002
}
  0
LINE
  5
133D
  8
0
 10
0.0
 20
50.0
 30
0.0
 11
-193.00000000000011
 21
50.000000000000021
 31
0.0
1001
GENIUS_GENREC_14
1002
{
1000
PYDIR
1011
-184.0
1021
0.0
1031
-0.0
1021
50.0
1031
0.0
1002
}
1002
{
1000
PXDIR
1011
0.0
1021
0.0
1031
-0.0
1021
0.0
1031
0.0
1002
}
1002
{
1000
PORI
1011
-184.0
1021
0.0
1031
-0.0
1021
0.0
1031
0.0
1002
}
1002
{
1000
PINS
1011
-100.5
1021
0.0
1031
-0.0
1021
25.0
1031
0.0
1002
}
1002
{
1000
HVAL
1000
50
1002
}
1002
{
1000
H
1070
     2
1002
}
1002
{
1000
WVAL
1000
167
1002
}
1002
{
1000
W
1070
     2
1002
}
1002
{
1000
C
1070
     4
1002
}
1001
GENIUS_GENODEF_13
1002
{
1000
HIER
1070
     0
1002
}
1002
{
1000
MANEDIT
1070
     0
1002
}
1002
{
1000
NOSEL
1070
     0
1002
}
1002
{
1000
BEHIND
1070
     0
1002
}
1002
{
1000
REACTOR
1002
}
1001
GENIUS_GENOBJ-N-REC_13
1002
{
1000
OWNER
1000
GEN
1002
}
  0
LINE
  5
133E
  8
0
 10
-193.00000000000011
 20
0.0
 30
0.0
 11
0.0
 21
0.0
 31
0.0
1001
GENIUS_GENREC_14
1002
{
1000
PYDIR
1011
-184.0
1021
0.0
1031
-0.0
1021
50.0
1031
0.0
1002
}
1002
{
1000
PXDIR
1011
0.0
1021
0.0
1031
-0.0
1021
0.0
1031
0.0
1002
}
1002
{
1000
PORI
1011
-184.0
1021
0.0
1031
-0.0
1021
0.0
1031
0.0
1002
}
1002
{
1000
PINS
1011
-100.5
1021
0.0
1031
-0.0
1021
25.0
1031
0.0
1002
}
1002
{
1000
HVAL
1000
50
1002
}
1002
{
1000
H
1070
     2
1002
}
1002
{
1000
WVAL
1000
167
1002
}
1002
{
1000
W
1070
     2
1002
}
1002
{
1000
C
1070
     4
1002
}
1001
GENIUS_GENODEF_13
1002
{
1000
HIER
1070
     0
1002
}
1002
{
1000
MANEDIT
1070
     0
1002
}
1002
{
1000
NOSEL
1070
     0
1002
}
1002
{
1000
BEHIND
1070
     0
1002
}
1002
{
1000
REACTOR
1002
}
1001
GENIUS_GENOBJ-N-REC_13
1002
{
1000
OWNER
1000
GEN
1002
}
  0
TEXT
  5
133F
  8
RAHM2
 10
-91.926776695296624
 20
45.983333333333348
 30
0.0
 40
2.5
  1
5
 72
     1
 11
-91.0
 21
45.65000000000002
 31
0.0
 73
     1
  0
TEXT
  5
1340
  8
RAHM2
 10
-92.0
 20
40.983333333333348
 30
0.0
 40
2.5
  1
4
 72
     1
 11
-91.0
 21
40.65000000000002
 31
0.0
 73
     1
  0
TEXT
  5
1341
  8
RAHM2
 10
-91.926776695296624
 20
35.983333333333327
 30
0.0
 40
2.5
  1
3
 72
     1
 11
-91.0
 21
35.649999999999991
 31
0.0
 73
     1
  0
TEXT
  5
1342
  8
RAHM2
 10
-91.918331692913384
 20
30.983333333333348
 30
0.0
 40
2.5
  1
2
 72
     1
 11
-91.0
 21
30.65000000000002
 31
0.0
 73
     1
  0
TEXT
  5
1343
  8
RAHM2
 10
-91.815586356580184
 20
25.983333333333348
 30
0.0
 40
2.5
  1
1
 72
     1
 11
-91.190586356580184
 21
25.65000000000002
 31
0.0
 73
     1
  0
INSERT
  5
1344
  8
ﾊ_ﾈﾙ
  2
*U41
 10
0.0
 20
0.0
 30
0.0
  0
LINE
  5
1345
  8
RAHM2
 10
-96.0
 20
25.0
 30
0.0
 11
0.0000000000001137
 21
25.000000000000028
 31
0.0
  0
LINE
  5
1346
  8
RAHM2
 10
-93.424871130596443
 20
25.40000000000002
 30
0.0
 11
-88.575128869403557
 21
25.40000000000002
 31
0.0
  0
LINE
  5
1347
  8
RAHM2
 10
-88.575128869403557
 20
25.40000000000002
 30
0.0
 11
-91.0
 21
29.600000000000009
 31
0.0
  0
LINE
  5
1348
  8
RAHM2
 10
-91.0
 20
29.600000000000009
 30
0.0
 11
-93.424871130596443
 21
25.40000000000002
 31
0.0
  0
INSERT
  5
1349
  8
ﾊ_ﾈﾙ
  2
*U42
 10
0.0
 20
0.0
 30
0.0
  0
INSERT
  5
134A
  8
ﾊ_ﾈﾙ
  2
*U43
 10
0.0
 20
0.0
 30
0.0
  0
INSERT
  5
134B
  8
ﾊ_ﾈﾙ
  2
*U44
 10
0.0
 20
0.0
 30
0.0
  0
INSERT
  5
134C
  8
ﾊ_ﾈﾙ
  2
*U45
 10
0.0
 20
0.0
 30
0.0
  0
INSERT
  5
134D
  8
ﾊ_ﾈﾙ
  2
*U46
 10
0.0
 20
0.0
 30
0.0
  0
INSERT
  5
134E
  8
ﾊ_ﾈﾙ
  2
*U47
 10
0.0
 20
0.0
 30
0.0
  0
LINE
  5
134F
  8
RAHM2
 10
-11.82081941068907
 20
50.000000000000028
 30
0.0
 11
-11.82081941068907
 21
19.99999999999994
 31
0.0
  0
INSERT
  5
1350
  8
ﾊ_ﾈﾙ
  2
*U48
 10
0.0
 20
0.0
 30
0.0
  0
LINE
  5
1351
  8
RAHM2
 10
-31.820819410689069
 20
50.000000000000028
 30
0.0
 11
-31.820819410689179
 21
19.99999999999994
 31
0.0
  0
LINE
  5
1352
  8
RAHM2
 10
-91.0
 20
49.600000000000001
 30
0.0
 11
-93.424871130596443
 21
45.400000000000013
 31
0.0
  0
LINE
  5
1353
  8
RAHM2
 10
-91.0
 20
44.600000000000001
 30
0.0
 11
-93.424871130596443
 21
40.400000000000013
 31
0.0
  0
LINE
  5
1354
  8
RAHM2
 10
-91.0
 20
39.600000000000009
 30
0.0
 11
-93.424871130596443
 21
35.40000000000002
 31
0.0
  0
LINE
  5
1355
  8
RAHM2
 10
-88.575128869403557
 20
35.40000000000002
 30
0.0
 11
-91.0
 21
39.600000000000009
 31
0.0
  0
LINE
  5
1356
  8
RAHM2
 10
-93.424871130596443
 20
35.40000000000002
 30
0.0
 11
-88.575128869403557
 21
35.40000000000002
 31
0.0
  0
LINE
  5
1357
  8
RAHM2
 10
-88.575128869403557
 20
40.400000000000013
 30
0.0
 11
-91.0
 21
44.600000000000001
 31
0.0
  0
LINE
  5
1358
  8
RAHM2
 10
-93.424871130596443
 20
40.400000000000013
 30
0.0
 11
-88.575128869403557
 21
40.400000000000013
 31
0.0
  0
LINE
  5
1359
  8
RAHM2
 10
-88.575128869403557
 20
45.400000000000013
 30
0.0
 11
-91.0
 21
49.600000000000001
 31
0.0
  0
LINE
  5
135A
  8
RAHM2
 10
-93.424871130596443
 20
45.400000000000013
 30
0.0
 11
-88.575128869403557
 21
45.400000000000013
 31
0.0
  0
INSERT
  5
135B
  8
ﾊ_ﾈﾙ
  2
*U49
 10
0.0
 20
0.0
 30
0.0
  0
INSERT
  5
135C
  8
ﾊ_ﾈﾙ
  2
*U50
 10
0.0
 20
0.0
 30
0.0
  0
LINE
  5
135D
  8
RAHM2
 10
-93.424871130596443
 20
30.40000000000002
 30
0.0
 11
-88.575128869403557
 21
30.40000000000002
 31
0.0
  0
LINE
  5
135E
  8
RAHM2
 10
-86.0
 20
50.000000000000007
 30
0.0
 11
-86.0
 21
19.999999999999929
 31
0.0
  0
LINE
  5
135F
  8
RAHM2
 10
-91.0
 20
34.600000000000009
 30
0.0
 11
-93.424871130596443
 21
30.40000000000002
 31
0.0
  0
LINE
  5
1360
  8
RAHM2
 10
-88.575128869403557
 20
30.40000000000002
 30
0.0
 11
-91.0
 21
34.600000000000009
 31
0.0
  0
INSERT
  5
1361
  8
ﾊ_ﾈﾙ
  2
*U51
 10
0.0
 20
0.0
 30
0.0
  0
LINE
  5
1362
  8
0
 10
-96.0
 20
19.999999999999972
 30
0.0
 11
0.0000000000001137
 21
19.999999999999972
 31
0.0
  0
LINE
  5
1363
  8
0
 10
-96.0
 20
7.0
 30
0.0
 11
0.0000000000001137
 21
7.0
 31
0.0
  0
LINE
  5
1364
  8
RAHM2
 10
-96.0
 20
45.000000000000021
 30
0.0
 11
0.0000000000001137
 21
45.000000000000021
 31
0.0
  0
LINE
  5
1365
  8
RAHM2
 10
-96.0
 20
39.999999999999929
 30
0.0
 11
0.0000000000001137
 21
40.000000000000021
 31
0.0
  0
LINE
  5
1366
  8
RAHM2
 10
-96.0
 20
35.000000000000028
 30
0.0
 11
0.0000000000001137
 21
35.000000000000028
 31
0.0
  0
LINE
  5
1367
  8
RAHM2
 10
-96.0
 20
29.999999999999918
 30
0.0
 11
0.0000000000001137
 21
30.000000000000028
 31
0.0
  0
LINE
  5
1368
  8
0
 10
-21.175419266257109
 20
0.0
 30
0.0
 11
-21.17541926625734
 21
7.0
 31
0.0
  0
INSERT
  5
1369
  8
ﾊ_ﾈﾙ
  2
*U52
 10
0.0
 20
0.0
 30
0.0
  0
INSERT
  5
136A
  8
ﾊ_ﾈﾙ
  2
*U53
 10
0.0
 20
0.0
 30
0.0
  0
LINE
  5
136B
  8
0
 10
-167.0
 20
19.999999999999929
 30
0.0
 11
-96.0
 21
19.999999999999929
 31
0.0
  0
LINE
  5
136C
  8
0
 10
-113.75
 20
19.999999999999929
 30
0.0
 11
-113.75
 21
-0.0000000000000533
 31
0.0
  0
LINE
  5
136D
  8
0
 10
-131.50000000000011
 20
19.999999999999929
 30
0.0
 11
-131.50000000000011
 21
-0.0000000000000533
 31
0.0
  0
INSERT
  5
136E
  8
ﾊ_ﾈﾙ
  2
*U54
 10
0.0
 20
0.0
 30
0.0
  0
LINE
  5
136F
  8
0
 10
-167.0
 20
49.99999999999995
 30
0.0
 11
-167.0
 21
-0.0000000000000497
 31
0.0
  0
LINE
  5
1370
  8
0
 10
-149.25000000000011
 20
19.999999999999929
 30
0.0
 11
-149.25000000000011
 21
-0.0000000000000462
 31
0.0
  0
INSERT
  5
1371
  8
ﾊ_ﾈﾙ
  2
*U55
 10
0.0
 20
0.0
 30
0.0
  0
INSERT
  5
1372
  8
ﾊ_ﾈﾙ
  2
*U56
 10
0.0
 20
0.0
 30
0.0
  0
LINE
  5
1373
  8
0
 10
-167.0
 20
29.999999999999918
 30
0.0
 11
-96.0
 21
29.999999999999918
 31
0.0
  0
INSERT
  5
1374
  8
ﾊ_ﾈﾙ
  2
*U57
 10
0.0
 20
0.0
 30
0.0
  0
ATTDEF
  5
1375
  8
0
 10
-148.96186758352911
 20
43.299999999999912
 30
0.0
 40
3.0
  1

  3
材質
  2
GEN-TITLE-MAT1
 70
     0
  0
ATTDEF
  5
1376
  8
0
 10
-148.96186758352911
 20
33.299999999999912
 30
0.0
 40
3.0
  1

  3
表面処理
  2
GEN-TITLE-MAT2
 70
     0
  0
INSERT
  5
1377
  8
ﾊ_ﾈﾙ
  2
*U58
 10
0.0
 20
0.0
 30
0.0
  0
INSERT
  5
1378
  8
ﾊ_ﾈﾙ
  2
*U59
 10
0.0
 20
0.0
 30
0.0
  0
LINE
  5
1379
  8
0
 10
-167.0
 20
39.999999999999908
 30
0.0
 11
-96.0
 21
39.999999999999922
 31
0.0
  0
LINE
  5
137A
  8
0
 10
-167.0
 20
24.999999999999972
 30
0.0
 11
-193.00000000000011
 21
24.999999999999972
 31
0.0
  0
LINE
  5
137B
  8
0
 10
-171.71674187457961
 20
46.74999999999995
 30
0.0
 11
-171.71674187457961
 21
40.749999999999943
 31
0.0
  0
LINE
  5
137C
  8
7A
 10
-184.71674187457961
 20
43.74999999999995
 30
0.0
 11
-184.71674187457961
 21
40.03991724228473
 31
0.0
1001
GENIUS_GENOREF_13
1005
138E
  0
LINE
  5
137D
  8
7A
 10
-184.71674187457961
 20
43.74999999999995
 30
0.0
 11
-188.43977924583069
 21
43.74999999999995
 31
0.0
1001
GENIUS_GENOREF_13
1005
138E
  0
LINE
  5
137E
  8
0
 10
-179.71674187457961
 20
41.74999999999995
 30
0.0
 11
-179.71674187457961
 21
45.749999999999943
 31
0.0
  0
CIRCLE
  5
137F
  8
0
 10
-184.71674187457961
 20
43.74999999999995
 30
0.0
 40
3.0
  0
CIRCLE
  5
1380
  8
0
 10
-184.71674187457961
 20
43.74999999999995
 30
0.0
 40
2.0
  0
LINE
  5
1381
  8
7A
 10
-184.71674187457961
 20
43.74999999999995
 30
0.0
 11
-184.71674187457961
 21
47.324786644731439
 31
0.0
1001
GENIUS_GENOREF_13
1005
138E
  0
LINE
  5
1382
  8
0
 10
-171.71674187457961
 20
40.749999999999943
 30
0.0
 11
-179.71674187457961
 21
41.74999999999995
 31
0.0
  0
LINE
  5
1383
  8
0
 10
-179.71674187457961
 20
45.749999999999943
 30
0.0
 11
-171.71674187457961
 21
46.74999999999995
 31
0.0
  0
LINE
  5
1384
  8
7A
 10
-184.71674187457961
 20
43.74999999999995
 30
0.0
 11
-170.93543347429431
 21
43.74999999999995
 31
0.0
1001
GENIUS_GENOREF_13
1005
138E
  0
LINE
  5
1385
  8
0
 10
-193.00000000000011
 20
49.999999999999993
 30
0.0
 11
-193.00000000000011
 21
-0.0000000000000142
 31
0.0
  0
ATTDEF
  5
1386
  8
0
 10
-175.6127409126095
 20
16.199999999999939
 30
0.0
 40
3.0
  1

 72
     2
 11
-175.6127409126095
 21
15.79999999999994
 31
0.0
  3
数量
  2
GEN-TITLE-QTY
 70
     0
 74
     1
  0
INSERT
  5
1387
  8
ﾊ_ﾈﾙ
  2
*U60
 10
0.0
 20
0.0
 30
0.0
  0
INSERT
  5
1388
  8
ﾊ_ﾈﾙ
  2
*U61
 10
0.0
 20
0.0
 30
0.0
  0
ATTDEF
  5
1389
  8
0
 10
-177.824739614424
 20
28.699999999999971
 30
0.0
 40
3.0
  1

 72
     2
 11
-177.824739614424
 21
28.299999999999979
 31
0.0
  3
尺度
  2
GEN-TITLE-SCA
 70
     0
 74
     1
  0
INSERT
  5
138A
  8
ﾊ_ﾈﾙ
  2
*U62
 10
0.0
 20
0.0
 30
0.0
  0
ATTDEF
  5
138B
  8
0
 10
-180.2171951662138
 20
3.9883425376106638
 30
0.0
 40
3.0
  1

 72
     1
 11
-180.2171951662138
 21
3.5883425376106639
 31
0.0
  3
日付
  2
GEN-TITLE-DAT
 70
     0
 74
     1
  0
LINE
  5
138C
  8
0
 10
-167.0
 20
37.499999999999979
 30
0.0
 11
-193.00000000000011
 21
37.499999999999979
 31
0.0
  0
LINE
  5
138D
  8
0
 10
-167.0
 20
12.499999999999959
 30
0.0
 11
-193.00000000000011
 21
12.499999999999959
 31
0.0
  0
POINT
  5
138E
  8
0
 10
-418.53555798196749
 20
-138.11048412682541
 30
0.0
1001
GENIUS_GENODEF_13
1002
{
1000
HIER
1070
    10
1002
}
1002
{
1000
MANEDIT
1070
     0
1002
}
1002
{
1000
NOSEL
1070
     0
1002
}
1002
{
1000
BEHIND
1070
     0
1002
}
1002
{
1000
REACTOR
1002
}
1001
GENIUS_GENOBJ-N-CRS_13
1002
{
1000
OWNER
1000
GEN
1002
}
1001
GENIUS_GENOENT_13
1002
{
1000
MYREF
1005
138E
1002
}
1002
{
1000
GRP
1005
0
1002
}
1001
GENIUS_GENOLIS_13
1002
{
1000
ENT
1005
137C
1005
137D
1005
1381
1005
1384
1002
}
  0
ENDBLK
  5
1391
  8
0
  0
BLOCK
  8
0
  2
A$C6A3E1CEC
 70
     0
 10
0.0
 20
0.0
 30
0.0
  3
A$C6A3E1CEC
  1

  0
CIRCLE
  5
13C6
  8
ﾋ_ｽ
 10
0.0
 20
0.0
 30
0.0
 40
3.1499999999994519
  0
LINE
  5
13C7
  8
ﾋ_ｽ
 10
0.4204545454545042
 20
-1.8500000000000221
 30
0.0
 11
-0.4204545454545042
 21
-1.8500000000000221
 31
0.0
  0
LINE
  5
13C8
  8
ﾋ_ｽ
 10
-0.4204545454545042
 20
1.8500000000000221
 30
0.0
 11
0.4204545454545042
 21
1.8500000000000221
 31
0.0
  0
LINE
  5
13C9
  8
ﾋ_ｽ
 10
-1.8500000000000221
 20
0.4204545454545326
 30
0.0
 11
-1.5977272727272971
 21
0.4204545454545326
 31
0.0
  0
LINE
  5
13CA
  8
ﾋ_ｽ
 10
-0.4204545454545042
 20
1.5977272727272691
 30
0.0
 11
-0.4204545454545042
 21
1.8500000000000221
 31
0.0
  0
ARC
  5
13CB
  8
ﾋ_ｽ
 10
-1.5977272727272971
 20
1.5977272727272691
 30
0.0
 40
1.177272727272711
 50
270.0
 51
0.0
  0
ARC
  5
13CC
  8
ﾋ_ｽ
 10
-1.597727272727183
 20
-1.59772727272724
 30
0.0
 40
1.177272727272711
 50
0.0
 51
90.0
  0
LINE
  5
13CD
  8
ﾋ_ｽ
 10
-1.8500000000000221
 20
-0.4204545454545326
 30
0.0
 11
-1.8500000000000221
 21
0.420454545454561
 31
0.0
  0
LINE
  5
13CE
  8
ﾋ_ｽ
 10
-1.59772727272724
 20
-0.4204545454545326
 30
0.0
 11
-1.8500000000000221
 21
-0.4204545454545326
 31
0.0
  0
LINE
  5
13CF
  8
ﾋ_ｽ
 10
-0.4204545454545042
 20
-1.8499999999999091
 30
0.0
 11
-0.4204545454545042
 21
-1.59772727272724
 31
0.0
  0
ARC
  5
13D0
  8
ﾋ_ｽ
 10
1.5977272727272971
 20
-1.59772727272724
 30
0.0
 40
1.177272727272711
 50
90.0
 51
180.0
  0
LINE
  5
13D1
  8
ﾋ_ｽ
 10
0.4204545454545042
 20
-1.59772727272724
 30
0.0
 11
0.4204545454545042
 21
-1.8500000000000221
 31
0.0
  0
LINE
  5
13D2
  8
ﾋ_ｽ
 10
1.849999999999965
 20
-0.4204545454545326
 30
0.0
 11
1.5977272727272971
 21
-0.4204545454545326
 31
0.0
  0
LINE
  5
13D3
  8
ﾋ_ｽ
 10
1.849999999999965
 20
0.4204545454545042
 30
0.0
 11
1.849999999999965
 21
-0.4204545454545326
 31
0.0
  0
ARC
  5
13D4
  8
ﾋ_ｽ
 10
1.597727272727183
 20
1.5977272727272691
 30
0.0
 40
1.177272727272711
 50
180.0
 51
270.0
  0
LINE
  5
13D5
  8
ﾋ_ｽ
 10
1.597727272727183
 20
0.4204545454545326
 30
0.0
 11
1.8500000000000221
 21
0.4204545454545326
 31
0.0
  0
LINE
  5
13D6
  8
ﾋ_ｽ
 10
0.4204545454545042
 20
1.8500000000000221
 30
0.0
 11
0.4204545454545042
 21
1.5977272727273539
 31
0.0
  0
ENDBLK
  5
13D7
  8
0
  0
BLOCK
  8
0
  2
A$C648C1BE0
 70
     0
 10
0.0
 20
0.0
 30
0.0
  3
A$C648C1BE0
  1

  0
LINE
  5
13DB
  8
ﾋ_ｽ
 10
-4.9999999999999432
 20
-3.1499999999999768
 30
0.0
 11
-4.9999999999999432
 21
3.1500000000000341
 31
0.0
  0
ARC
  5
13DC
  8
ﾋ_ｽ
 10
-4.9000000000000341
 20
1.326839681057407
 30
0.0
 40
0.1
 50
179.99999999999841
 51
283.49573328080072
1001
GENIUS_GENODEF_13
1002
{
1000
HIER
1070
     0
1002
}
1002
{
1000
MANEDIT
1070
     0
1002
}
1002
{
1000
NOSEL
1070
     0
1002
}
1002
{
1000
BEHIND
1070
     0
1002
}
1002
{
1000
OTHER
1070
     0
1002
}
1002
{
1000
REACTOR
1002
}
1001
GENIUS_GENOBJ-N-FIL_13
1002
{
1000
OWNER
1000
GEN
1002
}
  0
ARC
  5
13DD
  8
ﾋ_ｽ
 10
-4.9000000000000901
 20
-1.3268396810574921
 30
0.0
 40
0.1
 50
76.50426671919935
 51
179.99999999999841
1001
GENIUS_GENODEF_13
1002
{
1000
HIER
1070
     0
1002
}
1002
{
1000
MANEDIT
1070
     0
1002
}
1002
{
1000
NOSEL
1070
     0
1002
}
1002
{
1000
BEHIND
1070
     0
1002
}
1002
{
1000
OTHER
1070
     0
1002
}
1002
{
1000
REACTOR
1002
}
1001
GENIUS_GENOBJ-N-FIL_13
1002
{
1000
OWNER
1000
GEN
1002
}
  0
LINE
  5
13DE
  8
ﾋ_ｽ
 10
0.0
 20
-1.5
 30
0.0
 11
0.0
 21
1.5
 31
0.0
  0
LINE
  5
13DF
  8
ﾋ_ｽ
 10
-4.876662704752504
 20
1.2296009508593491
 30
0.0
 11
-3.7500000000003411
 21
1.5
 31
0.0
  0
LINE
  5
13E0
  8
ﾋ_ｽ
 10
-4.8766627047525608
 20
-1.229600950859435
 30
0.0
 11
-3.7500000000004539
 21
-1.5
 31
0.0
  0
LINE
  5
13E1
  8
ﾋ_ｽ
 10
-3.7500000000004539
 20
-1.5
 30
0.0
 11
-3.7500000000003411
 21
1.5
 31
0.0
  0
LINE
  5
13E2
  8
ﾋ_ｽ
 10
-3.7500000000004539
 20
-1.500000000000028
 30
0.0
 11
0.0
 21
-1.5
 31
0.0
  0
LINE
  5
13E3
  8
ﾋ_ｽ
 10
0.0
 20
1.5
 30
0.0
 11
-3.7500000000003411
 21
1.5
 31
0.0
  0
LINE
  5
13E4
  8
ﾋ_ｽ0
 10
-5.000000000000056
 20
-1.199999999999988
 30
0.0
 11
0.0
 21
-1.199999999999988
 31
0.0
  0
LINE
  5
13E5
  8
ﾋ_ｽ0
 10
-5.000000000000056
 20
1.199999999999988
 30
0.0
 11
0.0
 21
1.199999999999988
 31
0.0
  0
LINE
  5
13E6
  8
ﾋ_ｽ
 10
-4.9999999999999432
 20
3.1500000000000341
 30
0.0
 11
-6.2999999999999536
 21
3.0362647374163312
 31
0.0
  0
LINE
  5
13E7
  8
ﾋ_ｽ
 10
-4.9999999999999432
 20
-3.1499999999999768
 30
0.0
 11
-6.2999999999999536
 21
-3.0362647374162739
 31
0.0
  0
LINE
  5
13E8
  8
ﾋ_ｽ
 10
-6.2999999999999536
 20
3.0362647374163312
 30
0.0
 11
-6.2999999999999536
 21
-3.0362647374162739
 31
0.0
  0
ARC
  5
13E9
  8
ﾋ_ｽ
 10
1.0824196297310771
 20
0.0000000000000568
 30
0.0
 40
7.9824196297310488
 50
157.6434605857294
 51
202.35653941427211
  0
ENDBLK
  5
13EA
  8
0
  0
BLOCK
  8
0
  2
A$C03BB3959
 70
     0
 10
0.0
 20
0.0
 30
0.0
  3
A$C03BB3959
  1

  0
INSERT
  5
13EE
  8
AM_7
  2
A$C6A3E1CEC
 10
0.0
 20
0.0
 30
0.0
  0
INSERT
  5
13EF
  8
AM_7
  2
A$C648C1BE0
 10
24.213502179770622
 20
-0.0000000000000284
 30
0.0
  0
INSERT
  5
13F0
  8
AM_7
  2
A$C648C1BE0
 10
0.0000000000000284
 20
24.213502179770622
 30
0.0
 50
90.0
  0
ENDBLK
  5
13F1
  8
0
  0
BLOCK
  8
0
  2
*S15
 70
     1
 10
0.0
 20
0.0
 30
0.0
  3
*S15
  1

  0
CIRCLE
  5
14AD
  8
AM_12
 62
     4
 10
96.010704579889875
 20
316.42327318418552
 30
0.0
 40
2.625
  0
LINE
  5
14AE
  8
AM_12
 62
     4
 10
93.385704579889875
 20
313.79827318418552
 30
0.0
 11
98.635704579889875
 21
319.0482731841854
 31
0.0
  0
LINE
  5
14AF
  8
AM_12
 62
     4
 10
93.385704579889875
 20
319.0482731841854
 30
0.0
 11
98.635704579889875
 21
313.79827318418552
 31
0.0
  0
ENDBLK
  5
14B1
  8
0
  0
BLOCK
  8
0
  2
*S16
 70
     1
 10
0.0
 20
0.0
 30
0.0
  3
*S16
  1

  0
CIRCLE
  5
14B4
  8
AM_12
 62
     4
 10
263.42927989858742
 20
83.638874345249519
 30
0.0
 40
1.75
  0
LINE
  5
14B5
  8
AM_12
 62
     4
 10
261.67927989858742
 20
81.888874345249519
 30
0.0
 11
265.17927989858742
 21
85.388874345249505
 31
0.0
  0
LINE
  5
14B6
  8
AM_12
 62
     4
 10
261.67927989858742
 20
85.388874345249505
 30
0.0
 11
265.17927989858742
 21
81.888874345249519
 31
0.0
  0
ENDBLK
  5
14B8
  8
0
  0
BLOCK
  8
0
  2
*S17
 70
     1
 10
0.0
 20
0.0
 30
0.0
  3
*S17
  1

  0
LINE
  5
14BB
  8
0
 62
     1
 10
0.0
 20
392.21249999999998
 30
0.0
 11
289.5
 21
392.21249999999998
 31
0.0
  0
INSERT
  5
14BC
  8
ﾊ_ﾈﾙ
  2
*U68
 10
0.0
 20
0.0
 30
0.0
  0
LINE
  5
14BD
  8
0
 62
     1
 10
22.5
 20
401.47500000000002
 30
0.0
 11
22.5
 21
392.21249999999998
 31
0.0
  0
INSERT
  5
14BE
  8
ﾊ_ﾈﾙ
  2
*U69
 10
0.0
 20
0.0
 30
0.0
  0
LINE
  5
14BF
  8
0
 62
     1
 10
112.5
 20
401.47500000000002
 30
0.0
 11
112.5
 21
392.21249999999998
 31
0.0
  0
INSERT
  5
14C0
  8
ﾊ_ﾈﾙ
  2
*U70
 10
0.0
 20
0.0
 30
0.0
  0
LINE
  5
14C1
  8
0
 62
     1
 10
135.0
 20
401.47500000000002
 30
0.0
 11
135.0
 21
392.21249999999998
 31
0.0
  0
INSERT
  5
14C2
  8
ﾊ_ﾈﾙ
  2
*U71
 10
0.0
 20
0.0
 30
0.0
  0
LINE
  5
14C3
  8
0
 62
     1
 10
195.0
 20
401.47500000000002
 30
0.0
 11
195.0
 21
392.21249999999998
 31
0.0
  0
INSERT
  5
14C4
  8
ﾊ_ﾈﾙ
  2
*U72
 10
0.0
 20
0.0
 30
0.0
  0
INSERT
  5
14C5
  8
ﾊ_ﾈﾙ
  2
*U73
 10
0.0
 20
0.0
 30
0.0
  0
LINE
  5
14C6
  8
0
 62
     1
 10
22.5
 20
392.21249999999998
 30
0.0
 11
22.5
 21
382.94999999999999
 31
0.0
  0
INSERT
  5
14C7
  8
ﾊ_ﾈﾙ
  2
*U74
 10
0.0
 20
0.0
 30
0.0
  0
LINE
  5
14C8
  8
0
 62
     1
 10
112.5
 20
392.21249999999998
 30
0.0
 11
112.5
 21
382.94999999999999
 31
0.0
  0
INSERT
  5
14C9
  8
ﾊ_ﾈﾙ
  2
*U75
 10
0.0
 20
0.0
 30
0.0
  0
LINE
  5
14CA
  8
0
 62
     1
 10
135.0
 20
392.21249999999998
 30
0.0
 11
135.0
 21
382.94999999999999
 31
0.0
  0
INSERT
  5
14CB
  8
ﾊ_ﾈﾙ
  2
*U76
 10
0.0
 20
0.0
 30
0.0
  0
LINE
  5
14CC
  8
0
 62
     1
 10
195.0
 20
392.21249999999998
 30
0.0
 11
195.0
 21
382.94999999999999
 31
0.0
  0
INSERT
  5
14CD
  8
ﾊ_ﾈﾙ
  2
*U77
 10
0.0
 20
0.0
 30
0.0
  0
LINE
  5
14CE
  8
0
 62
     1
 10
0.0
 20
401.47500000000002
 30
0.0
 11
289.5
 21
401.47500000000002
 31
0.0
  0
INSERT
  5
14CF
  8
ﾊ_ﾈﾙ
  2
*U78
 10
0.0
 20
0.0
 30
0.0
  0
LINE
  5
14D0
  8
0
 62
     1
 10
22.5
 20
410.73750000000001
 30
0.0
 11
22.5
 21
401.47500000000002
 31
0.0
  0
INSERT
  5
14D1
  8
ﾊ_ﾈﾙ
  2
*U79
 10
0.0
 20
0.0
 30
0.0
  0
LINE
  5
14D2
  8
0
 62
     1
 10
112.5
 20
410.73750000000001
 30
0.0
 11
112.5
 21
401.47500000000002
 31
0.0
  0
INSERT
  5
14D3
  8
ﾊ_ﾈﾙ
  2
*U80
 10
0.0
 20
0.0
 30
0.0
  0
LINE
  5
14D4
  8
0
 62
     1
 10
135.0
 20
410.73750000000001
 30
0.0
 11
135.0
 21
401.47500000000002
 31
0.0
  0
INSERT
  5
14D5
  8
ﾊ_ﾈﾙ
  2
*U81
 10
0.0
 20
0.0
 30
0.0
  0
LINE
  5
14D6
  8
0
 62
     1
 10
195.0
 20
410.73750000000001
 30
0.0
 11
195.0
 21
401.47500000000002
 31
0.0
  0
INSERT
  5
14D7
  8
ﾊ_ﾈﾙ
  2
*U82
 10
0.0
 20
0.0
 30
0.0
  0
INSERT
  5
14D8
  8
ﾊ_ﾈﾙ
  2
*U83
 10
0.0
 20
0.0
 30
0.0
  0
LINE
  5
14D9
  8
0
 62
     1
 10
0.0
 20
410.73750000000001
 30
0.0
 11
289.5
 21
410.73750000000001
 31
0.0
  0
LINE
  5
14DA
  8
0
 62
     7
 10
0.0
 20
420.0
 30
0.0
 11
289.5
 21
420.0
 31
0.0
  0
LINE
  5
14DB
  8
0
 62
     7
 10
289.5
 20
420.0
 30
0.0
 11
289.5
 21
382.94999999999999
 31
0.0
  0
LINE
  5
14DC
  8
0
 62
     7
 10
289.5
 20
382.94999999999999
 30
0.0
 11
0.0
 21
382.94999999999999
 31
0.0
  0
LINE
  5
14DD
  8
0
 62
     7
 10
0.0
 20
382.94999999999999
 30
0.0
 11
0.0
 21
420.0
 31
0.0
  0
ENDBLK
  5
14DF
  8
0
  0
BLOCK
  8
0
  2
*S18
 70
     1
 10
0.0
 20
0.0
 30
0.0
  3
*S18
  1

  0
LINE
  5
14E2
  8
AM_5
 10
63.029692978073207
 20
346.39191949408132
 30
0.0
 11
88.833823387414355
 21
319.0891453018013
 31
0.0
  0
TRACE
  5
14E3
  8
AM_5
 10
88.331496600796143
 20
318.61439113144797
 30
0.0
 11
89.336150174032568
 21
319.56389947215467
 31
0.0
 12
92.439939345498942
 22
315.27359452939021
 32
0.0
 13
92.439939345498942
 23
315.27359452939021
 33
0.0
  0
INSERT
  5
14E4
  8
ﾊ_ﾈﾙ
  2
*U84
 10
0.0
 20
0.0
 30
0.0
  0
CIRCLE
  5
14E5
  8
AM_5
 62
     3
 10
56.71899005142518
 20
353.06913334580088
 30
0.0
 40
9.1875
  0
ENDBLK
  5
14E7
  8
0
  0
BLOCK
  8
0
  2
*U19
 70
     1
 10
0.0
 20
0.0
 30
0.0
  3
*U19
  1

  0
TEXT
  5
14FC
  8
0
 10
172.55531168523049
 20
286.233542987227
 30
0.0
 40
2.5
  1
(文書番号：TY-34)2004.10.29
  0
ENDBLK
  5
14FE
  8
0
  0
BLOCK
  8
0
  2
*U20
 70
     1
 10
0.0
 20
0.0
 30
0.0
  3
*U20
  1

  0
TEXT
  5
1500
  8
RAHM2
 10
-193.80025513713139
 20
3.3010354072796408
 30
0.0
 40
2.5
  1
図番
  0
ENDBLK
  5
1502
  8
0
  0
BLOCK
  8
0
  2
*U21
 70
     1
 10
0.0
 20
0.0
 30
0.0
  3
*U21
  1

  0
TEXT
  5
1504
  8
RAHM2
 10
-193.0
 20
21.249999999999972
 30
0.0
 40
2.5
  1
符号
  0
ENDBLK
  5
1506
  8
0
  0
BLOCK
  8
0
  2
*U22
 70
     1
 10
0.0
 20
0.0
 30
0.0
  3
*U22
  1

  0
TEXT
  5
1508
  8
RAHM2
 10
-193.80025513713139
 20
16.30103540727961
 30
0.0
 40
2.5
  1
品名
  0
ENDBLK
  5
150A
  8
0
  0
BLOCK
  8
0
  2
*U23
 70
     1
 10
0.0
 20
0.0
 30
0.0
  3
*U23
  1

  0
TEXT
  5
150C
  8
RAHM2
 10
-163.1448171868856
 20
21.249999999999972
 30
0.0
 40
2.5
  1
変更記事
  0
ENDBLK
  5
150E
  8
0
  0
BLOCK
  8
0
  2
*U24
 70
     1
 10
0.0
 20
0.0
 30
0.0
  3
*U24
  1

  0
TEXT
  5
1510
  8
0
 10
-88.85532994923858
 20
3.4187817258883251
 30
0.0
 40
3.5
  1
株式会社タカチ電機工業
  0
ENDBLK
  5
1512
  8
0
  0
BLOCK
  8
0
  2
*U25
 70
     1
 10
0.0
 20
0.0
 30
0.0
  3
*U25
  1

  0
TEXT
  5
1514
  8
RAHM2
 10
-123.3541228057275
 20
31.250000000000028
 30
0.0
 40
2.5
  1
・  ・   
  0
ENDBLK
  5
1516
  8
0
  0
BLOCK
  8
0
  2
*U26
 70
     1
 10
0.0
 20
0.0
 30
0.0
  3
*U26
  1

  0
TEXT
  5
1518
  8
RAHM2
 10
-126.238119805002
 20
21.249999999999972
 30
0.0
 40
2.5
  1
年・月・日
  0
ENDBLK
  5
151A
  8
0
  0
BLOCK
  8
0
  2
*U27
 70
     1
 10
0.0
 20
0.0
 30
0.0
  3
*U27
  1

  0
TEXT
  5
151C
  8
RAHM2
 10
-104.5
 20
21.249999999999972
 30
0.0
 40
2.5
  1
担当
  0
ENDBLK
  5
151E
  8
0
  0
BLOCK
  8
0
  2
*U28
 70
     1
 10
0.0
 20
0.0
 30
0.0
  3
*U28
  1

  0
TEXT
  5
1520
  8
RAHM2
 10
-123.3541228057275
 20
41.250000000000021
 30
0.0
 40
2.5
  1
・  ・   
  0
ENDBLK
  5
1522
  8
0
  0
BLOCK
  8
0
  2
*U29
 70
     1
 10
0.0
 20
0.0
 30
0.0
  3
*U29
  1

  0
TEXT
  5
1524
  8
RAHM2
 10
-123.3541228057275
 20
36.250000000000028
 30
0.0
 40
2.5
  1
・  ・   
  0
ENDBLK
  5
1526
  8
0
  0
BLOCK
  8
0
  2
*U30
 70
     1
 10
0.0
 20
0.0
 30
0.0
  3
*U30
  1

  0
TEXT
  5
1528
  8
RAHM2
 10
-123.3541228057275
 20
46.250000000000021
 30
0.0
 40
2.5
  1
・  ・   
  0
ENDBLK
  5
152A
  8
0
  0
BLOCK
  8
0
  2
*U31
 70
     1
 10
0.0
 20
0.0
 30
0.0
  3
*U31
  1

  0
TEXT
  5
152C
  8
RAHM2
 10
-92.800255137131444
 20
13.80103540727964
 30
0.0
 40
2.5
  1
日付
  0
ENDBLK
  5
152E
  8
0
  0
BLOCK
  8
0
  2
*U32
 70
     1
 10
0.0
 20
0.0
 30
0.0
  3
*U32
  1

  0
TEXT
  5
1530
  8
RAHM2
 10
-92.800255137131444
 20
23.801035407279642
 30
0.0
 40
2.5
  1
表面処理
  0
ENDBLK
  5
1532
  8
0
  0
BLOCK
  8
0
  2
*U33
 70
     1
 10
0.0
 20
0.0
 30
0.0
  3
*U33
  1

  0
TEXT
  5
1534
  8
RAHM2
 10
-92.800255137131444
 20
33.801035407279642
 30
0.0
 40
2.5
  1
材質
  0
ENDBLK
  5
1536
  8
0
  0
BLOCK
  8
0
  2
*U34
 70
     1
 10
0.0
 20
0.0
 30
0.0
  3
*U34
  1

  0
TEXT
  5
1538
  8
RAHM2
 10
-72.800255137131444
 20
46.301035407279642
 30
0.0
 40
2.5
  1
尺度
  0
ENDBLK
  5
153A
  8
0
  0
BLOCK
  8
0
  2
*U35
 70
     1
 10
0.0
 20
0.0
 30
0.0
  3
*U35
  1

  0
TEXT
  5
153C
  8
RAHM2
 10
-52.800255137131451
 20
46.301035407279642
 30
0.0
 40
2.5
  1
数量
  0
ENDBLK
  5
153E
  8
0
  0
BLOCK
  8
0
  2
*U36
 70
     1
 10
0.0
 20
0.0
 30
0.0
  3
*U36
  1

  0
TEXT
  5
1540
  8
RAHM2
 10
-28.3125
 20
21.301035407279642
 30
0.0
 40
2.5
  1
承認
  0
ENDBLK
  5
1542
  8
0
  0
BLOCK
  8
0
  2
*U37
 70
     1
 10
0.0
 20
0.0
 30
0.0
  3
*U37
  1

  0
TEXT
  5
1544
  8
RAHM2
 10
-28.3125
 20
46.301035407279642
 30
0.0
 40
2.5
  1
承認
  0
ENDBLK
  5
1546
  8
0
  0
BLOCK
  8
0
  2
*U38
 70
     1
 10
0.0
 20
0.0
 30
0.0
  3
*U38
  1

  0
TEXT
  5
1548
  8
RAHM2
 10
-123.3541228057275
 20
26.250000000000028
 30
0.0
 40
2.5
  1
・  ・   
  0
ENDBLK
  5
154A
  8
0
  0
BLOCK
  8
0
  2
*U39
 70
     1
 10
0.0
 20
0.0
 30
0.0
  3
*U39
  1

  0
TEXT
  5
154C
  8
RAHM2
 10
-11.3125
 20
46.301035407279642
 30
0.0
 40
2.5
  1
検図
  0
ENDBLK
  5
154E
  8
0
  0
BLOCK
  8
0
  2
*U40
 70
     1
 10
0.0
 20
0.0
 30
0.0
  3
*U40
  1

  0
TEXT
  5
1550
  8
RAHM2
 10
-11.3125
 20
21.301035407279642
 30
0.0
 40
2.5
  1
製図
  0
ENDBLK
  5
1552
  8
0
  0
BLOCK
  8
0
  2
*U41
 70
     1
 10
0.0
 20
0.0
 30
0.0
  3
*U41
  1

  0
TEXT
  5
1558
  8
RAHM2
 10
-26.1749422164166
 20
26.250000000000028
 30
0.0
 40
2.5
  1
・  ・   
  0
ENDBLK
  5
155A
  8
0
  0
BLOCK
  8
0
  2
*U42
 70
     1
 10
0.0
 20
0.0
 30
0.0
  3
*U42
  1

  0
TEXT
  5
155C
  8
RAHM2
 10
-26.1749422164166
 20
46.250000000000021
 30
0.0
 40
2.5
  1
・  ・   
  0
ENDBLK
  5
155E
  8
0
  0
BLOCK
  8
0
  2
*U43
 70
     1
 10
0.0
 20
0.0
 30
0.0
  3
*U43
  1

  0
TEXT
  5
1560
  8
RAHM2
 10
-26.1749422164166
 20
36.250000000000028
 30
0.0
 40
2.5
  1
・  ・   
  0
ENDBLK
  5
1562
  8
0
  0
BLOCK
  8
0
  2
*U44
 70
     1
 10
0.0
 20
0.0
 30
0.0
  3
*U44
  1

  0
TEXT
  5
1564
  8
RAHM2
 10
-26.1749422164166
 20
41.250000000000021
 30
0.0
 40
2.5
  1
・  ・   
  0
ENDBLK
  5
1566
  8
0
  0
BLOCK
  8
0
  2
*U45
 70
     1
 10
0.0
 20
0.0
 30
0.0
  3
*U45
  1

  0
TEXT
  5
1568
  8
RAHM2
 10
-8.9104097053444775
 20
21.249999999999972
 30
0.0
 40
2.5
  1
担当
  0
ENDBLK
  5
156A
  8
0
  0
BLOCK
  8
0
  2
*U46
 70
     1
 10
0.0
 20
0.0
 30
0.0
  3
*U46
  1

  0
TEXT
  5
156C
  8
RAHM2
 10
-29.058939215691112
 20
21.249999999999972
 30
0.0
 40
2.5
  1
年・月・日
  0
ENDBLK
  5
156E
  8
0
  0
BLOCK
  8
0
  2
*U47
 70
     1
 10
0.0
 20
0.0
 30
0.0
  3
*U47
  1

  0
TEXT
  5
1570
  8
RAHM2
 10
-26.1749422164166
 20
31.250000000000028
 30
0.0
 40
2.5
  1
・  ・   
  0
ENDBLK
  5
1572
  8
0
  0
BLOCK
  8
0
  2
*U48
 70
     1
 10
0.0
 20
0.0
 30
0.0
  3
*U48
  1

  0
TEXT
  5
1574
  8
RAHM2
 10
-65.0
 20
21.249999999999961
 30
0.0
 40
2.5
  1
変更記事
  0
ENDBLK
  5
1576
  8
0
  0
BLOCK
  8
0
  2
*U49
 70
     1
 10
0.0
 20
0.0
 30
0.0
  3
*U49
  1

  0
TEXT
  5
1578
  8
RAHM2
 10
-94.800255137131444
 20
16.301035407279599
 30
0.0
 40
2.5
  1
品名
  0
ENDBLK
  5
157A
  8
0
  0
BLOCK
  8
0
  2
*U50
 70
     1
 10
0.0
 20
0.0
 30
0.0
  3
*U50
  1

  0
TEXT
  5
157C
  8
RAHM2
 10
-94.0
 20
21.249999999999961
 30
0.0
 40
2.5
  1
符号
  0
ENDBLK
  5
157E
  8
0
  0
BLOCK
  8
0
  2
*U51
 70
     1
 10
0.0
 20
0.0
 30
0.0
  3
*U51
  1

  0
TEXT
  5
1580
  8
RAHM2
 10
-94.800255137131444
 20
3.3010354072796271
 30
0.0
 40
2.5
  1
図番
  0
ENDBLK
  5
1582
  8
0
  0
BLOCK
  8
0
  2
*U52
 70
     1
 10
0.0
 20
0.0
 30
0.0
  3
*U52
  1

  0
TEXT
  5
1584
  8
RAHM2
 10
-19.982425929334909
 20
2.1847624665659851
 30
0.0
 40
2.5
  1
Rev.
  0
ENDBLK
  5
1586
  8
0
  0
BLOCK
  8
0
  2
*U53
 70
     1
 10
0.0
 20
0.0
 30
0.0
  3
*U53
  1

  0
TEXT
  5
1588
  8
RAHM2
 10
-107.6875
 20
16.301035407279571
 30
0.0
 40
2.5
  1
製図
  0
ENDBLK
  5
158A
  8
0
  0
BLOCK
  8
0
  2
*U54
 70
     1
 10
0.0
 20
0.0
 30
0.0
  3
*U54
  1

  0
TEXT
  5
158C
  8
RAHM2
 10
-125.4375000000001
 20
16.301035407279581
 30
0.0
 40
2.5
  1
検図
  0
ENDBLK
  5
158E
  8
0
  0
BLOCK
  8
0
  2
*U55
 70
     1
 10
0.0
 20
0.0
 30
0.0
  3
*U55
  1

  0
TEXT
  5
1590
  8
RAHM2
 10
-143.18750000000011
 20
16.301035407279581
 30
0.0
 40
2.5
  1
承認
  0
ENDBLK
  5
1592
  8
0
  0
BLOCK
  8
0
  2
*U56
 70
     1
 10
0.0
 20
0.0
 30
0.0
  3
*U56
  1

  0
TEXT
  5
1594
  8
RAHM2
 10
-160.93750000000011
 20
16.30103540727956
 30
0.0
 40
2.5
  1
承認
  0
ENDBLK
  5
1596
  8
0
  0
BLOCK
  8
0
  2
*U57
 70
     1
 10
0.0
 20
0.0
 30
0.0
  3
*U57
  1

  0
TEXT
  5
1598
  8
0
 10
-156.35532994923869
 20
23.418781725888241
 30
0.0
 40
3.5
  1
株式会社タカチ電機工業
  0
ENDBLK
  5
159A
  8
0
  0
BLOCK
  8
0
  2
*U58
 70
     1
 10
0.0
 20
0.0
 30
0.0
  3
*U58
  1

  0
TEXT
  5
159C
  8
RAHM2
 10
-165.80025513713139
 20
46.301035407279549
 30
0.0
 40
2.5
  1
材質
  0
ENDBLK
  5
159E
  8
0
  0
BLOCK
  8
0
  2
*U59
 70
     1
 10
0.0
 20
0.0
 30
0.0
  3
*U59
  1

  0
TEXT
  5
15A0
  8
RAHM2
 10
-165.80025513713139
 20
36.301035407279556
 30
0.0
 40
2.5
  1
表面処理
  0
ENDBLK
  5
15A2
  8
0
  0
BLOCK
  8
0
  2
*U60
 70
     1
 10
0.0
 20
0.0
 30
0.0
  3
*U60
  1

  0
TEXT
  5
15A4
  8
RAHM2
 10
-191.8002551371315
 20
21.301035407279631
 30
0.0
 40
2.5
  1
数量
  0
ENDBLK
  5
15A6
  8
0
  0
BLOCK
  8
0
  2
*U61
 70
     1
 10
0.0
 20
0.0
 30
0.0
  3
*U61
  1

  0
TEXT
  5
15A8
  8
RAHM2
 10
-191.8002551371315
 20
33.801035407279663
 30
0.0
 40
2.5
  1
尺度
  0
ENDBLK
  5
15AA
  8
0
  0
BLOCK
  8
0
  2
*U62
 70
     1
 10
0.0
 20
0.0
 30
0.0
  3
*U62
  1

  0
TEXT
  5
15AC
  8
RAHM2
 10
-191.8002551371315
 20
8.8010354072796062
 30
0.0
 40
2.5
  1
日付
  0
ENDBLK
  5
15AE
  8
0
  0
BLOCK
  8
0
  2
*U63
 70
     1
 10
0.0
 20
0.0
 30
0.0
  3
*U63
  1

  0
TEXT
  5
15B0
  8
AM_5
 62
     2
 10
162.0881654045956
 20
342.0271308779071
 30
0.0
 40
5.25
  1
4-\U+22053.5
  0
ENDBLK
  5
15B2
  8
0
  0
BLOCK
  8
0
  2
*U64
 70
     1
 10
0.0
 20
0.0
 30
0.0
  3
*U64
  1

  0
TEXT
  5
15B4
  8
AM_5
 62
     2
 10
204.74364749073581
 20
342.48170776321399
 30
0.0
 40
5.25
  1
12
  0
ENDBLK
  5
15B6
  8
0
  0
BLOCK
  8
0
  2
*U65
 70
     1
 10
0.0
 20
0.0
 30
0.0
  3
*U65
  1

  0
TEXT
  5
15B8
  8
AM_5
 62
     2
 10
115.2836719288686
 20
342.48170876321387
 30
0.0
 40
5.25
  1
59.8
  0
ENDBLK
  5
15BA
  8
0
  0
BLOCK
  8
0
  2
*U66
 70
     1
 10
0.0
 20
0.0
 30
0.0
  3
*U66
  1

  0
TEXT
  5
15BC
  8
AM_5
 62
     2
 10
74.269942171285919
 20
207.62293334540121
 30
0.0
 40
5.25
  1
219
 50
90.0
  0
ENDBLK
  5
15BE
  8
0
  0
BLOCK
  8
0
  2
*U67
 70
     1
 10
0.0
 20
0.0
 30
0.0
  3
*U67
  1

  0
TEXT
  5
15C0
  8
AM_5
 62
     7
 10
241.24987665901881
 20
103.313252634484
 30
0.0
 40
5.25
  1
2
  7
ACISOTS
  0
ENDBLK
  5
15C2
  8
0
  0
BLOCK
  8
0
  2
*U68
 70
     1
 10
0.0
 20
0.0
 30
0.0
  3
*U68
  1

  0
TEXT
  5
15C4
  8
0
 62
     2
 10
9.9375
 20
394.19999999999999
 30
0.0
 40
5.25
  1
1
  7
ACISOTS
  0
ENDBLK
  5
15C6
  8
0
  0
BLOCK
  8
0
  2
*U69
 70
     1
 10
0.0
 20
0.0
 30
0.0
  3
*U69
  1

  0
TEXT
  5
15C8
  8
0
 62
     2
 10
23.850000000000019
 20
394.19999999999999
 30
0.0
 40
5.25
  1
ユニットパネル
  7
ACISOTS
  0
ENDBLK
  5
15CA
  8
0
  0
BLOCK
  8
0
  2
*U70
 70
     1
 10
0.0
 20
0.0
 30
0.0
  3
*U70
  1

  0
TEXT
  5
15CC
  8
0
 62
     2
 10
122.4375
 20
394.19999999999999
 30
0.0
 40
5.25
  1
1
  7
ACISOTS
  0
ENDBLK
  5
15CE
  8
0
  0
BLOCK
  8
0
  2
*U71
 70
     1
 10
0.0
 20
0.0
 30
0.0
  3
*U71
  1

  0
TEXT
  5
15D0
  8
0
 62
     2
 10
135.7704330708662
 20
394.19999999999999
 30
0.0
 40
5.25
  1
SPCC t1.6
  7
ACISOTS
  0
ENDBLK
  5
15D2
  8
0
  0
BLOCK
  8
0
  2
*U72
 70
     1
 10
0.0
 20
0.0
 30
0.0
  3
*U72
  1

  0
TEXT
  5
15D4
  8
0
 62
     2
 10
196.34999999999999
 20
394.19999999999999
 30
0.0
 40
5.25
  1
三価ｸﾛｰﾒｲﾄ
  7
ACISOTS
  0
ENDBLK
  5
15D6
  8
0
  0
BLOCK
  8
0
  2
*U73
 70
     1
 10
0.0
 20
0.0
 30
0.0
  3
*U73
  1

  0
TEXT
  5
15D8
  8
0
 62
     2
 10
9.3215034448818894
 20
384.93646653543311
 30
0.0
 40
5.25
  1
2
  7
ACISOTS
  0
ENDBLK
  5
15DA
  8
0
  0
BLOCK
  8
0
  2
*U74
 70
     1
 10
0.0
 20
0.0
 30
0.0
  3
*U74
  1

  0
TEXT
  5
15DC
  8
0
 62
     2
 10
23.850000000000019
 20
384.67500000000001
 30
0.0
 40
5.25
  1
パネル取付ビス(ﾊﾞｲﾝﾄﾞM3×5)
  7
ACISOTS
  0
ENDBLK
  5
15DE
  8
0
  0
BLOCK
  8
0
  2
*U75
 70
     1
 10
0.0
 20
0.0
 30
0.0
  3
*U75
  1

  0
TEXT
  5
15E0
  8
0
 62
     2
 10
121.65000000000001
 20
384.9375
 30
0.0
 40
5.25
  1
4
  7
ACISOTS
  0
ENDBLK
  5
15E2
  8
0
  0
BLOCK
  8
0
  2
*U76
 70
     1
 10
0.0
 20
0.0
 30
0.0
  3
*U76
  1

  0
TEXT
  5
15E4
  8
0
 62
     2
 10
136.34999999999999
 20
384.9375
 30
0.0
 40
5.25
  1
鉄
  7
ACISOTS
  0
ENDBLK
  5
15E6
  8
0
  0
BLOCK
  8
0
  2
*U77
 70
     1
 10
0.0
 20
0.0
 30
0.0
  3
*U77
  1

  0
TEXT
  5
15E8
  8
0
 62
     2
 10
196.34999999999999
 20
384.9375
 30
0.0
 40
5.25
  1
ﾆｯｹﾙﾒｯｷ
  7
ACISOTS
  0
ENDBLK
  5
15EA
  8
0
  0
BLOCK
  8
0
  2
*U78
 70
     1
 10
0.0
 20
0.0
 30
0.0
  3
*U78
  1

  0
TEXT
  5
15EC
  8
0
 62
     2
 10
5.4749999999999988
 20
403.46249999999998
 30
0.0
 40
5.25
  1
照番
  7
ACISOTS
  0
ENDBLK
  5
15EE
  8
0
  0
BLOCK
  8
0
  2
*U79
 70
     1
 10
0.0
 20
0.0
 30
0.0
  3
*U79
  1

  0
TEXT
  5
15F0
  8
0
 62
     2
 10
61.725000000000001
 20
403.46249999999998
 30
0.0
 40
5.25
  1
名称
  7
ACISOTS
  0
ENDBLK
  5
15F2
  8
0
  0
BLOCK
  8
0
  2
*U80
 70
     1
 10
0.0
 20
0.0
 30
0.0
  3
*U80
  1

  0
TEXT
  5
15F4
  8
0
 62
     2
 10
117.97499999999999
 20
403.46249999999998
 30
0.0
 40
5.25
  1
数量
  7
ACISOTS
  0
ENDBLK
  5
15F6
  8
0
  0
BLOCK
  8
0
  2
*U81
 70
     1
 10
0.0
 20
0.0
 30
0.0
  3
*U81
  1

  0
TEXT
  5
15F8
  8
0
 62
     2
 10
159.22499999999999
 20
403.46249999999998
 30
0.0
 40
5.25
  1
材質
  7
ACISOTS
  0
ENDBLK
  5
15FA
  8
0
  0
BLOCK
  8
0
  2
*U82
 70
     1
 10
0.0
 20
0.0
 30
0.0
  3
*U82
  1

  0
TEXT
  5
15FC
  8
0
 62
     2
 10
223.34999999999999
 20
403.46249999999998
 30
0.0
 40
5.25
  1
色・表面処理
  7
ACISOTS
  0
ENDBLK
  5
15FE
  8
0
  0
BLOCK
  8
0
  2
*U83
 70
     1
 10
0.0
 20
0.0
 30
0.0
  3
*U83
  1

  0
TEXT
  5
1600
  8
0
 62
     2
 10
132.54374999999999
 20
412.74374999999998
 30
0.0
 40
5.25
  1
構成内容
  7
ACISOTS
  0
ENDBLK
  5
1602
  8
0
  0
BLOCK
  8
0
  2
*U84
 70
     1
 10
0.0
 20
0.0
 30
0.0
  3
*U84
  1

  0
TEXT
  5
1604
  8
AM_5
 62
     7
 10
55.40649005142518
 20
350.44413334580088
 30
0.0
 40
5.25
  1
1
  7
ACISOTS
  0
ENDBLK
  5
1606
  8
0
  0
ENDSEC
  0
SECTION
  2
ENTITIES
  0
DIMENSION
  5
6A5
  8
AM_5
  2
*D8
 10
135.3362803007216
 20
315.26369861035641
 30
0.0
 11
172.95939646471859
 21
339.7771308779071
 31
0.0
 70
   131
  1
4-<>
 15
137.84940879211001
 25
317.69971691607088
 35
0.0
 40
0.0
1001
ACAD
1000
DSTYLE
1002
{
1070
    40
1040
1.5
1002
}
  0
DIMENSION
  5
6A8
  8
AM_5
  2
*D9
 10
214.05130251042081
 20
340.23170776321399
 30
0.0
 11
208.05130251042081
 21
345.10722449549752
 31
0.0
 70
     0
 13
202.05130251042081
 23
322.23170776321388
 33
0.0
 14
214.05130251042081
 24
307.23170776321388
 34
0.0
1001
ACAD
1000
DSTYLE
1002
{
1070
    40
1040
1.5
1002
}
  0
LINE
  5
6AB
  8
ﾊ_ﾈﾙ0
 10
93.292844546416063
 20
118.2317077632139
 30
0.0
 11
93.292844546416063
 21
212.73170776321379
 31
0.0
  0
POLYLINE
  5
6B2
  8
ﾊ_ﾈﾙ
 66
     1
 10
0.0
 20
0.0
 30
0.0
1001
GENIUS_GENREC_14
1002
{
1000
PYDIR
1011
91.692844546416026
1021
0.0
1031
-0.0
1021
103.2317077632139
1031
0.0
1002
}
1002
{
1000
PXDIR
1011
151.49284454641611
1021
0.0
1031
-0.0
1021
322.23170776321388
1031
0.0
1002
}
1002
{
1000
PORI
1011
91.692844546416026
1021
0.0
1031
-0.0
1021
322.23170776321388
1031
0.0
1002
}
1002
{
1000
PINS
1011
91.692844546416026
1021
0.0
1031
-0.0
1021
322.23170776321388
1031
0.0
1002
}
1002
{
1000
HVAL
1000
130
1002
}
1002
{
1000
H
1070
     2
1002
}
1002
{
1000
WVAL
1000
29.8
1002
}
1002
{
1000
W
1070
     2
1002
}
1002
{
1000
C
1070
     1
1002
}
1001
GENIUS_GENODEF_13
1002
{
1000
HIER
1070
     0
1002
}
1002
{
1000
MANEDIT
1070
     0
1002
}
1002
{
1000
NOSEL
1070
     0
1002
}
1002
{
1000
BEHIND
1070
     0
1002
}
1002
{
1000
OTHER
1070
     0
1002
}
1002
{
1000
REACTOR
1002
}
1001
GENIUS_GENOBJ-N-REC_13
1002
{
1000
OWNER
1000
GEN
1002
}
  0
VERTEX
  5
6B3
  8
ﾊ_ﾈﾙ
 10
151.49284454641599
 20
212.7317077632139
 30
0.0
  0
VERTEX
  5
6B4
  8
ﾊ_ﾈﾙ
 10
151.49284454641611
 20
103.2317077632139
 30
0.0
  0
VERTEX
  5
6B5
  8
ﾊ_ﾈﾙ
 10
91.692844546416026
 20
103.2317077632139
 30
0.0
  0
VERTEX
  5
6B6
  8
ﾊ_ﾈﾙ
 10
91.692844546416026
 20
212.7317077632139
 30
0.0
  0
SEQEND
  5
6B7
  8
ﾊ_ﾈﾙ
  0
LINE
  5
6B8
  8
ﾊ_ﾈﾙ0
 10
91.692844546416026
 20
118.2317077632139
 30
0.0
 11
93.292844546416063
 21
118.2317077632139
 31
0.0
  0
POLYLINE
  5
6C6
  8
ﾊ_ﾈﾙ
 66
     1
 10
0.0
 20
0.0
 30
0.0
1001
GENIUS_GENREC_14
1002
{
1000
PYDIR
1011
91.692844546416026
1021
0.0
1031
-0.0
1021
322.23170776321388
1031
0.0
1002
}
1002
{
1000
PXDIR
1011
151.49284454641611
1021
0.0
1031
-0.0
1021
103.2317077632139
1031
0.0
1002
}
1002
{
1000
PORI
1011
91.692844546416026
1021
0.0
1031
-0.0
1021
103.2317077632139
1031
0.0
1002
}
1002
{
1000
PINS
1011
91.692844546416026
1021
0.0
1031
-0.0
1021
103.2317077632139
1031
0.0
1002
}
1002
{
1000
HVAL
1000
130
1002
}
1002
{
1000
H
1070
     2
1002
}
1002
{
1000
WVAL
1000
29.8
1002
}
1002
{
1000
W
1070
     2
1002
}
1002
{
1000
C
1070
     1
1002
}
1001
GENIUS_GENODEF_13
1002
{
1000
HIER
1070
     0
1002
}
1002
{
1000
MANEDIT
1070
     0
1002
}
1002
{
1000
NOSEL
1070
     0
1002
}
1002
{
1000
BEHIND
1070
     0
1002
}
1002
{
1000
OTHER
1070
     0
1002
}
1002
{
1000
REACTOR
1002
}
1001
GENIUS_GENOBJ-N-REC_13
1002
{
1000
OWNER
1000
GEN
1002
}
  0
VERTEX
  5
6C7
  8
ﾊ_ﾈﾙ
 10
151.49284454641599
 20
212.7317077632139
 30
0.0
  0
VERTEX
  5
6C8
  8
ﾊ_ﾈﾙ
 10
151.49284454641611
 20
322.23170776321388
 30
0.0
  0
VERTEX
  5
6C9
  8
ﾊ_ﾈﾙ
 10
91.692844546416026
 20
322.23170776321388
 30
0.0
  0
VERTEX
  5
6CA
  8
ﾊ_ﾈﾙ
 10
91.692844546416026
 20
212.7317077632139
 30
0.0
  0
SEQEND
  5
6CB
  8
ﾊ_ﾈﾙ
  0
DIMENSION
  5
6DE
  8
AM_5
  2
*D6
 10
151.49284454641611
 20
340.23170876321387
 30
0.0
 11
121.5928445464161
 21
345.10670876321387
 31
0.0
 70
     0
 13
91.692844546416026
 23
322.23170776321388
 33
0.0
 14
151.49284454641611
 24
322.23170776321388
 34
0.0
1001
ACAD
1000
DSTYLE
1002
{
1070
    40
1040
1.5
1002
}
  0
DIMENSION
  5
6DF
  8
AM_5
  2
*D7
 10
76.519942171285933
 20
103.2317077632139
 30
0.0
 11
71.644425439002461
 21
212.7317077632139
 31
0.0
 70
     0
 13
91.692844546416026
 23
322.23170776321388
 33
0.0
 14
91.692844546416026
 24
103.2317077632139
 34
0.0
 50
90.0
1001
ACAD
1000
DSTYLE
1002
{
1070
    40
1040
1.5
1002
}
  0
CIRCLE
  5
6E3
  8
ﾊ_ﾈﾙ
 10
136.59284454641599
 20
316.48170776321388
 30
0.0
 40
1.75
  0
LINE
  5
6E4
  8
ﾊ_ﾈﾙ0
 10
91.692844546416026
 20
307.23170776321388
 30
0.0
 11
93.292844546416063
 21
307.23170776321388
 31
0.0
  0
LINE
  5
6E5
  8
ﾊ_ﾈﾙ0
 10
93.292844546416063
 20
307.23170776321388
 30
0.0
 11
93.292844546416063
 21
212.7317077632139
 31
0.0
  0
LINE
  5
6E6
  8
ﾊ_ﾈﾙ
 10
202.05130251042081
 20
322.23170776321388
 30
0.0
 11
203.65130251042089
 21
322.23170776321388
 31
0.0
  0
LINE
  5
6E7
  8
ﾊ_ﾈﾙ
 10
214.05130251042081
 20
307.23170776321388
 30
0.0
 11
203.65130251042089
 21
307.23170776321388
 31
0.0
  0
LINE
  5
6E8
  8
ﾊ_ﾈﾙ
 10
214.05130251042081
 20
118.2317077632139
 30
0.0
 11
203.65130251042089
 21
118.2317077632139
 31
0.0
  0
LINE
  5
6E9
  8
ﾊ_ﾈﾙ
 10
202.05130251042081
 20
103.2317077632139
 30
0.0
 11
203.65130251042089
 21
103.2317077632139
 31
0.0
  0
LINE
  5
6EA
  8
ﾊ_ﾈﾙ
 10
203.65130251042089
 20
322.23170776321388
 30
0.0
 11
203.65130251042089
 21
103.2317077632139
 31
0.0
  0
LINE
  5
6EB
  8
ﾊ_ﾈﾙ
 10
202.05130251042081
 20
322.23170776321388
 30
0.0
 11
202.05130251042081
 21
103.2317077632139
 31
0.0
  0
LINE
  5
6EC
  8
ﾊ_ﾈﾙ
 10
214.05130251042081
 20
118.2317077632139
 30
0.0
 11
214.05130251042081
 21
307.23170776321388
 31
0.0
  0
INSERT
  5
78E
  8
0
  2
TK-A4
 10
0.0
 20
0.0
 30
0.0
 41
1.5
 42
1.5
 43
1.5
1001
GENIUS_GENOREF_13
1005
799
1001
GENIUS_GENOBJ-N-SDF_13
1002
{
1000
OWNER
1000
GEN
1002
}
1001
GENIUS_GENODEF_13
1002
{
1000
HIER
1070
     0
1002
}
1002
{
1000
MANEDIT
1070
     0
1002
}
1002
{
1000
NOSEL
1070
     0
1002
}
1002
{
1000
BEHIND
1070
     0
1002
}
1002
{
1000
OTHER
1070
     0
1002
}
1002
{
1000
REACTOR
1002
}
1001
GENIUS_GENSCREG_13
1040
1.5
1040
1.0
1011
0.0
1021
0.0
1031
-0.0
1021
0.0
1031
0.0
1011
289.5
1021
0.0
1031
-0.0
1021
420.00000000000011
1031
0.0
1070
     3
  0
INSERT
  5
78F
  8
0
 66
     1
  2
TK-TITLE
 10
289.5
 20
0.0
 30
0.0
 41
1.5
 42
1.5
 43
1.5
1001
GENIUS_GENOREF_13
1005
799
  0
ATTRIB
  5
1395
  8
0
 10
277.4965362156812
 20
2.5577841515925539
 30
0.0
 40
3.75
  1

  2
GEN-TITLE-NR2
 70
     0
  0
ATTRIB
  5
1396
  8
0
 10
163.28622147621999
 20
19.241856488465661
 30
0.0
 40
5.25
  1
UTR-521
  2
GEN-TITLE-DES1
 70
     0
  0
ATTRIB
  5
1397
  8
0
 10
163.5
 20
13.72499999999992
 30
0.0
 40
3.75
  1
UTR型ユニットパネル
  2
GEN-TITLE-DES2
 70
     0
  0
ATTRIB
  5
1398
  8
0
 10
163.5
 20
2.9999999999999361
 30
0.0
 40
4.5
  1

  2
GEN-TITLE-NR1
 70
     0
  0
ATTRIB
  5
1399
  8
0
 10
66.057198624706245
 20
64.949999999999875
 30
0.0
 40
4.5
  1

  2
GEN-TITLE-MAT1
 70
     0
  0
ATTRIB
  5
139A
  8
0
 10
66.057198624706245
 20
49.949999999999861
 30
0.0
 40
4.5
  1

  2
GEN-TITLE-MAT2
 70
     0
  0
ATTRIB
  5
139B
  8
0
 10
26.08088863108572
 20
24.299999999999908
 30
0.0
 40
4.5
  1

 72
     2
 11
26.08088863108572
 21
23.69999999999991
 31
0.0
  2
GEN-TITLE-QTY
 70
     0
 74
     1
  0
ATTRIB
  5
139C
  8
0
 10
12.901494475296021
 20
43.049999999999962
 30
0.0
 40
4.5
  1
1:1.5
 72
     2
 11
22.762890578363908
 21
42.44999999999996
 31
0.0
  2
GEN-TITLE-SCA
 70
     0
 74
     1
  0
ATTRIB
  5
139D
  8
0
 10
3.9295714239075639
 20
5.9825138064159962
 30
0.0
 40
4.5
  1
2008/10/20
 72
     1
 11
19.17420725067922
 21
5.3825138064159956
 31
0.0
  2
GEN-TITLE-DAT
 70
     0
 74
     1
  0
SEQEND
  5
1394
  8
0
  0
POINT
  5
799
  8
0
 10
0.0
 20
0.0
 30
0.0
1001
GENIUS_GENOENT_13
1002
{
1000
MYREF
1005
799
1002
}
1002
{
1000
GRP
1005
0
1002
}
1001
GENIUS_GENOBJ-N-TIT_13
1002
{
1000
OWNER
1000
GEN
1002
}
1001
GENIUS_GENODEF_13
1002
{
1000
HIER
1070
     1
1002
}
1002
{
1000
MANEDIT
1070
     0
1002
}
1002
{
1000
NOSEL
1070
     0
1002
}
1002
{
1000
BEHIND
1070
     0
1002
}
1002
{
1000
OTHER
1070
     0
1002
}
1002
{
1000
REACTOR
1002
}
1001
GENIUS_GENOLIS_13
1002
{
1000
ENT
1005
78F
1005
78E
1005
1393
1002
}
1001
GENIUS_GENTITLE_13
1002
{
1000
BORDER
1000
TK-A4
1002
}
1002
{
1000
TITLE
1000
TK-TITLE
1002
}
1002
{
1000
SCALE
1000
1:1.5
1002
}
1002
{
1000
TITLESTD
1000
ISO
1002
}
1002
{
1000
HRA
1005
78E
1002
}
1002
{
1000
HTIT
1005
78F
1002
}
1002
{
1000
GENIUSID
1005
799
1002
}
1002
{
1000
INVTXTID
1005
0
1002
}
1002
{
1000
UNCHG
1002
{
1000
GEN-TITLE-SIZ
1000
GEN-TITLE-SCA
1002
}
1002
}
  0
INSERT
  5
7F1
  8
AM_12
  2
*S15
 10
0.0
 20
0.0
 30
0.0
1001
ACAD
1000
AcRTDxfName
1000
ACMPARTREF
  0
CIRCLE
  5
1164
  8
ﾊ_ﾈﾙ
 10
106.592844546416
 20
316.48170776321388
 30
0.0
 40
1.75
  0
CIRCLE
  5
1165
  8
ﾊ_ﾈﾙ
 10
106.592844546416
 20
108.98170776321381
 30
0.0
 40
1.75
  0
CIRCLE
  5
1166
  8
ﾊ_ﾈﾙ
 10
136.59284454641599
 20
108.98170776321381
 30
0.0
 40
1.75
  0
INSERT
  5
1404
  8
AM_12
  2
*S16
 10
0.0
 20
0.0
 30
0.0
1001
ACAD
1000
AcRTDxfName
1000
ACMPARTREF
  0
INSERT
  5
1405
  8
AM_7
  2
A$C03BB3959
 10
263.33831747656347
 20
82.805679783205193
 30
0.0
  0
CIRCLE
  5
1406
  8
AM_5
 62
     3
 10
243.17837321413691
 20
105.9387693667674
 30
0.0
 40
9.1875
  0
INSERT
  5
1407
  8
ﾊ_ﾈﾙ
  2
*U67
 10
0.0
 20
0.0
 30
0.0
  0
TRACE
  5
1408
  8
AM_5
 10
258.9243243008886
 20
85.7015992791857
 30
0.0
 11
259.99205289660188
 21
86.579580222705815
 31
0.0
 12
262.79265229494132
 22
82.08548779677119
 32
0.0
 13
262.79265229494132
 23
82.08548779677119
 33
0.0
  0
LINE
  5
1409
  8
AM_5
 10
249.01368468248
 20
98.842340946961954
 30
0.0
 11
259.45818859874521
 21
86.140589750945765
 31
0.0
  0
INSERT
  5
1413
  8
0
  2
*S17
 10
0.0
 20
0.0
 30
0.0
1001
ACAD
1000
AcRTDxfName
1000
ACMPARTLIST
  0
INSERT
  5
1419
  8
AM_5
  2
*S18
 10
0.0
 20
0.0
 30
0.0
1001
ACAD
1000
AcRTDxfName
1000
ACMBALLOON
  0
VIEWPORT
  5
17C
 67
     1
  8
0
 10
133.34999084472651
 20
101.5999970436096
 30
0.0
 40
370.22669129365238
 41
228.4221935424805
 68
     1
 69
     1
1001
ACAD
1000
MVIEW
1002
{
1070
    16
1010
0.0
1020
0.0
1030
0.0
1010
0.0
1020
0.0
1030
1.0
1040
0.0
1040
228.4221935424805
1040
133.34999084472651
1040
101.5999970436096
1040
50.0
1040
0.0
1040
0.0
1070
     0
1070
   100
1070
     1
1070
     1
1070
     0
1070
     0
1070
     0
1070
     0
1040
0.0
1040
0.0
1040
0.0
1040
10.0
1040
10.0
1040
10.0
1040
10.0
1070
     0
1002
{
1002
}
1002
}
1001
GENIUS_GENOBJ-N-SDF_13
1002
{
1000
OWNER
1000
GEN
1002
}
1001
GENIUS_GENODEF_13
1002
{
1000
HIER
1070
     0
1002
}
1002
{
1000
MANEDIT
1070
     0
1002
}
1002
{
1000
NOSEL
1070
     0
1002
}
1002
{
1000
BEHIND
1070
     0
1002
}
1002
{
1000
OTHER
1070
     0
1002
}
1002
{
1000
REACTOR
1002
}
1001
GENIUS_GENSCREG_15
1000
PF
1040
1.0
1000
DF
1040
1.0
1000
MIN
1011
-51.763354802099627
1021
0.0
1031
-0.0
1021
-12.6110997276306
1031
0.0
1000
MAX
1011
318.4633364915527
1021
0.0
1031
-0.0
1021
215.8110938148499
1031
0.0
1000
FLAGS
1070
     4
  0
ENDSEC
  0
EOF
