  0
SECTION
  2
HEADER
  9
$ACADVER
  1
AC1009
  9
$INSBASE
 10
0.0
 20
0.0
 30
0.0
  9
$EXTMIN
 10
-0.0117792459068369
 20
-0.0170890614192558
 30
-0.0000000349181948
  9
$EXTMAX
 10
193.0117810434144
 20
280.01709166920187
 30
0.0000000814935746
  9
$LIMMIN
 10
0.0
 20
0.0
  9
$LIMMAX
 10
193.0
 20
280.00000000000011
  9
$ORTHOMODE
 70
     0
  9
$REGENMODE
 70
     1
  9
$FILLMODE
 70
     1
  9
$QTEXTMODE
 70
     0
  9
$MIRRTEXT
 70
     1
  9
$DRAGMODE
 70
     2
  9
$LTSCALE
 40
1.0
  9
$OSMODE
 70
  3071
  9
$ATTMODE
 70
     1
  9
$TEXTSIZE
 40
73.985717453579113
  9
$TRACEWID
 40
1.0
  9
$TEXTSTYLE
  7
STANDARD
  9
$CLAYER
  8
TK1
  9
$CELTYPE
  6
BYLAYER
  9
$CECOLOR
 62
   256
  9
$DIMSCALE
 40
1.0
  9
$DIMASZ
 40
2.5
  9
$DIMEXO
 40
1.0
  9
$DIMDLI
 40
10.0
  9
$DIMRND
 40
0.0
  9
$DIMDLE
 40
0.0
  9
$DIMEXE
 40
1.0
  9
$DIMTP
 40
0.1
  9
$DIMTM
 40
0.1
  9
$DIMTXT
 40
3.5
  9
$DIMCEN
 40
0.0
  9
$DIMTSZ
 40
0.0
  9
$DIMTOL
 70
     0
  9
$DIMLIM
 70
     0
  9
$DIMTIH
 70
     0
  9
$DIMTOH
 70
     0
  9
$DIMSE1
 70
     0
  9
$DIMSE2
 70
     0
  9
$DIMTAD
 70
     1
  9
$DIMZIN
 70
     8
  9
$DIMBLK
  1
OPEN30
  9
$DIMASO
 70
     1
  9
$DIMSHO
 70
     1
  9
$DIMPOST
  1

  9
$DIMAPOST
  1
"
  9
$DIMALT
 70
     0
  9
$DIMALTD
 70
     2
  9
$DIMALTF
 40
0.0393701
  9
$DIMLFAC
 40
1.0
  9
$DIMTOFL
 70
     1
  9
$DIMTVP
 40
0.0
  9
$DIMTIX
 70
     0
  9
$DIMSOXD
 70
     0
  9
$DIMSAH
 70
     0
  9
$DIMBLK1
  1

  9
$DIMBLK2
  1

  9
$DIMSTYLE
  2
AM_ISO
  9
$DIMCLRD
 70
   256
  9
$DIMCLRE
 70
   256
  9
$DIMCLRT
 70
     2
  9
$DIMTFAC
 40
0.71
  9
$DIMGAP
 40
1.5
  9
$LUNITS
 70
     2
  9
$LUPREC
 70
     2
  9
$SKETCHINC
 40
1.0
  9
$FILLETRAD
 40
1.0
  9
$AUNITS
 70
     0
  9
$AUPREC
 70
     0
  9
$MENU
  1
.
  9
$ELEVATION
 40
0.0
  9
$PELEVATION
 40
0.0
  9
$THICKNESS
 40
0.0
  9
$LIMCHECK
 70
     0
  9
$BLIPMODE
 70
     0
  9
$CHAMFERA
 40
2.5
  9
$CHAMFERB
 40
2.5
  9
$SKPOLY
 70
     0
  9
$TDCREATE
 40
2456100.4116420718
  9
$TDUPDATE
 40
2456105.4893541429
  9
$TDINDWG
 40
0.2013972106
  9
$TDUSRTIMER
 40
0.2013972106
  9
$USRTIMER
 70
     1
  9
$ANGBASE
 50
0.0
  9
$ANGDIR
 70
     0
  9
$PDMODE
 70
     0
  9
$PDSIZE
 40
0.0
  9
$PLINEWID
 40
0.0
  9
$COORDS
 70
     2
  9
$SPLFRAME
 70
     0
  9
$SPLINETYPE
 70
     6
  9
$SPLINESEGS
 70
     8
  9
$ATTDIA
 70
     1
  9
$ATTREQ
 70
     1
  9
$HANDLING
 70
     1
  9
$HANDSEED
  5
DEF
  9
$SURFTAB1
 70
     6
  9
$SURFTAB2
 70
     6
  9
$SURFTYPE
 70
     6
  9
$SURFU
 70
     6
  9
$SURFV
 70
     6
  9
$UCSNAME
  2

  9
$UCSORG
 10
0.0
 20
0.0
 30
0.0
  9
$UCSXDIR
 10
1.0
 20
0.0
 30
0.0
  9
$UCSYDIR
 10
0.0
 20
1.0
 30
0.0
  9
$PUCSNAME
  2

  9
$PUCSORG
 10
0.0
 20
0.0
 30
0.0
  9
$PUCSXDIR
 10
1.0
 20
0.0
 30
0.0
  9
$PUCSYDIR
 10
0.0
 20
1.0
 30
0.0
  9
$USERI1
 70
     0
  9
$USERI2
 70
     0
  9
$USERI3
 70
     0
  9
$USERI4
 70
     0
  9
$USERI5
 70
     0
  9
$USERR1
 40
0.0
  9
$USERR2
 40
0.0
  9
$USERR3
 40
0.0
  9
$USERR4
 40
0.0
  9
$USERR5
 40
0.0
  9
$WORLDVIEW
 70
     1
  9
$SHADEDGE
 70
     3
  9
$SHADEDIF
 70
    70
  9
$TILEMODE
 70
     1
  9
$MAXACTVP
 70
    64
  9
$PLIMCHECK
 70
     0
  9
$PEXTMIN
 10
1.0000000000000000E+020
 20
1.0000000000000000E+020
 30
1.0000000000000000E+020
  9
$PEXTMAX
 10
-1.0000000000000000E+020
 20
-1.0000000000000000E+020
 30
-1.0000000000000000E+020
  9
$PLIMMIN
 10
-6.350006103515625
 20
-6.3499999046325684
  9
$PLIMMAX
 10
273.04998779296881
 20
209.54999399185181
  9
$UNITMODE
 70
     0
  9
$VISRETAIN
 70
     1
  9
$PLINEGEN
 70
     0
  9
$PSLTSCALE
 70
     1
  0
ENDSEC
  0
SECTION
  2
TABLES
  0
TABLE
  2
VPORT
 70
     1
  0
VPORT
  2
*ACTIVE
 70
     0
 10
0.0
 20
0.0
 11
1.0
 21
1.0
 12
96.500000898753797
 22
140.00000130389131
 13
0.0
 23
0.0
 14
2.5
 24
2.5
 15
10.0
 25
10.0
 16
0.0
 26
0.0
 36
1.0
 17
0.0
 27
0.0
 37
0.0
 40
284.72749102219592
 41
1.6190476190476191
 42
50.0
 43
0.0
 44
0.0
 50
0.0
 51
0.0
 71
     0
 72
   100
 73
     1
 74
     3
 75
     0
 76
     0
 77
     0
 78
     0
  0
ENDTAB
  0
TABLE
  2
LTYPE
 70
    20
  0
LTYPE
  2
CONTINUOUS
 70
     0
  3
Solid line
 72
    65
 73
     0
 40
0.0
  0
LTYPE
  2
AM_ISO02W050
 70
     0
  3
__ __ __ __ __ __ __ __ __ __ __ __ __ __ __
 72
    65
 73
     2
 40
7.5
 49
6.0
 49
-1.5
  0
LTYPE
  2
AM_ISO08W050
 70
     0
  3
____ . ____ . ____ . ____ . ____ . ____ . ____
 72
    65
 73
     4
 40
18.0
 49
12.0
 49
-1.5
 49
3.0
 49
-1.5
  0
LTYPE
  2
AM_ISO09W050
 70
     0
  3
_____ . . _____ . . _____ . . ____ .. ____
 72
    65
 73
     6
 40
22.5
 49
12.0
 49
-1.5
 49
3.0
 49
-1.5
 49
3.0
 49
-1.5
  0
LTYPE
  2
AMCONSTR
 70
     0
  3
_______________________
 72
    65
 73
     2
 40
9999.0
 49
9999.0
 49
0.0
  0
LTYPE
  2
AM_ISO08W050X2
 70
     0
  3
__ . __ . __ . __ . __ . __
 72
    65
 73
     4
 40
9.0
 49
6.0
 49
-0.75
 49
1.5
 49
-0.75
  0
LTYPE
  2
AM_ISO02W050X2
 70
     0
  3
 _ _ _ _ _ _ _ _ _ _ _ _
 72
    65
 73
     2
 40
3.75
 49
3.0
 49
-0.75
  0
LTYPE
  2
AMZIGZAG
 70
     0
  3
/\/-/\/-/\/-/\/-/\/-/\/
 72
    65
 73
     2
 40
11.0001
 49
0.0001
 49
-11.0
  0
LTYPE
  2
ACISOWELD
 70
     0
  3
_ _ _ _ _
 72
    65
 73
     2
 40
2.0
 49
2.0
 49
-1.0
  0
LTYPE
  2
ACISOTGB
 70
     0
  3
__ . . __ . .
 72
    65
 73
     6
 40
9.0
 49
4.0
 49
-1.0
 49
1.0
 49
-1.0
 49
1.0
 49
-1.0
  0
LTYPE
  2
ACISOTGL
 70
     0
  3
_ _ _ _ _
 72
    65
 73
     2
 40
3.0
 49
2.0
 49
-1.0
  0
LTYPE
  2
CENTER
 70
     0
  3
__ . __
 72
    65
 73
     4
 40
7.0
 49
4.0
 49
-1.0
 49
1.0
 49
-1.0
  0
LTYPE
  2
HIDDEN
 70
     0
  3
Hidden __ __ __ __ __ __ __ __ __ __ __ __ __ _
 72
    65
 73
     2
 40
9.5249999999999986
 49
6.3499999999999988
 49
-3.1749999999999989
  0
LTYPE
  2
PHANTOM2
 70
     0
  3
Phantom (.5x) ___ _ _ ___ _ _ ___ _ _ ___ _ _
 72
    65
 73
     6
 40
31.75
 49
15.875
 49
-3.1749999999999989
 49
3.1749999999999989
 49
-3.1749999999999989
 49
3.1749999999999989
 49
-3.1749999999999989
  0
LTYPE
  2
GEN3
 70
     0
  3
-- -- -- -- -- -- -- -- -- -- -- -- -- -- --
 72
    65
 73
     2
 40
6.25
 49
4.75
 49
-1.5
  0
LTYPE
  2
GEN7
 70
     0
  3
____ . ____ . ____ . ____ . ____ . ____ . ____
 72
    65
 73
     4
 40
13.75
 49
9.75
 49
-1.5
 49
1.0
 49
-1.5
  0
LTYPE
  2
GEN3A
 70
     0
  3
 - - - - -
 72
    65
 73
     2
 40
3.125
 49
2.25
 49
-0.875
  0
LTYPE
  2
GEN7A
 70
     0
  3
__ . __ . __
 72
    65
 73
     4
 40
6.875
 49
4.75
 49
-0.875
 49
0.375
 49
-0.875
  0
LTYPE
  2
GEN4A
 70
     0
  3
_____ . . _____ . . _____ . . ____ .. ____
 72
    65
 73
     6
 40
16.25
 49
9.75
 49
-1.5
 49
1.0
 49
-1.5
 49
1.0
 49
-1.5
  0
LTYPE
  2
GENZIGZAG
 70
     0
  3
/\/-/\/-/\/-/\/-/\/-/\/
 72
    65
 73
     2
 40
12.0001
 49
0.0001
 49
-12.0
  0
ENDTAB
  0
TABLE
  2
LAYER
 70
    23
  0
LAYER
  2
0
 70
     0
 62
     7
  6
CONTINUOUS
  0
LAYER
  2
DEFPOINTS
 70
     0
 62
     7
  6
CONTINUOUS
  0
LAYER
  2
TK1
 70
     0
 62
     7
  6
CONTINUOUS
  0
LAYER
  2
TK10
 70
     0
 62
     7
  6
AM_ISO02W050X2
  0
LAYER
  2
TK2
 70
     0
 62
     2
  6
CONTINUOUS
  0
LAYER
  2
TK3
 70
     0
 62
     5
  6
CONTINUOUS
  0
LAYER
  2
TK20
 70
     0
 62
     2
  6
AM_ISO02W050X2
  0
LAYER
  2
TK30
 70
     0
 62
     5
  6
AM_ISO02W050X2
  0
LAYER
  2
TK4
 70
     0
 62
     3
  6
CONTINUOUS
  0
LAYER
  2
TK5
 70
     0
 62
     4
  6
CONTINUOUS
  0
LAYER
  2
TK6
 70
     0
 62
     6
  6
CONTINUOUS
  0
LAYER
  2
TK7
 70
     0
 62
     1
  6
CONTINUOUS
  0
LAYER
  2
TK8
 70
     0
 62
     8
  6
CONTINUOUS
  0
LAYER
  2
TK40
 70
     0
 62
     3
  6
AM_ISO02W050X2
  0
LAYER
  2
TK50
 70
     0
 62
     4
  6
AM_ISO02W050X2
  0
LAYER
  2
TK60
 70
     0
 62
     6
  6
AM_ISO02W050X2
  0
LAYER
  2
TK70
 70
     0
 62
     1
  6
AM_ISO02W050X2
  0
LAYER
  2
TK80
 70
     0
 62
     8
  6
AM_ISO02W050X2
  0
LAYER
  2
AM_7
 70
     0
 62
     4
  6
AM_ISO08W050
  0
LAYER
  2
AM_5
 70
     0
 62
     3
  6
CONTINUOUS
  0
LAYER
  2
7A
 70
     0
 62
     4
  6
GEN7A
  0
LAYER
  2
RAHM2
 70
     0
 62
     1
  6
CONTINUOUS
  0
LAYER
  2
AM_CL
 70
     0
 62
     1
  6
AMCONSTR
  0
ENDTAB
  0
TABLE
  2
STYLE
 70
     5
  0
STYLE
  2
STANDARD
 70
     0
 40
0.0
 41
1.0
 50
0.0
 71
     0
 42
73.985717453579113
  3
ISOCP.SHX
  4
bigfont.shx
  0
STYLE
  2

 70
     1
 40
0.0
 41
1.0
 50
0.0
 71
     0
 42
2.5
  3
ltypeshp.shx
  4

  0
STYLE
  2
ACISOTS
 70
     0
 40
1.0
 41
1.0
 50
0.0
 71
     0
 42
2.5
  3
isocp.shx
  4
extfont.shx
  0
STYLE
  2
ACISOGDT
 70
     0
 40
0.0
 41
1.0
 50
0.0
 71
     0
 42
2.5
  3
amgdt.shx
  4

  0
STYLE
  2

 70
     1
 40
0.0
 41
1.0
 50
0.0
 71
     0
 42
3.0
  3
genltshp.shx
  4

  0
ENDTAB
  0
TABLE
  2
VIEW
 70
     6
  0
VIEW
  2
AM_VIEW1
 70
     0
 40
140.0
 10
105.7052896725441
 20
210.0
 41
211.41057934508819
 11
0.0
 21
0.0
 31
1.0
 12
0.0
 22
0.0
 32
0.0
 42
50.0
 43
0.0
 44
0.0
 50
0.0
 71
     0
  0
VIEW
  2
AM_VIEW2
 70
     0
 40
140.0
 10
87.294710327455888
 20
210.0
 41
211.41057934508819
 11
0.0
 21
0.0
 31
1.0
 12
0.0
 22
0.0
 32
0.0
 42
50.0
 43
0.0
 44
0.0
 50
0.0
 71
     0
  0
VIEW
  2
AM_VIEW3
 70
     0
 40
140.0
 10
105.7052896725441
 20
70.000000000000014
 41
211.41057934508819
 11
0.0
 21
0.0
 31
1.0
 12
0.0
 22
0.0
 32
0.0
 42
50.0
 43
0.0
 44
0.0
 50
0.0
 71
     0
  0
VIEW
  2
AM_VIEW4
 70
     0
 40
140.0
 10
87.294710327455888
 20
70.000000000000014
 41
211.41057934508819
 11
0.0
 21
0.0
 31
1.0
 12
0.0
 22
0.0
 32
0.0
 42
50.0
 43
0.0
 44
0.0
 50
0.0
 71
     0
  0
VIEW
  2
AM_VIEW5
 70
     0
 40
140.0
 10
96.5
 20
140.0
 41
211.41057934508819
 11
0.0
 21
0.0
 31
1.0
 12
0.0
 22
0.0
 32
0.0
 42
50.0
 43
0.0
 44
0.0
 50
0.0
 71
     0
  0
VIEW
  2
AM_VIEW6
 70
     0
 40
279.99720000000008
 10
96.499999999999986
 20
140.0
 41
422.81693047858943
 11
0.0
 21
0.0
 31
1.0
 12
0.0
 22
0.0
 32
0.0
 42
50.0
 43
0.0
 44
0.0
 50
0.0
 71
     0
  0
ENDTAB
  0
TABLE
  2
UCS
 70
     0
  0
ENDTAB
  0
TABLE
  2
APPID
 70
    41
  0
APPID
  2
ACAD
 70
     0
  0
APPID
  2
MCAD_NO_VIS
 70
     0
  0
APPID
  2
ACAD_TEMP_GRAPHIC
 70
     0
  0
APPID
  2
ACATTRIBSERVICES
 70
     0
  0
APPID
  2
AD_DRAW
 70
     0
  0
APPID
  2
DESIGNERASSEMBLIES
 70
     0
  0
APPID
  2
ACADM_DIM_EDIT
 70
     0
  0
APPID
  2
AMDT_DM_ADJ
 70
     0
  0
APPID
  2
GENIUS_GENREC_14
 70
     0
  0
APPID
  2
GENIUS_GENODEF_13
 70
     0
  0
APPID
  2
GENIUS_GENOBJ-N-REC_13
 70
     0
  0
APPID
  2
GENIUS_GENDIMSH_14
 70
     0
  0
APPID
  2
GENIUS_GENCFG_13
 70
     0
  0
APPID
  2
GENIUS_GENCFG0_13
 70
     0
  0
APPID
  2
GENIUS_GENCFG1_13
 70
     0
  0
APPID
  2
GENIUS_GENCFG2_13
 70
     0
  0
APPID
  2
GENIUS_GENCFG3_13
 70
     0
  0
APPID
  2
GENIUS_GENCFG4_13
 70
     0
  0
APPID
  2
GENIUS_GEVCFG0_13
 70
     0
  0
APPID
  2
GENIUS_GENOENT_13
 70
     0
  0
APPID
  2
GENIUS_GENOBJ-N-CRS_13
 70
     0
  0
APPID
  2
GENIUS_GENOREF_13
 70
     0
  0
APPID
  2
GENIUS_GENOLIS_13
 70
     0
  0
APPID
  2
GENIUS_GENOBJ-N-TIT_13
 70
     0
  0
APPID
  2
GENIUS_GENTITLE_13
 70
     0
  0
APPID
  2
GENIUS_GENSCREG_15
 70
     0
  0
APPID
  2
GENIUS_GENOBJ-N-SDF_13
 70
     0
  0
APPID
  2
GENIUS_GENOBJ-N-CEN_13
 70
     0
  0
APPID
  2
GENIUS_GENOBJ-N-HTC_13
 70
     0
  0
APPID
  2
GENIUS_GENHATCH_13
 70
     0
  0
APPID
  2
GENIUS_GENOBJ-N-ZOO_13
 70
     0
  0
APPID
  2
GENIUS_GENZOO_17
 70
     0
  0
APPID
  2
ACAD_MLEADERVER
 70
     0
  0
APPID
  2
ACAECLAYERSTANDARD
 70
     0
  0
APPID
  2
ACAD_EXEMPT_FROM_CAD_STANDARDS
 70
     0
  0
APPID
  2
GENIUS_GENOBJ-N-FIL_13
 70
     0
  0
APPID
  2
GENIUS_GENCEN_19
 70
     0
  0
APPID
  2
ACAD_DSTYLE_DIMINSPECT
 70
     0
  0
APPID
  2
ACAD_DSTYLE_DIMRADIAL_EXTENSION
 70
     0
  0
APPID
  2
GENIUS_GENDTOL_13
 70
     0
  0
APPID
  2
GENIUS_GENSCREG_13
 70
     0
  0
ENDTAB
  0
TABLE
  2
DIMSTYLE
 70
    16
  0
DIMSTYLE
  2
AM_ISO
 70
     0
  3

  4
"
  5
OPEN30
  6

  7

 40
1.0
 41
2.5
 42
1.0
 43
10.0
 44
1.0
 45
0.0
 46
0.0
 47
0.1
 48
0.1
140
3.5
141
0.0
142
0.0
143
0.0393701
144
1.0
145
0.0
146
0.71
147
1.5
 71
     0
 72
     0
 73
     0
 74
     0
 75
     0
 76
     0
 77
     1
 78
     8
170
     0
171
     2
172
     1
173
     0
174
     0
175
     0
176
   256
177
   256
178
     2
  0
DIMSTYLE
  2
AM_ISO$3
 70
     0
  3

  4
"
  5
OPEN30
  6

  7

 40
1.0
 41
2.5
 42
1.0
 43
10.0
 44
1.0
 45
0.0
 46
0.0
 47
0.1
 48
0.1
140
3.5
141
0.0
142
0.0
143
0.0393701
144
1.0
145
0.0
146
0.71
147
1.5
 71
     0
 72
     0
 73
     0
 74
     1
 75
     0
 76
     0
 77
     1
 78
     8
170
     0
171
     2
172
     0
173
     0
174
     0
175
     0
176
   256
177
   256
178
     2
  0
DIMSTYLE
  2
AM_ISO$4
 70
     0
  3

  4
"
  5
OPEN30
  6

  7

 40
1.0
 41
2.5
 42
1.0
 43
10.0
 44
1.0
 45
0.0
 46
0.0
 47
0.1
 48
0.1
140
3.5
141
0.0
142
0.0
143
0.0393701
144
1.0
145
0.0
146
0.71
147
1.5
 71
     0
 72
     0
 73
     0
 74
     1
 75
     0
 76
     0
 77
     1
 78
     8
170
     0
171
     2
172
     0
173
     0
174
     0
175
     0
176
   256
177
   256
178
     2
  0
DIMSTYLE
  2
AM_ISO$6
 70
     0
  3

  4
"
  5
OPEN30
  6

  7

 40
1.0
 41
2.5
 42
1.0
 43
10.0
 44
1.0
 45
0.0
 46
0.0
 47
0.1
 48
0.1
140
3.5
141
0.0
142
0.0
143
0.0393701
144
1.0
145
0.0
146
0.71
147
1.5
 71
     0
 72
     0
 73
     0
 74
     0
 75
     0
 76
     0
 77
     0
 78
     8
170
     0
171
     2
172
     1
173
     0
174
     0
175
     0
176
   256
177
   256
178
     2
  0
DIMSTYLE
  2
AM_ISO$7
 70
     0
  3

  4
"
  5
OPEN30
  6

  7

 40
1.0
 41
2.5
 42
1.0
 43
10.0
 44
1.0
 45
0.0
 46
0.0
 47
0.1
 48
0.1
140
5.0
141
0.0
142
0.0
143
0.0393701
144
1.0
145
0.0
146
0.71
147
1.5
 71
     0
 72
     0
 73
     0
 74
     0
 75
     0
 76
     0
 77
     1
 78
     8
170
     0
171
     2
172
     1
173
     0
174
     0
175
     0
176
   256
177
   256
178
     2
  0
DIMSTYLE
  2
AM_ISO$SF
 70
     0
  3

  4
"
  5
OPEN30
  6

  7

 40
1.0
 41
2.5
 42
1.0
 43
10.0
 44
1.0
 45
0.0
 46
0.0
 47
0.1
 48
0.1
140
3.5
141
0.0
142
0.0
143
0.0393701
144
1.0
145
0.0
146
0.71
147
1.5
 71
     0
 72
     0
 73
     0
 74
     0
 75
     1
 76
     1
 77
     1
 78
     8
170
     0
171
     2
172
     1
173
     0
174
     0
175
     0
176
   256
177
   256
178
     2
  0
DIMSTYLE
  2
AM_ISO$SH
 70
     0
  3

  4
"
  5

  6
GENAXEH
  7
OPEN30
 40
1.0
 41
2.5
 42
1.0
 43
10.0
 44
1.0
 45
0.0
 46
0.0
 47
0.1
 48
0.1
140
3.5
141
0.0
142
0.0
143
0.0393701
144
2.0
145
0.0
146
0.71
147
1.5
 71
     0
 72
     0
 73
     0
 74
     0
 75
     1
 76
     1
 77
     1
 78
     8
170
     0
171
     2
172
     1
173
     1
174
     0
175
     0
176
   256
177
   256
178
     2
  0
DIMSTYLE
  2
GEN-ISO
 70
     0
  3

  4
"
  5

  6

  7

 40
1.0
 41
2.5
 42
1.0
 43
10.0
 44
1.0
 45
0.0
 46
0.0
 47
0.1
 48
0.1
140
3.5
141
0.0
142
0.0
143
0.0393701
144
1.0
145
0.0
146
0.71
147
1.5
 71
     0
 72
     0
 73
     0
 74
     0
 75
     0
 76
     0
 77
     1
 78
     8
170
     0
171
     2
172
     1
173
     0
174
     0
175
     0
176
   256
177
   256
178
     2
  0
DIMSTYLE
  2
GEN-ISO$3
 70
     0
  3

  4
"
  5

  6

  7

 40
1.0
 41
2.5
 42
1.0
 43
10.0
 44
1.0
 45
0.0
 46
0.0
 47
0.1
 48
0.1
140
3.5
141
0.0
142
0.0
143
0.0393701
144
1.0
145
0.0
146
0.71
147
1.5
 71
     0
 72
     0
 73
     0
 74
     1
 75
     0
 76
     0
 77
     1
 78
     8
170
     0
171
     2
172
     0
173
     0
174
     0
175
     0
176
   256
177
   256
178
     2
  0
DIMSTYLE
  2
GEN-ISO$4
 70
     0
  3

  4
"
  5

  6

  7

 40
1.0
 41
2.5
 42
1.0
 43
10.0
 44
1.0
 45
0.0
 46
0.0
 47
0.1
 48
0.1
140
3.5
141
0.0
142
0.0
143
0.0393701
144
1.0
145
0.0
146
0.71
147
1.5
 71
     0
 72
     0
 73
     0
 74
     1
 75
     0
 76
     0
 77
     1
 78
     8
170
     0
171
     2
172
     0
173
     0
174
     0
175
     0
176
   256
177
   256
178
     2
  0
DIMSTYLE
  2
GEN-ISO$6
 70
     0
  3

  4
"
  5

  6

  7

 40
1.0
 41
2.5
 42
1.0
 43
10.0
 44
1.0
 45
0.0
 46
0.0
 47
0.1
 48
0.1
140
3.5
141
0.0
142
0.0
143
0.0393701
144
1.0
145
0.0
146
0.71
147
1.5
 71
     0
 72
     0
 73
     0
 74
     0
 75
     0
 76
     0
 77
     0
 78
     8
170
     0
171
     2
172
     0
173
     0
174
     0
175
     0
176
   256
177
   256
178
     2
  0
DIMSTYLE
  2
GEN-ISO-POS
 70
     0
  3

  4
"
  5

  6

  7

 40
1.0
 41
2.5
 42
1.0
 43
10.0
 44
1.0
 45
0.0
 46
0.0
 47
0.1
 48
0.1
140
5.0
141
0.0
142
0.0
143
0.0393701
144
1.0
145
0.0
146
0.71
147
1.5
 71
     0
 72
     0
 73
     0
 74
     0
 75
     0
 76
     0
 77
     0
 78
     8
170
     0
171
     2
172
     0
173
     0
174
     0
175
     0
176
   256
177
   256
178
     2
  0
DIMSTYLE
  2
GEN-ISO-AXE-F
 70
     0
  3

  4
"
  5

  6

  7

 40
1.0
 41
2.5
 42
1.0
 43
10.0
 44
1.0
 45
0.0
 46
0.0
 47
0.1
 48
0.1
140
3.5
141
0.0
142
0.0
143
0.0393701
144
1.0
145
0.0
146
0.71
147
1.5
 71
     0
 72
     0
 73
     0
 74
     0
 75
     1
 76
     1
 77
     1
 78
     8
170
     0
171
     2
172
     1
173
     0
174
     0
175
     0
176
   256
177
   256
178
     2
  0
DIMSTYLE
  2
GEN-ISO-AXE-H
 70
     0
  3

  4
"
  5

  6

  7

 40
1.0
 41
2.5
 42
1.0
 43
10.0
 44
1.0
 45
0.0
 46
0.0
 47
0.1
 48
0.1
140
3.5
141
0.0
142
0.0
143
0.0393701
144
2.0
145
0.0
146
0.71
147
1.5
 71
     0
 72
     0
 73
     0
 74
     0
 75
     1
 76
     1
 77
     1
 78
     8
170
     0
171
     2
172
     1
173
     1
174
     0
175
     0
176
   256
177
   256
178
     2
  0
DIMSTYLE
  2
AM_ANSI
 70
     0
  3

  4
mm
  5

  6

  7

 40
1.0
 41
0.1
 42
0.05
 43
0.5
 44
0.1
 45
0.0
 46
0.0
 47
0.1
 48
0.1
140
0.12
141
0.0
142
0.0
143
25.399999999999999
144
1.0
145
0.0
146
0.71
147
0.06
 71
     0
 72
     0
 73
     1
 74
     1
 75
     0
 76
     0
 77
     0
 78
     7
170
     0
171
     2
172
     0
173
     0
174
     0
175
     0
176
   256
177
   256
178
     2
  0
DIMSTYLE
  2
AM_ISO$0
 70
     0
  3

  4
"
  5
OPEN30
  6

  7

 40
1.0
 41
2.5
 42
1.0
 43
10.0
 44
1.0
 45
0.0
 46
0.0
 47
0.1
 48
0.1
140
3.5
141
0.0
142
0.0
143
0.0393701
144
1.0
145
0.0
146
0.71
147
1.5
 71
     0
 72
     0
 73
     0
 74
     0
 75
     0
 76
     0
 77
     1
 78
     8
170
     0
171
     2
172
     1
173
     0
174
     0
175
     0
176
   256
177
   256
178
     2
  0
ENDTAB
  0
ENDSEC
  0
SECTION
  2
BLOCKS
  0
BLOCK
  8
0
  2
$MODEL_SPACE
 70
     0
 10
0.0
 20
0.0
 30
0.0
  3
$MODEL_SPACE
  1

  0
ENDBLK
  5
21
  8
0
  0
BLOCK
 67
     1
  8
0
  2
$PAPER_SPACE
 70
     0
 10
0.0
 20
0.0
 30
0.0
  3
$PAPER_SPACE
  1

  0
ENDBLK
  5
25
 67
     1
  8
0
  0
BLOCK
  8
0
  2
GENAXEH
 70
     0
 10
0.0
 20
0.0
 30
0.0
  3
GENAXEH
  1

  0
LINE
  5
C25
  8
0
 10
-1.0
 20
0.0
 30
0.0
 11
1.0
 21
0.0
 31
0.0
  0
ENDBLK
  5
C26
  8
0
  0
BLOCK
  8
0
  2
_OPEN30
 70
     0
 10
0.0
 20
0.0
 30
0.0
  3
_OPEN30
  1

  0
LINE
  5
C19
  8
0
  6
BYBLOCK
 62
     0
 10
-1.0
 20
0.26794919
 30
0.0
 11
0.0
 21
0.0
 31
0.0
  0
LINE
  5
C1A
  8
0
  6
BYBLOCK
 62
     0
 10
0.0
 20
0.0
 30
0.0
 11
-1.0
 21
-0.26794919
 31
0.0
  0
LINE
  5
C1B
  8
0
  6
BYBLOCK
 62
     0
 10
0.0
 20
0.0
 30
0.0
 11
-1.0
 21
0.0
 31
0.0
  0
ENDBLK
  5
C1C
  8
0
  0
BLOCK
  8
0
  2
TAKACHI-A3
 70
     0
 10
0.0
 20
0.0
 30
0.0
  3
TAKACHI-A3
  1

  0
POLYLINE
  5
5FB
  8
0
 66
     1
 10
0.0
 20
0.0
 30
0.0
 70
     1
1001
GENIUS_GENREC_14
1002
{
1000
PYDIR
1011
10.000000000000011
1021
0.0
1031
0.0
1021
280.0
1031
0.0
1002
}
1002
{
1000
PXDIR
1011
410.0
1021
0.0
1031
0.0
1021
0.0
1031
0.0
1002
}
1002
{
1000
PORI
1011
10.0
1021
0.0
1031
0.0
1021
0.0
1031
0.0
1002
}
1002
{
1000
PINS
1011
210.0
1021
0.0
1031
0.0
1021
139.99999999999989
1031
0.0
1002
}
1002
{
1000
HVAL
1000
280
1002
}
1002
{
1000
H
1070
     2
1002
}
1002
{
1000
WVAL
1000
400
1002
}
1002
{
1000
W
1070
     2
1002
}
1002
{
1000
C
1070
     4
1002
}
1001
GENIUS_GENODEF_13
1002
{
1000
HIER
1070
     0
1002
}
1002
{
1000
MANEDIT
1070
     0
1002
}
1002
{
1000
NOSEL
1070
     0
1002
}
1002
{
1000
BEHIND
1070
     0
1002
}
1002
{
1000
REACTOR
1002
}
1001
GENIUS_GENOBJ-N-REC_13
1002
{
1000
OWNER
1000
GEN
1002
}
  0
VERTEX
  5
C9B
  8
0
 10
10.0
 20
0.0
 30
0.0
  0
VERTEX
  5
C9C
  8
0
 10
410.0
 20
0.0
 30
0.0
  0
VERTEX
  5
C9D
  8
0
 10
410.0
 20
280.0
 30
0.0
  0
VERTEX
  5
C9E
  8
0
 10
10.00000000000003
 20
280.0
 30
0.0
  0
SEQEND
  5
C9F
  8
0
  0
TEXT
  5
5FC
  8
0
 10
15.00000000000003
 20
50.0
 30
0.0
 40
2.5
  1
!GENTITLE-LL
  0
TEXT
  5
5FD
  8
0
 10
410.0
 20
0.0
 30
0.0
 40
2.5
  1
!GENTITLE-INSERT
  0
TEXT
  5
5FE
  8
0
 10
405.0
 20
275.0
 30
0.0
 40
2.5
  1
!GENTITLE-RU
  0
TEXT
  5
5FF
  8
0
 10
410.0
 20
280.0
 30
0.0
 40
2.5
  1
!GENTITLE-MAX
  0
LINE
  5
600
  8
0
 10
366.0
 20
275.0
 30
0.0
 11
410.0
 21
275.0
 31
0.0
  0
INSERT
  5
601
  8
TK1
  2
*U17
 10
0.0
 20
0.0
 30
0.0
  0
LINE
  5
602
  8
0
 10
366.0
 20
280.0
 30
0.0
 11
366.0
 21
275.0
 31
0.0
  0
ENDBLK
  5
605
  8
0
  0
BLOCK
  8
0
  2
TAKACHI-TITLE
 70
     2
 10
0.0
 20
0.0
 30
0.0
  3
TAKACHI-TITLE
  1

  0
LINE
  5
614
  8
RAHM2
 10
-195.0
 20
30.000000000000028
 30
0.0
 11
-94.0
 21
30.000000000000028
 31
0.0
  0
LINE
  5
615
  8
RAHM2
 10
-195.0
 20
35.000000000000028
 30
0.0
 11
-94.0
 21
35.000000000000028
 31
0.0
  0
LINE
  5
616
  8
RAHM2
 10
-195.0
 20
40.000000000000021
 30
0.0
 11
-94.0
 21
40.000000000000021
 31
0.0
  0
LINE
  5
617
  8
RAHM2
 10
-195.0
 20
45.000000000000021
 30
0.0
 11
-94.0
 21
45.000000000000021
 31
0.0
  0
LINE
  5
618
  8
0
 10
-195.0
 20
7.0
 30
0.0
 11
-94.0
 21
7.0
 31
0.0
  0
LINE
  5
619
  8
0
 10
-195.0
 20
19.999999999999972
 30
0.0
 11
-94.0
 21
19.999999999999972
 31
0.0
  0
ATTDEF
  5
61A
  8
0
 10
-183.24385271456069
 20
8.9508505244280823
 30
0.0
 40
2.5
  1

 11
-183.24385271456069
 21
8.6175171910947483
 31
0.0
  3
サブタイトル
  2
GEN-TITLE-DES2
 70
     0
 74
     1
  0
ATTDEF
  5
61B
  8
0
 10
-183.24385271456069
 20
2.0175171910947478
 30
0.0
 40
3.0
  1

 11
-183.24385271456069
 21
1.6175171910947479
 31
0.0
  3
図番
  2
GEN-TITLE-NR
 70
     0
 74
     1
  0
INSERT
  5
61C
  8
TK1
  2
*U18
 10
0.0
 20
0.0
 30
0.0
  0
ATTDEF
  5
61D
  8
0
 10
-183.24385271456069
 20
14.40728619501834
 30
0.0
 40
4.0
  1

 11
-183.24385271456069
 21
13.873952861685011
 31
0.0
  3
品名
  2
GEN-TITLE-DES1
 70
     0
 74
     1
  0
LINE
  5
61E
  8
RAHM2
 10
-187.57512886940361
 20
30.400000000000041
 30
0.0
 11
-190.0
 21
34.60000000000003
 31
0.0
  0
LINE
  5
61F
  8
RAHM2
 10
-190.0
 20
34.60000000000003
 30
0.0
 11
-192.42487113059639
 21
30.400000000000041
 31
0.0
  0
LINE
  5
620
  8
RAHM2
 10
-185.0
 20
50.000000000000028
 30
0.0
 11
-185.0
 21
19.99999999999994
 31
0.0
  0
LINE
  5
621
  8
RAHM2
 10
-192.42487113059639
 20
30.400000000000041
 30
0.0
 11
-187.57512886940361
 21
30.400000000000041
 31
0.0
  0
INSERT
  5
622
  8
TK1
  2
*U19
 10
0.0
 20
0.0
 30
0.0
  0
INSERT
  5
623
  8
TK1
  2
*U20
 10
0.0
 20
0.0
 30
0.0
  0
LINE
  5
624
  8
RAHM2
 10
-192.42487113059639
 20
45.400000000000027
 30
0.0
 11
-187.57512886940361
 21
45.400000000000027
 31
0.0
  0
LINE
  5
625
  8
RAHM2
 10
-187.57512886940361
 20
45.400000000000027
 30
0.0
 11
-190.0
 21
49.600000000000023
 31
0.0
  0
LINE
  5
626
  8
RAHM2
 10
-192.42487113059639
 20
40.400000000000027
 30
0.0
 11
-187.57512886940361
 21
40.400000000000027
 31
0.0
  0
LINE
  5
627
  8
RAHM2
 10
-187.57512886940361
 20
40.400000000000027
 30
0.0
 11
-190.0
 21
44.600000000000023
 31
0.0
  0
LINE
  5
628
  8
RAHM2
 10
-192.42487113059639
 20
35.400000000000041
 30
0.0
 11
-187.57512886940361
 21
35.400000000000041
 31
0.0
  0
LINE
  5
629
  8
RAHM2
 10
-187.57512886940361
 20
35.400000000000041
 30
0.0
 11
-190.0
 21
39.600000000000023
 31
0.0
  0
LINE
  5
62A
  8
RAHM2
 10
-190.0
 20
39.600000000000023
 30
0.0
 11
-192.42487113059639
 21
35.400000000000041
 31
0.0
  0
LINE
  5
62B
  8
RAHM2
 10
-190.0
 20
44.600000000000023
 30
0.0
 11
-192.42487113059639
 21
40.400000000000027
 31
0.0
  0
LINE
  5
62C
  8
RAHM2
 10
-190.0
 20
49.600000000000023
 30
0.0
 11
-192.42487113059639
 21
45.400000000000027
 31
0.0
  0
LINE
  5
62D
  8
RAHM2
 10
-129.0
 20
50.000000000000028
 30
0.0
 11
-129.0
 21
19.99999999999994
 31
0.0
  0
INSERT
  5
62E
  8
TK1
  2
*U21
 10
0.0
 20
0.0
 30
0.0
  0
LINE
  5
62F
  8
0
 10
-34.0
 20
50.0
 30
0.0
 11
-34.0
 21
0.0
 31
0.0
  0
LINE
  5
630
  8
0
 10
-94.0
 20
50.0
 30
0.0
 11
-94.0
 21
0.0
 31
0.0
  0
INSERT
  5
631
  8
TK1
  2
*U22
 10
0.0
 20
0.0
 30
0.0
  0
LINE
  5
632
  8
0
 10
-94.0
 20
10.0
 30
0.0
 11
-34.0
 21
10.0
 31
0.0
  0
ATTDEF
  5
633
  8
0
 10
-58.014051197997453
 20
39.255005561783491
 30
0.0
 40
3.0
  1

 72
     2
 11
-58.014051197997453
 21
39.255005561783491
 31
0.0
  3
尺度
  2
GEN-TITLE-SCA
 70
     0
  0
ATTDEF
  5
634
  8
0
 10
-77.002849666490064
 20
31.02180787943475
 30
0.0
 40
3.0
  1

 11
-77.002849666490064
 21
30.621807879434751
 31
0.0
  3
材質
  2
GEN-TITLE-MAT1
 70
     0
 74
     1
  0
ATTDEF
  5
635
  8
0
 10
-77.002849666490064
 20
21.02180787943475
 30
0.0
 40
3.0
  1

 11
-77.002849666490064
 21
20.621807879434751
 31
0.0
  3
表面処理
  2
GEN-TITLE-MAT2
 70
     0
 74
     1
  0
ATTDEF
  5
636
  8
0
 10
-77.002849666490064
 20
12.01751719109475
 30
0.0
 40
3.0
  1

 11
-77.002849666490064
 21
11.61751719109475
 31
0.0
  3
日付
  2
GEN-TITLE-DAT
 70
     0
 74
     1
  0
LINE
  5
637
  8
0
 10
-94.0
 20
37.5
 30
0.0
 11
-34.0
 21
37.5
 31
0.0
  0
LINE
  5
638
  8
0
 10
-94.0
 20
27.5
 30
0.0
 11
-34.0
 21
27.5
 31
0.0
  0
LINE
  5
639
  8
0
 10
-94.0
 20
17.5
 30
0.0
 11
-34.0
 21
17.5
 31
0.0
  0
LINE
  5
63A
  8
RAHM2
 10
-109.0
 20
50.000000000000028
 30
0.0
 11
-109.0
 21
19.99999999999994
 31
0.0
  0
INSERT
  5
63B
  8
TK1
  2
*U23
 10
0.0
 20
0.0
 30
0.0
  0
INSERT
  5
63C
  8
TK1
  2
*U24
 10
0.0
 20
0.0
 30
0.0
  0
INSERT
  5
63D
  8
TK1
  2
*U25
 10
0.0
 20
0.0
 30
0.0
  0
INSERT
  5
63E
  8
TK1
  2
*U26
 10
0.0
 20
0.0
 30
0.0
  0
INSERT
  5
63F
  8
TK1
  2
*U27
 10
0.0
 20
0.0
 30
0.0
  0
INSERT
  5
640
  8
TK1
  2
*U28
 10
0.0
 20
0.0
 30
0.0
  0
INSERT
  5
641
  8
TK1
  2
*U29
 10
0.0
 20
0.0
 30
0.0
  0
INSERT
  5
642
  8
TK1
  2
*U30
 10
0.0
 20
0.0
 30
0.0
  0
LINE
  5
643
  8
7A
 10
-89.0
 20
43.75
 30
0.0
 11
-75.218691599714703
 21
43.75
 31
0.0
1001
GENIUS_GENOREF_13
1005
656
  0
LINE
  5
644
  8
0
 10
-84.0
 20
45.75
 30
0.0
 11
-76.0
 21
46.749999999999993
 31
0.0
  0
LINE
  5
645
  8
0
 10
-76.0
 20
40.75
 30
0.0
 11
-84.0
 21
41.749999999999993
 31
0.0
  0
LINE
  5
646
  8
7A
 10
-89.0
 20
43.75
 30
0.0
 11
-89.0
 21
47.324786644731482
 31
0.0
1001
GENIUS_GENOREF_13
1005
656
  0
CIRCLE
  5
647
  8
0
 10
-89.0
 20
43.75
 30
0.0
 40
2.0
  0
CIRCLE
  5
648
  8
0
 10
-89.0
 20
43.75
 30
0.0
 40
3.0
  0
LINE
  5
649
  8
0
 10
-84.0
 20
41.749999999999993
 30
0.0
 11
-84.0
 21
45.75
 31
0.0
  0
INSERT
  5
64A
  8
TK1
  2
*U31
 10
0.0
 20
0.0
 30
0.0
  0
LINE
  5
64B
  8
7A
 10
-89.0
 20
43.75
 30
0.0
 11
-92.723037371251166
 21
43.75
 31
0.0
1001
GENIUS_GENOREF_13
1005
656
  0
LINE
  5
64C
  8
7A
 10
-89.0
 20
43.75
 30
0.0
 11
-89.0
 21
40.039917242284787
 31
0.0
1001
GENIUS_GENOREF_13
1005
656
  0
LINE
  5
64D
  8
0
 10
-76.0
 20
46.749999999999993
 30
0.0
 11
-76.0
 21
40.75
 31
0.0
  0
LINE
  5
64E
  8
0
 10
-74.0
 20
50.0
 30
0.0
 11
-74.0
 21
37.5
 31
0.0
  0
INSERT
  5
64F
  8
TK1
  2
*U32
 10
0.0
 20
0.0
 30
0.0
  0
ATTDEF
  5
650
  8
0
 10
-37.76317379391503
 20
39.255005561783491
 30
0.0
 40
3.0
  1

 72
     2
 11
-37.76317379391503
 21
39.255005561783491
 31
0.0
  3
数量
  2
GEN-TITLE-QTY
 70
     0
  0
LINE
  5
651
  8
0
 10
-34.0
 20
25.0
 30
0.0
 11
0.0
 21
25.0
 31
0.0
  0
LINE
  5
652
  8
0
 10
-54.0
 20
50.0
 30
0.0
 11
-54.0
 21
37.5
 31
0.0
  0
INSERT
  5
653
  8
TK1
  2
*U33
 10
0.0
 20
0.0
 30
0.0
  0
INSERT
  5
654
  8
TK1
  2
*U34
 10
0.0
 20
0.0
 30
0.0
  0
INSERT
  5
655
  8
TK1
  2
*U35
 10
0.0
 20
0.0
 30
0.0
  0
POINT
  5
656
  8
0
 10
-320.5355579819676
 20
-138.11048412682541
 30
0.0
1001
GENIUS_GENODEF_13
1002
{
1000
HIER
1070
    10
1002
}
1002
{
1000
MANEDIT
1070
     0
1002
}
1002
{
1000
NOSEL
1070
     0
1002
}
1002
{
1000
BEHIND
1070
     0
1002
}
1002
{
1000
REACTOR
1002
}
1001
GENIUS_GENOBJ-N-CRS_13
1002
{
1000
OWNER
1000
GEN
1002
}
1001
GENIUS_GENOENT_13
1002
{
1000
MYREF
1005
656
1002
}
1002
{
1000
GRP
1005
0
1002
}
1001
GENIUS_GENOLIS_13
1002
{
1000
ENT
1005
64C
1005
64B
1005
646
1005
643
1002
}
  0
LINE
  5
657
  8
RAHM2
 10
-190.0
 20
29.600000000000019
 30
0.0
 11
-192.42487113059639
 21
25.400000000000041
 31
0.0
  0
LINE
  5
658
  8
RAHM2
 10
-187.57512886940361
 20
25.400000000000041
 30
0.0
 11
-190.0
 21
29.600000000000019
 31
0.0
  0
LINE
  5
659
  8
RAHM2
 10
-192.42487113059639
 20
25.400000000000041
 30
0.0
 11
-187.57512886940361
 21
25.400000000000041
 31
0.0
  0
LINE
  5
65A
  8
RAHM2
 10
-195.0
 20
25.000000000000028
 30
0.0
 11
-94.0
 21
25.000000000000028
 31
0.0
  0
INSERT
  5
65B
  8
TK1
  2
*U36
 10
0.0
 20
0.0
 30
0.0
  0
TEXT
  5
65C
  8
RAHM2
 10
-190.8155863565801
 20
25.98333333333337
 30
0.0
 40
2.5
  1
1
 72
     1
 11
-190.19058635658021
 21
25.650000000000031
 31
0.0
 73
     1
  0
TEXT
  5
65D
  8
RAHM2
 10
-190.9183316929134
 20
30.98333333333337
 30
0.0
 40
2.5
  1
2
 72
     1
 11
-190.0
 21
30.650000000000031
 31
0.0
 73
     1
  0
TEXT
  5
65E
  8
RAHM2
 10
-190.92677669529661
 20
35.983333333333341
 30
0.0
 40
2.5
  1
3
 72
     1
 11
-190.0
 21
35.650000000000013
 31
0.0
 73
     1
  0
TEXT
  5
65F
  8
RAHM2
 10
-191.0
 20
40.98333333333337
 30
0.0
 40
2.5
  1
4
 72
     1
 11
-190.0
 21
40.650000000000027
 31
0.0
 73
     1
  0
TEXT
  5
660
  8
RAHM2
 10
-190.92677669529661
 20
45.98333333333337
 30
0.0
 40
2.5
  1
5
 72
     1
 11
-190.0
 21
45.650000000000027
 31
0.0
 73
     1
  0
LINE
  5
661
  8
0
 10
-17.0
 20
50.0
 30
0.0
 11
-17.0
 21
0.0
 31
0.0
  0
LINE
  5
662
  8
0
 10
-195.0
 20
0.0
 30
0.0
 11
0.0
 21
0.0
 31
0.0
1001
GENIUS_GENREC_14
1002
{
1000
PYDIR
1011
-184.0
1021
0.0
1031
0.0
1021
50.0
1031
0.0
1002
}
1002
{
1000
PXDIR
1011
0.0
1021
0.0
1031
0.0
1021
0.0
1031
0.0
1002
}
1002
{
1000
PORI
1011
-184.0
1021
0.0
1031
0.0
1021
0.0
1031
0.0
1002
}
1002
{
1000
PINS
1011
-100.5
1021
0.0
1031
0.0
1021
25.0
1031
0.0
1002
}
1002
{
1000
HVAL
1000
50
1002
}
1002
{
1000
H
1070
     2
1002
}
1002
{
1000
WVAL
1000
167
1002
}
1002
{
1000
W
1070
     2
1002
}
1002
{
1000
C
1070
     4
1002
}
1001
GENIUS_GENODEF_13
1002
{
1000
HIER
1070
     0
1002
}
1002
{
1000
MANEDIT
1070
     0
1002
}
1002
{
1000
NOSEL
1070
     0
1002
}
1002
{
1000
BEHIND
1070
     0
1002
}
1002
{
1000
REACTOR
1002
}
1001
GENIUS_GENOBJ-N-REC_13
1002
{
1000
OWNER
1000
GEN
1002
}
  0
LINE
  5
663
  8
0
 10
0.0
 20
0.0
 30
0.0
 11
0.0
 21
50.0
 31
0.0
1001
GENIUS_GENREC_14
1002
{
1000
PYDIR
1011
-184.0
1021
0.0
1031
0.0
1021
50.0
1031
0.0
1002
}
1002
{
1000
PXDIR
1011
0.0
1021
0.0
1031
0.0
1021
0.0
1031
0.0
1002
}
1002
{
1000
PORI
1011
-184.0
1021
0.0
1031
0.0
1021
0.0
1031
0.0
1002
}
1002
{
1000
PINS
1011
-100.5
1021
0.0
1031
0.0
1021
25.0
1031
0.0
1002
}
1002
{
1000
HVAL
1000
50
1002
}
1002
{
1000
H
1070
     2
1002
}
1002
{
1000
WVAL
1000
167
1002
}
1002
{
1000
W
1070
     2
1002
}
1002
{
1000
C
1070
     4
1002
}
1001
GENIUS_GENODEF_13
1002
{
1000
HIER
1070
     0
1002
}
1002
{
1000
MANEDIT
1070
     0
1002
}
1002
{
1000
NOSEL
1070
     0
1002
}
1002
{
1000
BEHIND
1070
     0
1002
}
1002
{
1000
REACTOR
1002
}
1001
GENIUS_GENOBJ-N-REC_13
1002
{
1000
OWNER
1000
GEN
1002
}
  0
LINE
  5
664
  8
0
 10
0.0
 20
50.0
 30
0.0
 11
-195.0
 21
50.000000000000028
 31
0.0
1001
GENIUS_GENREC_14
1002
{
1000
PYDIR
1011
-184.0
1021
0.0
1031
0.0
1021
50.0
1031
0.0
1002
}
1002
{
1000
PXDIR
1011
0.0
1021
0.0
1031
0.0
1021
0.0
1031
0.0
1002
}
1002
{
1000
PORI
1011
-184.0
1021
0.0
1031
0.0
1021
0.0
1031
0.0
1002
}
1002
{
1000
PINS
1011
-100.5
1021
0.0
1031
0.0
1021
25.0
1031
0.0
1002
}
1002
{
1000
HVAL
1000
50
1002
}
1002
{
1000
H
1070
     2
1002
}
1002
{
1000
WVAL
1000
167
1002
}
1002
{
1000
W
1070
     2
1002
}
1002
{
1000
C
1070
     4
1002
}
1001
GENIUS_GENODEF_13
1002
{
1000
HIER
1070
     0
1002
}
1002
{
1000
MANEDIT
1070
     0
1002
}
1002
{
1000
NOSEL
1070
     0
1002
}
1002
{
1000
BEHIND
1070
     0
1002
}
1002
{
1000
REACTOR
1002
}
1001
GENIUS_GENOBJ-N-REC_13
1002
{
1000
OWNER
1000
GEN
1002
}
  0
LINE
  5
665
  8
0
 10
-195.0
 20
50.000000000000028
 30
0.0
 11
-195.0
 21
0.0
 31
0.0
1001
GENIUS_GENREC_14
1002
{
1000
PYDIR
1011
-195.0
1021
0.0
1031
0.0
1021
50.0
1031
0.0
1002
}
1002
{
1000
PXDIR
1011
-11.0
1021
0.0
1031
0.0
1021
0.0
1031
0.0
1002
}
1002
{
1000
PORI
1011
-195.0
1021
0.0
1031
0.0
1021
0.0
1031
0.0
1002
}
1002
{
1000
PINS
1011
-111.5
1021
0.0
1031
0.0
1021
25.0
1031
0.0
1002
}
1002
{
1000
HVAL
1000
50
1002
}
1002
{
1000
H
1070
     2
1002
}
1002
{
1000
WVAL
1000
167
1002
}
1002
{
1000
W
1070
     2
1002
}
1002
{
1000
C
1070
     4
1002
}
1001
GENIUS_GENODEF_13
1002
{
1000
HIER
1070
     0
1002
}
1002
{
1000
MANEDIT
1070
     0
1002
}
1002
{
1000
NOSEL
1070
     0
1002
}
1002
{
1000
BEHIND
1070
     0
1002
}
1002
{
1000
REACTOR
1002
}
1001
GENIUS_GENOBJ-N-REC_13
1002
{
1000
OWNER
1000
GEN
1002
}
  0
INSERT
  5
666
  8
TK1
  2
*U37
 10
0.0
 20
0.0
 30
0.0
  0
INSERT
  5
667
  8
TK1
  2
*U38
 10
0.0
 20
0.0
 30
0.0
  0
ENDBLK
  5
66A
  8
0
  0
BLOCK
  8
0
  2
TK-A3
 70
     0
 10
0.0
 20
0.0
 30
0.0
  3
TK-A3
  1

  0
POLYLINE
  5
6BB
  8
0
 66
     1
 10
0.0
 20
0.0
 30
0.0
 70
     1
1001
GENIUS_GENREC_14
1002
{
1000
PYDIR
1011
0.0000000000000178
1021
0.0
1031
0.0
1021
280.0
1031
0.0
1002
}
1002
{
1000
PXDIR
1011
403.0
1021
0.0
1031
0.0
1021
0.0
1031
0.0
1002
}
1002
{
1000
PORI
1011
0.0
1021
0.0
1031
0.0
1021
0.0
1031
0.0
1002
}
1002
{
1000
PINS
1011
0.0
1021
0.0
1031
0.0
1021
0.0
1031
0.0
1002
}
1002
{
1000
PINS2
1011
403.0
1021
0.0
1031
0.0
1021
280.0
1031
0.0
1002
}
1002
{
1000
C
1070
     1
1002
}
1001
GENIUS_GENODEF_13
1002
{
1000
HIER
1070
     0
1002
}
1002
{
1000
MANEDIT
1070
     0
1002
}
1002
{
1000
NOSEL
1070
     0
1002
}
1002
{
1000
BEHIND
1070
     0
1002
}
1002
{
1000
OTHER
1070
     0
1002
}
1002
{
1000
REACTOR
1002
}
1001
GENIUS_GENOBJ-N-REC_13
1002
{
1000
OWNER
1000
GEN
1002
}
  0
VERTEX
  5
CFF
  8
0
 10
0.0
 20
0.0
 30
0.0
  0
VERTEX
  5
D00
  8
0
 10
403.0
 20
0.0
 30
0.0
  0
VERTEX
  5
D01
  8
0
 10
403.0
 20
280.0
 30
0.0
  0
VERTEX
  5
D02
  8
0
 10
0.0
 20
280.00000000000011
 30
0.0
  0
SEQEND
  5
D03
  8
0
  0
TEXT
  5
6BC
  8
0
 10
403.0
 20
280.0
 30
0.0
 40
2.5
  1
!GENTITLE-MAX
  0
TEXT
  5
6BD
  8
0
 10
0.0
 20
0.0
 30
0.0
 40
2.5
  1
!GENTITLE-LL
  0
TEXT
  5
6BE
  8
0
 10
403.0
 20
0.0
 30
0.0
 40
2.5
  1
!GENTITLE-INSERT
  0
LINE
  5
6BF
  8
0
 10
359.0
 20
275.0
 30
0.0
 11
403.0
 21
275.0
 31
0.0
  0
INSERT
  5
6C0
  8
TK1
  2
*U39
 10
0.0
 20
0.0
 30
0.0
  0
LINE
  5
6C1
  8
0
 10
359.0
 20
280.0
 30
0.0
 11
359.0
 21
275.0
 31
0.0
  0
ENDBLK
  5
6C4
  8
0
  0
BLOCK
  8
0
  2
TK-TITLE
 70
     2
 10
0.0
 20
0.0
 30
0.0
  3
TK-TITLE
  1

  0
ATTDEF
  5
6C9
  8
0
 10
-8.0023091895458265
 20
1.705189434395036
 30
0.0
 40
2.5
  1

  3
Rev.
  2
GEN-TITLE-NR2
 70
     0
  0
ATTDEF
  5
6CA
  8
0
 10
-84.142519015853296
 20
12.82790432564377
 30
0.0
 40
3.5
  1

  3
品名
  2
GEN-TITLE-DES1
 70
     0
  0
LINE
  5
6CB
  8
0
 10
0.0
 20
0.0
 30
0.0
 11
0.0
 21
50.0
 31
0.0
1001
GENIUS_GENREC_14
1002
{
1000
PYDIR
1011
-414.0
1021
0.0
1031
0.0
1021
291.0
1031
0.0
1002
}
1002
{
1000
PXDIR
1011
6.0
1021
0.0
1031
0.0
1021
-6.0
1031
0.0
1002
}
1002
{
1000
PORI
1011
-414.0
1021
0.0
1031
0.0
1021
-6.0
1031
0.0
1002
}
1002
{
1000
PINS
1011
-414.0
1021
0.0
1031
0.0
1021
-6.0
1031
0.0
1002
}
1002
{
1000
HVAL
1000
297
1002
}
1002
{
1000
H
1070
     2
1002
}
1002
{
1000
WVAL
1000
420
1002
}
1002
{
1000
W
1070
     2
1002
}
1002
{
1000
C
1070
     1
1002
}
1001
GENIUS_GENODEF_13
1002
{
1000
HIER
1070
     0
1002
}
1002
{
1000
MANEDIT
1070
     0
1002
}
1002
{
1000
NOSEL
1070
     0
1002
}
1002
{
1000
BEHIND
1070
     0
1002
}
1002
{
1000
OTHER
1070
     0
1002
}
1002
{
1000
REACTOR
1002
}
1001
GENIUS_GENOBJ-N-REC_13
1002
{
1000
OWNER
1000
GEN
1002
}
  0
ATTDEF
  5
6CC
  8
0
 10
-84.0
 20
9.1499999999999488
 30
0.0
 40
2.5
  1

  3
サブタイトル
  2
GEN-TITLE-DES2
 70
     0
  0
ATTDEF
  5
6CD
  8
0
 10
-84.0
 20
1.9999999999999569
 30
0.0
 40
3.0
  1

  3
図番
  2
GEN-TITLE-NR1
 70
     0
  0
LINE
  5
6CE
  8
0
 10
-96.0
 20
50.000000000000007
 30
0.0
 11
-96.0
 21
-0.0000000000000142
 31
0.0
1001
GENIUS_GENREC_14
1002
{
1000
PYDIR
1011
-96.0
1021
0.0
1031
0.0
1021
49.999999999999993
1031
0.0
1002
}
1002
{
1000
PXDIR
1011
88.0
1021
0.0
1031
0.0
1021
-0.0000000000000142
1031
0.0
1002
}
1002
{
1000
PORI
1011
-96.0
1021
0.0
1031
0.0
1021
-0.0000000000000142
1031
0.0
1002
}
1002
{
1000
PINS
1011
-12.5
1021
0.0
1031
0.0
1021
24.999999999999989
1031
0.0
1002
}
1002
{
1000
HVAL
1000
50
1002
}
1002
{
1000
H
1070
     2
1002
}
1002
{
1000
WVAL
1000
167
1002
}
1002
{
1000
W
1070
     2
1002
}
1002
{
1000
C
1070
     4
1002
}
1001
GENIUS_GENODEF_13
1002
{
1000
HIER
1070
     0
1002
}
1002
{
1000
MANEDIT
1070
     0
1002
}
1002
{
1000
NOSEL
1070
     0
1002
}
1002
{
1000
BEHIND
1070
     0
1002
}
1002
{
1000
REACTOR
1002
}
1001
GENIUS_GENOBJ-N-REC_13
1002
{
1000
OWNER
1000
GEN
1002
}
  0
LINE
  5
6CF
  8
0
 10
0.0
 20
50.0
 30
0.0
 11
-193.00000000000011
 21
50.000000000000021
 31
0.0
1001
GENIUS_GENREC_14
1002
{
1000
PYDIR
1011
-184.0
1021
0.0
1031
0.0
1021
50.0
1031
0.0
1002
}
1002
{
1000
PXDIR
1011
0.0
1021
0.0
1031
0.0
1021
0.0
1031
0.0
1002
}
1002
{
1000
PORI
1011
-184.0
1021
0.0
1031
0.0
1021
0.0
1031
0.0
1002
}
1002
{
1000
PINS
1011
-100.5
1021
0.0
1031
0.0
1021
25.0
1031
0.0
1002
}
1002
{
1000
HVAL
1000
50
1002
}
1002
{
1000
H
1070
     2
1002
}
1002
{
1000
WVAL
1000
167
1002
}
1002
{
1000
W
1070
     2
1002
}
1002
{
1000
C
1070
     4
1002
}
1001
GENIUS_GENODEF_13
1002
{
1000
HIER
1070
     0
1002
}
1002
{
1000
MANEDIT
1070
     0
1002
}
1002
{
1000
NOSEL
1070
     0
1002
}
1002
{
1000
BEHIND
1070
     0
1002
}
1002
{
1000
REACTOR
1002
}
1001
GENIUS_GENOBJ-N-REC_13
1002
{
1000
OWNER
1000
GEN
1002
}
  0
LINE
  5
6D0
  8
0
 10
-193.00000000000011
 20
0.0
 30
0.0
 11
0.0
 21
0.0
 31
0.0
1001
GENIUS_GENREC_14
1002
{
1000
PYDIR
1011
-184.0
1021
0.0
1031
0.0
1021
50.0
1031
0.0
1002
}
1002
{
1000
PXDIR
1011
0.0
1021
0.0
1031
0.0
1021
0.0
1031
0.0
1002
}
1002
{
1000
PORI
1011
-184.0
1021
0.0
1031
0.0
1021
0.0
1031
0.0
1002
}
1002
{
1000
PINS
1011
-100.5
1021
0.0
1031
0.0
1021
25.0
1031
0.0
1002
}
1002
{
1000
HVAL
1000
50
1002
}
1002
{
1000
H
1070
     2
1002
}
1002
{
1000
WVAL
1000
167
1002
}
1002
{
1000
W
1070
     2
1002
}
1002
{
1000
C
1070
     4
1002
}
1001
GENIUS_GENODEF_13
1002
{
1000
HIER
1070
     0
1002
}
1002
{
1000
MANEDIT
1070
     0
1002
}
1002
{
1000
NOSEL
1070
     0
1002
}
1002
{
1000
BEHIND
1070
     0
1002
}
1002
{
1000
REACTOR
1002
}
1001
GENIUS_GENOBJ-N-REC_13
1002
{
1000
OWNER
1000
GEN
1002
}
  0
TEXT
  5
6D1
  8
RAHM2
 10
-91.926776695296624
 20
45.983333333333348
 30
0.0
 40
2.5
  1
5
 72
     1
 11
-91.0
 21
45.65000000000002
 31
0.0
 73
     1
  0
TEXT
  5
6D2
  8
RAHM2
 10
-92.0
 20
40.983333333333348
 30
0.0
 40
2.5
  1
4
 72
     1
 11
-91.0
 21
40.65000000000002
 31
0.0
 73
     1
  0
TEXT
  5
6D3
  8
RAHM2
 10
-91.926776695296624
 20
35.983333333333327
 30
0.0
 40
2.5
  1
3
 72
     1
 11
-91.0
 21
35.649999999999991
 31
0.0
 73
     1
  0
TEXT
  5
6D4
  8
RAHM2
 10
-91.918331692913384
 20
30.983333333333348
 30
0.0
 40
2.5
  1
2
 72
     1
 11
-91.0
 21
30.65000000000002
 31
0.0
 73
     1
  0
TEXT
  5
6D5
  8
RAHM2
 10
-91.815586356580184
 20
25.983333333333348
 30
0.0
 40
2.5
  1
1
 72
     1
 11
-91.190586356580184
 21
25.65000000000002
 31
0.0
 73
     1
  0
INSERT
  5
6D6
  8
TK1
  2
*U40
 10
0.0
 20
0.0
 30
0.0
  0
LINE
  5
6D7
  8
RAHM2
 10
-96.0
 20
25.0
 30
0.0
 11
0.0000000000001137
 21
25.000000000000028
 31
0.0
  0
LINE
  5
6D8
  8
RAHM2
 10
-93.424871130596443
 20
25.40000000000002
 30
0.0
 11
-88.575128869403557
 21
25.40000000000002
 31
0.0
  0
LINE
  5
6D9
  8
RAHM2
 10
-88.575128869403557
 20
25.40000000000002
 30
0.0
 11
-91.0
 21
29.600000000000009
 31
0.0
  0
LINE
  5
6DA
  8
RAHM2
 10
-91.0
 20
29.600000000000009
 30
0.0
 11
-93.424871130596443
 21
25.40000000000002
 31
0.0
  0
INSERT
  5
6DB
  8
TK1
  2
*U41
 10
0.0
 20
0.0
 30
0.0
  0
INSERT
  5
6DC
  8
TK1
  2
*U42
 10
0.0
 20
0.0
 30
0.0
  0
INSERT
  5
6DD
  8
TK1
  2
*U43
 10
0.0
 20
0.0
 30
0.0
  0
INSERT
  5
6DE
  8
TK1
  2
*U44
 10
0.0
 20
0.0
 30
0.0
  0
INSERT
  5
6DF
  8
TK1
  2
*U45
 10
0.0
 20
0.0
 30
0.0
  0
INSERT
  5
6E0
  8
TK1
  2
*U46
 10
0.0
 20
0.0
 30
0.0
  0
LINE
  5
6E1
  8
RAHM2
 10
-11.82081941068907
 20
50.000000000000028
 30
0.0
 11
-11.82081941068907
 21
19.99999999999994
 31
0.0
  0
INSERT
  5
6E2
  8
TK1
  2
*U47
 10
0.0
 20
0.0
 30
0.0
  0
LINE
  5
6E3
  8
RAHM2
 10
-31.820819410689069
 20
50.000000000000028
 30
0.0
 11
-31.820819410689179
 21
19.99999999999994
 31
0.0
  0
LINE
  5
6E4
  8
RAHM2
 10
-91.0
 20
49.600000000000001
 30
0.0
 11
-93.424871130596443
 21
45.400000000000013
 31
0.0
  0
LINE
  5
6E5
  8
RAHM2
 10
-91.0
 20
44.600000000000001
 30
0.0
 11
-93.424871130596443
 21
40.400000000000013
 31
0.0
  0
LINE
  5
6E6
  8
RAHM2
 10
-91.0
 20
39.600000000000009
 30
0.0
 11
-93.424871130596443
 21
35.40000000000002
 31
0.0
  0
LINE
  5
6E7
  8
RAHM2
 10
-88.575128869403557
 20
35.40000000000002
 30
0.0
 11
-91.0
 21
39.600000000000009
 31
0.0
  0
LINE
  5
6E8
  8
RAHM2
 10
-93.424871130596443
 20
35.40000000000002
 30
0.0
 11
-88.575128869403557
 21
35.40000000000002
 31
0.0
  0
LINE
  5
6E9
  8
RAHM2
 10
-88.575128869403557
 20
40.400000000000013
 30
0.0
 11
-91.0
 21
44.600000000000001
 31
0.0
  0
LINE
  5
6EA
  8
RAHM2
 10
-93.424871130596443
 20
40.400000000000013
 30
0.0
 11
-88.575128869403557
 21
40.400000000000013
 31
0.0
  0
LINE
  5
6EB
  8
RAHM2
 10
-88.575128869403557
 20
45.400000000000013
 30
0.0
 11
-91.0
 21
49.600000000000001
 31
0.0
  0
LINE
  5
6EC
  8
RAHM2
 10
-93.424871130596443
 20
45.400000000000013
 30
0.0
 11
-88.575128869403557
 21
45.400000000000013
 31
0.0
  0
INSERT
  5
6ED
  8
TK1
  2
*U48
 10
0.0
 20
0.0
 30
0.0
  0
INSERT
  5
6EE
  8
TK1
  2
*U49
 10
0.0
 20
0.0
 30
0.0
  0
LINE
  5
6EF
  8
RAHM2
 10
-93.424871130596443
 20
30.40000000000002
 30
0.0
 11
-88.575128869403557
 21
30.40000000000002
 31
0.0
  0
LINE
  5
6F0
  8
RAHM2
 10
-86.0
 20
50.000000000000007
 30
0.0
 11
-86.0
 21
19.999999999999929
 31
0.0
  0
LINE
  5
6F1
  8
RAHM2
 10
-91.0
 20
34.600000000000009
 30
0.0
 11
-93.424871130596443
 21
30.40000000000002
 31
0.0
  0
LINE
  5
6F2
  8
RAHM2
 10
-88.575128869403557
 20
30.40000000000002
 30
0.0
 11
-91.0
 21
34.600000000000009
 31
0.0
  0
INSERT
  5
6F3
  8
TK1
  2
*U50
 10
0.0
 20
0.0
 30
0.0
  0
LINE
  5
6F4
  8
0
 10
-96.0
 20
19.999999999999972
 30
0.0
 11
0.0000000000001137
 21
19.999999999999972
 31
0.0
  0
LINE
  5
6F5
  8
0
 10
-96.0
 20
7.0
 30
0.0
 11
0.0000000000001137
 21
7.0
 31
0.0
  0
LINE
  5
6F6
  8
RAHM2
 10
-96.0
 20
45.000000000000021
 30
0.0
 11
0.0000000000001137
 21
45.000000000000021
 31
0.0
  0
LINE
  5
6F7
  8
RAHM2
 10
-96.0
 20
39.999999999999929
 30
0.0
 11
0.0000000000001137
 21
40.000000000000021
 31
0.0
  0
LINE
  5
6F8
  8
RAHM2
 10
-96.0
 20
35.000000000000028
 30
0.0
 11
0.0000000000001137
 21
35.000000000000028
 31
0.0
  0
LINE
  5
6F9
  8
RAHM2
 10
-96.0
 20
29.999999999999918
 30
0.0
 11
0.0000000000001137
 21
30.000000000000028
 31
0.0
  0
LINE
  5
6FA
  8
0
 10
-21.175419266257109
 20
0.0
 30
0.0
 11
-21.17541926625734
 21
7.0
 31
0.0
  0
INSERT
  5
6FB
  8
TK1
  2
*U51
 10
0.0
 20
0.0
 30
0.0
  0
INSERT
  5
6FC
  8
TK1
  2
*U52
 10
0.0
 20
0.0
 30
0.0
  0
LINE
  5
6FD
  8
0
 10
-167.0
 20
19.999999999999929
 30
0.0
 11
-96.0
 21
19.999999999999929
 31
0.0
  0
LINE
  5
6FE
  8
0
 10
-113.75
 20
19.999999999999929
 30
0.0
 11
-113.75
 21
-0.0000000000000533
 31
0.0
  0
LINE
  5
6FF
  8
0
 10
-131.50000000000011
 20
19.999999999999929
 30
0.0
 11
-131.50000000000011
 21
-0.0000000000000533
 31
0.0
  0
INSERT
  5
700
  8
TK1
  2
*U53
 10
0.0
 20
0.0
 30
0.0
  0
LINE
  5
701
  8
0
 10
-167.0
 20
49.99999999999995
 30
0.0
 11
-167.0
 21
-0.0000000000000497
 31
0.0
  0
LINE
  5
702
  8
0
 10
-149.25000000000011
 20
19.999999999999929
 30
0.0
 11
-149.25000000000011
 21
-0.0000000000000462
 31
0.0
  0
INSERT
  5
703
  8
TK1
  2
*U54
 10
0.0
 20
0.0
 30
0.0
  0
INSERT
  5
704
  8
TK1
  2
*U55
 10
0.0
 20
0.0
 30
0.0
  0
LINE
  5
705
  8
0
 10
-167.0
 20
29.999999999999918
 30
0.0
 11
-96.0
 21
29.999999999999918
 31
0.0
  0
INSERT
  5
706
  8
TK1
  2
*U56
 10
0.0
 20
0.0
 30
0.0
  0
ATTDEF
  5
707
  8
0
 10
-148.96186758352911
 20
43.299999999999912
 30
0.0
 40
3.0
  1

  3
材質
  2
GEN-TITLE-MAT1
 70
     0
  0
ATTDEF
  5
708
  8
0
 10
-148.96186758352911
 20
33.299999999999912
 30
0.0
 40
3.0
  1

  3
表面処理
  2
GEN-TITLE-MAT2
 70
     0
  0
INSERT
  5
709
  8
TK1
  2
*U57
 10
0.0
 20
0.0
 30
0.0
  0
INSERT
  5
70A
  8
TK1
  2
*U58
 10
0.0
 20
0.0
 30
0.0
  0
LINE
  5
70B
  8
0
 10
-167.0
 20
39.999999999999908
 30
0.0
 11
-96.0
 21
39.999999999999922
 31
0.0
  0
LINE
  5
70C
  8
0
 10
-167.0
 20
24.999999999999972
 30
0.0
 11
-193.00000000000011
 21
24.999999999999972
 31
0.0
  0
LINE
  5
70D
  8
0
 10
-171.71674187457961
 20
46.74999999999995
 30
0.0
 11
-171.71674187457961
 21
40.749999999999943
 31
0.0
  0
LINE
  5
70E
  8
7A
 10
-184.71674187457961
 20
43.74999999999995
 30
0.0
 11
-184.71674187457961
 21
40.03991724228473
 31
0.0
1001
GENIUS_GENOREF_13
1005
720
  0
LINE
  5
70F
  8
7A
 10
-184.71674187457961
 20
43.74999999999995
 30
0.0
 11
-188.43977924583069
 21
43.74999999999995
 31
0.0
1001
GENIUS_GENOREF_13
1005
720
  0
LINE
  5
710
  8
0
 10
-179.71674187457961
 20
41.74999999999995
 30
0.0
 11
-179.71674187457961
 21
45.749999999999943
 31
0.0
  0
CIRCLE
  5
711
  8
0
 10
-184.71674187457961
 20
43.74999999999995
 30
0.0
 40
3.0
  0
CIRCLE
  5
712
  8
0
 10
-184.71674187457961
 20
43.74999999999995
 30
0.0
 40
2.0
  0
LINE
  5
713
  8
7A
 10
-184.71674187457961
 20
43.74999999999995
 30
0.0
 11
-184.71674187457961
 21
47.324786644731439
 31
0.0
1001
GENIUS_GENOREF_13
1005
720
  0
LINE
  5
714
  8
0
 10
-171.71674187457961
 20
40.749999999999943
 30
0.0
 11
-179.71674187457961
 21
41.74999999999995
 31
0.0
  0
LINE
  5
715
  8
0
 10
-179.71674187457961
 20
45.749999999999943
 30
0.0
 11
-171.71674187457961
 21
46.74999999999995
 31
0.0
  0
LINE
  5
716
  8
7A
 10
-184.71674187457961
 20
43.74999999999995
 30
0.0
 11
-170.93543347429431
 21
43.74999999999995
 31
0.0
1001
GENIUS_GENOREF_13
1005
720
  0
LINE
  5
717
  8
0
 10
-193.00000000000011
 20
49.999999999999993
 30
0.0
 11
-193.00000000000011
 21
-0.0000000000000142
 31
0.0
  0
ATTDEF
  5
718
  8
0
 10
-175.6127409126095
 20
16.199999999999939
 30
0.0
 40
3.0
  1

 72
     2
 11
-175.6127409126095
 21
15.79999999999994
 31
0.0
  3
数量
  2
GEN-TITLE-QTY
 70
     0
 74
     1
  0
INSERT
  5
719
  8
TK1
  2
*U59
 10
0.0
 20
0.0
 30
0.0
  0
INSERT
  5
71A
  8
TK1
  2
*U60
 10
0.0
 20
0.0
 30
0.0
  0
ATTDEF
  5
71B
  8
0
 10
-177.824739614424
 20
28.699999999999971
 30
0.0
 40
3.0
  1

 72
     2
 11
-177.824739614424
 21
28.299999999999979
 31
0.0
  3
尺度
  2
GEN-TITLE-SCA
 70
     0
 74
     1
  0
INSERT
  5
71C
  8
TK1
  2
*U61
 10
0.0
 20
0.0
 30
0.0
  0
ATTDEF
  5
71D
  8
0
 10
-180.2171951662138
 20
3.9883425376106638
 30
0.0
 40
3.0
  1

 72
     1
 11
-180.2171951662138
 21
3.5883425376106639
 31
0.0
  3
日付
  2
GEN-TITLE-DAT
 70
     0
 74
     1
  0
LINE
  5
71E
  8
0
 10
-167.0
 20
37.499999999999979
 30
0.0
 11
-193.00000000000011
 21
37.499999999999979
 31
0.0
  0
LINE
  5
71F
  8
0
 10
-167.0
 20
12.499999999999959
 30
0.0
 11
-193.00000000000011
 21
12.499999999999959
 31
0.0
  0
POINT
  5
720
  8
0
 10
-418.53555798196749
 20
-138.11048412682541
 30
0.0
1001
GENIUS_GENODEF_13
1002
{
1000
HIER
1070
    10
1002
}
1002
{
1000
MANEDIT
1070
     0
1002
}
1002
{
1000
NOSEL
1070
     0
1002
}
1002
{
1000
BEHIND
1070
     0
1002
}
1002
{
1000
REACTOR
1002
}
1001
GENIUS_GENOBJ-N-CRS_13
1002
{
1000
OWNER
1000
GEN
1002
}
1001
GENIUS_GENOENT_13
1002
{
1000
MYREF
1005
720
1002
}
1002
{
1000
GRP
1005
0
1002
}
1001
GENIUS_GENOLIS_13
1002
{
1000
ENT
1005
70E
1005
70F
1005
713
1005
716
1002
}
  0
ENDBLK
  5
723
  8
0
  0
BLOCK
  8
0
  2
TK-A4
 70
     0
 10
0.0
 20
0.0
 30
0.0
  3
TK-A4
  1

  0
TEXT
  5
733
  8
0
 10
0.0
 20
0.0
 30
0.0
 40
2.5
  1
!GENTITLE-LL
  0
TEXT
  5
734
  8
0
 10
193.0
 20
280.0
 30
0.0
 40
2.5
  1
!GENTITLE-MAX
  0
TEXT
  5
735
  8
0
 10
193.0
 20
0.0
 30
0.0
 40
2.5
  1
!GENTITLE-INSERT
  0
POLYLINE
  5
736
  8
0
 66
     1
 10
0.0
 20
0.0
 30
0.0
 70
     1
1001
GENIUS_GENREC_14
1002
{
1000
PYDIR
1011
-8.5
1021
0.0
1031
0.0
1021
288.5
1031
0.0
1002
}
1002
{
1000
PXDIR
1011
201.5
1021
0.0
1031
0.0
1021
-8.5
1031
0.0
1002
}
1002
{
1000
PORI
1011
-8.5
1021
0.0
1031
0.0
1021
-8.5
1031
0.0
1002
}
1002
{
1000
PINS
1011
-8.5
1021
0.0
1031
0.0
1021
-8.5
1031
0.0
1002
}
1002
{
1000
HVAL
1000
297
1002
}
1002
{
1000
H
1070
     2
1002
}
1002
{
1000
WVAL
1000
210
1002
}
1002
{
1000
W
1070
     2
1002
}
1002
{
1000
C
1070
     1
1002
}
1001
GENIUS_GENOBJ-N-REC_13
1002
{
1000
OWNER
1000
GEN
1002
}
1001
GENIUS_GENODEF_13
1002
{
1000
HIER
1070
     0
1002
}
1002
{
1000
MANEDIT
1070
     0
1002
}
1002
{
1000
NOSEL
1070
     0
1002
}
1002
{
1000
BEHIND
1070
     0
1002
}
1002
{
1000
OTHER
1070
     0
1002
}
1002
{
1000
REACTOR
1002
}
  0
VERTEX
  5
D60
  8
0
 10
0.0
 20
0.0
 30
0.0
  0
VERTEX
  5
D61
  8
0
 10
193.0
 20
0.0
 30
0.0
  0
VERTEX
  5
D62
  8
0
 10
193.0
 20
280.0
 30
0.0
  0
VERTEX
  5
D63
  8
0
 10
0.0
 20
280.0
 30
0.0
  0
SEQEND
  5
D64
  8
0
  0
LINE
  5
737
  8
0
 10
149.0
 20
280.00000000000011
 30
0.0
 11
149.0
 21
275.0
 31
0.0
  0
INSERT
  5
738
  8
TK1
  2
*U62
 10
0.0
 20
0.0
 30
0.0
  0
LINE
  5
739
  8
0
 10
149.0
 20
275.0
 30
0.0
 11
193.0
 21
275.0
 31
0.0
  0
ENDBLK
  5
73C
  8
0
  0
BLOCK
  8
0
  2
TK-製作図面
 70
     2
 10
0.0
 20
0.0
 30
0.0
  3
TK-製作図面
  1

  0
ATTDEF
  5
785
  8
0
 10
-8.0023091895458265
 20
1.705189434395036
 30
0.0
 40
2.5
  1

  3
Rev.
  2
GEN-TITLE-NR2
 70
     0
  0
ATTDEF
  5
786
  8
0
 10
-84.142519015853296
 20
12.82790432564377
 30
0.0
 40
3.5
  1

  3
品名
  2
GEN-TITLE-DES1
 70
     0
  0
LINE
  5
787
  8
0
 10
0.0
 20
0.0
 30
0.0
 11
0.0
 21
50.0
 31
0.0
1001
GENIUS_GENREC_14
1002
{
1000
PYDIR
1011
-414.0
1021
0.0
1031
0.0
1021
291.0
1031
0.0
1002
}
1002
{
1000
PXDIR
1011
6.0
1021
0.0
1031
0.0
1021
-6.0
1031
0.0
1002
}
1002
{
1000
PORI
1011
-414.0
1021
0.0
1031
0.0
1021
-6.0
1031
0.0
1002
}
1002
{
1000
PINS
1011
-414.0
1021
0.0
1031
0.0
1021
-6.0
1031
0.0
1002
}
1002
{
1000
HVAL
1000
297
1002
}
1002
{
1000
H
1070
     2
1002
}
1002
{
1000
WVAL
1000
420
1002
}
1002
{
1000
W
1070
     2
1002
}
1002
{
1000
C
1070
     1
1002
}
1001
GENIUS_GENODEF_13
1002
{
1000
HIER
1070
     0
1002
}
1002
{
1000
MANEDIT
1070
     0
1002
}
1002
{
1000
NOSEL
1070
     0
1002
}
1002
{
1000
BEHIND
1070
     0
1002
}
1002
{
1000
OTHER
1070
     0
1002
}
1002
{
1000
REACTOR
1002
}
1001
GENIUS_GENOBJ-N-REC_13
1002
{
1000
OWNER
1000
GEN
1002
}
  0
ATTDEF
  5
788
  8
0
 10
-84.0
 20
9.1499999999999488
 30
0.0
 40
2.5
  1

  3
サブタイトル
  2
GEN-TITLE-DES2
 70
     0
  0
ATTDEF
  5
789
  8
0
 10
-84.0
 20
1.9999999999999569
 30
0.0
 40
3.0
  1

  3
図番
  2
GEN-TITLE-NR1
 70
     0
  0
LINE
  5
78A
  8
0
 10
-96.0
 20
50.000000000000007
 30
0.0
 11
-96.0
 21
-0.0000000000000142
 31
0.0
1001
GENIUS_GENREC_14
1002
{
1000
PYDIR
1011
-96.0
1021
0.0
1031
0.0
1021
49.999999999999993
1031
0.0
1002
}
1002
{
1000
PXDIR
1011
88.0
1021
0.0
1031
0.0
1021
-0.0000000000000142
1031
0.0
1002
}
1002
{
1000
PORI
1011
-96.0
1021
0.0
1031
0.0
1021
-0.0000000000000142
1031
0.0
1002
}
1002
{
1000
PINS
1011
-12.5
1021
0.0
1031
0.0
1021
24.999999999999989
1031
0.0
1002
}
1002
{
1000
HVAL
1000
50
1002
}
1002
{
1000
H
1070
     2
1002
}
1002
{
1000
WVAL
1000
167
1002
}
1002
{
1000
W
1070
     2
1002
}
1002
{
1000
C
1070
     4
1002
}
1001
GENIUS_GENODEF_13
1002
{
1000
HIER
1070
     0
1002
}
1002
{
1000
MANEDIT
1070
     0
1002
}
1002
{
1000
NOSEL
1070
     0
1002
}
1002
{
1000
BEHIND
1070
     0
1002
}
1002
{
1000
REACTOR
1002
}
1001
GENIUS_GENOBJ-N-REC_13
1002
{
1000
OWNER
1000
GEN
1002
}
  0
LINE
  5
78B
  8
0
 10
0.0
 20
50.0
 30
0.0
 11
-193.00000000000011
 21
50.000000000000021
 31
0.0
1001
GENIUS_GENREC_14
1002
{
1000
PYDIR
1011
-184.0
1021
0.0
1031
0.0
1021
50.0
1031
0.0
1002
}
1002
{
1000
PXDIR
1011
0.0
1021
0.0
1031
0.0
1021
0.0
1031
0.0
1002
}
1002
{
1000
PORI
1011
-184.0
1021
0.0
1031
0.0
1021
0.0
1031
0.0
1002
}
1002
{
1000
PINS
1011
-100.5
1021
0.0
1031
0.0
1021
25.0
1031
0.0
1002
}
1002
{
1000
HVAL
1000
50
1002
}
1002
{
1000
H
1070
     2
1002
}
1002
{
1000
WVAL
1000
167
1002
}
1002
{
1000
W
1070
     2
1002
}
1002
{
1000
C
1070
     4
1002
}
1001
GENIUS_GENODEF_13
1002
{
1000
HIER
1070
     0
1002
}
1002
{
1000
MANEDIT
1070
     0
1002
}
1002
{
1000
NOSEL
1070
     0
1002
}
1002
{
1000
BEHIND
1070
     0
1002
}
1002
{
1000
REACTOR
1002
}
1001
GENIUS_GENOBJ-N-REC_13
1002
{
1000
OWNER
1000
GEN
1002
}
  0
LINE
  5
78C
  8
0
 10
-193.00000000000011
 20
0.0
 30
0.0
 11
0.0
 21
0.0
 31
0.0
1001
GENIUS_GENREC_14
1002
{
1000
PYDIR
1011
-184.0
1021
0.0
1031
0.0
1021
50.0
1031
0.0
1002
}
1002
{
1000
PXDIR
1011
0.0
1021
0.0
1031
0.0
1021
0.0
1031
0.0
1002
}
1002
{
1000
PORI
1011
-184.0
1021
0.0
1031
0.0
1021
0.0
1031
0.0
1002
}
1002
{
1000
PINS
1011
-100.5
1021
0.0
1031
0.0
1021
25.0
1031
0.0
1002
}
1002
{
1000
HVAL
1000
50
1002
}
1002
{
1000
H
1070
     2
1002
}
1002
{
1000
WVAL
1000
167
1002
}
1002
{
1000
W
1070
     2
1002
}
1002
{
1000
C
1070
     4
1002
}
1001
GENIUS_GENODEF_13
1002
{
1000
HIER
1070
     0
1002
}
1002
{
1000
MANEDIT
1070
     0
1002
}
1002
{
1000
NOSEL
1070
     0
1002
}
1002
{
1000
BEHIND
1070
     0
1002
}
1002
{
1000
REACTOR
1002
}
1001
GENIUS_GENOBJ-N-REC_13
1002
{
1000
OWNER
1000
GEN
1002
}
  0
TEXT
  5
78D
  8
RAHM2
 10
-91.926776695296624
 20
45.983333333333348
 30
0.0
 40
2.5
  1
5
 72
     1
 11
-91.0
 21
45.65000000000002
 31
0.0
 73
     1
  0
TEXT
  5
78E
  8
RAHM2
 10
-92.0
 20
40.983333333333348
 30
0.0
 40
2.5
  1
4
 72
     1
 11
-91.0
 21
40.65000000000002
 31
0.0
 73
     1
  0
TEXT
  5
78F
  8
RAHM2
 10
-91.926776695296624
 20
35.983333333333327
 30
0.0
 40
2.5
  1
3
 72
     1
 11
-91.0
 21
35.649999999999991
 31
0.0
 73
     1
  0
TEXT
  5
790
  8
RAHM2
 10
-91.918331692913384
 20
30.983333333333348
 30
0.0
 40
2.5
  1
2
 72
     1
 11
-91.0
 21
30.65000000000002
 31
0.0
 73
     1
  0
TEXT
  5
791
  8
RAHM2
 10
-91.815586356580184
 20
25.983333333333348
 30
0.0
 40
2.5
  1
1
 72
     1
 11
-91.190586356580184
 21
25.65000000000002
 31
0.0
 73
     1
  0
INSERT
  5
792
  8
TK1
  2
*U63
 10
0.0
 20
0.0
 30
0.0
  0
LINE
  5
793
  8
RAHM2
 10
-96.0
 20
25.0
 30
0.0
 11
0.0000000000001137
 21
25.000000000000028
 31
0.0
  0
LINE
  5
794
  8
RAHM2
 10
-93.424871130596443
 20
25.40000000000002
 30
0.0
 11
-88.575128869403557
 21
25.40000000000002
 31
0.0
  0
LINE
  5
795
  8
RAHM2
 10
-88.575128869403557
 20
25.40000000000002
 30
0.0
 11
-91.0
 21
29.600000000000009
 31
0.0
  0
LINE
  5
796
  8
RAHM2
 10
-91.0
 20
29.600000000000009
 30
0.0
 11
-93.424871130596443
 21
25.40000000000002
 31
0.0
  0
INSERT
  5
797
  8
TK1
  2
*U64
 10
0.0
 20
0.0
 30
0.0
  0
INSERT
  5
798
  8
TK1
  2
*U65
 10
0.0
 20
0.0
 30
0.0
  0
INSERT
  5
799
  8
TK1
  2
*U66
 10
0.0
 20
0.0
 30
0.0
  0
INSERT
  5
79A
  8
TK1
  2
*U67
 10
0.0
 20
0.0
 30
0.0
  0
INSERT
  5
79B
  8
TK1
  2
*U68
 10
0.0
 20
0.0
 30
0.0
  0
INSERT
  5
79C
  8
TK1
  2
*U69
 10
0.0
 20
0.0
 30
0.0
  0
LINE
  5
79D
  8
RAHM2
 10
-11.82081941068907
 20
50.000000000000028
 30
0.0
 11
-11.82081941068907
 21
19.99999999999994
 31
0.0
  0
INSERT
  5
79E
  8
TK1
  2
*U70
 10
0.0
 20
0.0
 30
0.0
  0
LINE
  5
79F
  8
RAHM2
 10
-31.820819410689069
 20
50.000000000000028
 30
0.0
 11
-31.820819410689179
 21
19.99999999999994
 31
0.0
  0
LINE
  5
7A0
  8
RAHM2
 10
-91.0
 20
49.600000000000001
 30
0.0
 11
-93.424871130596443
 21
45.400000000000013
 31
0.0
  0
LINE
  5
7A1
  8
RAHM2
 10
-91.0
 20
44.600000000000001
 30
0.0
 11
-93.424871130596443
 21
40.400000000000013
 31
0.0
  0
LINE
  5
7A2
  8
RAHM2
 10
-91.0
 20
39.600000000000009
 30
0.0
 11
-93.424871130596443
 21
35.40000000000002
 31
0.0
  0
LINE
  5
7A3
  8
RAHM2
 10
-88.575128869403557
 20
35.40000000000002
 30
0.0
 11
-91.0
 21
39.600000000000009
 31
0.0
  0
LINE
  5
7A4
  8
RAHM2
 10
-93.424871130596443
 20
35.40000000000002
 30
0.0
 11
-88.575128869403557
 21
35.40000000000002
 31
0.0
  0
LINE
  5
7A5
  8
RAHM2
 10
-88.575128869403557
 20
40.400000000000013
 30
0.0
 11
-91.0
 21
44.600000000000001
 31
0.0
  0
LINE
  5
7A6
  8
RAHM2
 10
-93.424871130596443
 20
40.400000000000013
 30
0.0
 11
-88.575128869403557
 21
40.400000000000013
 31
0.0
  0
LINE
  5
7A7
  8
RAHM2
 10
-88.575128869403557
 20
45.400000000000013
 30
0.0
 11
-91.0
 21
49.600000000000001
 31
0.0
  0
LINE
  5
7A8
  8
RAHM2
 10
-93.424871130596443
 20
45.400000000000013
 30
0.0
 11
-88.575128869403557
 21
45.400000000000013
 31
0.0
  0
INSERT
  5
7A9
  8
TK1
  2
*U71
 10
0.0
 20
0.0
 30
0.0
  0
INSERT
  5
7AA
  8
TK1
  2
*U72
 10
0.0
 20
0.0
 30
0.0
  0
LINE
  5
7AB
  8
RAHM2
 10
-93.424871130596443
 20
30.40000000000002
 30
0.0
 11
-88.575128869403557
 21
30.40000000000002
 31
0.0
  0
LINE
  5
7AC
  8
RAHM2
 10
-86.0
 20
50.000000000000007
 30
0.0
 11
-86.0
 21
19.999999999999929
 31
0.0
  0
LINE
  5
7AD
  8
RAHM2
 10
-91.0
 20
34.600000000000009
 30
0.0
 11
-93.424871130596443
 21
30.40000000000002
 31
0.0
  0
LINE
  5
7AE
  8
RAHM2
 10
-88.575128869403557
 20
30.40000000000002
 30
0.0
 11
-91.0
 21
34.600000000000009
 31
0.0
  0
INSERT
  5
7AF
  8
TK1
  2
*U73
 10
0.0
 20
0.0
 30
0.0
  0
LINE
  5
7B0
  8
0
 10
-96.0
 20
19.999999999999972
 30
0.0
 11
0.0000000000001137
 21
19.999999999999972
 31
0.0
  0
LINE
  5
7B1
  8
0
 10
-96.0
 20
7.0
 30
0.0
 11
0.0000000000001137
 21
7.0
 31
0.0
  0
LINE
  5
7B2
  8
RAHM2
 10
-96.0
 20
45.000000000000021
 30
0.0
 11
0.0000000000001137
 21
45.000000000000021
 31
0.0
  0
LINE
  5
7B3
  8
RAHM2
 10
-96.0
 20
39.999999999999929
 30
0.0
 11
0.0000000000001137
 21
40.000000000000021
 31
0.0
  0
LINE
  5
7B4
  8
RAHM2
 10
-96.0
 20
35.000000000000028
 30
0.0
 11
0.0000000000001137
 21
35.000000000000028
 31
0.0
  0
LINE
  5
7B5
  8
RAHM2
 10
-96.0
 20
29.999999999999918
 30
0.0
 11
0.0000000000001137
 21
30.000000000000028
 31
0.0
  0
LINE
  5
7B6
  8
0
 10
-21.175419266257109
 20
0.0
 30
0.0
 11
-21.17541926625734
 21
7.0
 31
0.0
  0
INSERT
  5
7B7
  8
TK1
  2
*U74
 10
0.0
 20
0.0
 30
0.0
  0
INSERT
  5
7B8
  8
TK1
  2
*U75
 10
0.0
 20
0.0
 30
0.0
  0
LINE
  5
7B9
  8
0
 10
-167.0
 20
19.999999999999929
 30
0.0
 11
-96.0
 21
19.999999999999929
 31
0.0
  0
LINE
  5
7BA
  8
0
 10
-113.75
 20
19.999999999999929
 30
0.0
 11
-113.75
 21
-0.0000000000000533
 31
0.0
  0
LINE
  5
7BB
  8
0
 10
-131.50000000000011
 20
19.999999999999929
 30
0.0
 11
-131.50000000000011
 21
-0.0000000000000533
 31
0.0
  0
INSERT
  5
7BC
  8
TK1
  2
*U76
 10
0.0
 20
0.0
 30
0.0
  0
LINE
  5
7BD
  8
0
 10
-167.0
 20
49.99999999999995
 30
0.0
 11
-167.0
 21
-0.0000000000000497
 31
0.0
  0
LINE
  5
7BE
  8
0
 10
-149.25000000000011
 20
19.999999999999929
 30
0.0
 11
-149.25000000000011
 21
-0.0000000000000462
 31
0.0
  0
INSERT
  5
7BF
  8
TK1
  2
*U77
 10
0.0
 20
0.0
 30
0.0
  0
INSERT
  5
7C0
  8
TK1
  2
*U78
 10
0.0
 20
0.0
 30
0.0
  0
LINE
  5
7C1
  8
0
 10
-167.0
 20
29.999999999999918
 30
0.0
 11
-96.0
 21
29.999999999999918
 31
0.0
  0
INSERT
  5
7C2
  8
TK1
  2
*U79
 10
0.0
 20
0.0
 30
0.0
  0
ATTDEF
  5
7C3
  8
0
 10
-148.96186758352911
 20
43.299999999999912
 30
0.0
 40
3.0
  1

  3
材質
  2
GEN-TITLE-MAT1
 70
     0
  0
ATTDEF
  5
7C4
  8
0
 10
-148.96186758352911
 20
33.299999999999912
 30
0.0
 40
3.0
  1

  3
表面処理
  2
GEN-TITLE-MAT2
 70
     0
  0
INSERT
  5
7C5
  8
TK1
  2
*U80
 10
0.0
 20
0.0
 30
0.0
  0
INSERT
  5
7C6
  8
TK1
  2
*U81
 10
0.0
 20
0.0
 30
0.0
  0
LINE
  5
7C7
  8
0
 10
-167.0
 20
39.999999999999908
 30
0.0
 11
-96.0
 21
39.999999999999922
 31
0.0
  0
LINE
  5
7C8
  8
0
 10
-167.0
 20
24.999999999999972
 30
0.0
 11
-193.00000000000011
 21
24.999999999999972
 31
0.0
  0
LINE
  5
7C9
  8
0
 10
-171.71674187457961
 20
46.74999999999995
 30
0.0
 11
-171.71674187457961
 21
40.749999999999943
 31
0.0
  0
LINE
  5
7CA
  8
7A
 10
-184.71674187457961
 20
43.74999999999995
 30
0.0
 11
-184.71674187457961
 21
40.03991724228473
 31
0.0
1001
GENIUS_GENOREF_13
1005
7DC
  0
LINE
  5
7CB
  8
7A
 10
-184.71674187457961
 20
43.74999999999995
 30
0.0
 11
-188.43977924583069
 21
43.74999999999995
 31
0.0
1001
GENIUS_GENOREF_13
1005
7DC
  0
LINE
  5
7CC
  8
0
 10
-179.71674187457961
 20
41.74999999999995
 30
0.0
 11
-179.71674187457961
 21
45.749999999999943
 31
0.0
  0
CIRCLE
  5
7CD
  8
0
 10
-184.71674187457961
 20
43.74999999999995
 30
0.0
 40
3.0
  0
CIRCLE
  5
7CE
  8
0
 10
-184.71674187457961
 20
43.74999999999995
 30
0.0
 40
2.0
  0
LINE
  5
7CF
  8
7A
 10
-184.71674187457961
 20
43.74999999999995
 30
0.0
 11
-184.71674187457961
 21
47.324786644731439
 31
0.0
1001
GENIUS_GENOREF_13
1005
7DC
  0
LINE
  5
7D0
  8
0
 10
-171.71674187457961
 20
40.749999999999943
 30
0.0
 11
-179.71674187457961
 21
41.74999999999995
 31
0.0
  0
LINE
  5
7D1
  8
0
 10
-179.71674187457961
 20
45.749999999999943
 30
0.0
 11
-171.71674187457961
 21
46.74999999999995
 31
0.0
  0
LINE
  5
7D2
  8
7A
 10
-184.71674187457961
 20
43.74999999999995
 30
0.0
 11
-170.93543347429431
 21
43.74999999999995
 31
0.0
1001
GENIUS_GENOREF_13
1005
7DC
  0
LINE
  5
7D3
  8
0
 10
-193.00000000000011
 20
49.999999999999993
 30
0.0
 11
-193.00000000000011
 21
-0.0000000000000142
 31
0.0
  0
ATTDEF
  5
7D4
  8
0
 10
-175.6127409126095
 20
16.199999999999939
 30
0.0
 40
3.0
  1

 72
     2
 11
-175.6127409126095
 21
15.79999999999994
 31
0.0
  3
数量
  2
GEN-TITLE-QTY
 70
     0
 74
     1
  0
INSERT
  5
7D5
  8
TK1
  2
*U82
 10
0.0
 20
0.0
 30
0.0
  0
INSERT
  5
7D6
  8
TK1
  2
*U83
 10
0.0
 20
0.0
 30
0.0
  0
ATTDEF
  5
7D7
  8
0
 10
-177.824739614424
 20
28.699999999999971
 30
0.0
 40
3.0
  1

 72
     2
 11
-177.824739614424
 21
28.299999999999979
 31
0.0
  3
尺度
  2
GEN-TITLE-SCA
 70
     0
 74
     1
  0
INSERT
  5
7D8
  8
TK1
  2
*U84
 10
0.0
 20
0.0
 30
0.0
  0
ATTDEF
  5
7D9
  8
0
 10
-180.2171951662138
 20
3.9883425376106638
 30
0.0
 40
3.0
  1

 72
     1
 11
-180.2171951662138
 21
3.5883425376106639
 31
0.0
  3
日付
  2
GEN-TITLE-DAT
 70
     0
 74
     1
  0
LINE
  5
7DA
  8
0
 10
-167.0
 20
37.499999999999979
 30
0.0
 11
-193.00000000000011
 21
37.499999999999979
 31
0.0
  0
LINE
  5
7DB
  8
0
 10
-167.0
 20
12.499999999999959
 30
0.0
 11
-193.00000000000011
 21
12.499999999999959
 31
0.0
  0
POINT
  5
7DC
  8
0
 10
-418.53555798196749
 20
-138.11048412682541
 30
0.0
1001
GENIUS_GENODEF_13
1002
{
1000
HIER
1070
    10
1002
}
1002
{
1000
MANEDIT
1070
     0
1002
}
1002
{
1000
NOSEL
1070
     0
1002
}
1002
{
1000
BEHIND
1070
     0
1002
}
1002
{
1000
REACTOR
1002
}
1001
GENIUS_GENOBJ-N-CRS_13
1002
{
1000
OWNER
1000
GEN
1002
}
1001
GENIUS_GENOENT_13
1002
{
1000
MYREF
1005
7DC
1002
}
1002
{
1000
GRP
1005
0
1002
}
1001
GENIUS_GENOLIS_13
1002
{
1000
ENT
1005
7CA
1005
7CB
1005
7CF
1005
7D2
1002
}
  0
ENDBLK
  5
7DF
  8
0
  0
BLOCK
  8
0
  2
*D9
 70
     1
 10
0.0
 20
0.0
 30
0.0
  3
*D9
  1

  0
LINE
  5
A53
  8
AM_5
 10
90.035859962825086
 20
162.8557904789744
 30
0.0
 11
79.635858962825097
 21
162.8557904789744
 31
0.0
  0
LINE
  5
A54
  8
AM_5
 10
93.535859962825072
 20
145.8557904789744
 30
0.0
 11
79.635858962825083
 21
145.8557904789744
 31
0.0
  0
LINE
  5
A55
  8
AM_5
 10
80.635858962825097
 20
160.3557904789744
 30
0.0
 11
80.635858962825097
 21
148.3557904789744
 31
0.0
  0
INSERT
  5
A56
  8
AM_5
  2
_OPEN30
 10
80.635858962825097
 20
162.8557904789744
 30
0.0
 41
2.5
 42
2.5
 43
2.5
 50
90.0
  0
INSERT
  5
A57
  8
AM_5
  2
_OPEN30
 10
80.635858962825097
 20
145.8557904789744
 30
0.0
 41
2.5
 42
2.5
 43
2.5
 50
270.0
  0
INSERT
  5
A58
  8
TK1
  2
*U85
 10
0.0
 20
0.0
 30
0.0
  0
POINT
  5
A59
  8
DEFPOINTS
 62
     0
 10
91.035859962825072
 20
162.8557904789744
 30
0.0
  0
POINT
  5
A5A
  8
DEFPOINTS
 62
     0
 10
94.535859962825072
 20
145.8557904789744
 30
0.0
  0
POINT
  5
A5B
  8
DEFPOINTS
 62
     0
 10
80.635858962825097
 20
145.8557904789744
 30
0.0
  0
ENDBLK
  5
852
  8
0
  0
BLOCK
  8
0
  2
*D10
 70
     1
 10
0.0
 20
0.0
 30
0.0
  3
*D10
  1

  0
LINE
  5
A5C
  8
AM_5
 10
92.135859962825066
 20
167.8557904789744
 30
0.0
 11
69.635858962825083
 21
167.8557904789744
 31
0.0
  0
LINE
  5
A5D
  8
AM_5
 10
93.535859962825072
 20
145.8557904789744
 30
0.0
 11
69.635858962825068
 21
145.8557904789744
 31
0.0
  0
LINE
  5
A5E
  8
AM_5
 10
70.635858962825083
 20
165.3557904789744
 30
0.0
 11
70.635858962825068
 21
148.3557904789744
 31
0.0
  0
INSERT
  5
A5F
  8
AM_5
  2
_OPEN30
 10
70.635858962825083
 20
167.8557904789744
 30
0.0
 41
2.5
 42
2.5
 43
2.5
 50
90.0
  0
INSERT
  5
A60
  8
AM_5
  2
_OPEN30
 10
70.635858962825068
 20
145.8557904789744
 30
0.0
 41
2.5
 42
2.5
 43
2.5
 50
270.0
  0
INSERT
  5
A61
  8
TK1
  2
*U86
 10
0.0
 20
0.0
 30
0.0
  0
POINT
  5
A62
  8
DEFPOINTS
 62
     0
 10
93.135859962825066
 20
167.8557904789744
 30
0.0
  0
POINT
  5
A63
  8
DEFPOINTS
 62
     0
 10
94.535859962825072
 20
145.8557904789744
 30
0.0
  0
POINT
  5
A64
  8
DEFPOINTS
 62
     0
 10
70.635858962825068
 20
145.8557904789744
 30
0.0
  0
ENDBLK
  5
87D
  8
0
  0
BLOCK
  8
0
  2
*D11
 70
     1
 10
0.0
 20
0.0
 30
0.0
  3
*D11
  1

  0
LINE
  5
DC1
  8
AM_5
 10
94.035859962825057
 20
168.3557904789744
 30
0.0
 11
94.035859962825057
 21
180.3557904789744
 31
0.0
  0
LINE
  5
DC2
  8
AM_5
 10
97.73585996282506
 20
168.3557904789744
 30
0.0
 11
97.73585996282506
 21
180.3557904789744
 31
0.0
  0
LINE
  5
DC3
  8
AM_5
 10
91.535859962825057
 20
179.3557904789744
 30
0.0
 11
89.035859962825057
 21
179.3557904789744
 31
0.0
  0
LINE
  5
DC4
  8
AM_5
 10
100.235859962825
 20
179.3557904789744
 30
0.0
 11
102.735859962825
 21
179.3557904789744
 31
0.0
  0
TEXT
  8
AM_5
  40
3.5
  5
DEC
  62
2
  72
0
  71
0
 10
95.9465
 20
178.443
 30
0.000000
  1
3.7
  0
LINE
  5
DC6
  8
AM_5
 10
94.035859962825057
 20
179.3557904789744
 30
0.0
 11
97.73585996282506
 21
179.3557904789744
 31
0.0
  0
INSERT
  5
DC7
  8
AM_5
  2
_OPEN30
 10
94.035859962825057
 20
179.3557904789744
 30
0.0
 41
2.5
 42
2.5
 43
2.5
  0
INSERT
  5
DC8
  8
AM_5
  2
_OPEN30
 10
97.73585996282506
 20
179.3557904789744
 30
0.0
 41
2.5
 42
2.5
 43
2.5
 50
180.0
  0
POINT
  5
DC9
  8
DEFPOINTS
 62
     0
 10
94.035859962825057
 20
167.3557904789744
 30
0.0
  0
POINT
  5
DCA
  8
DEFPOINTS
 62
     0
 10
97.73585996282506
 20
167.3557904789744
 30
0.0
  0
POINT
  5
DCB
  8
DEFPOINTS
 62
     0
 10
97.73585996282506
 20
179.3557904789744
 30
0.0
  0
ENDBLK
  5
89E
  8
0
  0
BLOCK
  8
0
  2
*D12
 70
     1
 10
0.0
 20
0.0
 30
0.0
  3
*D12
  1

  0
LINE
  5
DCC
  8
AM_5
 10
99.135859962825066
 20
168.3557904789744
 30
0.0
 11
99.135859962825066
 21
190.3557904789744
 31
0.0
  0
LINE
  5
DCD
  8
AM_5
 10
92.635859962825066
 20
168.3557904789744
 30
0.0
 11
92.635859962825066
 21
190.3557904789744
 31
0.0
  0
LINE
  5
DCE
  8
AM_5
 10
101.63585996282499
 20
189.3557904789744
 30
0.0
 11
104.13585996282499
 21
189.3557904789744
 31
0.0
  0
LINE
  5
DCF
  8
AM_5
 10
90.135859962825066
 20
189.3557904789744
 30
0.0
 11
87.635859962825066
 21
189.3557904789744
 31
0.0
  0
TEXT
  8
AM_5
  40
3.5
  5
DED
  62
2
  72
0
  71
0
 10
95.9586
 20
188.551
 30
0.000000
  1
6.5
  0
LINE
  5
DD1
  8
AM_5
 10
99.135859962825066
 20
189.3557904789744
 30
0.0
 11
92.635859962825066
 21
189.3557904789744
 31
0.0
  0
INSERT
  5
DD2
  8
AM_5
  2
_OPEN30
 10
99.135859962825066
 20
189.3557904789744
 30
0.0
 41
2.5
 42
2.5
 43
2.5
 50
180.0
  0
INSERT
  5
DD3
  8
AM_5
  2
_OPEN30
 10
92.635859962825066
 20
189.3557904789744
 30
0.0
 41
2.5
 42
2.5
 43
2.5
  0
POINT
  5
DD4
  8
DEFPOINTS
 62
     0
 10
99.135859962825066
 20
167.3557904789744
 30
0.0
  0
POINT
  5
DD5
  8
DEFPOINTS
 62
     0
 10
92.635859962825066
 20
167.3557904789744
 30
0.0
  0
POINT
  5
DD6
  8
DEFPOINTS
 62
     0
 10
92.635859962825066
 20
189.3557904789744
 30
0.0
  0
ENDBLK
  5
8E6
  8
0
  0
BLOCK
  8
0
  2
*D13
 70
     1
 10
0.0
 20
0.0
 30
0.0
  3
*D13
  1

  0
LINE
  5
A7B
  8
AM_5
 10
92.635859962825066
 20
168.3557904789744
 30
0.0
 11
92.635859962825066
 21
200.3557904789744
 31
0.0
  0
LINE
  5
A7C
  8
AM_5
 10
107.63585996282499
 20
168.3557904789744
 30
0.0
 11
107.63585996282499
 21
200.3557904789744
 31
0.0
  0
LINE
  5
A7D
  8
AM_5
 10
95.135859962825066
 20
199.3557904789744
 30
0.0
 11
105.13585996282499
 21
199.3557904789744
 31
0.0
  0
INSERT
  5
A7E
  8
AM_5
  2
_OPEN30
 10
92.635859962825066
 20
199.3557904789744
 30
0.0
 41
2.5
 42
2.5
 43
2.5
 50
180.0
  0
INSERT
  5
A7F
  8
AM_5
  2
_OPEN30
 10
107.63585996282499
 20
199.3557904789744
 30
0.0
 41
2.5
 42
2.5
 43
2.5
  0
INSERT
  5
A80
  8
TK1
  2
*U87
 10
0.0
 20
0.0
 30
0.0
  0
POINT
  5
A81
  8
DEFPOINTS
 62
     0
 10
92.635859962825066
 20
167.3557904789744
 30
0.0
  0
POINT
  5
A82
  8
DEFPOINTS
 62
     0
 10
107.63585996282499
 20
167.3557904789744
 30
0.0
  0
POINT
  5
A83
  8
DEFPOINTS
 62
     0
 10
107.63585996282499
 20
199.3557904789744
 30
0.0
  0
ENDBLK
  5
918
  8
0
  0
BLOCK
  8
0
  2
*D14
 70
     1
 10
0.0
 20
0.0
 30
0.0
  3
*D14
  1

  0
LINE
  5
DD7
  8
AM_5
 10
104.46799218392189
 20
147.76714646750321
 30
0.0
 11
110.8660716585797
 21
136.8750839558198
 31
0.0
  0
LINE
  5
DD8
  8
AM_5
 10
110.8660716585797
 20
136.8750839558198
 30
0.0
 11
127.76607165857961
 21
136.8750839558198
 31
0.0
  0
INSERT
  5
DD9
  8
AM_5
  2
_DOTSMALL
 10
104.46799218392189
 20
147.76714646750321
 30
0.0
 41
2.5
 42
2.5
 43
2.5
 50
120.4302966716202
  0
TEXT
  8
AM_5
  40
3.5
  5
DEE
  62
2
  72
0
  71
0
 10
120.066
 20
135.575
 30
0.000000
  1
被覆付き
  0
POINT
  5
DDB
  8
DEFPOINTS
 62
     0
 10
104.46799218392189
 20
147.76714646750321
 30
0.0
  0
POINT
  5
DDC
  8
DEFPOINTS
 62
     0
 10
103.961502413459
 20
148.62939243729161
 30
0.0
  0
ENDBLK
  5
9E5
  8
0
  0
BLOCK
  8
0
  2
_DOTSMALL
 70
     0
 10
0.0
 20
0.0
 30
0.0
  3
_DOTSMALL
  1

  0
POLYLINE
  5
A14
  8
0
  6
BYBLOCK
 62
     0
 66
     1
 10
0.0
 20
0.0
 30
0.0
 70
     1
 40
0.5
 41
0.5
  0
VERTEX
  5
DDD
  8
0
  6
BYBLOCK
 62
     0
 10
-0.0625
 20
0.0
 30
0.0
 42
1.0
  0
VERTEX
  5
DDE
  8
0
  6
BYBLOCK
 62
     0
 10
0.0625
 20
0.0
 30
0.0
 42
1.0
  0
SEQEND
  5
DDF
  8
0
  6
BYBLOCK
 62
     0
  0
ENDBLK
  5
A16
  8
0
  0
BLOCK
  8
0
  2
*U17
 70
     1
 10
0.0
 20
0.0
 30
0.0
  3
*U17
  1

  0
TEXT
  5
CA1
  8
0
 10
367.55531168523049
 20
276.233542987227
 30
0.0
 40
2.5
  1
(文書番号：TY-34)2004.10.29
  0
ENDBLK
  5
CA3
  8
0
  0
BLOCK
  8
0
  2
*U18
 70
     1
 10
0.0
 20
0.0
 30
0.0
  3
*U18
  1

  0
TEXT
  5
CA5
  8
RAHM2
 10
-193.9669218037981
 20
3.3010354072796408
 30
0.0
 40
2.5
  1
図番
  0
ENDBLK
  5
CA7
  8
0
  0
BLOCK
  8
0
  2
*U19
 70
     1
 10
0.0
 20
0.0
 30
0.0
  3
*U19
  1

  0
TEXT
  5
CA9
  8
RAHM2
 10
-192.6666666666666
 20
21.249999999999972
 30
0.0
 40
2.5
  1
符号
  0
ENDBLK
  5
CAB
  8
0
  0
BLOCK
  8
0
  2
*U20
 70
     1
 10
0.0
 20
0.0
 30
0.0
  3
*U20
  1

  0
TEXT
  5
CAD
  8
RAHM2
 10
-193.80025513713139
 20
16.30103540727961
 30
0.0
 40
2.5
  1
品名
  0
ENDBLK
  5
CAF
  8
0
  0
BLOCK
  8
0
  2
*U21
 70
     1
 10
0.0
 20
0.0
 30
0.0
  3
*U21
  1

  0
TEXT
  5
CB1
  8
RAHM2
 10
-162.81148385355229
 20
21.249999999999972
 30
0.0
 40
2.5
  1
変更記事
  0
ENDBLK
  5
CB3
  8
0
  0
BLOCK
  8
0
  2
*U22
 70
     1
 10
0.0
 20
0.0
 30
0.0
  3
*U22
  1

  0
TEXT
  5
CB5
  8
0
 10
-88.926395939086291
 20
3.4187817258883242
 30
0.0
 40
3.5
  1
株式会社タカチ電機工業
  0
ENDBLK
  5
CB7
  8
0
  0
BLOCK
  8
0
  2
*U23
 70
     1
 10
0.0
 20
0.0
 30
0.0
  3
*U23
  1

  0
TEXT
  5
CB9
  8
RAHM2
 10
-123.5416228057275
 20
31.250000000000028
 30
0.0
 40
2.5
  1
・  ・
  0
ENDBLK
  5
CBB
  8
0
  0
BLOCK
  8
0
  2
*U24
 70
     1
 10
0.0
 20
0.0
 30
0.0
  3
*U24
  1

  0
TEXT
  5
CBD
  8
RAHM2
 10
-125.738119805002
 20
21.249999999999972
 30
0.0
 40
2.5
  1
年・月・日
  0
ENDBLK
  5
CBF
  8
0
  0
BLOCK
  8
0
  2
*U25
 70
     1
 10
0.0
 20
0.0
 30
0.0
  3
*U25
  1

  0
TEXT
  5
CC1
  8
RAHM2
 10
-104.0833333333333
 20
21.249999999999972
 30
0.0
 40
2.5
  1
担当
  0
ENDBLK
  5
CC3
  8
0
  0
BLOCK
  8
0
  2
*U26
 70
     1
 10
0.0
 20
0.0
 30
0.0
  3
*U26
  1

  0
TEXT
  5
CC5
  8
RAHM2
 10
-123.5416228057275
 20
41.250000000000021
 30
0.0
 40
2.5
  1
・  ・
  0
ENDBLK
  5
CC7
  8
0
  0
BLOCK
  8
0
  2
*U27
 70
     1
 10
0.0
 20
0.0
 30
0.0
  3
*U27
  1

  0
TEXT
  5
CC9
  8
RAHM2
 10
-123.5416228057275
 20
36.250000000000028
 30
0.0
 40
2.5
  1
・  ・
  0
ENDBLK
  5
CCB
  8
0
  0
BLOCK
  8
0
  2
*U28
 70
     1
 10
0.0
 20
0.0
 30
0.0
  3
*U28
  1

  0
TEXT
  5
CCD
  8
RAHM2
 10
-123.5416228057275
 20
46.250000000000021
 30
0.0
 40
2.5
  1
・  ・
  0
ENDBLK
  5
CCF
  8
0
  0
BLOCK
  8
0
  2
*U29
 70
     1
 10
0.0
 20
0.0
 30
0.0
  3
*U29
  1

  0
TEXT
  5
CD1
  8
RAHM2
 10
-93.133588470464787
 20
13.80103540727964
 30
0.0
 40
2.5
  1
日付
  0
ENDBLK
  5
CD3
  8
0
  0
BLOCK
  8
0
  2
*U30
 70
     1
 10
0.0
 20
0.0
 30
0.0
  3
*U30
  1

  0
TEXT
  5
CD5
  8
RAHM2
 10
-92.800255137131444
 20
23.801035407279642
 30
0.0
 40
2.5
  1
表面処理
  0
ENDBLK
  5
CD7
  8
0
  0
BLOCK
  8
0
  2
*U31
 70
     1
 10
0.0
 20
0.0
 30
0.0
  3
*U31
  1

  0
TEXT
  5
CD9
  8
RAHM2
 10
-92.800255137131444
 20
33.801035407279642
 30
0.0
 40
2.5
  1
材質
  0
ENDBLK
  5
CDB
  8
0
  0
BLOCK
  8
0
  2
*U32
 70
     1
 10
0.0
 20
0.0
 30
0.0
  3
*U32
  1

  0
TEXT
  5
CDD
  8
RAHM2
 10
-72.800255137131444
 20
46.301035407279642
 30
0.0
 40
2.5
  1
尺度
  0
ENDBLK
  5
CDF
  8
0
  0
BLOCK
  8
0
  2
*U33
 70
     1
 10
0.0
 20
0.0
 30
0.0
  3
*U33
  1

  0
TEXT
  5
CE1
  8
RAHM2
 10
-52.800255137131451
 20
46.301035407279642
 30
0.0
 40
2.5
  1
数量
  0
ENDBLK
  5
CE3
  8
0
  0
BLOCK
  8
0
  2
*U34
 70
     1
 10
0.0
 20
0.0
 30
0.0
  3
*U34
  1

  0
TEXT
  5
CE5
  8
RAHM2
 10
-28.166666666666671
 20
21.301035407279642
 30
0.0
 40
2.5
  1
承認
  0
ENDBLK
  5
CE7
  8
0
  0
BLOCK
  8
0
  2
*U35
 70
     1
 10
0.0
 20
0.0
 30
0.0
  3
*U35
  1

  0
TEXT
  5
CE9
  8
RAHM2
 10
-28.166666666666671
 20
46.301035407279642
 30
0.0
 40
2.5
  1
承認
  0
ENDBLK
  5
CEB
  8
0
  0
BLOCK
  8
0
  2
*U36
 70
     1
 10
0.0
 20
0.0
 30
0.0
  3
*U36
  1

  0
TEXT
  5
CED
  8
RAHM2
 10
-123.5416228057275
 20
26.250000000000028
 30
0.0
 40
2.5
  1
・  ・
  0
ENDBLK
  5
CEF
  8
0
  0
BLOCK
  8
0
  2
*U37
 70
     1
 10
0.0
 20
0.0
 30
0.0
  3
*U37
  1

  0
TEXT
  5
CF1
  8
RAHM2
 10
-11.08333333333333
 20
46.301035407279642
 30
0.0
 40
2.5
  1
検図
  0
ENDBLK
  5
CF3
  8
0
  0
BLOCK
  8
0
  2
*U38
 70
     1
 10
0.0
 20
0.0
 30
0.0
  3
*U38
  1

  0
TEXT
  5
CF5
  8
RAHM2
 10
-11.08333333333333
 20
21.301035407279642
 30
0.0
 40
2.5
  1
製図
  0
ENDBLK
  5
CF7
  8
0
  0
BLOCK
  8
0
  2
*U39
 70
     1
 10
0.0
 20
0.0
 30
0.0
  3
*U39
  1

  0
TEXT
  5
D05
  8
0
 10
360.4842953827349
 20
276.233542987227
 30
0.0
 40
2.5
  1
(文書番号：TY-34)2008.02.08
  0
ENDBLK
  5
D07
  8
0
  0
BLOCK
  8
0
  2
*U40
 70
     1
 10
0.0
 20
0.0
 30
0.0
  3
*U40
  1

  0
TEXT
  5
D09
  8
RAHM2
 10
-26.3624422164166
 20
26.250000000000028
 30
0.0
 40
2.5
  1
・  ・
  0
ENDBLK
  5
D0B
  8
0
  0
BLOCK
  8
0
  2
*U41
 70
     1
 10
0.0
 20
0.0
 30
0.0
  3
*U41
  1

  0
TEXT
  5
D0D
  8
RAHM2
 10
-26.3624422164166
 20
46.250000000000021
 30
0.0
 40
2.5
  1
・  ・
  0
ENDBLK
  5
D0F
  8
0
  0
BLOCK
  8
0
  2
*U42
 70
     1
 10
0.0
 20
0.0
 30
0.0
  3
*U42
  1

  0
TEXT
  5
D11
  8
RAHM2
 10
-26.3624422164166
 20
36.250000000000028
 30
0.0
 40
2.5
  1
・  ・
  0
ENDBLK
  5
D13
  8
0
  0
BLOCK
  8
0
  2
*U43
 70
     1
 10
0.0
 20
0.0
 30
0.0
  3
*U43
  1

  0
TEXT
  5
D15
  8
RAHM2
 10
-26.3624422164166
 20
41.250000000000021
 30
0.0
 40
2.5
  1
・  ・
  0
ENDBLK
  5
D17
  8
0
  0
BLOCK
  8
0
  2
*U44
 70
     1
 10
0.0
 20
0.0
 30
0.0
  3
*U44
  1

  0
TEXT
  5
D19
  8
RAHM2
 10
-8.4937430386778097
 20
21.249999999999972
 30
0.0
 40
2.5
  1
担当
  0
ENDBLK
  5
D1B
  8
0
  0
BLOCK
  8
0
  2
*U45
 70
     1
 10
0.0
 20
0.0
 30
0.0
  3
*U45
  1

  0
TEXT
  5
D1D
  8
RAHM2
 10
-28.558939215691112
 20
21.249999999999972
 30
0.0
 40
2.5
  1
年・月・日
  0
ENDBLK
  5
D1F
  8
0
  0
BLOCK
  8
0
  2
*U46
 70
     1
 10
0.0
 20
0.0
 30
0.0
  3
*U46
  1

  0
TEXT
  5
D21
  8
RAHM2
 10
-26.3624422164166
 20
31.250000000000028
 30
0.0
 40
2.5
  1
・  ・
  0
ENDBLK
  5
D23
  8
0
  0
BLOCK
  8
0
  2
*U47
 70
     1
 10
0.0
 20
0.0
 30
0.0
  3
*U47
  1

  0
TEXT
  5
D25
  8
RAHM2
 10
-64.666666666666671
 20
21.249999999999961
 30
0.0
 40
2.5
  1
変更記事
  0
ENDBLK
  5
D27
  8
0
  0
BLOCK
  8
0
  2
*U48
 70
     1
 10
0.0
 20
0.0
 30
0.0
  3
*U48
  1

  0
TEXT
  5
D29
  8
RAHM2
 10
-94.800255137131444
 20
16.301035407279599
 30
0.0
 40
2.5
  1
品名
  0
ENDBLK
  5
D2B
  8
0
  0
BLOCK
  8
0
  2
*U49
 70
     1
 10
0.0
 20
0.0
 30
0.0
  3
*U49
  1

  0
TEXT
  5
D2D
  8
RAHM2
 10
-93.666666666666671
 20
21.249999999999961
 30
0.0
 40
2.5
  1
符号
  0
ENDBLK
  5
D2F
  8
0
  0
BLOCK
  8
0
  2
*U50
 70
     1
 10
0.0
 20
0.0
 30
0.0
  3
*U50
  1

  0
TEXT
  5
D31
  8
RAHM2
 10
-94.966921803798115
 20
3.3010354072796271
 30
0.0
 40
2.5
  1
図番
  0
ENDBLK
  5
D33
  8
0
  0
BLOCK
  8
0
  2
*U51
 70
     1
 10
0.0
 20
0.0
 30
0.0
  3
*U51
  1

  0
TEXT
  5
D35
  8
RAHM2
 10
-19.982425929334909
 20
2.1847624665659851
 30
0.0
 40
2.5
  1
Rev.
  0
ENDBLK
  5
D37
  8
0
  0
BLOCK
  8
0
  2
*U52
 70
     1
 10
0.0
 20
0.0
 30
0.0
  3
*U52
  1

  0
TEXT
  5
D39
  8
RAHM2
 10
-107.4583333333333
 20
16.301035407279571
 30
0.0
 40
2.5
  1
製図
  0
ENDBLK
  5
D3B
  8
0
  0
BLOCK
  8
0
  2
*U53
 70
     1
 10
0.0
 20
0.0
 30
0.0
  3
*U53
  1

  0
TEXT
  5
D3D
  8
RAHM2
 10
-125.2083333333334
 20
16.301035407279581
 30
0.0
 40
2.5
  1
検図
  0
ENDBLK
  5
D3F
  8
0
  0
BLOCK
  8
0
  2
*U54
 70
     1
 10
0.0
 20
0.0
 30
0.0
  3
*U54
  1

  0
TEXT
  5
D41
  8
RAHM2
 10
-143.04166666666671
 20
16.301035407279581
 30
0.0
 40
2.5
  1
承認
  0
ENDBLK
  5
D43
  8
0
  0
BLOCK
  8
0
  2
*U55
 70
     1
 10
0.0
 20
0.0
 30
0.0
  3
*U55
  1

  0
TEXT
  5
D45
  8
RAHM2
 10
-160.79166666666671
 20
16.30103540727956
 30
0.0
 40
2.5
  1
承認
  0
ENDBLK
  5
D47
  8
0
  0
BLOCK
  8
0
  2
*U56
 70
     1
 10
0.0
 20
0.0
 30
0.0
  3
*U56
  1

  0
TEXT
  5
D49
  8
0
 10
-156.4263959390864
 20
23.418781725888241
 30
0.0
 40
3.5
  1
株式会社タカチ電機工業
  0
ENDBLK
  5
D4B
  8
0
  0
BLOCK
  8
0
  2
*U57
 70
     1
 10
0.0
 20
0.0
 30
0.0
  3
*U57
  1

  0
TEXT
  5
D4D
  8
RAHM2
 10
-165.80025513713139
 20
46.301035407279549
 30
0.0
 40
2.5
  1
材質
  0
ENDBLK
  5
D4F
  8
0
  0
BLOCK
  8
0
  2
*U58
 70
     1
 10
0.0
 20
0.0
 30
0.0
  3
*U58
  1

  0
TEXT
  5
D51
  8
RAHM2
 10
-165.80025513713139
 20
36.301035407279556
 30
0.0
 40
2.5
  1
表面処理
  0
ENDBLK
  5
D53
  8
0
  0
BLOCK
  8
0
  2
*U59
 70
     1
 10
0.0
 20
0.0
 30
0.0
  3
*U59
  1

  0
TEXT
  5
D55
  8
RAHM2
 10
-191.8002551371315
 20
21.301035407279631
 30
0.0
 40
2.5
  1
数量
  0
ENDBLK
  5
D57
  8
0
  0
BLOCK
  8
0
  2
*U60
 70
     1
 10
0.0
 20
0.0
 30
0.0
  3
*U60
  1

  0
TEXT
  5
D59
  8
RAHM2
 10
-191.8002551371315
 20
33.801035407279663
 30
0.0
 40
2.5
  1
尺度
  0
ENDBLK
  5
D5B
  8
0
  0
BLOCK
  8
0
  2
*U61
 70
     1
 10
0.0
 20
0.0
 30
0.0
  3
*U61
  1

  0
TEXT
  5
D5D
  8
RAHM2
 10
-192.1335884704649
 20
8.8010354072796062
 30
0.0
 40
2.5
  1
日付
  0
ENDBLK
  5
D5F
  8
0
  0
BLOCK
  8
0
  2
*U62
 70
     1
 10
0.0
 20
0.0
 30
0.0
  3
*U62
  1

  0
TEXT
  5
D66
  8
0
 10
150.48429538273481
 20
276.233542987227
 30
0.0
 40
2.5
  1
(文書番号：TY-34)2008.02.08
  0
ENDBLK
  5
D68
  8
0
  0
BLOCK
  8
0
  2
*U63
 70
     1
 10
0.0
 20
0.0
 30
0.0
  3
*U63
  1

  0
TEXT
  5
D6A
  8
RAHM2
 10
-26.3624422164166
 20
26.250000000000028
 30
0.0
 40
2.5
  1
・  ・
  0
ENDBLK
  5
D6C
  8
0
  0
BLOCK
  8
0
  2
*U64
 70
     1
 10
0.0
 20
0.0
 30
0.0
  3
*U64
  1

  0
TEXT
  5
D6E
  8
RAHM2
 10
-26.3624422164166
 20
46.250000000000021
 30
0.0
 40
2.5
  1
・  ・
  0
ENDBLK
  5
D70
  8
0
  0
BLOCK
  8
0
  2
*U65
 70
     1
 10
0.0
 20
0.0
 30
0.0
  3
*U65
  1

  0
TEXT
  5
D72
  8
RAHM2
 10
-26.3624422164166
 20
36.250000000000028
 30
0.0
 40
2.5
  1
・  ・
  0
ENDBLK
  5
D74
  8
0
  0
BLOCK
  8
0
  2
*U66
 70
     1
 10
0.0
 20
0.0
 30
0.0
  3
*U66
  1

  0
TEXT
  5
D76
  8
RAHM2
 10
-26.3624422164166
 20
41.250000000000021
 30
0.0
 40
2.5
  1
・  ・
  0
ENDBLK
  5
D78
  8
0
  0
BLOCK
  8
0
  2
*U67
 70
     1
 10
0.0
 20
0.0
 30
0.0
  3
*U67
  1

  0
TEXT
  5
D7A
  8
RAHM2
 10
-8.4937430386778097
 20
21.249999999999972
 30
0.0
 40
2.5
  1
担当
  0
ENDBLK
  5
D7C
  8
0
  0
BLOCK
  8
0
  2
*U68
 70
     1
 10
0.0
 20
0.0
 30
0.0
  3
*U68
  1

  0
TEXT
  5
D7E
  8
RAHM2
 10
-28.558939215691112
 20
21.249999999999972
 30
0.0
 40
2.5
  1
年・月・日
  0
ENDBLK
  5
D80
  8
0
  0
BLOCK
  8
0
  2
*U69
 70
     1
 10
0.0
 20
0.0
 30
0.0
  3
*U69
  1

  0
TEXT
  5
D82
  8
RAHM2
 10
-26.3624422164166
 20
31.250000000000028
 30
0.0
 40
2.5
  1
・  ・
  0
ENDBLK
  5
D84
  8
0
  0
BLOCK
  8
0
  2
*U70
 70
     1
 10
0.0
 20
0.0
 30
0.0
  3
*U70
  1

  0
TEXT
  5
D86
  8
RAHM2
 10
-64.666666666666671
 20
21.249999999999961
 30
0.0
 40
2.5
  1
変更記事
  0
ENDBLK
  5
D88
  8
0
  0
BLOCK
  8
0
  2
*U71
 70
     1
 10
0.0
 20
0.0
 30
0.0
  3
*U71
  1

  0
TEXT
  5
D8A
  8
RAHM2
 10
-94.800255137131444
 20
16.301035407279599
 30
0.0
 40
2.5
  1
品名
  0
ENDBLK
  5
D8C
  8
0
  0
BLOCK
  8
0
  2
*U72
 70
     1
 10
0.0
 20
0.0
 30
0.0
  3
*U72
  1

  0
TEXT
  5
D8E
  8
RAHM2
 10
-93.666666666666671
 20
21.249999999999961
 30
0.0
 40
2.5
  1
符号
  0
ENDBLK
  5
D90
  8
0
  0
BLOCK
  8
0
  2
*U73
 70
     1
 10
0.0
 20
0.0
 30
0.0
  3
*U73
  1

  0
TEXT
  5
D92
  8
RAHM2
 10
-94.966921803798115
 20
3.3010354072796271
 30
0.0
 40
2.5
  1
図番
  0
ENDBLK
  5
D94
  8
0
  0
BLOCK
  8
0
  2
*U74
 70
     1
 10
0.0
 20
0.0
 30
0.0
  3
*U74
  1

  0
TEXT
  5
D96
  8
RAHM2
 10
-19.982425929334909
 20
2.1847624665659851
 30
0.0
 40
2.5
  1
Rev.
  0
ENDBLK
  5
D98
  8
0
  0
BLOCK
  8
0
  2
*U75
 70
     1
 10
0.0
 20
0.0
 30
0.0
  3
*U75
  1

  0
TEXT
  5
D9A
  8
RAHM2
 10
-107.4583333333333
 20
16.301035407279571
 30
0.0
 40
2.5
  1
製図
  0
ENDBLK
  5
D9C
  8
0
  0
BLOCK
  8
0
  2
*U76
 70
     1
 10
0.0
 20
0.0
 30
0.0
  3
*U76
  1

  0
TEXT
  5
D9E
  8
RAHM2
 10
-125.2083333333334
 20
16.301035407279581
 30
0.0
 40
2.5
  1
検図
  0
ENDBLK
  5
DA0
  8
0
  0
BLOCK
  8
0
  2
*U77
 70
     1
 10
0.0
 20
0.0
 30
0.0
  3
*U77
  1

  0
TEXT
  5
DA2
  8
RAHM2
 10
-143.04166666666671
 20
16.301035407279581
 30
0.0
 40
2.5
  1
承認
  0
ENDBLK
  5
DA4
  8
0
  0
BLOCK
  8
0
  2
*U78
 70
     1
 10
0.0
 20
0.0
 30
0.0
  3
*U78
  1

  0
TEXT
  5
DA6
  8
RAHM2
 10
-160.79166666666671
 20
16.30103540727956
 30
0.0
 40
2.5
  1
承認
  0
ENDBLK
  5
DA8
  8
0
  0
BLOCK
  8
0
  2
*U79
 70
     1
 10
0.0
 20
0.0
 30
0.0
  3
*U79
  1

  0
TEXT
  5
DAA
  8
0
 10
-156.4263959390864
 20
23.418781725888241
 30
0.0
 40
3.5
  1
株式会社タカチ電機工業
  0
ENDBLK
  5
DAC
  8
0
  0
BLOCK
  8
0
  2
*U80
 70
     1
 10
0.0
 20
0.0
 30
0.0
  3
*U80
  1

  0
TEXT
  5
DAE
  8
RAHM2
 10
-165.80025513713139
 20
46.301035407279549
 30
0.0
 40
2.5
  1
材質
  0
ENDBLK
  5
DB0
  8
0
  0
BLOCK
  8
0
  2
*U81
 70
     1
 10
0.0
 20
0.0
 30
0.0
  3
*U81
  1

  0
TEXT
  5
DB2
  8
RAHM2
 10
-165.80025513713139
 20
36.301035407279556
 30
0.0
 40
2.5
  1
表面処理
  0
ENDBLK
  5
DB4
  8
0
  0
BLOCK
  8
0
  2
*U82
 70
     1
 10
0.0
 20
0.0
 30
0.0
  3
*U82
  1

  0
TEXT
  5
DB6
  8
RAHM2
 10
-191.8002551371315
 20
21.301035407279631
 30
0.0
 40
2.5
  1
数量
  0
ENDBLK
  5
DB8
  8
0
  0
BLOCK
  8
0
  2
*U83
 70
     1
 10
0.0
 20
0.0
 30
0.0
  3
*U83
  1

  0
TEXT
  5
DBA
  8
RAHM2
 10
-191.8002551371315
 20
33.801035407279663
 30
0.0
 40
2.5
  1
尺度
  0
ENDBLK
  5
DBC
  8
0
  0
BLOCK
  8
0
  2
*U84
 70
     1
 10
0.0
 20
0.0
 30
0.0
  3
*U84
  1

  0
TEXT
  5
DBE
  8
RAHM2
 10
-192.1335884704649
 20
8.8010354072796062
 30
0.0
 40
2.5
  1
日付
  0
ENDBLK
  5
DC0
  8
0
  0
BLOCK
  8
0
  2
*U85
 70
     1
 10
0.0
 20
0.0
 30
0.0
  3
*U85
  1

  0
TEXT
  5
DE1
  8
AM_5
 62
     2
 10
79.135858962825068
 20
148.3182904789744
 30
0.0
 40
3.5
  1
最大17
 50
90.0
  0
ENDBLK
  5
DE3
  8
0
  0
BLOCK
  8
0
  2
*U86
 70
     1
 10
0.0
 20
0.0
 30
0.0
  3
*U86
  1

  0
TEXT
  5
DE5
  8
AM_5
 62
     2
 10
69.135858962825068
 20
150.36318713251771
 30
0.0
 40
3.5
  1
最大22
 50
90.0
  0
ENDBLK
  5
DE7
  8
0
  0
BLOCK
  8
0
  2
*U87
 70
     1
 10
0.0
 20
0.0
 30
0.0
  3
*U87
  1

  0
TEXT
  5
DE9
  8
AM_5
 62
     2
 10
97.963372589409786
 20
200.8557904789744
 30
0.0
 40
3.5
  1
15
  0
ENDBLK
  5
DEB
  8
0
  0
ENDSEC
  0
SECTION
  2
ENTITIES
  0
INSERT
  5
782
  8
0
  2
TK-A4
 10
0.0
 20
0.0
 30
0.0
1001
GENIUS_GENOREF_13
1005
7EC
1001
GENIUS_GENODEF_13
1002
{
1000
HIER
1070
     0
1002
}
1002
{
1000
MANEDIT
1070
     0
1002
}
1002
{
1000
NOSEL
1070
     0
1002
}
1002
{
1000
BEHIND
1070
     0
1002
}
1002
{
1000
OTHER
1070
     0
1002
}
1002
{
1000
REACTOR
1002
}
1001
GENIUS_GENOBJ-N-SDF_13
1002
{
1000
OWNER
1000
GEN
1002
}
1001
GENIUS_GENSCREG_13
1040
1.0
1040
1.0
1011
0.0
1021
0.0
1031
0.0
1021
0.0
1031
0.0
1011
193.0
1021
0.0
1031
0.0
1021
280.00000000000011
1031
0.0
1070
     3
  0
INSERT
  5
7E1
  8
0
 66
     1
  2
TK-製作図面
 10
193.0
 20
0.0
 30
0.0
1001
GENIUS_GENOREF_13
1005
7EC
  0
ATTRIB
  5
7E3
  8
0
 10
184.9976908104542
 20
1.705189434395036
 30
0.0
 40
2.5
  1

  2
GEN-TITLE-NR2
 70
     0
  0
ATTRIB
  5
7E4
  8
0
 10
108.8574809841467
 20
12.82790432564377
 30
0.0
 40
3.5
  1
SBR85-2P
  2
GEN-TITLE-DES1
 70
     0
  0
ATTRIB
  5
7E5
  8
0
 10
109.0
 20
9.1499999999999488
 30
0.0
 40
2.5
  1
SBR型ショートバー
  2
GEN-TITLE-DES2
 70
     0
  0
ATTRIB
  5
7E6
  8
0
 10
109.0
 20
1.9999999999999569
 30
0.0
 40
3.0
  1

  2
GEN-TITLE-NR1
 70
     0
  0
ATTRIB
  5
7E7
  8
0
 10
44.03813241647083
 20
43.299999999999912
 30
0.0
 40
3.0
  1
黄銅
  2
GEN-TITLE-MAT1
 70
     0
  0
ATTRIB
  5
7E8
  8
0
 10
44.03813241647083
 20
33.299999999999912
 30
0.0
 40
3.0
  1
ニッケルメッキ
  2
GEN-TITLE-MAT2
 70
     0
  0
ATTRIB
  5
7E9
  8
0
 10
17.387259087390468
 20
16.199999999999939
 30
0.0
 40
3.0
  1

 72
     2
 11
17.387259087390468
 21
15.79999999999994
 31
0.0
  2
GEN-TITLE-QTY
 70
     0
 74
     1
  0
ATTRIB
  5
7EA
  8
0
 10
11.72526038557594
 20
28.699999999999971
 30
0.0
 40
3.0
  1
1:1
 72
     2
 11
15.175260385575941
 21
28.299999999999979
 31
0.0
  2
GEN-TITLE-SCA
 70
     0
 74
     1
  0
ATTRIB
  5
7EB
  8
0
 10
2.9208953849672539
 20
3.9883425376106638
 30
0.0
 40
3.0
  1
2012/06/21
 72
     1
 11
12.782804833786139
 21
3.5883425376106639
 31
0.0
  2
GEN-TITLE-DAT
 70
     0
 74
     1
  0
SEQEND
  5
7E2
  8
0
  0
POINT
  5
7EC
  8
0
 10
0.0
 20
0.0
 30
0.0
1001
GENIUS_GENODEF_13
1002
{
1000
HIER
1070
     1
1002
}
1002
{
1000
MANEDIT
1070
     0
1002
}
1002
{
1000
NOSEL
1070
     0
1002
}
1002
{
1000
BEHIND
1070
     0
1002
}
1002
{
1000
OTHER
1070
     0
1002
}
1002
{
1000
REACTOR
1002
}
1001
GENIUS_GENOBJ-N-TIT_13
1002
{
1000
OWNER
1000
GEN
1002
}
1001
GENIUS_GENOENT_13
1002
{
1000
MYREF
1005
7EC
1002
}
1002
{
1000
GRP
1005
0
1002
}
1001
GENIUS_GENOLIS_13
1002
{
1000
ENT
1005
7E1
1005
782
1002
}
1001
GENIUS_GENTITLE_13
1002
{
1000
BORDER
1000
C:\Program Files\Autodesk\MDT 2007\Acadm\gen\Dwg\Format\TK-A4
1002
}
1002
{
1000
TITLE
1000
TK-製作図面
1002
}
1002
{
1000
ADDITIONAL1
1000

1002
}
1002
{
1000
ADDITIONAL2
1000

1002
}
1002
{
1000
SCALE
1000
1:1
1002
}
1002
{
1000
TITLESTD
1000
ISO
1002
}
1002
{
1000
HRA
1005
782
1002
}
1002
{
1000
HTIT
1005
7E1
1002
}
1002
{
1000
GENIUSID
1005
7EC
1002
}
1002
{
1000
INVTXTID
1005
0
1002
}
1002
{
1000
UNCHG
1002
{
1000
GEN-TITLE-SIZ
1000
GEN-TITLE-SCA
1002
}
1002
}
  0
LINE
  5
801
  8
TK1
 10
106.735859962825
 20
167.8557904789744
 30
0.0
 11
107.13585996282499
 21
167.8557904789744
 31
0.0
  0
LINE
  5
802
  8
TK1
 10
107.63585996282499
 20
167.3557904789744
 30
0.0
 11
107.63585996282499
 21
160.8557904789744
 31
0.0
  0
LINE
  5
803
  8
TK1
 10
107.63585996282499
 20
160.8557904789744
 30
0.0
 11
106.38585996282499
 21
159.3557904789744
 31
0.0
  0
ARC
  5
811
  8
TK1
 10
104.38585996282509
 20
162.8557904789744
 30
0.0
 40
1.8499999999999941
 50
180.0
 51
0.0
  0
LINE
  5
812
  8
TK1
 10
106.235859962825
 20
162.8557904789744
 30
0.0
 11
106.235859962825
 21
167.3557904789744
 31
0.0
  0
LINE
  5
813
  8
TK1
 10
102.035859962825
 20
167.8557904789744
 30
0.0
 11
101.63585996282499
 21
167.8557904789744
 31
0.0
  0
LINE
  5
814
  8
TK1
 10
101.13585996282499
 20
167.3557904789744
 30
0.0
 11
101.13585996282499
 21
160.8557904789744
 31
0.0
  0
LINE
  5
815
  8
TK1
 10
101.13585996282499
 20
160.8557904789744
 30
0.0
 11
102.38585996282499
 21
159.3557904789744
 31
0.0
  0
LINE
  5
816
  8
TK1
 10
102.5358599628251
 20
162.8557904789744
 30
0.0
 11
102.5358599628251
 21
167.3557904789744
 31
0.0
  0
LINE
  5
817
  8
TK1
 10
98.23585996282506
 20
167.8557904789744
 30
0.0
 11
98.635859962825066
 21
167.8557904789744
 31
0.0
  0
LINE
  5
818
  8
TK1
 10
99.135859962825066
 20
167.3557904789744
 30
0.0
 11
99.135859962825066
 21
160.8557904789744
 31
0.0
  0
LINE
  5
819
  8
TK1
 10
99.135859962825066
 20
160.8557904789744
 30
0.0
 11
97.885859962825066
 21
159.3557904789744
 31
0.0
  0
ARC
  5
81A
  8
TK1
 10
95.885859962825066
 20
162.8557904789744
 30
0.0
 40
1.8499999999999941
 50
180.0
 51
0.0
  0
LINE
  5
81B
  8
TK1
 10
97.73585996282506
 20
162.8557904789744
 30
0.0
 11
97.73585996282506
 21
167.3557904789744
 31
0.0
  0
LINE
  5
81C
  8
TK1
 10
93.535859962825072
 20
167.8557904789744
 30
0.0
 11
93.135859962825066
 21
167.8557904789744
 31
0.0
  0
LINE
  5
81D
  8
TK1
 10
92.635859962825066
 20
167.3557904789744
 30
0.0
 11
92.635859962825066
 21
160.8557904789744
 31
0.0
  0
LINE
  5
81E
  8
TK1
 10
92.635859962825066
 20
160.8557904789744
 30
0.0
 11
93.885859962825066
 21
159.3557904789744
 31
0.0
  0
LINE
  5
81F
  8
TK1
 10
94.035859962825057
 20
162.8557904789744
 30
0.0
 11
94.035859962825057
 21
167.3557904789744
 31
0.0
  0
ARC
  5
820
  8
TK1
 10
107.13585996282499
 20
167.3557904789744
 30
0.0
 40
0.5
 50
0.0
 51
90.0
1001
GENIUS_GENODEF_13
1002
{
1000
HIER
1070
     0
1002
}
1002
{
1000
MANEDIT
1070
     0
1002
}
1002
{
1000
NOSEL
1070
     0
1002
}
1002
{
1000
BEHIND
1070
     0
1002
}
1002
{
1000
OTHER
1070
     0
1002
}
1002
{
1000
REACTOR
1002
}
1001
GENIUS_GENOBJ-N-FIL_13
1002
{
1000
OWNER
1000
GEN
1002
}
  0
ARC
  5
823
  8
TK1
 10
106.735859962825
 20
167.3557904789744
 30
0.0
 40
0.5
 50
90.0
 51
180.0
1001
GENIUS_GENODEF_13
1002
{
1000
HIER
1070
     0
1002
}
1002
{
1000
MANEDIT
1070
     0
1002
}
1002
{
1000
NOSEL
1070
     0
1002
}
1002
{
1000
BEHIND
1070
     0
1002
}
1002
{
1000
OTHER
1070
     0
1002
}
1002
{
1000
REACTOR
1002
}
1001
GENIUS_GENOBJ-N-FIL_13
1002
{
1000
OWNER
1000
GEN
1002
}
  0
ARC
  5
824
  8
TK1
 10
102.035859962825
 20
167.3557904789744
 30
0.0
 40
0.5
 50
0.0
 51
90.0
1001
GENIUS_GENODEF_13
1002
{
1000
HIER
1070
     0
1002
}
1002
{
1000
MANEDIT
1070
     0
1002
}
1002
{
1000
NOSEL
1070
     0
1002
}
1002
{
1000
BEHIND
1070
     0
1002
}
1002
{
1000
OTHER
1070
     0
1002
}
1002
{
1000
REACTOR
1002
}
1001
GENIUS_GENOBJ-N-FIL_13
1002
{
1000
OWNER
1000
GEN
1002
}
  0
ARC
  5
825
  8
TK1
 10
101.63585996282499
 20
167.3557904789744
 30
0.0
 40
0.5
 50
90.0
 51
180.0
1001
GENIUS_GENODEF_13
1002
{
1000
HIER
1070
     0
1002
}
1002
{
1000
MANEDIT
1070
     0
1002
}
1002
{
1000
NOSEL
1070
     0
1002
}
1002
{
1000
BEHIND
1070
     0
1002
}
1002
{
1000
OTHER
1070
     0
1002
}
1002
{
1000
REACTOR
1002
}
1001
GENIUS_GENOBJ-N-FIL_13
1002
{
1000
OWNER
1000
GEN
1002
}
  0
ARC
  5
826
  8
TK1
 10
98.635859962825066
 20
167.3557904789744
 30
0.0
 40
0.5
 50
0.0
 51
90.0
1001
GENIUS_GENODEF_13
1002
{
1000
HIER
1070
     0
1002
}
1002
{
1000
MANEDIT
1070
     0
1002
}
1002
{
1000
NOSEL
1070
     0
1002
}
1002
{
1000
BEHIND
1070
     0
1002
}
1002
{
1000
OTHER
1070
     0
1002
}
1002
{
1000
REACTOR
1002
}
1001
GENIUS_GENOBJ-N-FIL_13
1002
{
1000
OWNER
1000
GEN
1002
}
  0
ARC
  5
827
  8
TK1
 10
98.23585996282506
 20
167.3557904789744
 30
0.0
 40
0.5
 50
90.0
 51
180.0
1001
GENIUS_GENODEF_13
1002
{
1000
HIER
1070
     0
1002
}
1002
{
1000
MANEDIT
1070
     0
1002
}
1002
{
1000
NOSEL
1070
     0
1002
}
1002
{
1000
BEHIND
1070
     0
1002
}
1002
{
1000
OTHER
1070
     0
1002
}
1002
{
1000
REACTOR
1002
}
1001
GENIUS_GENOBJ-N-FIL_13
1002
{
1000
OWNER
1000
GEN
1002
}
  0
ARC
  5
828
  8
TK1
 10
93.535859962825072
 20
167.3557904789744
 30
0.0
 40
0.5
 50
0.0
 51
90.0
1001
GENIUS_GENODEF_13
1002
{
1000
HIER
1070
     0
1002
}
1002
{
1000
MANEDIT
1070
     0
1002
}
1002
{
1000
NOSEL
1070
     0
1002
}
1002
{
1000
BEHIND
1070
     0
1002
}
1002
{
1000
OTHER
1070
     0
1002
}
1002
{
1000
REACTOR
1002
}
1001
GENIUS_GENOBJ-N-FIL_13
1002
{
1000
OWNER
1000
GEN
1002
}
  0
ARC
  5
829
  8
TK1
 10
93.135859962825066
 20
167.3557904789744
 30
0.0
 40
0.5
 50
90.0
 51
180.0
1001
GENIUS_GENODEF_13
1002
{
1000
HIER
1070
     0
1002
}
1002
{
1000
MANEDIT
1070
     0
1002
}
1002
{
1000
NOSEL
1070
     0
1002
}
1002
{
1000
BEHIND
1070
     0
1002
}
1002
{
1000
OTHER
1070
     0
1002
}
1002
{
1000
REACTOR
1002
}
1001
GENIUS_GENOBJ-N-FIL_13
1002
{
1000
OWNER
1000
GEN
1002
}
  0
LINE
  5
835
  8
TK2
 10
100.13585996282499
 20
150.8557904789744
 30
0.0
 11
101.035859962825
 21
150.8557904789744
 31
0.0
  0
LINE
  5
836
  8
TK2
 10
102.035859962825
 20
151.8557904789744
 30
0.0
 11
102.035859962825
 21
155.55579047897439
 31
0.0
  0
LINE
  5
837
  8
TK2
 10
102.035859962825
 20
155.55579047897439
 30
0.0
 11
106.735859962825
 21
155.55579047897439
 31
0.0
  0
LINE
  5
838
  8
TK2
 10
106.735859962825
 20
155.55579047897439
 30
0.0
 11
106.735859962825
 21
146.8557904789744
 31
0.0
  0
LINE
  5
839
  8
TK2
 10
105.735859962825
 20
145.8557904789744
 30
0.0
 11
100.13585996282499
 21
145.8557904789744
 31
0.0
  0
ARC
  5
83A
  8
TK2
 10
101.035859962825
 20
151.8557904789744
 30
0.0
 40
1.0
 50
270.0
 51
0.0
1001
GENIUS_GENODEF_13
1002
{
1000
HIER
1070
     0
1002
}
1002
{
1000
MANEDIT
1070
     0
1002
}
1002
{
1000
NOSEL
1070
     0
1002
}
1002
{
1000
BEHIND
1070
     0
1002
}
1002
{
1000
OTHER
1070
     0
1002
}
1002
{
1000
REACTOR
1002
}
1001
GENIUS_GENOBJ-N-FIL_13
1002
{
1000
OWNER
1000
GEN
1002
}
  0
ARC
  5
83B
  8
TK2
 10
105.735859962825
 20
146.8557904789744
 30
0.0
 40
1.0
 50
270.0
 51
0.0
1001
GENIUS_GENODEF_13
1002
{
1000
HIER
1070
     0
1002
}
1002
{
1000
MANEDIT
1070
     0
1002
}
1002
{
1000
NOSEL
1070
     0
1002
}
1002
{
1000
BEHIND
1070
     0
1002
}
1002
{
1000
OTHER
1070
     0
1002
}
1002
{
1000
REACTOR
1002
}
1001
GENIUS_GENOBJ-N-FIL_13
1002
{
1000
OWNER
1000
GEN
1002
}
  0
LINE
  5
83E
  8
TK1
 10
102.38585996282499
 20
159.3557904789744
 30
0.0
 11
102.38585996282499
 21
155.55579047897439
 31
0.0
  0
LINE
  5
83F
  8
TK1
 10
106.38585996282499
 20
159.3557904789744
 30
0.0
 11
106.38585996282499
 21
155.55579047897439
 31
0.0
  0
LINE
  5
840
  8
TK2
 10
100.13585996282499
 20
150.8557904789744
 30
0.0
 11
99.23585996282506
 21
150.8557904789744
 31
0.0
  0
LINE
  5
841
  8
TK2
 10
98.23585996282506
 20
151.8557904789744
 30
0.0
 11
98.23585996282506
 21
155.55579047897439
 31
0.0
  0
ARC
  5
842
  8
TK2
 10
99.23585996282506
 20
151.8557904789744
 30
0.0
 40
1.0
 50
180.0
 51
270.0
1001
GENIUS_GENODEF_13
1002
{
1000
HIER
1070
     0
1002
}
1002
{
1000
MANEDIT
1070
     0
1002
}
1002
{
1000
NOSEL
1070
     0
1002
}
1002
{
1000
BEHIND
1070
     0
1002
}
1002
{
1000
OTHER
1070
     0
1002
}
1002
{
1000
REACTOR
1002
}
1001
GENIUS_GENOBJ-N-FIL_13
1002
{
1000
OWNER
1000
GEN
1002
}
  0
LINE
  5
843
  8
TK2
 10
98.23585996282506
 20
155.55579047897439
 30
0.0
 11
93.535859962825072
 21
155.55579047897439
 31
0.0
  0
LINE
  5
844
  8
TK2
 10
93.535859962825072
 20
155.55579047897439
 30
0.0
 11
93.535859962825072
 21
146.8557904789744
 31
0.0
  0
ARC
  5
845
  8
TK2
 10
94.535859962825072
 20
146.8557904789744
 30
0.0
 40
1.0
 50
180.0
 51
270.0
1001
GENIUS_GENODEF_13
1002
{
1000
HIER
1070
     0
1002
}
1002
{
1000
MANEDIT
1070
     0
1002
}
1002
{
1000
NOSEL
1070
     0
1002
}
1002
{
1000
BEHIND
1070
     0
1002
}
1002
{
1000
OTHER
1070
     0
1002
}
1002
{
1000
REACTOR
1002
}
1001
GENIUS_GENOBJ-N-FIL_13
1002
{
1000
OWNER
1000
GEN
1002
}
  0
LINE
  5
846
  8
TK2
 10
94.535859962825072
 20
145.8557904789744
 30
0.0
 11
100.13585996282499
 21
145.8557904789744
 31
0.0
  0
LINE
  5
847
  8
TK1
 10
97.885859962825066
 20
159.3557904789744
 30
0.0
 11
97.885859962825066
 21
155.55579047897439
 31
0.0
  0
LINE
  5
848
  8
TK1
 10
93.885859962825066
 20
159.3557904789744
 30
0.0
 11
93.885859962825066
 21
155.55579047897439
 31
0.0
  0
LINE
  5
84A
  8
AM_7
  6
AM_ISO08W050X2
 10
104.38585996282509
 20
158.0057904789744
 30
0.0
 11
104.38585996282509
 21
170.8557904789744
 31
0.0
1001
GENIUS_GENODEF_13
1002
{
1000
HIER
1070
     0
1002
}
1002
{
1000
MANEDIT
1070
     0
1002
}
1002
{
1000
NOSEL
1070
     0
1002
}
1002
{
1000
BEHIND
1070
     0
1002
}
1002
{
1000
OTHER
1070
     0
1002
}
1002
{
1000
REACTOR
1002
}
1001
GENIUS_GENOBJ-N-CEN_13
1002
{
1000
OWNER
1000
GEN
1002
}
1001
GENIUS_GENCEN_19
1002
{
1040
3.0
1002
}
  0
LINE
  5
84B
  8
AM_7
  6
AM_ISO08W050X2
 10
95.885859962825066
 20
158.0057904789744
 30
0.0
 11
95.885859962825066
 21
170.8557904789744
 31
0.0
1001
GENIUS_GENOBJ-N-CEN_13
1002
{
1000
OWNER
1000
GEN
1002
}
1001
GENIUS_GENODEF_13
1002
{
1000
HIER
1070
     0
1002
}
1002
{
1000
MANEDIT
1070
     0
1002
}
1002
{
1000
NOSEL
1070
     0
1002
}
1002
{
1000
BEHIND
1070
     0
1002
}
1002
{
1000
OTHER
1070
     0
1002
}
1002
{
1000
REACTOR
1002
}
1001
GENIUS_GENCEN_19
1002
{
1040
3.0
1002
}
  0
LINE
  5
84C
  8
AM_7
  6
AM_ISO08W050X2
 10
91.035859962825072
 20
162.8557904789744
 30
0.0
 11
109.235859962825
 21
162.8557904789744
 31
0.0
1001
GENIUS_GENODEF_13
1002
{
1000
HIER
1070
     0
1002
}
1002
{
1000
MANEDIT
1070
     0
1002
}
1002
{
1000
NOSEL
1070
     0
1002
}
1002
{
1000
BEHIND
1070
     0
1002
}
1002
{
1000
OTHER
1070
     0
1002
}
1002
{
1000
REACTOR
1002
}
1001
GENIUS_GENOBJ-N-CEN_13
1002
{
1000
OWNER
1000
GEN
1002
}
1001
GENIUS_GENCEN_19
1002
{
1040
3.0
1002
}
  0
DIMENSION
  5
84F
  8
AM_5
  2
*D9
 10
80.635858962825097
 20
145.8557904789744
 30
0.0
 11
77.385858962825068
 21
154.3557904789744
 31
0.0
 70
     0
  1
最大<>
 13
91.035859962825072
 23
162.8557904789744
 33
0.0
 14
94.535859962825072
 24
145.8557904789744
 34
0.0
 50
90.0
1001
ACAD_DSTYLE_DIMINSPECT
1070
   396
1000
100%
1070
   395
1000

1070
   394
1070
    33
1070
   393
1070
     0
  0
DIMENSION
  5
87A
  8
AM_5
  2
*D10
 10
70.635858962825068
 20
145.8557904789744
 30
0.0
 11
67.385514474636082
 21
156.8557904789744
 31
0.0
 70
     0
  1
最大<>
 13
93.135859962825066
 23
167.8557904789744
 33
0.0
 14
94.535859962825072
 24
145.8557904789744
 34
0.0
 50
90.0
1001
ACAD_DSTYLE_DIMINSPECT
1070
   396
1000
100%
1070
   395
1000

1070
   394
1070
    33
1070
   393
1070
     0
  0
DIMENSION
  5
89B
  8
AM_5
  2
*D11
 10
97.73585996282506
 20
179.3557904789744
 30
0.0
 11
95.946486077645105
 21
182.99321686196441
 31
0.0
 70
   128
 13
94.035859962825057
 23
167.3557904789744
 33
0.0
 14
97.73585996282506
 24
167.3557904789744
 34
0.0
1001
ACAD_DSTYLE_DIMINSPECT
1070
   396
1000
100%
1070
   395
1000

1070
   394
1070
    33
1070
   393
1070
     0
1001
ACAD
1000
DSTYLE
1002
{
1070
   287
1070
     5
1070
   279
1070
     2
1002
}
  0
DIMENSION
  5
8E3
  8
AM_5
  2
*D12
 10
92.635859962825066
 20
189.3557904789744
 30
0.0
 11
95.958615817353675
 21
193.1007455690773
 31
0.0
 70
   128
 13
99.135859962825066
 23
167.3557904789744
 33
0.0
 14
92.635859962825066
 24
167.3557904789744
 34
0.0
1001
ACAD_DSTYLE_DIMINSPECT
1070
   396
1000
100%
1070
   395
1000

1070
   394
1070
    33
1070
   393
1070
     0
1001
ACAD
1000
DSTYLE
1002
{
1070
   287
1070
     5
1070
   279
1070
     2
1002
}
  0
DIMENSION
  5
915
  8
AM_5
  2
*D13
 10
107.63585996282499
 20
199.3557904789744
 30
0.0
 11
100.13585996282499
 21
202.6057904789744
 31
0.0
 70
     0
 13
92.635859962825066
 23
167.3557904789744
 33
0.0
 14
107.63585996282499
 24
167.3557904789744
 34
0.0
1001
ACAD_DSTYLE_DIMINSPECT
1070
   396
1000
100%
1070
   395
1000

1070
   394
1070
    33
1070
   393
1070
     0
  0
DIMENSION
  5
9E2
  8
AM_5
  2
*D14
 10
103.961502413459
 20
148.62939243729161
 30
0.0
 11
120.0660716585795
 21
136.87508395581969
 31
0.0
 70
   132
  1
被覆付き
 15
104.46799218392189
 25
147.76714646750321
 35
0.0
 40
0.0
1001
ACAD_DSTYLE_DIMINSPECT
1070
   396
1000
100%
1070
   395
1000

1070
   394
1070
    33
1070
   393
1070
     0
1001
ACAD_DSTYLE_DIMRADIAL_EXTENSION
1070
   387
1070
     1
1070
   388
1040
4.7123889803846888
1070
   390
1040
0.0
1001
ACAD
1000
DSTYLE
1002
{
1070
     5
1000
DOTSMALL
1002
}
  0
VIEWPORT
  5
17C
 67
     1
  8
0
 10
133.34999084472651
 20
101.5999970436096
 30
0.0
 40
370.22669129365238
 41
228.4221935424805
 68
     1
 69
     1
1001
ACAD
1000
MVIEW
1002
{
1070
    16
1010
0.0
1020
0.0
1030
0.0
1010
0.0
1020
0.0
1030
1.0
1040
0.0
1040
228.4221935424805
1040
133.34999084472651
1040
101.5999970436096
1040
50.0
1040
0.0
1040
0.0
1070
     0
1070
   100
1070
     1
1070
     1
1070
     0
1070
     0
1070
     0
1070
     0
1040
0.0
1040
0.0
1040
0.0
1040
10.0
1040
10.0
1040
10.0
1040
10.0
1070
     0
1002
{
1002
}
1002
}
1001
GENIUS_GENODEF_13
1002
{
1000
HIER
1070
     0
1002
}
1002
{
1000
MANEDIT
1070
     0
1002
}
1002
{
1000
NOSEL
1070
     0
1002
}
1002
{
1000
BEHIND
1070
     0
1002
}
1002
{
1000
OTHER
1070
     0
1002
}
1002
{
1000
REACTOR
1002
}
1001
GENIUS_GENOBJ-N-SDF_13
1002
{
1000
OWNER
1000
GEN
1002
}
1001
GENIUS_GENSCREG_15
1000
PF
1040
1.0
1000
DF
1040
1.0
1000
MIN
1011
-51.763354802099627
1021
0.0
1031
0.0
1021
-12.6110997276306
1031
0.0
1000
MAX
1011
318.4633364915527
1021
0.0
1031
0.0
1021
215.8110938148499
1031
0.0
1000
FLAGS
1070
     4
  0
ENDSEC
  0
EOF
