  0
SECTION
  2
HEADER
  9
$ACADVER
  1
AC1015
  9
$ACADMAINTVER
 70
    20
  9
$DWGCODEPAGE
  3
ANSI_932
  9
$INSBASE
 10
0.0
 20
0.0
 30
0.0
  9
$EXTMIN
 10
0.0
 20
-0.0000000000002132
 30
0.0
  9
$EXTMAX
 10
1612.0
 20
1120.0
 30
0.0
  9
$LIMMIN
 10
0.0
 20
0.0
  9
$LIMMAX
 10
1612.0
 20
1120.0
  9
$ORTHOMODE
 70
     0
  9
$REGENMODE
 70
     1
  9
$FILLMODE
 70
     1
  9
$QTEXTMODE
 70
     0
  9
$MIRRTEXT
 70
     1
  9
$LTSCALE
 40
4.0
  9
$ATTMODE
 70
     1
  9
$TEXTSIZE
 40
2.5
  9
$TRACEWID
 40
0.05
  9
$TEXTSTYLE
  7
takachi1
  9
$CLAYER
  8
0
  9
$CELTYPE
  6
ByLayer
  9
$CECOLOR
 62
   256
  9
$CELTSCALE
 40
1.0
  9
$DISPSILH
 70
     0
  9
$DIMSCALE
 40
5.0
  9
$DIMASZ
 40
2.5
  9
$DIMEXO
 40
1.0
  9
$DIMDLI
 40
10.0
  9
$DIMRND
 40
0.0
  9
$DIMDLE
 40
0.0
  9
$DIMEXE
 40
1.0
  9
$DIMTP
 40
0.1
  9
$DIMTM
 40
0.1
  9
$DIMTXT
 40
3.5
  9
$DIMCEN
 40
0.0
  9
$DIMTSZ
 40
0.0
  9
$DIMTOL
 70
     0
  9
$DIMLIM
 70
     0
  9
$DIMTIH
 70
     0
  9
$DIMTOH
 70
     0
  9
$DIMSE1
 70
     0
  9
$DIMSE2
 70
     0
  9
$DIMTAD
 70
     1
  9
$DIMZIN
 70
     8
  9
$DIMBLK
  1
Open30
  9
$DIMASO
 70
     1
  9
$DIMSHO
 70
     1
  9
$DIMPOST
  1

  9
$DIMAPOST
  1
"
  9
$DIMALT
 70
     0
  9
$DIMALTD
 70
     2
  9
$DIMALTF
 40
0.0393701
  9
$DIMLFAC
 40
1.0
  9
$DIMTOFL
 70
     1
  9
$DIMTVP
 40
0.0
  9
$DIMTIX
 70
     0
  9
$DIMSOXD
 70
     0
  9
$DIMSAH
 70
     0
  9
$DIMBLK1
  1

  9
$DIMBLK2
  1

  9
$DIMSTYLE
  2
AM_ISO
  9
$DIMCLRD
 70
     3
  9
$DIMCLRE
 70
     3
  9
$DIMCLRT
 70
     2
  9
$DIMTFAC
 40
0.71
  9
$DIMGAP
 40
1.5
  9
$DIMJUST
 70
     0
  9
$DIMSD1
 70
     0
  9
$DIMSD2
 70
     0
  9
$DIMTOLJ
 70
     0
  9
$DIMTZIN
 70
     8
  9
$DIMALTZ
 70
     0
  9
$DIMALTTZ
 70
     0
  9
$DIMUPT
 70
     0
  9
$DIMDEC
 70
     2
  9
$DIMTDEC
 70
     2
  9
$DIMALTU
 70
     2
  9
$DIMALTTD
 70
     2
  9
$DIMTXSTY
  7
STANDARD
  9
$DIMAUNIT
 70
     0
  9
$DIMADEC
 70
     0
  9
$DIMALTRND
 40
0.0
  9
$DIMAZIN
 70
     2
  9
$DIMDSEP
 70
    46
  9
$DIMATFIT
 70
     3
  9
$DIMFRAC
 70
     0
  9
$DIMLDRBLK
  1
Open30
  9
$DIMLUNIT
 70
     2
  9
$DIMLWD
 70
    -1
  9
$DIMLWE
 70
    -1
  9
$DIMTMOVE
 70
     0
  9
$LUNITS
 70
     2
  9
$LUPREC
 70
     2
  9
$SKETCHINC
 40
0.1
  9
$FILLETRAD
 40
0.8
  9
$AUNITS
 70
     0
  9
$AUPREC
 70
     0
  9
$MENU
  1
.
  9
$ELEVATION
 40
0.0
  9
$PELEVATION
 40
0.0
  9
$THICKNESS
 40
0.0
  9
$LIMCHECK
 70
     0
  9
$CHAMFERA
 40
10.0
  9
$CHAMFERB
 40
10.0
  9
$CHAMFERC
 40
1.0
  9
$CHAMFERD
 40
0.0
  9
$SKPOLY
 70
     0
  9
$TDCREATE
 40
2454770.465836227
  9
$TDUCREATE
 40
2454770.090836227
  9
$TDUPDATE
 40
2455068.667567454
  9
$TDUUPDATE
 40
2455068.292567454
  9
$TDINDWG
 40
0.1376748495
  9
$TDUSRTIMER
 40
0.1376748495
  9
$USRTIMER
 70
     1
  9
$ANGBASE
 50
0.0
  9
$ANGDIR
 70
     0
  9
$PDMODE
 70
     0
  9
$PDSIZE
 40
0.0
  9
$PLINEWID
 40
0.0
  9
$SPLFRAME
 70
     0
  9
$SPLINETYPE
 70
     6
  9
$SPLINESEGS
 70
     8
  9
$HANDSEED
  5
454F
  9
$SURFTAB1
 70
     6
  9
$SURFTAB2
 70
     6
  9
$SURFTYPE
 70
     6
  9
$SURFU
 70
     6
  9
$SURFV
 70
     6
  9
$UCSBASE
  2

  9
$UCSNAME
  2

  9
$UCSORG
 10
0.0
 20
0.0
 30
0.0
  9
$UCSXDIR
 10
1.0
 20
0.0
 30
0.0
  9
$UCSYDIR
 10
0.0
 20
1.0
 30
0.0
  9
$UCSORTHOREF
  2

  9
$UCSORTHOVIEW
 70
     0
  9
$UCSORGTOP
 10
0.0
 20
0.0
 30
0.0
  9
$UCSORGBOTTOM
 10
0.0
 20
0.0
 30
0.0
  9
$UCSORGLEFT
 10
0.0
 20
0.0
 30
0.0
  9
$UCSORGRIGHT
 10
0.0
 20
0.0
 30
0.0
  9
$UCSORGFRONT
 10
0.0
 20
0.0
 30
0.0
  9
$UCSORGBACK
 10
0.0
 20
0.0
 30
0.0
  9
$PUCSBASE
  2

  9
$PUCSNAME
  2

  9
$PUCSORG
 10
0.0
 20
0.0
 30
0.0
  9
$PUCSXDIR
 10
1.0
 20
0.0
 30
0.0
  9
$PUCSYDIR
 10
0.0
 20
1.0
 30
0.0
  9
$PUCSORTHOREF
  2

  9
$PUCSORTHOVIEW
 70
     0
  9
$PUCSORGTOP
 10
0.0
 20
0.0
 30
0.0
  9
$PUCSORGBOTTOM
 10
0.0
 20
0.0
 30
0.0
  9
$PUCSORGLEFT
 10
0.0
 20
0.0
 30
0.0
  9
$PUCSORGRIGHT
 10
0.0
 20
0.0
 30
0.0
  9
$PUCSORGFRONT
 10
0.0
 20
0.0
 30
0.0
  9
$PUCSORGBACK
 10
0.0
 20
0.0
 30
0.0
  9
$USERI1
 70
     0
  9
$USERI2
 70
     0
  9
$USERI3
 70
     0
  9
$USERI4
 70
     0
  9
$USERI5
 70
     0
  9
$USERR1
 40
0.0
  9
$USERR2
 40
0.0
  9
$USERR3
 40
0.0
  9
$USERR4
 40
0.0
  9
$USERR5
 40
0.0
  9
$WORLDVIEW
 70
     1
  9
$SHADEDGE
 70
     3
  9
$SHADEDIF
 70
    70
  9
$TILEMODE
 70
     1
  9
$MAXACTVP
 70
    64
  9
$PINSBASE
 10
0.0
 20
0.0
 30
0.0
  9
$PLIMCHECK
 70
     0
  9
$PEXTMIN
 10
1.000000000000000E+20
 20
1.000000000000000E+20
 30
1.000000000000000E+20
  9
$PEXTMAX
 10
-1.000000000000000E+20
 20
-1.000000000000000E+20
 30
-1.000000000000000E+20
  9
$PLIMMIN
 10
-0.2500002402958907
 20
-0.2499999962453767
  9
$PLIMMAX
 10
10.74999951940821
 20
8.249999763458731
  9
$UNITMODE
 70
     0
  9
$VISRETAIN
 70
     1
  9
$PLINEGEN
 70
     0
  9
$PSLTSCALE
 70
     1
  9
$TREEDEPTH
 70
  3020
  9
$CMLSTYLE
  2
Standard
  9
$CMLJUST
 70
     0
  9
$CMLSCALE
 40
1.0
  9
$PROXYGRAPHICS
 70
     1
  9
$MEASUREMENT
 70
     1
  9
$CELWEIGHT
370
    -1
  9
$ENDCAPS
280
     0
  9
$JOINSTYLE
280
     0
  9
$LWDISPLAY
290
     0
  9
$INSUNITS
 70
     4
  9
$HYPERLINKBASE
  1

  9
$STYLESHEET
  1
takachi-2.ctb
  9
$XEDIT
290
     1
  9
$CEPSNTYPE
380
     0
  9
$PSTYLEMODE
290
     1
  9
$FINGERPRINTGUID
  2
{4C04C66C-6307-4C11-B2CD-108B7D68641F}
  9
$VERSIONGUID
  2
{0A9A492D-4D8B-4E1E-B47B-375E38335833}
  9
$EXTNAMES
290
     1
  9
$PSVPSCALE
 40
0.0
  9
$OLESTARTUP
290
     0
  0
ENDSEC
  0
SECTION
  2
CLASSES
  0
CLASS
  1
ACDBDICTIONARYWDFLT
  2
AcDbDictionaryWithDefault
  3
ObjectDBX Classes
 90
        0
280
     0
281
     0
  0
CLASS
  1
ACDBPLACEHOLDER
  2
AcDbPlaceHolder
  3
ObjectDBX Classes
 90
        0
280
     0
281
     0
  0
CLASS
  1
LAYOUT
  2
AcDbLayout
  3
ObjectDBX Classes
 90
        0
280
     0
281
     0
  0
CLASS
  1
ACME_DOCUMENT
  2
AcMeDbDoc
  3
AcMeServices
 90
     1024
280
     0
281
     0
  0
CLASS
  1
AMGSETTINGSOBJ
  2
AmgSettingsObj
  3
"AcadM|Product Description: AutoCAD Mechanical|Company: Autodesk, Inc."
 90
     1024
280
     0
281
     0
  0
CLASS
  1
ACMESCOPE
  2
AcMeScope
  3
AcMeServices
 90
     1024
280
     0
281
     0
  0
CLASS
  1
ACMECOMMANDHISTORY
  2
AcMeCommandHistory
  3
AcMeServices
 90
     1024
280
     0
281
     0
  0
CLASS
  1
ACIMSYSVARMAN
  2
AcImSysVarManager
  3
AcMeServices
 90
     1024
280
     0
281
     0
  0
CLASS
  1
ACIMREALSYSVAR
  2
AcImRealSysVar
  3
AcMeServices
 90
     1024
280
     0
281
     0
  0
CLASS
  1
ACIMINTSYSVAR
  2
AcImIntSysVar
  3
AcMeServices
 90
     1024
280
     0
281
     0
  0
CLASS
  1
ACMEDRAWINGMAN
  2
AcMeDrawingMan
  3
AcMeServices
 90
     1024
280
     0
281
     0
  0
CLASS
  1
ACMEVIEW
  2
AcMeView
  3
AcMeServices
 90
     1024
280
     0
281
     0
  0
CLASS
  1
ACDBENTITYCACHE
  2
AcMeEntityCache
  3
AcMeServices
 90
     1024
280
     0
281
     0
  0
CLASS
  1
GSMANAGER
  2
AcMeGSManager
  3
AcMeServices
 90
     1024
280
     0
281
     0
  0
CLASS
  1
AMDTINTERNALREACTOR
  2
AmdtInternalReactor
  3
AcMeServices
 90
     1024
280
     0
281
     0
  0
CLASS
  1
ACMESTATEMGR
  2
AcMeStateMgr
  3
AcMeServices
 90
     1024
280
     0
281
     0
  0
CLASS
  1
ACGREFMASTER
  2
AcGrefMaster
  3
AcAttribServices
 90
     1024
280
     0
281
     0
  0
CLASS
  1
ACME_DATABASE
  2
AcMeDbDatabase
  3
AcMeServices
 90
     1024
280
     0
281
     0
  0
CLASS
  1
ACRFINSADJUSTERMGR
  2
AcRfInsAdjusterMgr
  3
AcMeServices
 90
     1024
280
     0
281
     0
  0
CLASS
  1
ACGREFACADMASTER
  2
AcGrefacadMaster
  3
AcGrefServices
 90
     1024
280
     0
281
     0
  0
CLASS
  1
AMIMASTER
  2
AmiMaster
  3
AmiServices
 90
     1024
280
     0
281
     0
  0
CLASS
  1
ACMDATADICTIONARY
  2
AcmDataDictionary
  3
"AcmSymBB|Product Description: AutoCAD Mechanical|Company: Autodesk, Inc."
 90
     1024
280
     0
281
     0
  0
CLASS
  1
ACMDATAENTRYBLOCK
  2
AcmDataEntryBlock
  3
AcmSymBB|Product Description: AutoCAD Mechanical|Company: Autodesk, Inc.
 90
     1024
280
     0
281
     0
  0
CLASS
  1
ACIMSTRSYSVAR
  2
AcImStrSysVar
  3
AcMeServices
 90
     1024
280
     0
281
     0
  0
CLASS
  1
ACMSTANDARDANSI
  2
AcmStandardANSI
  3
"Amdt_StdImp|Product Description: AutoCAD Mechanical|Company: Autodesk, Inc."
 90
     1024
280
     0
281
     0
  0
CLASS
  1
AMGOBJPROPCFG
  2
AmgObjPropCfg
  3
"AmgLay|Product Description: AutoCAD Mechanical|Company: Autodesk, Inc."
 90
     1025
280
     0
281
     0
  0
CLASS
  1
ACMSURFSTANDARDANSI
  2
AcmSurfTextStdANSI
  3
"Amdt_StdImp|Product Description: AutoCAD Mechanical|Company: Autodesk, Inc."
 90
     1024
280
     0
281
     0
  0
CLASS
  1
ACMFCFSTANDARDANSI
  2
AcmFCFStdANSI
  3
"Amdt_StdImp|Product Description: AutoCAD Mechanical|Company: Autodesk, Inc."
 90
     1024
280
     0
281
     0
  0
CLASS
  1
ACMWELDSTANDARDANSI
  2
AcmWeldingStdANSI
  3
"Amdt_StdImp|Product Description: AutoCAD Mechanical|Company: Autodesk, Inc."
 90
     1024
280
     0
281
     0
  0
CLASS
  1
ACMIDSTANDARDANSI
  2
AcmIdStdANSI
  3
"Amdt_StdImp|Product Description: AutoCAD Mechanical|Company: Autodesk, Inc."
 90
     1024
280
     0
281
     0
  0
CLASS
  1
ACMDATUMSTANDARDANSI
  2
AcmDatumStdANSI
  3
"Amdt_StdImp|Product Description: AutoCAD Mechanical|Company: Autodesk, Inc."
 90
     1024
280
     0
281
     0
  0
CLASS
  1
ACMBOMSTANDARDANSI
  2
AcmBOMStdANSI
  3
"Amdt_StdImp|Product Description: AutoCAD Mechanical|Company: Autodesk, Inc."
 90
     1024
280
     0
281
     0
  0
CLASS
  1
ACMDETAILSTANDARDANSI
  2
AmdtDetailSymStdANSI
  3
"Amdt_StdImp|Product Description: AutoCAD Mechanical|Company: Autodesk, Inc."
 90
     1024
280
     0
281
     0
  0
CLASS
  1
ACMSECTIONSTANDARDANSI
  2
AmdtSectionSymStdANSI
  3
"Amdt_StdImp|Product Description: AutoCAD Mechanical|Company: Autodesk, Inc."
 90
     1024
280
     0
281
     0
  0
CLASS
  1
ACMCENTERLINESTANDARDANSI
  2
AmdtCenterLineStdANSI
  3
"Amdt_StdImp|Product Description: AutoCAD Mechanical|Company: Autodesk, Inc."
 90
     1024
280
     0
281
     0
  0
CLASS
  1
ACMNOTESTANDARDANSI
  2
AmdtNoteStdANSI
  3
"Amdt_StdImp|Product Description: AutoCAD Mechanical|Company: Autodesk, Inc."
 90
     1024
280
     0
281
     0
  0
CLASS
  1
ACAMGLAYSTD
  2
AcAmgLayStd
  3
"AmgLay|Product Description: AutoCAD Mechanical|Company: Autodesk, Inc."
 90
     1024
280
     0
281
     0
  0
CLASS
  1
ACAMGDIMSTD
  2
AcAmgDimStd
  3
"AmgDim|Product Description: AutoCAD Mechanical|Company: Autodesk, Inc."
 90
     1024
280
     0
281
     0
  0
CLASS
  1
ACAMGHOLECHARTSTDANSI
  2
AcAmgHoleChartStdANSI
  3
AmgDim|Product Description: AutoCAD Mechanical|Company: Autodesk, Inc.
 90
     1024
280
     0
281
     0
  0
CLASS
  1
ACAMGTITLESTD
  2
AcAmgTitleStd
  3
"AmgTitle|Product Description: AutoCAD Mechanical|Company: Autodesk, Inc."
 90
     4095
280
     0
281
     0
  0
CLASS
  1
LAYER_INDEX
  2
AcDbLayerIndex
  3
ObjectDBX Classes
 90
    32768
280
     0
281
     0
  0
CLASS
  1
IDBUFFER
  2
AcDbIdBuffer
  3
ObjectDBX Classes
 90
    32768
280
     0
281
     0
  0
CLASS
  1
DICTIONARYVAR
  2
AcDbDictionaryVar
  3
ObjectDBX Classes
 90
        0
280
     0
281
     0
  0
CLASS
  1
AM_DRAWING_MGR
  2
AcDmDwgMgr
  3
AcMechDwgViewMgmt
 90
     1024
280
     0
281
     0
  0
CLASS
  1
AM_DWG_DOCUMENT
  2
AcDmDwgDocument
  3
AcMechDwgViewMgmt
 90
     1024
280
     0
281
     0
  0
CLASS
  1
AM_DWG_SHEET
  2
AcDmSheet
  3
AcMechDwgViewMgmt
 90
     1024
280
     0
281
     0
  0
CLASS
  1
AM_VIEWDIMPARMAP
  2
AcDmViewDimParMap
  3
AcMechDwgViewMgmt
 90
     1024
280
     0
281
     0
  0
CLASS
  1
AM_DWGMGR_NAME
  2
AcDmDwgMgrName
  3
AcMechDwgViewMgmt
 90
     1024
280
     0
281
     0
  0
CLASS
  1
AMDTMENUSTATEMGR
  2
AmdtMenuStateMgr
  3
McadcomServices
 90
     1024
280
     0
281
     0
  0
CLASS
  1
AMDTMCOMMENUSTATE
  2
AmdtMcomMenuState
  3
McadcomServices
 90
     1024
280
     0
281
     0
  0
CLASS
  1
MAPIAMMOUDLE
  2
MApiAmModule
  3
MApiAmServices
 90
     1024
280
     0
281
     0
  0
CLASS
  1
AMDTADMENUSTATE
  2
AmdtAdMenuState
  3
DesignerServices
 90
     1024
280
     0
281
     0
  0
CLASS
  1
ADAPPL
  2
AcAdAppl
  3
DesignerServices
 90
     1024
280
     0
281
     0
  0
CLASS
  1
DEPMGR
  2
AcAdDepMgr
  3
DesignerServices
 90
     1024
280
     0
281
     0
  0
CLASS
  1
PARAMMGR
  2
AcAdParamMgr
  3
DesignerServices
 90
     1024
280
     0
281
     0
  0
CLASS
  1
PARAMSCOPE
  2
AcAdParamScope
  3
DesignerServices
 90
     1024
280
     0
281
     0
  0
CLASS
  1
NAMEDAPPL
  2
AcAdNamedAppl
  3
DesignerServices
 90
     1024
280
     0
281
     0
  0
CLASS
  1
AMDTDMMENUSTATE
  2
AmdtDmMenuState
  3
AcMechDwgViewMgmt
 90
     1024
280
     0
281
     0
  0
CLASS
  1
AMDTAMMENUSTATE
  2
AmdtAmMenuState
  3
DesignerAssemblies
 90
     1024
280
     0
281
     0
  0
CLASS
  1
ACAMPROJECT
  2
AcAmProject
  3
DesignerAssemblies
 90
     1024
280
     0
281
     0
  0
CLASS
  1
ACAMGRCOMPDEF
  2
AcAmGrCompDef
  3
DesignerAssemblies
 90
     1024
280
     0
281
     0
  0
CLASS
  1
ACCMCONTEXT
  2
AcCmContext
  3
DesignerAssemblies
 90
     1024
280
     0
281
     0
  0
CLASS
  1
ACAMCOMPDEF
  2
AcAmCompDef
  3
DesignerAssemblies
 90
     1024
280
     0
281
     0
  0
CLASS
  1
ACAMCOMPDEFMGR
  2
AcAmCompDefMgr
  3
DesignerAssemblies
 90
     1024
280
     0
281
     0
  0
CLASS
  1
AMCONTEXTMGR
  2
AcAmContextMgr
  3
DesignerAssemblies
 90
     1024
280
     0
281
     0
  0
CLASS
  1
ACAMCONTEXTMODELER
  2
AcAmContextModeler
  3
DesignerAssemblies
 90
     1024
280
     0
281
     0
  0
CLASS
  1
ACMTHREADLINESTANDARDANSI
  2
AmdtThreadLineStdANSI
  3
"Amdt_StdImp|Product Description: AutoCAD Mechanical|Company: Autodesk, Inc."
 90
     1024
280
     0
281
     0
  0
CLASS
  1
CATALOGSTATE
  2
AcAmCatalogState
  3
DesignerAssemblies
 90
     1024
280
     0
281
     0
  0
CLASS
  1
ACAMGRCOMPDEFSET
  2
AcAmGrCompDefSet
  3
DesignerAssemblies
 90
     1024
280
     0
281
     0
  0
CLASS
  1
AMDTBROWSERDBTAB
  2
AmdtBrowserDbTab
  3
McadcomServices
 90
     1024
280
     0
281
     0
  0
CLASS
  1
CBROWSERAPPOBJECT
  2
CBrowserAppObject
  3
McadcomServices
 90
     1024
280
     0
281
     0
  0
CLASS
  1
DM_PLACEHOLDER
  2
AcDmSelsetPlaceholder
  3
AcMechDwgViewMgmt
 90
     1024
280
     0
281
     0
  0
CLASS
  1
AMDTNOTETEMPLATEDB
  2
AmdtNoteTemplateDB
  3
AcmSymBB|Product Description: AutoCAD Mechanical|Company: Autodesk, Inc.
 90
     1024
280
     0
281
     0
  0
CLASS
  1
ACMSTANDARDISO
  2
AcmStandardISO
  3
"Amdt_StdImp|Product Description: AutoCAD Mechanical|Company: Autodesk, Inc."
 90
     1024
280
     0
281
     0
  0
CLASS
  1
AMDTEDGESTANDARDISO
  2
AmdtEdgeStdISO
  3
"Amdt_StdImp|Product Description: AutoCAD Mechanical|Company: Autodesk, Inc."
 90
     1024
280
     0
281
     0
  0
CLASS
  1
ACMSURFSTANDARDISO
  2
AcmSurfTextStdISO
  3
"Amdt_StdImp|Product Description: AutoCAD Mechanical|Company: Autodesk, Inc."
 90
     1024
280
     0
281
     0
  0
CLASS
  1
ACMFCFSTANDARDISO
  2
AcmFCFStdISO
  3
"Amdt_StdImp|Product Description: AutoCAD Mechanical|Company: Autodesk, Inc."
 90
     1024
280
     0
281
     0
  0
CLASS
  1
ACMWELDSTANDARDISO
  2
AcmWeldingStdISO
  3
"Amdt_StdImp|Product Description: AutoCAD Mechanical|Company: Autodesk, Inc."
 90
     1024
280
     0
281
     0
  0
CLASS
  1
ACMIDSTANDARDISO
  2
AcmIdStdISO
  3
"Amdt_StdImp|Product Description: AutoCAD Mechanical|Company: Autodesk, Inc."
 90
     1024
280
     0
281
     0
  0
CLASS
  1
ACMDATUMSTANDARDISO
  2
AcmDatumStdISO
  3
"Amdt_StdImp|Product Description: AutoCAD Mechanical|Company: Autodesk, Inc."
 90
     1024
280
     0
281
     0
  0
CLASS
  1
ACMBOMSTANDARDISO
  2
AcmBOMStdISO
  3
"Amdt_StdImp|Product Description: AutoCAD Mechanical|Company: Autodesk, Inc."
 90
     1024
280
     0
281
     0
  0
CLASS
  1
ACMDETAILSTANDARDISO
  2
AmdtDetailSymStdISO
  3
"Amdt_StdImp|Product Description: AutoCAD Mechanical|Company: Autodesk, Inc."
 90
     1024
280
     0
281
     0
  0
CLASS
  1
ACMSECTIONSTANDARDISO
  2
AmdtSectionSymStdISO
  3
"Amdt_StdImp|Product Description: AutoCAD Mechanical|Company: Autodesk, Inc."
 90
     1024
280
     0
281
     0
  0
CLASS
  1
ACMCENTERLINESTANDARDISO
  2
AmdtCenterLineStdISO
  3
"Amdt_StdImp|Product Description: AutoCAD Mechanical|Company: Autodesk, Inc."
 90
     1024
280
     0
281
     0
  0
CLASS
  1
ACMTHREADLINESTANDARDISO
  2
AmdtThreadLineStdISO
  3
"Amdt_StdImp|Product Description: AutoCAD Mechanical|Company: Autodesk, Inc."
 90
     1024
280
     0
281
     0
  0
CLASS
  1
ACMNOTESTANDARDISO
  2
AmdtNoteStdISO
  3
"Amdt_StdImp|Product Description: AutoCAD Mechanical|Company: Autodesk, Inc."
 90
     1024
280
     0
281
     0
  0
CLASS
  1
ACAMGHOLECHARTSTDISO
  2
AcAmgHoleChartStdISO
  3
AmgDim|Product Description: AutoCAD Mechanical|Company: Autodesk, Inc.
 90
     1024
280
     0
281
     0
  0
CLASS
  1
ACAMGFILTERDAT
  2
AcAmgFilterDat
  3
"AcadM|Product Description: AutoCAD Mechanical|Company: Autodesk, Inc."
 90
     1024
280
     0
281
     0
  0
CLASS
  1
ACMBOM
  2
AcmBom
  3
"AcmSymBB|Product Description: AutoCAD Mechanical|Company: Autodesk, Inc."
 90
     1024
280
     0
281
     0
  0
CLASS
  1
AMDTFORMULAUPDATEDISPATCHER
  2
AmdtFormulaUpdateDispatcher
  3
AcMeServices
 90
     1024
280
     0
281
     0
  0
CLASS
  1
ACMPARTLIST
  2
AcmPartList
  3
"AcmSymBB|Product Description: AutoCAD Mechanical|Company: Autodesk, Inc."
 90
     4095
280
     0
281
     1
  0
CLASS
  1
ACDBOPPOLYLINERES
  2
AcDbOpPolylineRes
  3
AcGrefServices
 90
    33792
280
     0
281
     0
  0
CLASS
  1
ACRFINSADJ
  2
AcRfInsAdjuster
  3
AcMeServices
 90
    33792
280
     0
281
     0
  0
CLASS
  1
TABLESTYLE
  2
AcDbTableStyle
  3
ObjectDBX Classes
 90
     4095
280
     0
281
     0
  0
CLASS
  1
VAACXREFPANELOBJECT
  2
VaAcXREFPanelObject
  3
VAAC_ADDIN
 90
    32768
280
     0
281
     0
  0
CLASS
  1
VAACIMAGEINVENTORY
  2
VaAcImageInventory
  3
VAAC_ADDIN
 90
    32768
280
     0
281
     0
  0
CLASS
  1
SORTENTSTABLE
  2
AcDbSortentsTable
  3
ObjectDBX Classes
 90
        0
280
     0
281
     0
  0
CLASS
  1
ACMDATAENTRYPART
  2
AcmDataEntryPart
  3
AcmSymBB|Product Description: AutoCAD Mechanical|Company: Autodesk, Inc.
 90
     1024
280
     0
281
     0
  0
CLASS
  1
ACMPARTREF
  2
AcmPartRef
  3
"AcmSymBB|Product Description: AutoCAD Mechanical|Company: Autodesk, Inc."
 90
     4095
280
     0
281
     1
  0
CLASS
  1
ACMBOMROW
  2
AcmBomRow
  3
"AcmSymBB|Product Description: AutoCAD Mechanical|Company: Autodesk, Inc."
 90
     1024
280
     0
281
     0
  0
CLASS
  1
ACMDATAENTRY
  2
AcmDataEntry
  3
AcmSymBB|Product Description: AutoCAD Mechanical|Company: Autodesk, Inc.
 90
     1024
280
     0
281
     0
  0
CLASS
  1
ACMBALLOON
  2
AcmBalloon
  3
"AcmSymBB|Product Description: AutoCAD Mechanical|Company: Autodesk, Inc."
 90
     4095
280
     0
281
     1
  0
CLASS
  1
MATERIAL
  2
AcDbMaterial
  3
ObjectDBX Classes
 90
     1153
280
     0
281
     0
  0
CLASS
  1
VISUALSTYLE
  2
AcDbVisualStyle
  3
ObjectDBX Classes
 90
     4095
280
     0
281
     0
  0
CLASS
  1
SCALE
  2
AcDbScale
  3
ObjectDBX Classes
 90
     1153
280
     0
281
     0
  0
CLASS
  1
MLEADERSTYLE
  2
AcDbMLeaderStyle
  3
ACDB_MLEADERSTYLE_CLASS
 90
     4095
280
     0
281
     0
  0
CLASS
  1
ACRFATTGENMGR
  2
AcRfAttGeneralMgr
  3
AcAttribServices
 90
     1024
280
     0
281
     0
  0
CLASS
  1
ACRFOBJATTMGR
  2
AcRfObjAttGroupMgr
  3
AcAttribServices
 90
     1024
280
     0
281
     0
  0
CLASS
  1
ACRFMCADAPIATTHOLDER
  2
AcRfMCADAPIAttHolder
  3
AcAttribServices
 90
     1024
280
     0
281
     0
  0
CLASS
  1
AMDTSYSATTR
  2
AmdtSystemAttribute
  3
AcAttribServices
 90
     1024
280
     0
281
     0
  0
CLASS
  1
ACMTAPERSTANDARDISO
  2
AcmTaperStdISO
  3
"Amdt_StdImp|Product Description: AutoCAD Mechanical|Company: Autodesk, Inc."
 90
     1024
280
     0
281
     0
  0
CLASS
  1
ACMANOOTATIONVIEWSTANDARDISO
  2
AmdtAnViewStdISO
  3
"Amdt_StdImp|Product Description: AutoCAD Mechanical|Company: Autodesk, Inc."
 90
     1024
280
     0
281
     0
  0
CLASS
  1
ACMTAPERSTANDARDANSI
  2
AcmTaperStdANSI
  3
"Amdt_StdImp|Product Description: AutoCAD Mechanical|Company: Autodesk, Inc."
 90
     1024
280
     0
281
     0
  0
CLASS
  1
ACMANOOTATIONVIEWSTANDARDANSI
  2
AmdtAnViewStdANSI
  3
"Amdt_StdImp|Product Description: AutoCAD Mechanical|Company: Autodesk, Inc."
 90
     1024
280
     0
281
     0
  0
CLASS
  1
EXACXREFPANELOBJECT
  2
ExAcXREFPanelObject
  3
EXAC_ESW
 90
     1025
280
     0
281
     0
  0
CLASS
  1
NPOCOLLECTION
  2
AcDbImpNonPersistentObjectsCollection
  3
ObjectDBX Classes
 90
     1153
280
     0
281
     0
  0
CLASS
  1
CELLSTYLEMAP
  2
AcDbCellStyleMap
  3
ObjectDBX Classes
 90
     1152
280
     0
281
     0
  0
ENDSEC
  0
SECTION
  2
TABLES
  0
TABLE
  2
VPORT
  5
8
102
{ACAD_XDICTIONARY
360
4426
102
}
330
0
100
AcDbSymbolTable
 70
     1
  0
VPORT
  5
4379
330
8
100
AcDbSymbolTableRecord
100
AcDbViewportTableRecord
  2
*Active
 70
     0
 10
0.0
 20
0.0
 11
1.0
 21
1.0
 12
806.0338321318281
 22
560.0235061958113
 13
0.0
 23
0.0
 14
10.0
 24
10.0
 15
40.0
 25
40.0
 16
0.0
 26
0.0
 36
1.0
 17
0.0
 27
0.0
 37
0.0
 40
1127.697183499492
 41
1.766554433221099
 42
50.0
 43
0.0
 44
0.0
 50
0.0
 51
0.0
 71
    16
 72
   100
 73
     1
 74
     3
 75
     0
 76
     0
 77
     0
 78
     0
281
     0
 65
     1
110
0.0
120
0.0
130
0.0
111
1.0
121
0.0
131
0.0
112
0.0
122
1.0
132
0.0
 79
     0
146
0.0
  0
ENDTAB
  0
TABLE
  2
LTYPE
  5
5
330
0
100
AcDbSymbolTable
 70
    20
  0
LTYPE
  5
14
330
5
100
AcDbSymbolTableRecord
100
AcDbLinetypeTableRecord
  2
ByBlock
 70
     0
  3

 72
    65
 73
     0
 40
0.0
  0
LTYPE
  5
15
330
5
100
AcDbSymbolTableRecord
100
AcDbLinetypeTableRecord
  2
ByLayer
 70
     0
  3

 72
    65
 73
     0
 40
0.0
  0
LTYPE
  5
16
330
5
100
AcDbSymbolTableRecord
100
AcDbLinetypeTableRecord
  2
Continuous
 70
     0
  3
Solid line
 72
    65
 73
     0
 40
0.0
  0
LTYPE
  5
6C
330
5
100
AcDbSymbolTableRecord
100
AcDbLinetypeTableRecord
  2
AM_ISO02W050
 70
     0
  3
__ __ __ __ __ __ __ __ __ __ __ __ __ __ __
 72
    65
 73
     2
 40
7.5
 49
6.0
 74
     0
 49
-1.5
 74
     0
  0
LTYPE
  5
6D
330
5
100
AcDbSymbolTableRecord
100
AcDbLinetypeTableRecord
  2
AM_ISO08W050
 70
     0
  3
____ . ____ . ____ . ____ . ____ . ____ . ____
 72
    65
 73
     4
 40
18.0
 49
12.0
 74
     0
 49
-1.5
 74
     0
 49
3.0
 74
     0
 49
-1.5
 74
     0
  0
LTYPE
  5
6E
330
5
100
AcDbSymbolTableRecord
100
AcDbLinetypeTableRecord
  2
AM_ISO09W050
 70
     0
  3
_____ . . _____ . . _____ . . ____ .. ____
 72
    65
 73
     6
 40
22.5
 49
12.0
 74
     0
 49
-1.5
 74
     0
 49
3.0
 74
     0
 49
-1.5
 74
     0
 49
3.0
 74
     0
 49
-1.5
 74
     0
  0
LTYPE
  5
6F
330
5
100
AcDbSymbolTableRecord
100
AcDbLinetypeTableRecord
  2
Amconstr
 70
     0
  3
_______________________
 72
    65
 73
     2
 40
9999.0
 49
9999.0
 74
     0
 49
0.0
 74
     0
  0
LTYPE
  5
70
330
5
100
AcDbSymbolTableRecord
100
AcDbLinetypeTableRecord
  2
AM_ISO08W050x2
 70
     0
  3
__ . __ . __ . __ . __ . __
 72
    65
 73
     4
 40
9.0
 49
6.0
 74
     0
 49
-0.75
 74
     0
 49
1.5
 74
     0
 49
-0.75
 74
     0
  0
LTYPE
  5
71
330
5
100
AcDbSymbolTableRecord
100
AcDbLinetypeTableRecord
  2
AM_ISO02W050x2
 70
     0
  3
 _ _ _ _ _ _ _ _ _ _ _ _
 72
    65
 73
     2
 40
3.75
 49
3.0
 74
     0
 49
-0.75
 74
     0
  0
LTYPE
  5
74
330
5
100
AcDbSymbolTableRecord
100
AcDbLinetypeTableRecord
  2
Amzigzag
 70
     0
  3
/\/-/\/-/\/-/\/-/\/-/\/
 72
    65
 73
     2
 40
11.0001
 49
0.0001
 74
     4
 75
   135
340
73
 46
0.04
 50
0.0
 44
0.0
 45
0.0
 49
-11.0
 74
     0
  0
LTYPE
  5
75
330
5
100
AcDbSymbolTableRecord
100
AcDbLinetypeTableRecord
  2
HIDDEN
 70
     0
  3
Hidden __ __ __ __ __ __ __ __ __ __ __ __ __ _
 72
    65
 73
     2
 40
0.375
 49
0.25
 74
     0
 49
-0.125
 74
     0
  0
LTYPE
  5
76
330
5
100
AcDbSymbolTableRecord
100
AcDbLinetypeTableRecord
  2
CENTER
 70
     0
  3
Center ____ _ ____ _ ____ _ ____ _ ____ _ ____
 72
    65
 73
     4
 40
2.0
 49
1.25
 74
     0
 49
-0.25
 74
     0
 49
0.25
 74
     0
 49
-0.25
 74
     0
  0
LTYPE
  5
77
330
5
100
AcDbSymbolTableRecord
100
AcDbLinetypeTableRecord
  2
PHANTOM2
 70
     0
  3
Phantom (.5x) ___ _ _ ___ _ _ ___ _ _ ___ _ _
 72
    65
 73
     6
 40
1.25
 49
0.625
 74
     0
 49
-0.125
 74
     0
 49
0.125
 74
     0
 49
-0.125
 74
     0
 49
0.125
 74
     0
 49
-0.125
 74
     0
  0
LTYPE
  5
78
330
5
100
AcDbSymbolTableRecord
100
AcDbLinetypeTableRecord
  2
CENTER2
 70
     0
  3
Center (.5x) ___ _ ___ _ ___ _ ___ _ ___ _ ___
 72
    65
 73
     4
 40
1.125
 49
0.75
 74
     0
 49
-0.125
 74
     0
 49
0.125
 74
     0
 49
-0.125
 74
     0
  0
LTYPE
  5
79
330
5
100
AcDbSymbolTableRecord
100
AcDbLinetypeTableRecord
  2
HIDDEN2
 70
     0
  3
Hidden (.5x) _ _ _ _ _ _ _ _ _ _ _ _ _ _ _ _ _
 72
    65
 73
     2
 40
0.1875
 49
0.125
 74
     0
 49
-0.0625
 74
     0
  0
LTYPE
  5
7A
330
5
100
AcDbSymbolTableRecord
100
AcDbLinetypeTableRecord
  2
Amzigzag2
 70
     0
  3
/\/-/\/-/\/-/\/-/\/-/\/
 72
    65
 73
     2
 40
0.4401
 49
0.0001
 74
     4
 75
   135
340
73
 46
0.0016
 50
0.0
 44
0.0
 45
0.0
 49
-0.4400000000000001
 74
     0
  0
LTYPE
  5
87
330
5
100
AcDbSymbolTableRecord
100
AcDbLinetypeTableRecord
  2
ACANSTGB
 70
     0
  3
__ . . __ . .
 72
    65
 73
     6
 40
0.35433070866
 49
0.15748031496
 74
     0
 49
-0.03937007874
 74
     0
 49
0.03937007874
 74
     0
 49
-0.03937007874
 74
     0
 49
0.03937007874
 74
     0
 49
-0.03937007874
 74
     0
  0
LTYPE
  5
88
330
5
100
AcDbSymbolTableRecord
100
AcDbLinetypeTableRecord
  2
ACANSTGL
 70
     0
  3
_ _ _ _ _
 72
    65
 73
     2
 40
0.11811023622
 49
0.07874015748
 74
     0
 49
-0.03937007874
 74
     0
  0
LTYPE
  5
1DE
330
5
100
AcDbSymbolTableRecord
100
AcDbLinetypeTableRecord
  2
ACISOWELD
 70
     0
  3
_ _ _ _ _
 72
    65
 73
     2
 40
2.0
 49
2.0
 74
     0
 49
-1.0
 74
     0
  0
LTYPE
  5
1DF
330
5
100
AcDbSymbolTableRecord
100
AcDbLinetypeTableRecord
  2
ACISOTGB
 70
     0
  3
__ . . __ . .
 72
    65
 73
     6
 40
9.0
 49
4.0
 74
     0
 49
-1.0
 74
     0
 49
1.0
 74
     0
 49
-1.0
 74
     0
 49
1.0
 74
     0
 49
-1.0
 74
     0
  0
LTYPE
  5
1E0
330
5
100
AcDbSymbolTableRecord
100
AcDbLinetypeTableRecord
  2
ACISOTGL
 70
     0
  3
_ _ _ _ _
 72
    65
 73
     2
 40
3.0
 49
2.0
 74
     0
 49
-1.0
 74
     0
  0
LTYPE
  5
201
330
5
100
AcDbSymbolTableRecord
100
AcDbLinetypeTableRecord
  2
gen7a
 70
     0
  3
__ . __ . __
 72
    65
 73
     4
 40
6.875
 49
4.75
 74
     0
 49
-0.875
 74
     0
 49
0.375
 74
     0
 49
-0.875
 74
     0
  0
ENDTAB
  0
TABLE
  2
LAYER
  5
2
102
{ACAD_XDICTIONARY
360
2C1
102
}
330
0
100
AcDbSymbolTable
 70
    11
  0
LAYER
  5
10
102
{ACAD_XDICTIONARY
360
440F
102
}
330
2
100
AcDbSymbolTableRecord
100
AcDbLayerTableRecord
  2
0
 70
     0
 62
     7
  6
Continuous
370
    -3
390
F
  0
LAYER
  5
1F0
102
{ACAD_XDICTIONARY
360
4411
102
}
330
2
100
AcDbSymbolTableRecord
100
AcDbLayerTableRecord
  2
AM_5
 70
     0
 62
     3
  6
Continuous
370
    25
390
F
  0
LAYER
  5
204
330
2
100
AcDbSymbolTableRecord
100
AcDbLayerTableRecord
  2
Defpoints
 70
     0
 62
     7
  6
Continuous
290
     0
370
    -3
390
F
  0
LAYER
  5
23E
102
{ACAD_XDICTIONARY
360
4413
102
}
330
2
100
AcDbSymbolTableRecord
100
AcDbLayerTableRecord
  2
7A
 70
     0
 62
     4
  6
gen7a
370
    -3
390
F
  0
LAYER
  5
23F
102
{ACAD_XDICTIONARY
360
4415
102
}
330
2
100
AcDbSymbolTableRecord
100
AcDbLayerTableRecord
  2
RAHM2
 70
     0
 62
     1
  6
Continuous
370
    -3
390
F
  0
LAYER
  5
2AD
102
{ACAD_XDICTIONARY
360
4417
102
}
330
2
100
AcDbSymbolTableRecord
100
AcDbLayerTableRecord
  2
ｴｸｽﾃﾝｼｮﾝﾌﾚｰﾑ
 70
     0
 62
     7
  6
Continuous
370
    25
390
F
  0
LAYER
  5
3A72
102
{ACAD_XDICTIONARY
360
4419
102
}
330
2
100
AcDbSymbolTableRecord
100
AcDbLayerTableRecord
  2
AM_12
 70
     0
 62
     7
  6
Continuous
290
     0
370
    50
390
F
  0
LAYER
  5
3A73
102
{ACAD_XDICTIONARY
360
441B
102
}
330
2
100
AcDbSymbolTableRecord
100
AcDbLayerTableRecord
  2
AM_PAREF
 70
     0
 62
     4
  6
Continuous
290
     0
370
    25
390
F
  0
LAYER
  5
3BDA
102
{ACAD_XDICTIONARY
360
441D
102
}
330
2
100
AcDbSymbolTableRecord
100
AcDbLayerTableRecord
  2
AM_8
 70
     0
 62
     1
  6
Continuous
370
    25
390
F
  0
LAYER
  5
3BE4
102
{ACAD_XDICTIONARY
360
441F
102
}
330
2
100
AcDbSymbolTableRecord
100
AcDbLayerTableRecord
  2
ｶﾞｽｹｯﾄ
 70
     0
 62
     5
  6
Continuous
370
    25
390
F
1001
AcAecLayerStandard
1000

1000

  0
LAYER
  5
4358
102
{ACAD_XDICTIONARY
360
4421
102
}
330
2
100
AcDbSymbolTableRecord
100
AcDbLayerTableRecord
  2
AM_CL
 70
     0
 62
     1
  6
Amconstr
370
    25
390
F
  0
ENDTAB
  0
TABLE
  2
STYLE
  5
3
330
0
100
AcDbSymbolTable
 70
     7
  0
STYLE
  5
11
330
3
100
AcDbSymbolTableRecord
100
AcDbTextStyleTableRecord
  2
STANDARD
 70
     0
 40
0.0
 41
1.0
 50
0.0
 71
     0
 42
0.2
  3
ISOCP.SHX
  4
EXTFONT.SHX
  0
STYLE
  5
73
330
3
100
AcDbSymbolTableRecord
100
AcDbTextStyleTableRecord
  2

 70
     1
 40
0.0
 41
1.0
 50
0.0
 71
     0
 42
0.2
  3
ltypeshp.shx
  4

  0
STYLE
  5
7B
330
3
100
AcDbSymbolTableRecord
100
AcDbTextStyleTableRecord
  2
ACANSTS
 70
     0
 40
1.0
 41
1.0
 50
0.0
 71
     0
 42
0.2
  3
isoct.shx
  4
extfont.shx
  0
STYLE
  5
86
330
3
100
AcDbSymbolTableRecord
100
AcDbTextStyleTableRecord
  2
ACANSGDT
 70
     0
 40
0.0
 41
1.0
 50
0.0
 71
     0
 42
0.2
  3
amgdtans.shx
  4

  0
STYLE
  5
1D0
330
3
100
AcDbSymbolTableRecord
100
AcDbTextStyleTableRecord
  2
ACISOTS
 70
     0
 40
1.0
 41
1.0
 50
0.0
 71
     0
 42
0.2
  3
isocp.shx
  4
extfont.shx
  0
STYLE
  5
1DD
330
3
100
AcDbSymbolTableRecord
100
AcDbTextStyleTableRecord
  2
ACISOGDT
 70
     0
 40
0.0
 41
1.0
 50
0.0
 71
     0
 42
0.2
  3
amgdt.shx
  4

  0
STYLE
  5
94C
330
3
100
AcDbSymbolTableRecord
100
AcDbTextStyleTableRecord
  2
takachi1
 70
     0
 40
2.5
 41
1.0
 50
0.0
 71
     0
 42
2.5
  3
MS PGothic.ttf
  4

1001
ACAD
1000
MS PGothic
1071
    32818
  0
ENDTAB
  0
TABLE
  2
VIEW
  5
6
330
0
100
AcDbSymbolTable
 70
     6
  0
VIEW
  5
2A6
330
6
100
AcDbSymbolTableRecord
100
AcDbViewTableRecord
  2
AM_VIEW1
 70
     0
 40
560.0000000000001
 10
447.0370370370371
 20
840.0000000000002
 41
894.0740740740743
 11
0.0
 21
0.0
 31
1.0
 12
0.0
 22
0.0
 32
0.0
 42
50.0
 43
0.0
 44
0.0
 50
0.0
 71
    16
281
     0
 72
     0
  0
VIEW
  5
2A7
330
6
100
AcDbSymbolTableRecord
100
AcDbViewTableRecord
  2
AM_VIEW2
 70
     0
 40
560.0000000000001
 10
1164.962962962962
 20
840.0000000000002
 41
894.0740740740743
 11
0.0
 21
0.0
 31
1.0
 12
0.0
 22
0.0
 32
0.0
 42
50.0
 43
0.0
 44
0.0
 50
0.0
 71
    16
281
     0
 72
     0
  0
VIEW
  5
2A8
330
6
100
AcDbSymbolTableRecord
100
AcDbViewTableRecord
  2
AM_VIEW3
 70
     0
 40
560.0000000000001
 10
447.0370370370371
 20
280.0000000000001
 41
894.0740740740743
 11
0.0
 21
0.0
 31
1.0
 12
0.0
 22
0.0
 32
0.0
 42
50.0
 43
0.0
 44
0.0
 50
0.0
 71
    16
281
     0
 72
     0
  0
VIEW
  5
2A9
330
6
100
AcDbSymbolTableRecord
100
AcDbViewTableRecord
  2
AM_VIEW4
 70
     0
 40
560.0000000000001
 10
1164.962962962962
 20
280.0000000000001
 41
894.0740740740743
 11
0.0
 21
0.0
 31
1.0
 12
0.0
 22
0.0
 32
0.0
 42
50.0
 43
0.0
 44
0.0
 50
0.0
 71
    16
281
     0
 72
     0
  0
VIEW
  5
2AA
330
6
100
AcDbSymbolTableRecord
100
AcDbViewTableRecord
  2
AM_VIEW5
 70
     0
 40
560.0000000000002
 10
806.0
 20
560.0000000000001
 41
894.0740740740743
 11
0.0
 21
0.0
 31
1.0
 12
0.0
 22
0.0
 32
0.0
 42
50.0
 43
0.0
 44
0.0
 50
0.0
 71
    16
281
     0
 72
     0
  0
VIEW
  5
2AB
330
6
100
AcDbSymbolTableRecord
100
AcDbViewTableRecord
  2
AM_VIEW6
 70
     0
 40
1119.9888
 10
806.0
 20
560.0000000000001
 41
1788.130266666667
 11
0.0
 21
0.0
 31
1.0
 12
0.0
 22
0.0
 32
0.0
 42
50.0
 43
0.0
 44
0.0
 50
0.0
 71
    16
281
     0
 72
     0
  0
ENDTAB
  0
TABLE
  2
UCS
  5
7
330
0
100
AcDbSymbolTable
 70
     0
  0
ENDTAB
  0
TABLE
  2
APPID
  5
9
330
0
100
AcDbSymbolTable
 70
    37
  0
APPID
  5
12
330
9
100
AcDbSymbolTableRecord
100
AcDbRegAppTableRecord
  2
ACAD
 70
     0
  0
APPID
  5
4E
330
9
100
AcDbSymbolTableRecord
100
AcDbRegAppTableRecord
  2
MCAD_NO_VIS
 70
     0
  0
APPID
  5
4F
330
9
100
AcDbSymbolTableRecord
100
AcDbRegAppTableRecord
  2
ACAD_TEMP_GRAPHIC
 70
     0
  0
APPID
  5
60
330
9
100
AcDbSymbolTableRecord
100
AcDbRegAppTableRecord
  2
ACATTRIBSERVICES
 70
     0
  0
APPID
  5
F7
330
9
100
AcDbSymbolTableRecord
100
AcDbRegAppTableRecord
  2
AD_DRAW
 70
     0
  0
APPID
  5
115
330
9
100
AcDbSymbolTableRecord
100
AcDbRegAppTableRecord
  2
DESIGNERASSEMBLIES
 70
     0
  0
APPID
  5
11A
330
9
100
AcDbSymbolTableRecord
100
AcDbRegAppTableRecord
  2
ACADM_DIM_EDIT
 70
     0
  0
APPID
  5
11B
330
9
100
AcDbSymbolTableRecord
100
AcDbRegAppTableRecord
  2
AMDT_DM_ADJ
 70
     0
  0
APPID
  5
20C
330
9
100
AcDbSymbolTableRecord
100
AcDbRegAppTableRecord
  2
GENIUS_GENREC_14
 70
     0
  0
APPID
  5
20D
330
9
100
AcDbSymbolTableRecord
100
AcDbRegAppTableRecord
  2
GENIUS_GENODEF_13
 70
     0
  0
APPID
  5
20E
330
9
100
AcDbSymbolTableRecord
100
AcDbRegAppTableRecord
  2
GENIUS_GENOBJ-N-REC_13
 70
     0
  0
APPID
  5
20F
330
9
100
AcDbSymbolTableRecord
100
AcDbRegAppTableRecord
  2
GENIUS_GENCFG_13
 70
     0
  0
APPID
  5
210
330
9
100
AcDbSymbolTableRecord
100
AcDbRegAppTableRecord
  2
GENIUS_GENCFG0_13
 70
     0
  0
APPID
  5
211
330
9
100
AcDbSymbolTableRecord
100
AcDbRegAppTableRecord
  2
GENIUS_GENCFG1_13
 70
     0
  0
APPID
  5
212
330
9
100
AcDbSymbolTableRecord
100
AcDbRegAppTableRecord
  2
GENIUS_GENCFG2_13
 70
     0
  0
APPID
  5
213
330
9
100
AcDbSymbolTableRecord
100
AcDbRegAppTableRecord
  2
GENIUS_GENCFG3_13
 70
     0
  0
APPID
  5
214
330
9
100
AcDbSymbolTableRecord
100
AcDbRegAppTableRecord
  2
GENIUS_GENCFG4_13
 70
     0
  0
APPID
  5
215
330
9
100
AcDbSymbolTableRecord
100
AcDbRegAppTableRecord
  2
GENIUS_GEVCFG0_13
 70
     0
  0
APPID
  5
216
330
9
100
AcDbSymbolTableRecord
100
AcDbRegAppTableRecord
  2
GENIUS_GENOENT_13
 70
     0
  0
APPID
  5
217
330
9
100
AcDbSymbolTableRecord
100
AcDbRegAppTableRecord
  2
GENIUS_GENDIMSH_14
 70
     0
  0
APPID
  5
218
330
9
100
AcDbSymbolTableRecord
100
AcDbRegAppTableRecord
  2
GENIUS_GENOBJ-N-CRS_13
 70
     0
  0
APPID
  5
219
330
9
100
AcDbSymbolTableRecord
100
AcDbRegAppTableRecord
  2
GENIUS_GENOREF_13
 70
     0
  0
APPID
  5
21A
330
9
100
AcDbSymbolTableRecord
100
AcDbRegAppTableRecord
  2
GENIUS_GENOLIS_13
 70
     0
  0
APPID
  5
21B
330
9
100
AcDbSymbolTableRecord
100
AcDbRegAppTableRecord
  2
GENIUS_GENOBJ-N-TIT_13
 70
     0
  0
APPID
  5
21C
330
9
100
AcDbSymbolTableRecord
100
AcDbRegAppTableRecord
  2
GENIUS_GENTITLE_13
 70
     0
  0
APPID
  5
21D
330
9
100
AcDbSymbolTableRecord
100
AcDbRegAppTableRecord
  2
GENIUS_GENSCREG_15
 70
     0
  0
APPID
  5
21E
330
9
100
AcDbSymbolTableRecord
100
AcDbRegAppTableRecord
  2
GENIUS_GENOBJ-N-SDF_13
 70
     0
  0
APPID
  5
21F
330
9
100
AcDbSymbolTableRecord
100
AcDbRegAppTableRecord
  2
GENIUS_GENOBJ-N-CEN_13
 70
     0
  0
APPID
  5
220
330
9
100
AcDbSymbolTableRecord
100
AcDbRegAppTableRecord
  2
GENIUS_GENOBJ-N-HTC_13
 70
     0
  0
APPID
  5
221
330
9
100
AcDbSymbolTableRecord
100
AcDbRegAppTableRecord
  2
GENIUS_GENHATCH_13
 70
     0
  0
APPID
  5
222
330
9
100
AcDbSymbolTableRecord
100
AcDbRegAppTableRecord
  2
GENIUS_GENOBJ-N-ZOO_13
 70
     0
  0
APPID
  5
223
330
9
100
AcDbSymbolTableRecord
100
AcDbRegAppTableRecord
  2
GENIUS_GENZOO_17
 70
     0
  0
APPID
  5
2273
330
9
100
AcDbSymbolTableRecord
100
AcDbRegAppTableRecord
  2
GENIUS_GENOBJ-N-FIL_13
 70
     0
  0
APPID
  5
2287
330
9
100
AcDbSymbolTableRecord
100
AcDbRegAppTableRecord
  2
GENIUS_GENCEN_19
 70
     0
  0
APPID
  5
3BE5
330
9
100
AcDbSymbolTableRecord
100
AcDbRegAppTableRecord
  2
AcAecLayerStandard
 70
     0
  0
APPID
  5
4376
330
9
100
AcDbSymbolTableRecord
100
AcDbRegAppTableRecord
  2
DCO15
 70
     0
  0
APPID
  5
43B8
330
9
100
AcDbSymbolTableRecord
100
AcDbRegAppTableRecord
  2
ACAD_MLEADERVER
 70
     0
  0
ENDTAB
  0
TABLE
  2
DIMSTYLE
  5
A
330
0
100
AcDbSymbolTable
 70
    15
100
AcDbDimStyleTable
 71
     2
340
1E7
340
8C
  0
DIMSTYLE
105
27
330
A
100
AcDbSymbolTableRecord
100
AcDbDimStyleTableRecord
  2
Standard
 70
     0
340
11
  0
DIMSTYLE
105
8C
330
A
100
AcDbSymbolTableRecord
100
AcDbDimStyleTableRecord
  2
AM_ANSI
 70
     0
  4
mm
 41
0.1
 42
0.05
 43
0.5
 44
0.1
 47
0.1
 48
0.1
 78
     7
 79
     2
140
0.12
141
0.0
146
0.71
147
0.06
176
   256
177
   256
178
     2
274
     4
284
     7
340
11
371
    -1
372
    -1
  0
DIMSTYLE
105
8D
330
A
100
AcDbSymbolTableRecord
100
AcDbDimStyleTableRecord
  2
AM_ANSI$3
 70
     0
  4
mm
 41
0.1
 42
0.05
 43
0.5
 44
0.1
 47
0.1
 48
0.1
 78
     7
 79
     2
140
0.12
141
0.0
146
0.71
147
0.06
176
   256
177
   256
178
     2
274
     4
284
     7
288
     1
289
     0
340
11
371
    -1
372
    -1
  0
DIMSTYLE
105
8E
330
A
100
AcDbSymbolTableRecord
100
AcDbDimStyleTableRecord
  2
AM_ANSI$4
 70
     0
  4
mm
 41
0.1
 42
0.05
 43
0.5
 44
0.1
 47
0.1
 48
0.1
 78
     7
 79
     2
140
0.12
141
0.0
146
0.71
147
0.06
176
   256
177
   256
178
     2
274
     4
284
     7
288
     1
289
     0
340
11
371
    -1
372
    -1
  0
DIMSTYLE
105
8F
330
A
100
AcDbSymbolTableRecord
100
AcDbDimStyleTableRecord
  2
AM_ANSI$7
 70
     0
  4
mm
 41
0.1
 42
0.05
 43
0.5
 44
0.1
 47
0.1
 48
0.1
 78
     7
 79
     2
140
0.24
141
0.0
146
0.71
147
0.06
176
   256
177
   256
178
     2
274
     4
284
     7
340
11
371
    -1
372
    -1
  0
DIMSTYLE
105
90
330
A
100
AcDbSymbolTableRecord
100
AcDbDimStyleTableRecord
  2
AM_ANSI$SF
 70
     0
  4
mm
 41
0.1
 42
0.05
 43
0.5
 44
0.1
 47
0.1
 48
0.1
 75
     1
 76
     1
 78
     7
 79
     2
140
0.12
141
0.0
146
0.71
147
0.06
176
   256
177
   256
178
     2
274
     4
284
     7
340
11
371
    -1
372
    -1
  0
DIMSTYLE
105
95
330
A
100
AcDbSymbolTableRecord
100
AcDbDimStyleTableRecord
  2
AM_ANSI$SH
 70
     0
  4
mm
 41
0.1
 42
0.05
 43
0.5
 44
0.1
 47
0.1
 48
0.1
 75
     1
 76
     1
 78
     7
 79
     2
140
0.12
141
0.0
146
0.71
147
0.06
173
     1
176
   256
177
   256
178
     2
274
     4
284
     7
340
11
343
91
371
    -1
372
    -1
  0
DIMSTYLE
105
1E7
330
A
100
AcDbSymbolTableRecord
100
AcDbDimStyleTableRecord
  2
AM_ISO
 70
     0
  4
"
 41
2.5
 42
1.0
 43
10.0
 44
1.0
 47
0.1
 48
0.1
 73
     0
 74
     0
 77
     1
 78
     8
 79
     2
140
3.5
141
0.0
143
0.0393701
146
0.71
147
1.5
172
     1
176
     3
177
     3
178
     2
271
     2
272
     2
283
     0
284
     8
340
11
341
1F8
342
1F8
371
    -1
372
    -1
  0
DIMSTYLE
105
1E8
330
A
100
AcDbSymbolTableRecord
100
AcDbDimStyleTableRecord
  2
AM_ISO$3
 70
     0
  4
"
 41
2.5
 42
1.0
 43
10.0
 44
1.0
 47
0.1
 48
0.1
 73
     0
 77
     1
 78
     8
 79
     2
140
3.5
141
0.0
143
0.0393701
146
0.71
147
1.5
176
     3
177
     3
178
     2
271
     2
272
     2
283
     0
284
     8
288
     1
289
     0
340
11
341
1F8
342
1F8
371
    -1
372
    -1
  0
DIMSTYLE
105
1E9
330
A
100
AcDbSymbolTableRecord
100
AcDbDimStyleTableRecord
  2
AM_ISO$4
 70
     0
  4
"
 41
2.5
 42
1.0
 43
10.0
 44
1.0
 47
0.1
 48
0.1
 73
     0
 77
     1
 78
     8
 79
     2
140
3.5
141
0.0
143
0.0393701
146
0.71
147
1.5
176
     3
177
     3
178
     2
271
     2
272
     2
283
     0
284
     8
288
     1
289
     0
340
11
341
1F8
342
1F8
371
    -1
372
    -1
  0
DIMSTYLE
105
1EA
330
A
100
AcDbSymbolTableRecord
100
AcDbDimStyleTableRecord
  2
AM_ISO$6
 70
     0
  4
"
 41
2.5
 42
1.0
 43
10.0
 44
1.0
 47
0.1
 48
0.1
 73
     0
 74
     0
 78
     8
 79
     2
140
3.5
141
0.0
143
0.0393701
146
0.71
147
1.5
172
     1
176
     3
177
     3
178
     2
271
     2
272
     2
283
     0
284
     8
340
11
341
1F8
342
1F8
371
    -1
372
    -1
  0
DIMSTYLE
105
1EB
330
A
100
AcDbSymbolTableRecord
100
AcDbDimStyleTableRecord
  2
AM_ISO$7
 70
     0
  4
"
 41
2.5
 42
1.0
 43
10.0
 44
1.0
 47
0.1
 48
0.1
 73
     0
 74
     0
 77
     1
 78
     8
 79
     2
140
5.0
141
0.0
143
0.0393701
146
0.71
147
1.5
172
     1
176
     3
177
     3
178
     2
271
     2
272
     2
283
     0
284
     8
340
11
341
1F8
342
1F8
371
    -1
372
    -1
  0
DIMSTYLE
105
1EC
330
A
100
AcDbSymbolTableRecord
100
AcDbDimStyleTableRecord
  2
AM_ISO$SF
 70
     0
  4
"
 41
2.5
 42
1.0
 43
10.0
 44
1.0
 47
0.1
 48
0.1
 73
     0
 74
     0
 75
     1
 76
     1
 77
     1
 78
     8
 79
     2
140
3.5
141
0.0
143
0.0393701
146
0.71
147
1.5
172
     1
176
   256
177
   256
178
     2
271
     2
272
     3
274
     4
283
     0
284
     8
340
11
371
    -1
372
    -1
  0
DIMSTYLE
105
1ED
330
A
100
AcDbSymbolTableRecord
100
AcDbDimStyleTableRecord
  2
AM_ISO$SH
 70
     0
  4
"
 41
2.5
 42
1.0
 43
10.0
 44
1.0
 47
0.1
 48
0.1
 73
     0
 74
     0
 75
     1
 76
     1
 77
     1
 78
     8
 79
     2
140
3.5
141
0.0
143
0.0393701
144
2.0
146
0.71
147
1.5
172
     1
173
     1
176
   256
177
   256
178
     2
271
     2
272
     3
274
     4
283
     0
284
     8
340
11
343
91
371
    -1
372
    -1
  0
DIMSTYLE
105
2334
102
{ACAD_REACTORS
330
4288
330
3D55
330
42E7
102
}
330
A
100
AcDbSymbolTableRecord
100
AcDbDimStyleTableRecord
  2
AM_ISO$0
 70
     0
  4
"
 41
2.5
 42
1.0
 43
10.0
 44
1.0
 47
0.1
 48
0.1
 73
     0
 74
     0
 77
     1
 78
     8
 79
     2
140
3.5
141
0.0
143
0.0393701
146
0.71
147
1.5
172
     1
176
     3
177
     3
178
     2
271
     2
272
     2
283
     0
284
     8
340
11
341
1F8
342
1F8
371
    -1
372
    -1
  0
ENDTAB
  0
TABLE
  2
BLOCK_RECORD
  5
1
330
0
100
AcDbSymbolTable
 70
    14
  0
BLOCK_RECORD
  5
1F
102
{ACAD_XDICTIONARY
360
99
102
}
330
1
100
AcDbSymbolTableRecord
100
AcDbBlockTableRecord
  2
*Model_Space
340
22
  0
BLOCK_RECORD
  5
23
330
1
100
AcDbSymbolTableRecord
100
AcDbBlockTableRecord
  2
*Paper_Space
340
26
  0
BLOCK_RECORD
  5
1B
330
1
100
AcDbSymbolTableRecord
100
AcDbBlockTableRecord
  2
*Paper_Space0
340
1E
  0
BLOCK_RECORD
  5
91
330
1
100
AcDbSymbolTableRecord
100
AcDbBlockTableRecord
  2
GENAXEH
340
0
  0
BLOCK_RECORD
  5
1F8
330
1
100
AcDbSymbolTableRecord
100
AcDbBlockTableRecord
  2
_Open30
340
0
102
{BLKREFS
331
433A
331
433B
331
4343
331
4344
331
434C
331
434D
102
}
  0
BLOCK_RECORD
  5
AE9
102
{ACAD_XDICTIONARY
360
AF1
102
}
330
1
100
AcDbSymbolTableRecord
100
AcDbBlockTableRecord
  2
TK-A3
340
0
102
{BLKREFS
331
C54
102
}
  0
BLOCK_RECORD
  5
AFC
102
{ACAD_XDICTIONARY
360
B55
102
}
330
1
100
AcDbSymbolTableRecord
100
AcDbBlockTableRecord
  2
TK-TITLE
340
0
102
{BLKREFS
331
C56
102
}
  0
BLOCK_RECORD
  5
3D56
330
1
100
AcDbSymbolTableRecord
100
AcDbBlockTableRecord
  2
*D6
340
0
  0
BLOCK_RECORD
  5
4289
330
1
100
AcDbSymbolTableRecord
100
AcDbBlockTableRecord
  2
*D7
340
0
  0
BLOCK_RECORD
  5
42E8
330
1
100
AcDbSymbolTableRecord
100
AcDbBlockTableRecord
  2
*D8
340
0
  0
BLOCK_RECORD
  5
44F0
330
1
100
AcDbSymbolTableRecord
100
AcDbBlockTableRecord
  2
*S9
340
0
  0
BLOCK_RECORD
  5
44F7
330
1
100
AcDbSymbolTableRecord
100
AcDbBlockTableRecord
  2
*S10
340
0
  0
BLOCK_RECORD
  5
44FF
330
1
100
AcDbSymbolTableRecord
100
AcDbBlockTableRecord
  2
*S11
340
0
  0
BLOCK_RECORD
  5
4506
330
1
100
AcDbSymbolTableRecord
100
AcDbBlockTableRecord
  2
*S12
340
0
  0
BLOCK_RECORD
  5
450D
330
1
100
AcDbSymbolTableRecord
100
AcDbBlockTableRecord
  2
*S13
340
0
  0
ENDTAB
  0
ENDSEC
  0
SECTION
  2
BLOCKS
  0
BLOCK
  5
20
330
1F
100
AcDbEntity
  8
0
100
AcDbBlockBegin
  2
*Model_Space
 70
     0
 10
0.0
 20
0.0
 30
0.0
  3
*Model_Space
  1

  0
ENDBLK
  5
21
330
1F
100
AcDbEntity
  8
0
100
AcDbBlockEnd
  0
BLOCK
  5
24
330
23
100
AcDbEntity
 67
     1
  8
0
100
AcDbBlockBegin
  2
*Paper_Space
 70
     0
 10
0.0
 20
0.0
 30
0.0
  3
*Paper_Space
  1

  0
ENDBLK
  5
25
330
23
100
AcDbEntity
 67
     1
  8
0
100
AcDbBlockEnd
  0
BLOCK
  5
1C
330
1B
100
AcDbEntity
 67
     1
  8
0
100
AcDbBlockBegin
  2
*Paper_Space0
 70
     0
 10
0.0
 20
0.0
 30
0.0
  3
*Paper_Space0
  1

  0
VIEWPORT
  5
182
102
{ACAD_XDICTIONARY
360
4547
102
}
330
1B
100
AcDbEntity
 67
     1
  8
0
100
AcDbViewport
 10
5.249999639556163
 20
3.999999883606677
 30
0.0
 40
14.57585398793907
 41
8.992999745766947
 68
     0
 69
     0
 12
5.249999639556163
 22
3.999999883606677
 13
0.0
 23
0.0
 14
10.0
 24
10.0
 15
10.0
 25
10.0
 16
0.0
 26
0.0
 36
1.0
 17
0.0
 27
0.0
 37
0.0
 42
50.0
 43
0.0
 44
0.0
 45
8.992999745766947
 50
0.0
 51
0.0
 72
   100
 90
    32800
  1

281
     0
 71
     1
 74
     0
110
0.0
120
0.0
130
0.0
111
1.0
121
0.0
131
0.0
112
0.0
122
1.0
132
0.0
 79
     0
146
0.0
  0
ENDBLK
  5
1D
330
1B
100
AcDbEntity
 67
     1
  8
0
100
AcDbBlockEnd
  0
BLOCK
  5
93
330
91
100
AcDbEntity
  8
0
100
AcDbBlockBegin
  2
GENAXEH
 70
     0
 10
0.0
 20
0.0
 30
0.0
  3
GENAXEH
  1

  0
LINE
  5
92
330
91
100
AcDbEntity
  8
0
100
AcDbLine
 10
-1.0
 20
0.0
 30
0.0
 11
1.0
 21
0.0
 31
0.0
  0
ENDBLK
  5
94
330
91
100
AcDbEntity
  8
0
100
AcDbBlockEnd
  0
BLOCK
  5
1F9
330
1F8
100
AcDbEntity
  8
0
100
AcDbBlockBegin
  2
_Open30
 70
     0
 10
0.0
 20
0.0
 30
0.0
  3
_Open30
  1

  0
LINE
  5
1FA
330
1F8
100
AcDbEntity
  8
0
  6
ByBlock
 62
     0
370
    -2
100
AcDbLine
 10
-1.0
 20
0.26794919
 30
0.0
 11
0.0
 21
0.0
 31
0.0
  0
LINE
  5
1FB
330
1F8
100
AcDbEntity
  8
0
  6
ByBlock
 62
     0
370
    -2
100
AcDbLine
 10
0.0
 20
0.0
 30
0.0
 11
-1.0
 21
-0.26794919
 31
0.0
  0
LINE
  5
1FC
330
1F8
100
AcDbEntity
  8
0
  6
ByBlock
 62
     0
370
    -2
100
AcDbLine
 10
0.0
 20
0.0
 30
0.0
 11
-1.0
 21
0.0
 31
0.0
  0
ENDBLK
  5
1FD
330
1F8
100
AcDbEntity
  8
0
100
AcDbBlockEnd
  0
BLOCK
  5
AF2
330
AE9
100
AcDbEntity
  8
0
100
AcDbBlockBegin
  2
TK-A3
 70
     0
 10
0.0
 20
0.0
 30
0.0
  3
TK-A3
  1

  0
LINE
  5
AEA
330
AE9
100
AcDbEntity
  8
0
100
AcDbLine
 10
359.0
 20
280.0
 30
0.0
 11
359.0
 21
275.0
 31
0.0
  0
MTEXT
  5
AEB
330
AE9
100
AcDbEntity
  8
0
100
AcDbMText
 10
402.3592953827349
 20
276.108542987227
 30
0.0
 40
2.5
 41
43.07840397728298
 71
     9
 72
     5
  1
(文書番号：TY-34)2008.02.08
 73
     1
 44
1.0
1001
ACAD
1000
MTEXTBEGIN
1070
    73
1070
     1
1070
    44
1040
1.0
1070
    74
1070
     0
1000
MTEXTEND
  0
LINE
  5
AEC
330
AE9
100
AcDbEntity
  8
0
100
AcDbLine
 10
359.0
 20
275.0
 30
0.0
 11
403.0
 21
275.0
 31
0.0
  0
TEXT
  5
AED
330
AE9
100
AcDbEntity
  8
0
 60
     1
100
AcDbText
 10
403.0
 20
0.0
 30
0.0
 40
2.5
  1
!GENTITLE-INSERT
100
AcDbText
  0
TEXT
  5
AEE
330
AE9
100
AcDbEntity
  8
0
 60
     1
100
AcDbText
 10
0.0
 20
0.0
 30
0.0
 40
2.5
  1
!GENTITLE-LL
100
AcDbText
  0
TEXT
  5
AEF
330
AE9
100
AcDbEntity
  8
0
 60
     1
100
AcDbText
 10
403.0
 20
280.0
 30
0.0
 40
2.5
  1
!GENTITLE-MAX
100
AcDbText
  0
LWPOLYLINE
  5
AF0
330
AE9
100
AcDbEntity
  8
0
100
AcDbPolyline
 90
        4
 70
     1
 43
0.0
 10
0.0
 20
0.0
 10
403.0
 20
0.0
 10
403.0
 20
280.0
 10
0.0
 20
280.0000000000001
1001
GENIUS_GENREC_14
1002
{
1000
PYDIR
1011
0.0000000000000178
1021
280.0
1031
0.0
1002
}
1002
{
1000
PXDIR
1011
403.0
1021
0.0
1031
0.0
1002
}
1002
{
1000
PORI
1011
0.0
1021
0.0
1031
0.0
1002
}
1002
{
1000
PINS
1011
0.0
1021
0.0
1031
0.0
1002
}
1002
{
1000
PINS2
1011
403.0
1021
280.0
1031
0.0
1002
}
1002
{
1000
C
1070
     1
1002
}
1001
GENIUS_GENODEF_13
1002
{
1000
HIER
1070
     0
1002
}
1002
{
1000
MANEDIT
1070
     0
1002
}
1002
{
1000
NOSEL
1070
     0
1002
}
1002
{
1000
BEHIND
1070
     0
1002
}
1002
{
1000
OTHER
1070
     0
1002
}
1002
{
1000
REACTOR
1002
}
1001
GENIUS_GENOBJ-N-REC_13
1002
{
1000
OWNER
1000
GEN
1002
}
  0
ENDBLK
  5
AF3
330
AE9
100
AcDbEntity
  8
0
100
AcDbBlockEnd
  0
BLOCK
  5
B56
330
AFC
100
AcDbEntity
  8
0
100
AcDbBlockBegin
  2
TK-TITLE
 70
     2
 10
0.0
 20
0.0
 30
0.0
  3
TK-TITLE
  1

  0
LINE
  5
AFD
330
AFC
100
AcDbEntity
  8
0
100
AcDbLine
 10
-167.0
 20
12.49999999999996
 30
0.0
 11
-193.0000000000001
 21
12.49999999999996
 31
0.0
  0
LINE
  5
AFE
330
AFC
100
AcDbEntity
  8
0
100
AcDbLine
 10
-167.0
 20
37.49999999999998
 30
0.0
 11
-193.0000000000001
 21
37.49999999999998
 31
0.0
  0
ATTDEF
  5
AFF
330
AFC
100
AcDbEntity
  8
0
100
AcDbText
 10
-180.2171951662138
 20
3.588342537610664
 30
0.0
 40
3.0
  1

 72
     1
 11
-180.2171951662138
 21
3.588342537610664
 31
0.0
100
AcDbAttributeDefinition
  3
日付
  2
GEN-TITLE-DAT
 70
     0
 74
     1
  0
MTEXT
  5
B00
330
AFC
100
AcDbEntity
  8
RAHM2
100
AcDbMText
 10
-191.8002551371315
 20
11.3010354072796
 30
0.0
 40
2.5
 41
60.0
 71
     1
 72
     5
  1
日付
 73
     1
 44
1.0
1001
ACAD
1000
MTEXTBEGIN
1070
    73
1070
     1
1070
    44
1040
1.0
1070
    74
1070
     0
1000
MTEXTEND
  0
ATTDEF
  5
B01
330
AFC
100
AcDbEntity
  8
0
100
AcDbText
 10
-177.824739614424
 20
28.29999999999998
 30
0.0
 40
3.0
  1

 72
     2
 11
-177.824739614424
 21
28.29999999999998
 31
0.0
100
AcDbAttributeDefinition
  3
尺度
  2
GEN-TITLE-SCA
 70
     0
 74
     1
  0
MTEXT
  5
B02
330
AFC
100
AcDbEntity
  8
RAHM2
100
AcDbMText
 10
-191.8002551371315
 20
36.30103540727966
 30
0.0
 40
2.5
 41
20.0
 71
     1
 72
     5
  1
尺度
 73
     1
 44
1.0
1001
ACAD
1000
MTEXTBEGIN
1070
    73
1070
     1
1070
    44
1040
1.0
1070
    74
1070
     0
1000
MTEXTEND
  0
MTEXT
  5
B03
330
AFC
100
AcDbEntity
  8
RAHM2
100
AcDbMText
 10
-191.8002551371315
 20
23.80103540727963
 30
0.0
 40
2.5
 41
20.0
 71
     1
 72
     5
  1
数量
 73
     1
 44
1.0
1001
ACAD
1000
MTEXTBEGIN
1070
    73
1070
     1
1070
    44
1040
1.0
1070
    74
1070
     0
1000
MTEXTEND
  0
ATTDEF
  5
B04
330
AFC
100
AcDbEntity
  8
0
100
AcDbText
 10
-175.6127409126095
 20
15.79999999999994
 30
0.0
 40
3.0
  1

 72
     2
 11
-175.6127409126095
 21
15.79999999999994
 31
0.0
100
AcDbAttributeDefinition
  3
数量
  2
GEN-TITLE-QTY
 70
     0
 74
     1
  0
LINE
  5
B05
330
AFC
100
AcDbEntity
  8
0
100
AcDbLine
 10
-193.0000000000001
 20
49.99999999999999
 30
0.0
 11
-193.0000000000001
 21
-0.0000000000000142
 31
0.0
  0
LINE
  5
B06
330
AFC
100
AcDbEntity
  8
7A
100
AcDbLine
 10
-184.7167418745796
 20
43.74999999999995
 30
0.0
 11
-170.9354334742943
 21
43.74999999999995
 31
0.0
1001
GENIUS_GENOREF_13
1005
B54
  0
LINE
  5
B07
330
AFC
100
AcDbEntity
  8
0
100
AcDbLine
 10
-179.7167418745796
 20
45.74999999999994
 30
0.0
 11
-171.7167418745796
 21
46.74999999999995
 31
0.0
  0
LINE
  5
B08
330
AFC
100
AcDbEntity
  8
0
100
AcDbLine
 10
-171.7167418745796
 20
40.74999999999994
 30
0.0
 11
-179.7167418745796
 21
41.74999999999995
 31
0.0
  0
LINE
  5
B09
330
AFC
100
AcDbEntity
  8
7A
100
AcDbLine
 10
-184.7167418745796
 20
43.74999999999995
 30
0.0
 11
-184.7167418745796
 21
47.32478664473144
 31
0.0
1001
GENIUS_GENOREF_13
1005
B54
  0
CIRCLE
  5
B0A
330
AFC
100
AcDbEntity
  8
0
100
AcDbCircle
 10
-184.7167418745796
 20
43.74999999999995
 30
0.0
 40
2.0
  0
CIRCLE
  5
B0B
330
AFC
100
AcDbEntity
  8
0
100
AcDbCircle
 10
-184.7167418745796
 20
43.74999999999995
 30
0.0
 40
3.0
  0
LINE
  5
B0C
330
AFC
100
AcDbEntity
  8
0
100
AcDbLine
 10
-179.7167418745796
 20
41.74999999999995
 30
0.0
 11
-179.7167418745796
 21
45.74999999999994
 31
0.0
  0
LINE
  5
B0D
330
AFC
100
AcDbEntity
  8
7A
100
AcDbLine
 10
-184.7167418745796
 20
43.74999999999995
 30
0.0
 11
-188.4397792458307
 21
43.74999999999995
 31
0.0
1001
GENIUS_GENOREF_13
1005
B54
  0
LINE
  5
B0E
330
AFC
100
AcDbEntity
  8
7A
100
AcDbLine
 10
-184.7167418745796
 20
43.74999999999995
 30
0.0
 11
-184.7167418745796
 21
40.03991724228473
 31
0.0
1001
GENIUS_GENOREF_13
1005
B54
  0
LINE
  5
B0F
330
AFC
100
AcDbEntity
  8
0
100
AcDbLine
 10
-171.7167418745796
 20
46.74999999999995
 30
0.0
 11
-171.7167418745796
 21
40.74999999999994
 31
0.0
  0
LINE
  5
B10
330
AFC
100
AcDbEntity
  8
0
100
AcDbLine
 10
-167.0
 20
24.99999999999997
 30
0.0
 11
-193.0000000000001
 21
24.99999999999997
 31
0.0
  0
LINE
  5
B11
330
AFC
100
AcDbEntity
  8
0
100
AcDbLine
 10
-167.0
 20
39.99999999999991
 30
0.0
 11
-96.0
 21
39.99999999999992
 31
0.0
  0
MTEXT
  5
B12
330
AFC
100
AcDbEntity
  8
RAHM2
100
AcDbMText
 10
-165.8002551371314
 20
38.80103540727956
 30
0.0
 40
2.5
 41
60.0
 71
     1
 72
     5
  1
表面処理
 73
     1
 44
1.0
1001
ACAD
1000
MTEXTBEGIN
1070
    73
1070
     1
1070
    44
1040
1.0
1070
    74
1070
     0
1000
MTEXTEND
  0
MTEXT
  5
B13
330
AFC
100
AcDbEntity
  8
RAHM2
100
AcDbMText
 10
-165.8002551371314
 20
48.80103540727955
 30
0.0
 40
2.5
 41
60.0
 71
     1
 72
     5
  1
材質
 73
     1
 44
1.0
1001
ACAD
1000
MTEXTBEGIN
1070
    73
1070
     1
1070
    44
1040
1.0
1070
    74
1070
     0
1000
MTEXTEND
  0
ATTDEF
  5
B14
330
AFC
100
AcDbEntity
  8
0
100
AcDbText
 10
-148.9618675835291
 20
33.29999999999991
 30
0.0
 40
3.0
  1

100
AcDbAttributeDefinition
  3
表面処理
  2
GEN-TITLE-MAT2
 70
     0
  0
ATTDEF
  5
B15
330
AFC
100
AcDbEntity
  8
0
100
AcDbText
 10
-148.9618675835291
 20
43.29999999999991
 30
0.0
 40
3.0
  1

100
AcDbAttributeDefinition
  3
材質
  2
GEN-TITLE-MAT1
 70
     0
  0
MTEXT
  5
B16
330
AFC
100
AcDbEntity
  8
0
100
AcDbMText
 10
-131.5000000000001
 20
24.99999999999992
 30
0.0
 40
3.5
 41
60.0
 71
     5
 72
     5
  1
\fＭＳ ゴシック|b0|i0|c128|p49;株式会社タカチ電機工業
 73
     1
 44
1.0
1001
ACAD
1000
MTEXTBEGIN
1070
    73
1070
     1
1070
    44
1040
1.0
1070
    74
1070
     0
1000
MTEXTEND
  0
LINE
  5
B17
330
AFC
100
AcDbEntity
  8
0
100
AcDbLine
 10
-167.0
 20
29.99999999999992
 30
0.0
 11
-96.0
 21
29.99999999999992
 31
0.0
  0
MTEXT
  5
B18
330
AFC
100
AcDbEntity
  8
RAHM2
100
AcDbMText
 10
-158.1250000000001
 20
18.80103540727956
 30
0.0
 40
2.5
 41
17.0
 71
     2
 72
     5
  1
承認
 73
     1
 44
1.0
1001
ACAD
1000
MTEXTBEGIN
1070
    73
1070
     1
1070
    44
1040
1.0
1070
    74
1070
     0
1000
MTEXTEND
  0
MTEXT
  5
B19
330
AFC
100
AcDbEntity
  8
RAHM2
100
AcDbMText
 10
-140.3750000000001
 20
18.80103540727958
 30
0.0
 40
2.5
 41
17.0
 71
     2
 72
     5
  1
承認
 73
     1
 44
1.0
1001
ACAD
1000
MTEXTBEGIN
1070
    73
1070
     1
1070
    44
1040
1.0
1070
    74
1070
     0
1000
MTEXTEND
  0
LINE
  5
B1A
330
AFC
100
AcDbEntity
  8
0
100
AcDbLine
 10
-149.2500000000001
 20
19.99999999999993
 30
0.0
 11
-149.2500000000001
 21
-0.0000000000000462
 31
0.0
  0
LINE
  5
B1B
330
AFC
100
AcDbEntity
  8
0
100
AcDbLine
 10
-167.0
 20
49.99999999999995
 30
0.0
 11
-167.0
 21
-0.0000000000000497
 31
0.0
  0
MTEXT
  5
B1C
330
AFC
100
AcDbEntity
  8
RAHM2
100
AcDbMText
 10
-122.6250000000001
 20
18.80103540727958
 30
0.0
 40
2.5
 41
17.0
 71
     2
 72
     5
  1
検図
 73
     1
 44
1.0
1001
ACAD
1000
MTEXTBEGIN
1070
    73
1070
     1
1070
    44
1040
1.0
1070
    74
1070
     0
1000
MTEXTEND
  0
LINE
  5
B1D
330
AFC
100
AcDbEntity
  8
0
100
AcDbLine
 10
-131.5000000000001
 20
19.99999999999993
 30
0.0
 11
-131.5000000000001
 21
-0.0000000000000533
 31
0.0
  0
LINE
  5
B1E
330
AFC
100
AcDbEntity
  8
0
100
AcDbLine
 10
-113.75
 20
19.99999999999993
 30
0.0
 11
-113.75
 21
-0.0000000000000533
 31
0.0
  0
LINE
  5
B1F
330
AFC
100
AcDbEntity
  8
0
100
AcDbLine
 10
-167.0
 20
19.99999999999993
 30
0.0
 11
-96.0
 21
19.99999999999993
 31
0.0
  0
MTEXT
  5
B20
330
AFC
100
AcDbEntity
  8
RAHM2
100
AcDbMText
 10
-104.875
 20
18.80103540727957
 30
0.0
 40
2.5
 41
17.0
 71
     2
 72
     5
  1
製図
 73
     1
 44
1.0
1001
ACAD
1000
MTEXTBEGIN
1070
    73
1070
     1
1070
    44
1040
1.0
1070
    74
1070
     0
1000
MTEXTEND
  0
MTEXT
  5
B21
330
AFC
100
AcDbEntity
  8
RAHM2
100
AcDbMText
 10
-16.85742592933491
 20
3.434762466565985
 30
0.0
 40
2.5
 41
7.936478436748416
 71
     5
 72
     5
  1
Rev.
 73
     1
 44
1.0
1001
ACAD
1000
MTEXTBEGIN
1070
    73
1070
     1
1070
    44
1040
1.0
1070
    74
1070
     0
1000
MTEXTEND
  0
LINE
  5
B22
330
AFC
100
AcDbEntity
  8
0
100
AcDbLine
 10
-21.17541926625711
 20
0.0
 30
0.0
 11
-21.17541926625734
 21
7.0
 31
0.0
  0
LINE
  5
B23
330
AFC
100
AcDbEntity
  8
RAHM2
100
AcDbLine
 10
-96.0
 20
29.99999999999992
 30
0.0
 11
0.0000000000001137
 21
30.00000000000003
 31
0.0
  0
LINE
  5
B24
330
AFC
100
AcDbEntity
  8
RAHM2
100
AcDbLine
 10
-96.0
 20
35.00000000000003
 30
0.0
 11
0.0000000000001137
 21
35.00000000000003
 31
0.0
  0
LINE
  5
B25
330
AFC
100
AcDbEntity
  8
RAHM2
100
AcDbLine
 10
-96.0
 20
39.99999999999993
 30
0.0
 11
0.0000000000001137
 21
40.00000000000002
 31
0.0
  0
LINE
  5
B26
330
AFC
100
AcDbEntity
  8
RAHM2
100
AcDbLine
 10
-96.0
 20
45.00000000000002
 30
0.0
 11
0.0000000000001137
 21
45.00000000000002
 31
0.0
  0
LINE
  5
B27
330
AFC
100
AcDbEntity
  8
0
100
AcDbLine
 10
-96.0
 20
7.0
 30
0.0
 11
0.0000000000001137
 21
7.0
 31
0.0
  0
LINE
  5
B28
330
AFC
100
AcDbEntity
  8
0
100
AcDbLine
 10
-96.0
 20
19.99999999999997
 30
0.0
 11
0.0000000000001137
 21
19.99999999999997
 31
0.0
  0
MTEXT
  5
B29
330
AFC
100
AcDbEntity
  8
RAHM2
100
AcDbMText
 10
-94.80025513713144
 20
5.801035407279627
 30
0.0
 40
2.5
 41
90.0
 71
     1
 72
     5
  1
図番
 73
     1
 44
1.0
1001
ACAD
1000
MTEXTBEGIN
1070
    73
1070
     1
1070
    44
1040
1.0
1070
    74
1070
     0
1000
MTEXTEND
  0
LINE
  5
B2A
330
AFC
100
AcDbEntity
  8
RAHM2
100
AcDbLine
 10
-88.57512886940355
 20
30.40000000000002
 30
0.0
 11
-91.0
 21
34.60000000000001
 31
0.0
  0
LINE
  5
B2B
330
AFC
100
AcDbEntity
  8
RAHM2
100
AcDbLine
 10
-91.0
 20
34.60000000000001
 30
0.0
 11
-93.42487113059645
 21
30.40000000000002
 31
0.0
  0
LINE
  5
B2C
330
AFC
100
AcDbEntity
  8
RAHM2
100
AcDbLine
 10
-86.0
 20
50.00000000000001
 30
0.0
 11
-86.0
 21
19.99999999999993
 31
0.0
  0
LINE
  5
B2D
330
AFC
100
AcDbEntity
  8
RAHM2
100
AcDbLine
 10
-93.42487113059645
 20
30.40000000000002
 30
0.0
 11
-88.57512886940355
 21
30.40000000000002
 31
0.0
  0
MTEXT
  5
B2E
330
AFC
100
AcDbEntity
  8
RAHM2
100
AcDbMText
 10
-91.0
 20
22.49999999999996
 30
0.0
 40
2.5
 41
10.0
 71
     5
 72
     5
  1
符号
 73
     1
 44
1.0
1001
ACAD
1000
MTEXTBEGIN
1070
    73
1070
     1
1070
    44
1040
1.0
1070
    74
1070
     0
1000
MTEXTEND
  0
MTEXT
  5
B2F
330
AFC
100
AcDbEntity
  8
RAHM2
100
AcDbMText
 10
-94.80025513713144
 20
18.8010354072796
 30
0.0
 40
2.5
 41
90.0
 71
     1
 72
     5
  1
品名
 73
     1
 44
1.0
1001
ACAD
1000
MTEXTBEGIN
1070
    73
1070
     1
1070
    44
1040
1.0
1070
    74
1070
     0
1000
MTEXTEND
  0
LINE
  5
B30
330
AFC
100
AcDbEntity
  8
RAHM2
100
AcDbLine
 10
-93.42487113059645
 20
45.40000000000001
 30
0.0
 11
-88.57512886940355
 21
45.40000000000001
 31
0.0
  0
LINE
  5
B31
330
AFC
100
AcDbEntity
  8
RAHM2
100
AcDbLine
 10
-88.57512886940355
 20
45.40000000000001
 30
0.0
 11
-91.0
 21
49.6
 31
0.0
  0
LINE
  5
B32
330
AFC
100
AcDbEntity
  8
RAHM2
100
AcDbLine
 10
-93.42487113059645
 20
40.40000000000001
 30
0.0
 11
-88.57512886940355
 21
40.40000000000001
 31
0.0
  0
LINE
  5
B33
330
AFC
100
AcDbEntity
  8
RAHM2
100
AcDbLine
 10
-88.57512886940355
 20
40.40000000000001
 30
0.0
 11
-91.0
 21
44.6
 31
0.0
  0
LINE
  5
B34
330
AFC
100
AcDbEntity
  8
RAHM2
100
AcDbLine
 10
-93.42487113059645
 20
35.40000000000002
 30
0.0
 11
-88.57512886940355
 21
35.40000000000002
 31
0.0
  0
LINE
  5
B35
330
AFC
100
AcDbEntity
  8
RAHM2
100
AcDbLine
 10
-88.57512886940355
 20
35.40000000000002
 30
0.0
 11
-91.0
 21
39.60000000000001
 31
0.0
  0
LINE
  5
B36
330
AFC
100
AcDbEntity
  8
RAHM2
100
AcDbLine
 10
-91.0
 20
39.60000000000001
 30
0.0
 11
-93.42487113059645
 21
35.40000000000002
 31
0.0
  0
LINE
  5
B37
330
AFC
100
AcDbEntity
  8
RAHM2
100
AcDbLine
 10
-91.0
 20
44.6
 30
0.0
 11
-93.42487113059645
 21
40.40000000000001
 31
0.0
  0
LINE
  5
B38
330
AFC
100
AcDbEntity
  8
RAHM2
100
AcDbLine
 10
-91.0
 20
49.6
 30
0.0
 11
-93.42487113059645
 21
45.40000000000001
 31
0.0
  0
LINE
  5
B39
330
AFC
100
AcDbEntity
  8
RAHM2
100
AcDbLine
 10
-31.82081941068907
 20
50.00000000000003
 30
0.0
 11
-31.82081941068918
 21
19.99999999999994
 31
0.0
  0
MTEXT
  5
B3A
330
AFC
100
AcDbEntity
  8
RAHM2
100
AcDbMText
 10
-59.0
 20
22.49999999999996
 30
0.0
 40
2.5
 41
45.0
 71
     5
 72
     5
  1
変更記事
 73
     1
 44
1.0
1001
ACAD
1000
MTEXTBEGIN
1070
    73
1070
     1
1070
    44
1040
1.0
1070
    74
1070
     0
1000
MTEXTEND
  0
LINE
  5
B3B
330
AFC
100
AcDbEntity
  8
RAHM2
100
AcDbLine
 10
-11.82081941068907
 20
50.00000000000003
 30
0.0
 11
-11.82081941068907
 21
19.99999999999994
 31
0.0
  0
MTEXT
  5
B3C
330
AFC
100
AcDbEntity
  8
RAHM2
100
AcDbMText
 10
-22.27910888308327
 20
32.50000000000003
 30
0.0
 40
2.5
 41
20.0
 71
     5
 72
     5
  1
・  ・   
 73
     1
 44
1.0
1001
ACAD
1000
MTEXTBEGIN
1070
    73
1070
     1
1070
    44
1040
1.0
1070
    74
1070
     0
1000
MTEXTEND
  0
MTEXT
  5
B3D
330
AFC
100
AcDbEntity
  8
RAHM2
100
AcDbMText
 10
-21.55893921569111
 20
22.49999999999997
 30
0.0
 40
2.5
 41
20.0
 71
     5
 72
     5
  1
年・月・日
 73
     1
 44
1.0
1001
ACAD
1000
MTEXTBEGIN
1070
    73
1070
     1
1070
    44
1040
1.0
1070
    74
1070
     0
1000
MTEXTEND
  0
MTEXT
  5
B3E
330
AFC
100
AcDbEntity
  8
RAHM2
100
AcDbMText
 10
-5.910409705344477
 20
22.49999999999997
 30
0.0
 40
2.5
 41
15.0
 71
     5
 72
     5
  1
担当
 73
     1
 44
1.0
1001
ACAD
1000
MTEXTBEGIN
1070
    73
1070
     1
1070
    44
1040
1.0
1070
    74
1070
     0
1000
MTEXTEND
  0
MTEXT
  5
B3F
330
AFC
100
AcDbEntity
  8
RAHM2
100
AcDbMText
 10
-22.27910888308327
 20
42.50000000000002
 30
0.0
 40
2.5
 41
20.0
 71
     5
 72
     5
  1
・  ・   
 73
     1
 44
1.0
1001
ACAD
1000
MTEXTBEGIN
1070
    73
1070
     1
1070
    44
1040
1.0
1070
    74
1070
     0
1000
MTEXTEND
  0
MTEXT
  5
B40
330
AFC
100
AcDbEntity
  8
RAHM2
100
AcDbMText
 10
-22.27910888308327
 20
37.50000000000003
 30
0.0
 40
2.5
 41
20.0
 71
     5
 72
     5
  1
・  ・   
 73
     1
 44
1.0
1001
ACAD
1000
MTEXTBEGIN
1070
    73
1070
     1
1070
    44
1040
1.0
1070
    74
1070
     0
1000
MTEXTEND
  0
MTEXT
  5
B41
330
AFC
100
AcDbEntity
  8
RAHM2
100
AcDbMText
 10
-22.27910888308327
 20
47.50000000000002
 30
0.0
 40
2.5
 41
20.0
 71
     5
 72
     5
  1
・  ・   
 73
     1
 44
1.0
1001
ACAD
1000
MTEXTBEGIN
1070
    73
1070
     1
1070
    44
1040
1.0
1070
    74
1070
     0
1000
MTEXTEND
  0
LINE
  5
B42
330
AFC
100
AcDbEntity
  8
RAHM2
100
AcDbLine
 10
-91.0
 20
29.60000000000001
 30
0.0
 11
-93.42487113059645
 21
25.40000000000002
 31
0.0
  0
LINE
  5
B43
330
AFC
100
AcDbEntity
  8
RAHM2
100
AcDbLine
 10
-88.57512886940355
 20
25.40000000000002
 30
0.0
 11
-91.0
 21
29.60000000000001
 31
0.0
  0
LINE
  5
B44
330
AFC
100
AcDbEntity
  8
RAHM2
100
AcDbLine
 10
-93.42487113059645
 20
25.40000000000002
 30
0.0
 11
-88.57512886940355
 21
25.40000000000002
 31
0.0
  0
LINE
  5
B45
330
AFC
100
AcDbEntity
  8
RAHM2
100
AcDbLine
 10
-96.0
 20
25.0
 30
0.0
 11
0.0000000000001137
 21
25.00000000000003
 31
0.0
  0
MTEXT
  5
B46
330
AFC
100
AcDbEntity
  8
RAHM2
100
AcDbMText
 10
-22.27910888308327
 20
27.50000000000003
 30
0.0
 40
2.5
 41
20.0
 71
     5
 72
     5
  1
・  ・   
 73
     1
 44
1.0
1001
ACAD
1000
MTEXTBEGIN
1070
    73
1070
     1
1070
    44
1040
1.0
1070
    74
1070
     0
1000
MTEXTEND
  0
TEXT
  5
B47
330
AFC
100
AcDbEntity
  8
RAHM2
100
AcDbText
 10
-91.81558635658019
 20
25.65000000000002
 30
0.0
 40
2.5
  1
1
 72
     1
 11
-91.19058635658019
 21
25.65000000000002
 31
0.0
100
AcDbText
 73
     1
  0
TEXT
  5
B48
330
AFC
100
AcDbEntity
  8
RAHM2
100
AcDbText
 10
-91.91833169291339
 20
30.65000000000002
 30
0.0
 40
2.5
  1
2
 72
     1
 11
-91.0
 21
30.65000000000002
 31
0.0
100
AcDbText
 73
     1
  0
TEXT
  5
B49
330
AFC
100
AcDbEntity
  8
RAHM2
100
AcDbText
 10
-91.92677669529663
 20
35.64999999999999
 30
0.0
 40
2.5
  1
3
 72
     1
 11
-91.0
 21
35.64999999999999
 31
0.0
100
AcDbText
 73
     1
  0
TEXT
  5
B4A
330
AFC
100
AcDbEntity
  8
RAHM2
100
AcDbText
 10
-92.0
 20
40.65000000000002
 30
0.0
 40
2.5
  1
4
 72
     1
 11
-91.0
 21
40.65000000000002
 31
0.0
100
AcDbText
 73
     1
  0
TEXT
  5
B4B
330
AFC
100
AcDbEntity
  8
RAHM2
100
AcDbText
 10
-91.92677669529663
 20
45.65000000000002
 30
0.0
 40
2.5
  1
5
 72
     1
 11
-91.0
 21
45.65000000000002
 31
0.0
100
AcDbText
 73
     1
  0
LINE
  5
B4C
330
AFC
100
AcDbEntity
  8
0
100
AcDbLine
 10
-193.0000000000001
 20
0.0
 30
0.0
 11
0.0
 21
0.0
 31
0.0
1001
GENIUS_GENREC_14
1002
{
1000
PYDIR
1011
-184.0
1021
50.0
1031
0.0
1002
}
1002
{
1000
PXDIR
1011
0.0
1021
0.0
1031
0.0
1002
}
1002
{
1000
PORI
1011
-184.0
1021
0.0
1031
0.0
1002
}
1002
{
1000
PINS
1011
-100.5
1021
25.0
1031
0.0
1002
}
1002
{
1000
HVAL
1000
50
1002
}
1002
{
1000
H
1070
     2
1002
}
1002
{
1000
WVAL
1000
167
1002
}
1002
{
1000
W
1070
     2
1002
}
1002
{
1000
C
1070
     4
1002
}
1001
GENIUS_GENODEF_13
1002
{
1000
HIER
1070
     0
1002
}
1002
{
1000
MANEDIT
1070
     0
1002
}
1002
{
1000
NOSEL
1070
     0
1002
}
1002
{
1000
BEHIND
1070
     0
1002
}
1002
{
1000
REACTOR
1002
}
1001
GENIUS_GENOBJ-N-REC_13
1002
{
1000
OWNER
1000
GEN
1002
}
  0
LINE
  5
B4D
330
AFC
100
AcDbEntity
  8
0
100
AcDbLine
 10
0.0
 20
50.0
 30
0.0
 11
-193.0000000000001
 21
50.00000000000002
 31
0.0
1001
GENIUS_GENREC_14
1002
{
1000
PYDIR
1011
-184.0
1021
50.0
1031
0.0
1002
}
1002
{
1000
PXDIR
1011
0.0
1021
0.0
1031
0.0
1002
}
1002
{
1000
PORI
1011
-184.0
1021
0.0
1031
0.0
1002
}
1002
{
1000
PINS
1011
-100.5
1021
25.0
1031
0.0
1002
}
1002
{
1000
HVAL
1000
50
1002
}
1002
{
1000
H
1070
     2
1002
}
1002
{
1000
WVAL
1000
167
1002
}
1002
{
1000
W
1070
     2
1002
}
1002
{
1000
C
1070
     4
1002
}
1001
GENIUS_GENODEF_13
1002
{
1000
HIER
1070
     0
1002
}
1002
{
1000
MANEDIT
1070
     0
1002
}
1002
{
1000
NOSEL
1070
     0
1002
}
1002
{
1000
BEHIND
1070
     0
1002
}
1002
{
1000
REACTOR
1002
}
1001
GENIUS_GENOBJ-N-REC_13
1002
{
1000
OWNER
1000
GEN
1002
}
  0
LINE
  5
B4E
330
AFC
100
AcDbEntity
  8
0
100
AcDbLine
 10
-96.0
 20
50.00000000000001
 30
0.0
 11
-96.0
 21
-0.0000000000000142
 31
0.0
1001
GENIUS_GENREC_14
1002
{
1000
PYDIR
1011
-96.0
1021
49.99999999999999
1031
0.0
1002
}
1002
{
1000
PXDIR
1011
88.0
1021
-0.0000000000000142
1031
0.0
1002
}
1002
{
1000
PORI
1011
-96.0
1021
-0.0000000000000142
1031
0.0
1002
}
1002
{
1000
PINS
1011
-12.5
1021
24.99999999999999
1031
0.0
1002
}
1002
{
1000
HVAL
1000
50
1002
}
1002
{
1000
H
1070
     2
1002
}
1002
{
1000
WVAL
1000
167
1002
}
1002
{
1000
W
1070
     2
1002
}
1002
{
1000
C
1070
     4
1002
}
1001
GENIUS_GENODEF_13
1002
{
1000
HIER
1070
     0
1002
}
1002
{
1000
MANEDIT
1070
     0
1002
}
1002
{
1000
NOSEL
1070
     0
1002
}
1002
{
1000
BEHIND
1070
     0
1002
}
1002
{
1000
REACTOR
1002
}
1001
GENIUS_GENOBJ-N-REC_13
1002
{
1000
OWNER
1000
GEN
1002
}
  0
ATTDEF
  5
B4F
330
AFC
100
AcDbEntity
  8
0
100
AcDbText
 10
-84.0
 20
1.999999999999957
 30
0.0
 40
3.0
  1

100
AcDbAttributeDefinition
  3
図番
  2
GEN-TITLE-NR1
 70
     0
  0
ATTDEF
  5
B50
330
AFC
100
AcDbEntity
  8
0
100
AcDbText
 10
-84.0
 20
9.149999999999948
 30
0.0
 40
2.5
  1

100
AcDbAttributeDefinition
  3
サブタイトル
  2
GEN-TITLE-DES2
 70
     0
  0
LINE
  5
B51
330
AFC
100
AcDbEntity
  8
0
100
AcDbLine
 10
0.0
 20
0.0
 30
0.0
 11
0.0
 21
50.0
 31
0.0
1001
GENIUS_GENREC_14
1002
{
1000
PYDIR
1011
-414.0
1021
291.0
1031
0.0
1002
}
1002
{
1000
PXDIR
1011
6.0
1021
-6.0
1031
0.0
1002
}
1002
{
1000
PORI
1011
-414.0
1021
-6.0
1031
0.0
1002
}
1002
{
1000
PINS
1011
-414.0
1021
-6.0
1031
0.0
1002
}
1002
{
1000
HVAL
1000
297
1002
}
1002
{
1000
H
1070
     2
1002
}
1002
{
1000
WVAL
1000
420
1002
}
1002
{
1000
W
1070
     2
1002
}
1002
{
1000
C
1070
     1
1002
}
1001
GENIUS_GENODEF_13
1002
{
1000
HIER
1070
     0
1002
}
1002
{
1000
MANEDIT
1070
     0
1002
}
1002
{
1000
NOSEL
1070
     0
1002
}
1002
{
1000
BEHIND
1070
     0
1002
}
1002
{
1000
OTHER
1070
     0
1002
}
1002
{
1000
REACTOR
1002
}
1001
GENIUS_GENOBJ-N-REC_13
1002
{
1000
OWNER
1000
GEN
1002
}
  0
ATTDEF
  5
B52
330
AFC
100
AcDbEntity
  8
0
100
AcDbText
 10
-84.14251901585329
 20
12.82790432564377
 30
0.0
 40
3.5
  1

100
AcDbAttributeDefinition
  3
品名
  2
GEN-TITLE-DES1
 70
     0
  0
ATTDEF
  5
B53
330
AFC
100
AcDbEntity
  8
0
100
AcDbText
 10
-8.002309189545826
 20
1.705189434395036
 30
0.0
 40
2.5
  1

100
AcDbAttributeDefinition
  3
Rev.
  2
GEN-TITLE-NR2
 70
     0
  0
POINT
  5
B54
330
AFC
100
AcDbEntity
  8
0
 60
     1
100
AcDbPoint
 10
-418.5355579819675
 20
-138.1104841268254
 30
0.0
1001
GENIUS_GENODEF_13
1002
{
1000
HIER
1070
    10
1002
}
1002
{
1000
MANEDIT
1070
     0
1002
}
1002
{
1000
NOSEL
1070
     0
1002
}
1002
{
1000
BEHIND
1070
     0
1002
}
1002
{
1000
REACTOR
1002
}
1001
GENIUS_GENOBJ-N-CRS_13
1002
{
1000
OWNER
1000
GEN
1002
}
1001
GENIUS_GENOENT_13
1002
{
1000
MYREF
1005
B54
1002
}
1002
{
1000
GRP
1005
0
1002
}
1001
GENIUS_GENOLIS_13
1002
{
1000
ENT
1005
B0E
1005
B0D
1005
B09
1005
B06
1002
}
  0
ENDBLK
  5
B57
330
AFC
100
AcDbEntity
  8
0
100
AcDbBlockEnd
  0
BLOCK
  5
3D8E
330
3D56
100
AcDbEntity
  8
0
100
AcDbBlockBegin
  2
*D6
 70
     1
 10
0.0
 20
0.0
 30
0.0
  3
*D6
  1

  0
LINE
  5
4337
330
3D56
100
AcDbEntity
  8
AM_5
 62
     3
100
AcDbLine
 10
928.61031188877
 20
865.1326256117103
 30
0.0
 11
928.61031188877
 21
913.6326266217107
 31
0.0
  0
LINE
  5
4338
330
3D56
100
AcDbEntity
  8
AM_5
 62
     3
100
AcDbLine
 10
983.6103118887702
 20
865.1683562452426
 30
0.0
 11
983.6103118887702
 21
913.6326266217107
 31
0.0
  0
LINE
  5
4339
330
3D56
100
AcDbEntity
  8
AM_5
 62
     3
100
AcDbLine
 10
938.6103118887699
 20
909.6326266217108
 30
0.0
 11
973.6103118887701
 21
909.6326266217108
 31
0.0
  0
INSERT
  5
433A
330
3D56
100
AcDbEntity
  8
AM_5
 62
     3
100
AcDbBlockReference
  2
_Open30
 10
928.61031188877
 20
909.6326266217108
 30
0.0
 41
10.0
 42
10.0
 43
10.0
 50
180.0
  0
INSERT
  5
433B
330
3D56
100
AcDbEntity
  8
AM_5
 62
     3
100
AcDbBlockReference
  2
_Open30
 10
983.6103118887702
 20
909.6326266217108
 30
0.0
 41
10.0
 42
10.0
 43
10.0
  0
MTEXT
  5
433C
330
3D56
100
AcDbEntity
  8
AM_5
 62
     2
100
AcDbMText
 10
956.11031188877
 20
922.6326266217107
 30
0.0
 40
14.0
 41
0.0
 71
     5
 72
     1
  1
55
 73
     1
 44
1.0
1001
ACAD
1000
MTEXTBEGIN
1070
    73
1070
     1
1070
    44
1040
1.0
1070
    74
1070
     0
1000
MTEXTEND
  0
POINT
  5
433D
330
3D56
100
AcDbEntity
  8
Defpoints
 62
     0
100
AcDbPoint
 10
928.61031188877
 20
861.1326256117104
 30
0.0
  0
POINT
  5
433E
330
3D56
100
AcDbEntity
  8
Defpoints
 62
     0
100
AcDbPoint
 10
983.6103118887702
 20
861.1683562452427
 30
0.0
  0
POINT
  5
433F
330
3D56
100
AcDbEntity
  8
Defpoints
 62
     0
100
AcDbPoint
 10
983.6103118887702
 20
909.6326266217108
 30
0.0
  0
ENDBLK
  5
3D8F
330
3D56
100
AcDbEntity
  8
0
100
AcDbBlockEnd
  0
BLOCK
  5
429F
330
4289
100
AcDbEntity
  8
0
100
AcDbBlockBegin
  2
*D7
 70
     1
 10
0.0
 20
0.0
 30
0.0
  3
*D7
  1

  0
LINE
  5
4340
330
4289
100
AcDbEntity
  8
AM_5
 62
     3
100
AcDbLine
 10
313.6740636863557
 20
861.6326256117107
 30
0.0
 11
255.6740626763555
 21
861.6326256117108
 31
0.0
  0
LINE
  5
4341
330
4289
100
AcDbEntity
  8
AM_5
 62
     3
100
AcDbLine
 10
313.6740636863557
 20
261.6326256117109
 30
0.0
 11
255.6740626763553
 21
261.6326256117109
 31
0.0
  0
LINE
  5
4342
330
4289
100
AcDbEntity
  8
AM_5
 62
     3
100
AcDbLine
 10
259.6740626763554
 20
851.6326256117107
 30
0.0
 11
259.6740626763553
 21
271.6326256117109
 31
0.0
  0
INSERT
  5
4343
330
4289
100
AcDbEntity
  8
AM_5
 62
     3
100
AcDbBlockReference
  2
_Open30
 10
259.6740626763554
 20
861.6326256117107
 30
0.0
 41
10.0
 42
10.0
 43
10.0
 50
90.0
  0
INSERT
  5
4344
330
4289
100
AcDbEntity
  8
AM_5
 62
     3
100
AcDbBlockReference
  2
_Open30
 10
259.6740626763553
 20
261.6326256117109
 30
0.0
 41
10.0
 42
10.0
 43
10.0
 50
270.0
  0
MTEXT
  5
4345
330
4289
100
AcDbEntity
  8
AM_5
 62
     2
100
AcDbMText
 10
246.6740626763553
 20
561.6326256117108
 30
0.0
 40
14.0
 41
0.0
 71
     5
 72
     1
  1
600
 11
0.0000000000000001
 21
1.0
 31
0.0
 73
     1
 44
1.0
1001
ACAD
1000
MTEXTBEGIN
1070
    73
1070
     1
1070
    44
1040
1.0
1070
    74
1070
     0
1000
MTEXTEND
  0
POINT
  5
4346
330
4289
100
AcDbEntity
  8
Defpoints
 62
     0
100
AcDbPoint
 10
317.6740636863557
 20
861.6326256117107
 30
0.0
  0
POINT
  5
4347
330
4289
100
AcDbEntity
  8
Defpoints
 62
     0
100
AcDbPoint
 10
317.6740636863557
 20
261.6326256117109
 30
0.0
  0
POINT
  5
4348
330
4289
100
AcDbEntity
  8
Defpoints
 62
     0
100
AcDbPoint
 10
259.6740626763553
 20
261.6326256117109
 30
0.0
  0
ENDBLK
  5
42A0
330
4289
100
AcDbEntity
  8
0
100
AcDbBlockEnd
  0
BLOCK
  5
42FE
330
42E8
100
AcDbEntity
  8
0
100
AcDbBlockBegin
  2
*D8
 70
     1
 10
0.0
 20
0.0
 30
0.0
  3
*D8
  1

  0
LINE
  5
4349
330
42E8
100
AcDbEntity
  8
AM_5
 62
     3
100
AcDbLine
 10
707.6740636886188
 20
855.6326256117106
 30
0.0
 11
707.6740636886188
 21
913.6326266217107
 31
0.0
  0
LINE
  5
434A
330
42E8
100
AcDbEntity
  8
AM_5
 62
     3
100
AcDbLine
 10
307.6740636863557
 20
855.6326256117108
 30
0.0
 11
307.6740636863557
 21
913.6326266217107
 31
0.0
  0
LINE
  5
434B
330
42E8
100
AcDbEntity
  8
AM_5
 62
     3
100
AcDbLine
 10
697.6740636886188
 20
909.6326266217108
 30
0.0
 11
317.6740636863557
 21
909.6326266217108
 31
0.0
  0
INSERT
  5
434C
330
42E8
100
AcDbEntity
  8
AM_5
 62
     3
100
AcDbBlockReference
  2
_Open30
 10
707.6740636886188
 20
909.6326266217108
 30
0.0
 41
10.0
 42
10.0
 43
10.0
  0
INSERT
  5
434D
330
42E8
100
AcDbEntity
  8
AM_5
 62
     3
100
AcDbBlockReference
  2
_Open30
 10
307.6740636863557
 20
909.6326266217108
 30
0.0
 41
10.0
 42
10.0
 43
10.0
 50
180.0
  0
MTEXT
  5
434E
330
42E8
100
AcDbEntity
  8
AM_5
 62
     2
100
AcDbMText
 10
507.6740636874872
 20
922.6326266217107
 30
0.0
 40
14.0
 41
0.0
 71
     5
 72
     1
  1
400
 73
     1
 44
1.0
1001
ACAD
1000
MTEXTBEGIN
1070
    73
1070
     1
1070
    44
1040
1.0
1070
    74
1070
     0
1000
MTEXTEND
  0
POINT
  5
434F
330
42E8
100
AcDbEntity
  8
Defpoints
 62
     0
100
AcDbPoint
 10
707.6740636886188
 20
851.6326256117107
 30
0.0
  0
POINT
  5
4350
330
42E8
100
AcDbEntity
  8
Defpoints
 62
     0
100
AcDbPoint
 10
307.6740636863557
 20
851.6326256117107
 30
0.0
  0
POINT
  5
4351
330
42E8
100
AcDbEntity
  8
Defpoints
 62
     0
100
AcDbPoint
 10
307.6740636863557
 20
909.6326266217108
 30
0.0
  0
ENDBLK
  5
42FF
330
42E8
100
AcDbEntity
  8
0
100
AcDbBlockEnd
  0
BLOCK
  5
44F4
330
44F0
100
AcDbEntity
  8
0
100
AcDbBlockBegin
  2
*S9
 70
     1
 10
0.0
 20
0.0
 30
0.0
  3
*S9
  1

  0
CIRCLE
  5
44F1
330
44F0
100
AcDbEntity
  8
AM_12
 62
     4
100
AcDbCircle
 10
955.979063358283
 20
274.9015519488065
 30
0.0
 40
7.0
  0
LINE
  5
44F2
330
44F0
100
AcDbEntity
  8
AM_12
 62
     4
100
AcDbLine
 10
948.9790633582829
 20
267.9015519488065
 30
0.0
 11
962.9790633582828
 21
281.9015519488065
 31
0.0
  0
LINE
  5
44F3
330
44F0
100
AcDbEntity
  8
AM_12
 62
     4
100
AcDbLine
 10
948.9790633582829
 20
281.9015519488065
 30
0.0
 11
962.9790633582828
 21
267.9015519488065
 31
0.0
  0
ENDBLK
  5
44F5
330
44F0
100
AcDbEntity
  8
0
100
AcDbBlockEnd
  0
BLOCK
  5
44FC
330
44F7
100
AcDbEntity
  8
0
100
AcDbBlockBegin
  2
*S10
 70
     1
 10
0.0
 20
0.0
 30
0.0
  3
*S10
  1

  0
LINE
  5
44F8
330
44F7
100
AcDbEntity
  8
AM_5
 62
     3
100
AcDbLine
 10
1021.81231310759
 20
354.3700781924567
 30
0.0
 11
964.9103400543856
 21
285.6826602674189
 31
0.0
  0
TRACE
  5
44F9
330
44F7
100
AcDbEntity
  8
AM_5
  6
Continuous
 62
     3
100
AcDbTrace
 10
963.4909802238128
 20
286.8584851458587
 30
0.0
 11
966.3296998849585
 21
284.506835388979
 31
0.0
 12
955.979063358283
 22
274.9015519488065
 32
0.0
 13
955.979063358283
 23
274.9015519488065
 33
0.0
  0
MTEXT
  5
44FA
330
44F7
100
AcDbEntity
  8
AM_5
 62
     7
100
AcDbMText
 10
1037.442047325769
 20
373.2370177500284
 30
0.0
 40
14.0
 41
0.0
 71
     5
 72
     5
  1
1
  7
ACISOTS
 73
     1
 44
1.0
1001
ACAD
1000
MTEXTBEGIN
1070
    73
1070
     1
1070
    44
1040
1.0
1070
    74
1070
     0
1000
MTEXTEND
  0
CIRCLE
  5
44FB
330
44F7
100
AcDbEntity
  8
AM_5
 62
     3
100
AcDbCircle
 10
1037.442047325769
 20
373.2370177500284
 30
0.0
 40
24.5
  0
ENDBLK
  5
44FD
330
44F7
100
AcDbEntity
  8
0
100
AcDbBlockEnd
  0
BLOCK
  5
4503
330
44FF
100
AcDbEntity
  8
0
100
AcDbBlockBegin
  2
*S11
 70
     1
 10
0.0
 20
0.0
 30
0.0
  3
*S11
  1

  0
CIRCLE
  5
4500
330
44FF
100
AcDbEntity
  8
AM_12
 62
     4
100
AcDbCircle
 10
1597.015816118629
 20
1032.711048966937
 30
0.0
 40
7.0
  0
LINE
  5
4501
330
44FF
100
AcDbEntity
  8
AM_12
 62
     4
100
AcDbLine
 10
1590.015816118629
 20
1025.711048966937
 30
0.0
 11
1604.015816118629
 21
1039.711048966937
 31
0.0
  0
LINE
  5
4502
330
44FF
100
AcDbEntity
  8
AM_12
 62
     4
100
AcDbLine
 10
1590.015816118629
 20
1039.711048966937
 30
0.0
 11
1604.015816118629
 21
1025.711048966937
 31
0.0
  0
ENDBLK
  5
4504
330
44FF
100
AcDbEntity
  8
0
100
AcDbBlockEnd
  0
BLOCK
  5
450A
330
4506
100
AcDbEntity
  8
0
100
AcDbBlockBegin
  2
*S12
 70
     1
 10
0.0
 20
0.0
 30
0.0
  3
*S12
  1

  0
CIRCLE
  5
4507
330
4506
100
AcDbEntity
  8
AM_12
 62
     4
100
AcDbCircle
 10
1597.025755845697
 20
1008.443358688098
 30
0.0
 40
7.0
  0
LINE
  5
4508
330
4506
100
AcDbEntity
  8
AM_12
 62
     4
100
AcDbLine
 10
1590.025755845697
 20
1001.443358688097
 30
0.0
 11
1604.025755845697
 21
1015.443358688098
 31
0.0
  0
LINE
  5
4509
330
4506
100
AcDbEntity
  8
AM_12
 62
     4
100
AcDbLine
 10
1590.025755845697
 20
1015.443358688098
 30
0.0
 11
1604.025755845697
 21
1001.443358688097
 31
0.0
  0
ENDBLK
  5
450B
330
4506
100
AcDbEntity
  8
0
100
AcDbBlockEnd
  0
BLOCK
  5
453B
330
450D
100
AcDbEntity
  8
0
100
AcDbBlockBegin
  2
*S13
 70
     1
 10
0.0
 20
0.0
 30
0.0
  3
*S13
  1

  0
LINE
  5
450E
330
450D
100
AcDbEntity
  8
0
 62
     1
100
AcDbLine
 10
792.0
 20
1045.9
 30
0.0
 11
1612.0
 21
1045.9
 31
0.0
  0
LINE
  5
450F
330
450D
100
AcDbEntity
  8
0
 62
     1
100
AcDbLine
 10
792.0
 20
1021.2
 30
0.0
 11
1612.0
 21
1021.2
 31
0.0
  0
MTEXT
  5
4510
330
450D
100
AcDbEntity
  8
0
 62
     2
100
AcDbMText
 10
822.0
 20
1065.2
 30
0.0
 40
14.0
 41
52.8
 71
     2
 72
     5
  1
1
  7
ACISOTS
 73
     1
 44
1.0
1001
ACAD
1000
MTEXTBEGIN
1070
    73
1070
     1
1070
    44
1040
1.0
1070
    74
1070
     0
1000
MTEXTEND
  0
LINE
  5
4511
330
450D
100
AcDbEntity
  8
0
 62
     1
100
AcDbLine
 10
852.0
 20
1070.6
 30
0.0
 11
852.0
 21
1045.9
 31
0.0
  0
MTEXT
  5
4512
330
450D
100
AcDbEntity
  8
0
 62
     2
100
AcDbMText
 10
855.6
 20
1065.2
 30
0.0
 40
14.0
 41
232.8
 71
     1
 72
     5
  1
エクステンションフレーム
  7
ACISOTS
 73
     1
 44
1.0
1001
ACAD
1000
MTEXTBEGIN
1070
    73
1070
     1
1070
    44
1040
1.0
1070
    74
1070
     0
1000
MTEXTEND
  0
LINE
  5
4513
330
450D
100
AcDbEntity
  8
0
 62
     1
100
AcDbLine
 10
1092.0
 20
1070.6
 30
0.0
 11
1092.0
 21
1045.9
 31
0.0
  0
MTEXT
  5
4514
330
450D
100
AcDbEntity
  8
0
 62
     2
100
AcDbMText
 10
1122.0
 20
1065.2
 30
0.0
 40
14.0
 41
52.8
 71
     2
 72
     5
  1
1
  7
ACISOTS
 73
     1
 44
1.0
1001
ACAD
1000
MTEXTBEGIN
1070
    73
1070
     1
1070
    44
1040
1.0
1070
    74
1070
     0
1000
MTEXTEND
  0
LINE
  5
4515
330
450D
100
AcDbEntity
  8
0
 62
     1
100
AcDbLine
 10
1152.0
 20
1070.6
 30
0.0
 11
1152.0
 21
1045.9
 31
0.0
  0
MTEXT
  5
4516
330
450D
100
AcDbEntity
  8
0
 62
     2
100
AcDbMText
 10
1155.6
 20
1065.2
 30
0.0
 40
14.0
 41
272.8
 71
     1
 72
     5
  1
ポリカーボネートグラスファイバー
  7
ACISOTS
 73
     1
 44
1.0
1001
ACAD
1000
MTEXTBEGIN
1070
    73
1070
     1
1070
    44
1040
1.0
1070
    74
1070
     0
1000
MTEXTEND
  0
LINE
  5
4517
330
450D
100
AcDbEntity
  8
0
 62
     1
100
AcDbLine
 10
1432.0
 20
1070.6
 30
0.0
 11
1432.0
 21
1045.9
 31
0.0
  0
MTEXT
  5
4518
330
450D
100
AcDbEntity
  8
0
 62
     2
100
AcDbMText
 10
1435.6
 20
1065.2
 30
0.0
 40
14.0
 41
172.8
 71
     1
 72
     5
  1
ホワイトグレー
  7
ACISOTS
 73
     1
 44
1.0
1001
ACAD
1000
MTEXTBEGIN
1070
    73
1070
     1
1070
    44
1040
1.0
1070
    74
1070
     0
1000
MTEXTEND
  0
MTEXT
  5
4519
330
450D
100
AcDbEntity
  8
0
 62
     2
100
AcDbMText
 10
822.0
 20
1040.5
 30
0.0
 40
14.0
 41
52.8
 71
     2
 72
     5
  1
2
  7
ACISOTS
 73
     1
 44
1.0
1001
ACAD
1000
MTEXTBEGIN
1070
    73
1070
     1
1070
    44
1040
1.0
1070
    74
1070
     0
1000
MTEXTEND
  0
LINE
  5
451A
330
450D
100
AcDbEntity
  8
0
 62
     1
100
AcDbLine
 10
852.0
 20
1045.9
 30
0.0
 11
852.0
 21
1021.2
 31
0.0
  0
MTEXT
  5
451B
330
450D
100
AcDbEntity
  8
0
 62
     2
100
AcDbMText
 10
855.6
 20
1040.5
 30
0.0
 40
14.0
 41
232.8
 71
     1
 72
     5
  1
フレームスクリュー(専用)
  7
ACISOTS
 73
     1
 44
1.0
1001
ACAD
1000
MTEXTBEGIN
1070
    73
1070
     1
1070
    44
1040
1.0
1070
    74
1070
     0
1000
MTEXTEND
  0
LINE
  5
451C
330
450D
100
AcDbEntity
  8
0
 62
     1
100
AcDbLine
 10
1092.0
 20
1045.9
 30
0.0
 11
1092.0
 21
1021.2
 31
0.0
  0
MTEXT
  5
451D
330
450D
100
AcDbEntity
  8
0
 62
     2
100
AcDbMText
 10
1122.0
 20
1040.5
 30
0.0
 40
14.0
 41
52.8
 71
     2
 72
     5
  1
6
  7
ACISOTS
 73
     1
 44
1.0
1001
ACAD
1000
MTEXTBEGIN
1070
    73
1070
     1
1070
    44
1040
1.0
1070
    74
1070
     0
1000
MTEXTEND
  0
LINE
  5
451E
330
450D
100
AcDbEntity
  8
0
 62
     1
100
AcDbLine
 10
1152.0
 20
1045.9
 30
0.0
 11
1152.0
 21
1021.2
 31
0.0
  0
MTEXT
  5
451F
330
450D
100
AcDbEntity
  8
0
 62
     2
100
AcDbMText
 10
1155.6
 20
1040.5
 30
0.0
 40
14.0
 41
272.8
 71
     1
 72
     5
  1
-
  7
ACISOTS
 73
     1
 44
1.0
1001
ACAD
1000
MTEXTBEGIN
1070
    73
1070
     1
1070
    44
1040
1.0
1070
    74
1070
     0
1000
MTEXTEND
  0
LINE
  5
4520
330
450D
100
AcDbEntity
  8
0
 62
     1
100
AcDbLine
 10
1432.0
 20
1045.9
 30
0.0
 11
1432.0
 21
1021.2
 31
0.0
  0
MTEXT
  5
4521
330
450D
100
AcDbEntity
  8
0
 62
     2
100
AcDbMText
 10
1435.6
 20
1040.5
 30
0.0
 40
14.0
 41
172.8
 71
     1
 72
     5
  1
ブラック
  7
ACISOTS
 73
     1
 44
1.0
1001
ACAD
1000
MTEXTBEGIN
1070
    73
1070
     1
1070
    44
1040
1.0
1070
    74
1070
     0
1000
MTEXTEND
  0
MTEXT
  5
4522
330
450D
100
AcDbEntity
  8
0
 62
     2
100
AcDbMText
 10
822.0
 20
1015.8
 30
0.0
 40
14.0
 41
52.8
 71
     2
 72
     5
  1
3
  7
ACISOTS
 73
     1
 44
1.0
1001
ACAD
1000
MTEXTBEGIN
1070
    73
1070
     1
1070
    44
1040
1.0
1070
    74
1070
     0
1000
MTEXTEND
  0
LINE
  5
4523
330
450D
100
AcDbEntity
  8
0
 62
     1
100
AcDbLine
 10
852.0
 20
1021.2
 30
0.0
 11
852.0
 21
996.4999999999999
 31
0.0
  0
MTEXT
  5
4524
330
450D
100
AcDbEntity
  8
0
 62
     2
100
AcDbMText
 10
855.6
 20
1015.8
 30
0.0
 40
14.0
 41
232.8
 71
     1
 72
     5
  1
スクリューヘッド(専用)
  7
ACISOTS
 73
     1
 44
1.0
1001
ACAD
1000
MTEXTBEGIN
1070
    73
1070
     1
1070
    44
1040
1.0
1070
    74
1070
     0
1000
MTEXTEND
  0
LINE
  5
4525
330
450D
100
AcDbEntity
  8
0
 62
     1
100
AcDbLine
 10
1092.0
 20
1021.2
 30
0.0
 11
1092.0
 21
996.4999999999999
 31
0.0
  0
MTEXT
  5
4526
330
450D
100
AcDbEntity
  8
0
 62
     2
100
AcDbMText
 10
1122.0
 20
1015.8
 30
0.0
 40
14.0
 41
52.8
 71
     2
 72
     5
  1
1
  7
ACISOTS
 73
     1
 44
1.0
1001
ACAD
1000
MTEXTBEGIN
1070
    73
1070
     1
1070
    44
1040
1.0
1070
    74
1070
     0
1000
MTEXTEND
  0
LINE
  5
4527
330
450D
100
AcDbEntity
  8
0
 62
     1
100
AcDbLine
 10
1152.0
 20
1021.2
 30
0.0
 11
1152.0
 21
996.4999999999999
 31
0.0
  0
MTEXT
  5
4528
330
450D
100
AcDbEntity
  8
0
 62
     2
100
AcDbMText
 10
1155.6
 20
1015.8
 30
0.0
 40
14.0
 41
272.8
 71
     1
 72
     5
  1
-
  7
ACISOTS
 73
     1
 44
1.0
1001
ACAD
1000
MTEXTBEGIN
1070
    73
1070
     1
1070
    44
1040
1.0
1070
    74
1070
     0
1000
MTEXTEND
  0
LINE
  5
4529
330
450D
100
AcDbEntity
  8
0
 62
     1
100
AcDbLine
 10
1432.0
 20
1021.2
 30
0.0
 11
1432.0
 21
996.4999999999999
 31
0.0
  0
MTEXT
  5
452A
330
450D
100
AcDbEntity
  8
0
 62
     2
100
AcDbMText
 10
1435.6
 20
1015.8
 30
0.0
 40
14.0
 41
172.8
 71
     1
 72
     5
  1
ホワイトグレー
  7
ACISOTS
 73
     1
 44
1.0
1001
ACAD
1000
MTEXTBEGIN
1070
    73
1070
     1
1070
    44
1040
1.0
1070
    74
1070
     0
1000
MTEXTEND
  0
LINE
  5
452B
330
450D
100
AcDbEntity
  8
0
 62
     1
100
AcDbLine
 10
792.0
 20
1070.6
 30
0.0
 11
1612.0
 21
1070.6
 31
0.0
  0
MTEXT
  5
452C
330
450D
100
AcDbEntity
  8
0
 62
     2
100
AcDbMText
 10
822.0
 20
1089.9
 30
0.0
 40
14.0
 41
52.8
 71
     2
 72
     5
  1
照番
  7
ACISOTS
 73
     1
 44
1.0
1001
ACAD
1000
MTEXTBEGIN
1070
    73
1070
     1
1070
    44
1040
1.0
1070
    74
1070
     0
1000
MTEXTEND
  0
LINE
  5
452D
330
450D
100
AcDbEntity
  8
0
 62
     1
100
AcDbLine
 10
852.0
 20
1095.3
 30
0.0
 11
852.0
 21
1070.6
 31
0.0
  0
MTEXT
  5
452E
330
450D
100
AcDbEntity
  8
0
 62
     2
100
AcDbMText
 10
972.0
 20
1089.9
 30
0.0
 40
14.0
 41
232.8
 71
     2
 72
     5
  1
名称
  7
ACISOTS
 73
     1
 44
1.0
1001
ACAD
1000
MTEXTBEGIN
1070
    73
1070
     1
1070
    44
1040
1.0
1070
    74
1070
     0
1000
MTEXTEND
  0
LINE
  5
452F
330
450D
100
AcDbEntity
  8
0
 62
     1
100
AcDbLine
 10
1092.0
 20
1095.3
 30
0.0
 11
1092.0
 21
1070.6
 31
0.0
  0
MTEXT
  5
4530
330
450D
100
AcDbEntity
  8
0
 62
     2
100
AcDbMText
 10
1122.0
 20
1089.9
 30
0.0
 40
14.0
 41
52.8
 71
     2
 72
     5
  1
数量
  7
ACISOTS
 73
     1
 44
1.0
1001
ACAD
1000
MTEXTBEGIN
1070
    73
1070
     1
1070
    44
1040
1.0
1070
    74
1070
     0
1000
MTEXTEND
  0
LINE
  5
4531
330
450D
100
AcDbEntity
  8
0
 62
     1
100
AcDbLine
 10
1152.0
 20
1095.3
 30
0.0
 11
1152.0
 21
1070.6
 31
0.0
  0
MTEXT
  5
4532
330
450D
100
AcDbEntity
  8
0
 62
     2
100
AcDbMText
 10
1292.0
 20
1089.9
 30
0.0
 40
14.0
 41
272.8
 71
     2
 72
     5
  1
材質
  7
ACISOTS
 73
     1
 44
1.0
1001
ACAD
1000
MTEXTBEGIN
1070
    73
1070
     1
1070
    44
1040
1.0
1070
    74
1070
     0
1000
MTEXTEND
  0
LINE
  5
4533
330
450D
100
AcDbEntity
  8
0
 62
     1
100
AcDbLine
 10
1432.0
 20
1095.3
 30
0.0
 11
1432.0
 21
1070.6
 31
0.0
  0
MTEXT
  5
4534
330
450D
100
AcDbEntity
  8
0
 62
     2
100
AcDbMText
 10
1522.0
 20
1089.9
 30
0.0
 40
14.0
 41
172.8
 71
     2
 72
     5
  1
色・表面処理
  7
ACISOTS
 73
     1
 44
1.0
1001
ACAD
1000
MTEXTBEGIN
1070
    73
1070
     1
1070
    44
1040
1.0
1070
    74
1070
     0
1000
MTEXTEND
  0
MTEXT
  5
4535
330
450D
100
AcDbEntity
  8
0
 62
     2
100
AcDbMText
 10
1202.0
 20
1107.65
 30
0.0
 40
14.0
 41
0.0
 71
     5
 72
     5
  1
構成内容
  7
ACISOTS
 73
     1
 44
1.0
1001
ACAD
1000
MTEXTBEGIN
1070
    73
1070
     1
1070
    44
1040
1.0
1070
    74
1070
     0
1000
MTEXTEND
  0
LINE
  5
4536
330
450D
100
AcDbEntity
  8
0
 62
     1
100
AcDbLine
 10
792.0
 20
1095.3
 30
0.0
 11
1612.0
 21
1095.3
 31
0.0
  0
LINE
  5
4537
330
450D
100
AcDbEntity
  8
0
 62
     7
100
AcDbLine
 10
792.0
 20
1120.0
 30
0.0
 11
1612.0
 21
1120.0
 31
0.0
  0
LINE
  5
4538
330
450D
100
AcDbEntity
  8
0
 62
     7
100
AcDbLine
 10
1612.0
 20
1120.0
 30
0.0
 11
1612.0
 21
996.4999999999999
 31
0.0
  0
LINE
  5
4539
330
450D
100
AcDbEntity
  8
0
 62
     7
100
AcDbLine
 10
1612.0
 20
996.4999999999999
 30
0.0
 11
792.0
 21
996.4999999999999
 31
0.0
  0
LINE
  5
453A
330
450D
100
AcDbEntity
  8
0
 62
     7
100
AcDbLine
 10
792.0
 20
996.4999999999999
 30
0.0
 11
792.0
 21
1120.0
 31
0.0
  0
ENDBLK
  5
453C
330
450D
100
AcDbEntity
  8
0
100
AcDbBlockEnd
  0
ENDSEC
  0
SECTION
  2
ENTITIES
  0
INSERT
  5
C54
330
1F
100
AcDbEntity
  8
0
370
     0
100
AcDbBlockReference
  2
TK-A3
 10
0.0
 20
0.0
 30
0.0
 41
4.0
 42
4.0
 43
4.0
1001
GENIUS_GENOREF_13
1005
C61
1001
GENIUS_GENODEF_13
1002
{
1000
HIER
1070
     0
1002
}
1002
{
1000
MANEDIT
1070
     0
1002
}
1002
{
1000
NOSEL
1070
     0
1002
}
1002
{
1000
BEHIND
1070
     0
1002
}
1002
{
1000
OTHER
1070
     0
1002
}
1002
{
1000
REACTOR
1002
}
1001
GENIUS_GENOBJ-N-SDF_13
1002
{
1000
OWNER
1000
GEN
1002
}
1001
GENIUS_GENSCREG_15
1040
4.0
1040
1.0
1011
0.0
1021
0.0
1031
0.0
1011
1612.0
1021
1120.0
1031
0.0
1070
     3
  0
INSERT
  5
C56
330
1F
100
AcDbEntity
  8
0
370
     0
100
AcDbBlockReference
 66
     1
  2
TK-TITLE
 10
1612.0
 20
0.0
 30
0.0
 41
4.0
 42
4.0
 43
4.0
1001
GENIUS_GENOREF_13
1005
C61
  0
ATTRIB
  5
4220
330
C56
100
AcDbEntity
  8
0
100
AcDbText
 10
851.6835815398689
 20
14.35337015044266
 30
0.0
 40
12.0
  1
2008/10/31
 72
     1
 11
891.1312193351445
 21
14.35337015044266
 31
0.0
100
AcDbAttribute
  2
GEN-TITLE-DAT
 70
     0
 74
     1
  0
ATTRIB
  5
4221
330
C56
100
AcDbEntity
  8
0
100
AcDbText
 10
883.3010415423037
 20
113.1999999999999
 30
0.0
 40
12.0
  1
1:4
 72
     2
 11
900.7010415423037
 21
113.1999999999999
 31
0.0
100
AcDbAttribute
  2
GEN-TITLE-SCA
 70
     0
 74
     1
  0
ATTRIB
  5
4222
330
C56
100
AcDbEntity
  8
0
100
AcDbText
 10
909.5490363495619
 20
63.19999999999976
 30
0.0
 40
12.0
  1

 72
     2
 11
909.5490363495619
 21
63.19999999999976
 31
0.0
100
AcDbAttribute
  2
GEN-TITLE-QTY
 70
     0
 74
     1
  0
ATTRIB
  5
4223
330
C56
100
AcDbEntity
  8
0
100
AcDbText
 10
1016.152529665883
 20
133.1999999999996
 30
0.0
 40
12.0
  1

100
AcDbAttribute
  2
GEN-TITLE-MAT2
 70
     0
  0
ATTRIB
  5
4224
330
C56
100
AcDbEntity
  8
0
100
AcDbText
 10
1016.152529665883
 20
173.1999999999996
 30
0.0
 40
12.0
  1

100
AcDbAttribute
  2
GEN-TITLE-MAT1
 70
     0
  0
ATTRIB
  5
4225
330
C56
100
AcDbEntity
  8
0
100
AcDbText
 10
1276.0
 20
7.999999999999829
 30
0.0
 40
12.0
  1

100
AcDbAttribute
  2
GEN-TITLE-NR1
 70
     0
  0
ATTRIB
  5
4226
330
C56
100
AcDbEntity
  8
0
100
AcDbText
 10
1276.0
 20
36.5999999999998
 30
0.0
 40
10.0
  1
OPCE型エクステンションフレーム
100
AcDbAttribute
  2
GEN-TITLE-DES2
 70
     0
  0
ATTRIB
  5
4227
330
C56
100
AcDbEntity
  8
0
100
AcDbText
 10
1275.429923936587
 20
51.31161730257509
 30
0.0
 40
14.0
  1
OPCE4060
100
AcDbAttribute
  2
GEN-TITLE-DES1
 70
     0
  0
ATTRIB
  5
4228
330
C56
100
AcDbEntity
  8
0
100
AcDbText
 10
1579.990763241817
 20
6.820757737580144
 30
0.0
 40
10.0
  1

100
AcDbAttribute
  2
GEN-TITLE-NR2
 70
     0
  0
SEQEND
  5
421F
330
C56
100
AcDbEntity
  8
0
370
     0
  0
POINT
  5
C61
330
1F
100
AcDbEntity
  8
0
 60
     1
100
AcDbPoint
 10
0.0
 20
0.0
 30
0.0
1001
GENIUS_GENOENT_13
1002
{
1000
MYREF
1005
C61
1002
}
1002
{
1000
GRP
1005
0
1002
}
1001
GENIUS_GENOBJ-N-TIT_13
1002
{
1000
OWNER
1000
GEN
1002
}
1001
GENIUS_GENODEF_13
1002
{
1000
HIER
1070
     1
1002
}
1002
{
1000
MANEDIT
1070
     0
1002
}
1002
{
1000
NOSEL
1070
     0
1002
}
1002
{
1000
BEHIND
1070
     0
1002
}
1002
{
1000
OTHER
1070
     0
1002
}
1002
{
1000
REACTOR
1002
}
1001
GENIUS_GENOLIS_13
1002
{
1000
ENT
1005
C56
1005
C54
1005
421E
1002
}
1001
GENIUS_GENTITLE_13
1002
{
1000
BORDER
1000
TK-A3
1002
}
1002
{
1000
TITLE
1000
TK-TITLE
1002
}
1002
{
1000
SCALE
1000
1:4
1002
}
1002
{
1000
TITLESTD
1000
ISO
1002
}
1002
{
1000
HRA
1005
C54
1002
}
1002
{
1000
HTIT
1005
C56
1002
}
1002
{
1000
GENIUSID
1005
C61
1002
}
1002
{
1000
INVTXTID
1005
0
1002
}
1002
{
1000
UNCHG
1002
{
1000
GEN-TITLE-SIZ
1000
GEN-TITLE-SCA
1002
}
1002
}
  0
LINE
  5
16EE
330
1F
100
AcDbEntity
  8
ｴｸｽﾃﾝｼｮﾝﾌﾚｰﾑ
100
AcDbLine
 10
673.1240636886191
 20
861.6326256117108
 30
0.0
 11
342.2240636863557
 21
861.6326256117108
 31
0.0
  0
LINE
  5
16FC
330
1F
100
AcDbEntity
  8
ｴｸｽﾃﾝｼｮﾝﾌﾚｰﾑ
100
AcDbLine
 10
672.6895936886189
 20
858.2481556117109
 30
0.0
 11
342.6585336863555
 21
858.2481556117109
 31
0.0
  0
LINE
  5
1708
330
1F
100
AcDbEntity
  8
ｴｸｽﾃﾝｼｮﾝﾌﾚｰﾑ
100
AcDbLine
 10
342.6236136863556
 20
857.0481556117107
 30
0.0
 11
672.724513688619
 21
857.0481556117108
 31
0.0
  0
LINE
  5
170B
330
1F
100
AcDbEntity
  8
ｴｸｽﾃﾝｼｮﾝﾌﾚｰﾑ
100
AcDbLine
 10
672.345373688619
 20
853.7539456117109
 30
0.0
 11
343.0027536863556
 21
853.7539456117107
 31
0.0
  0
LINE
  5
1A7A
330
1F
100
AcDbEntity
  8
ｴｸｽﾃﾝｼｮﾝﾌﾚｰﾑ
100
AcDbLine
 10
338.1240636863556
 20
861.6326256117108
 30
0.0
 11
336.2240636863557
 21
861.6326256117108
 31
0.0
  0
LINE
  5
1A7B
330
1F
100
AcDbEntity
  8
ｴｸｽﾃﾝｼｮﾝﾌﾚｰﾑ
100
AcDbLine
 10
332.1240636863556
 20
861.6326256117108
 30
0.0
 11
317.6740636863557
 21
861.6326256117108
 31
0.0
  0
LINE
  5
1A85
330
1F
100
AcDbEntity
  8
ｴｸｽﾃﾝｼｮﾝﾌﾚｰﾑ
100
AcDbLine
 10
338.6585086863817
 20
858.6481556117107
 30
0.0
 11
327.0810936863556
 21
858.6481556117107
 31
0.0
  0
LINE
  5
1AA7
330
1F
100
AcDbEntity
  8
ｴｸｽﾃﾝｼｮﾝﾌﾚｰﾑ
100
AcDbLine
 10
342.0243343708624
 20
848.5577455951451
 30
0.0
 11
340.0030839279302
 21
849.8274310919853
 31
0.0
  0
LINE
  5
1AAF
330
1F
100
AcDbEntity
  8
ｴｸｽﾃﾝｼｮﾝﾌﾚｰﾑ
100
AcDbLine
 10
321.8200436863556
 20
841.2389656117108
 30
0.0
 11
328.0677136863557
 21
847.4866256117108
 31
0.0
  0
LINE
  5
1AB1
330
1F
100
AcDbEntity
  8
ｴｸｽﾃﾝｼｮﾝﾌﾚｰﾑ
100
AcDbLine
 10
342.7027536863556
 20
850.9981556117107
 30
0.0
 11
342.7027536863556
 21
853.4539456117107
 31
0.0
  0
LINE
  5
1ACA
330
1F
100
AcDbEntity
  8
ｴｸｽﾃﾝｼｮﾝﾌﾚｰﾑ
100
AcDbLine
 10
338.9554163402392
 20
848.198181342204
 30
0.0
 11
340.9361813350495
 21
846.874455072187
 31
0.0
  0
LINE
  5
1AD5
330
1F
100
AcDbEntity
  8
ｴｸｽﾃﾝｼｮﾝﾌﾚｰﾑ
100
AcDbLine
 10
328.8635436863556
 20
848.6481556117107
 30
0.0
 11
336.1585236863556
 21
848.6481556117107
 31
0.0
  0
LINE
  5
1AD6
330
1F
100
AcDbEntity
  8
ｴｸｽﾃﾝｼｮﾝﾌﾚｰﾑ
100
AcDbLine
 10
329.9062036863555
 20
848.2481556117107
 30
0.0
 11
336.1585236863556
 21
848.2481556117107
 31
0.0
  0
LINE
  5
1AD7
330
1F
100
AcDbEntity
  8
ｴｸｽﾃﾝｼｮﾝﾌﾚｰﾑ
100
AcDbLine
 10
336.1585236863556
 20
847.0830556117109
 30
0.0
 11
329.9062036863555
 21
847.0830556117109
 31
0.0
  0
LINE
  5
1AE5
330
1F
100
AcDbEntity
  8
ｴｸｽﾃﾝｼｮﾝﾌﾚｰﾑ
100
AcDbLine
 10
328.8915736863556
 20
846.6627856117108
 30
0.0
 11
322.6439036863555
 21
840.4151156117107
 31
0.0
  0
LINE
  5
1AED
330
1F
100
AcDbEntity
  8
ｴｸｽﾃﾝｼｮﾝﾌﾚｰﾑ
100
AcDbLine
 10
340.2236136863556
 20
854.6481556117107
 30
0.0
 11
340.2236136863556
 21
851.1481556117107
 31
0.0
  0
LINE
  5
1AF1
330
1F
100
AcDbEntity
  8
ｴｸｽﾃﾝｼｮﾝﾌﾚｰﾑ
100
AcDbLine
 10
332.8669936863556
 20
844.7039456117106
 30
0.0
 11
336.4085236863556
 21
844.7039456117106
 31
0.0
  0
LINE
  5
1AF3
330
1F
100
AcDbEntity
  8
ｴｸｽﾃﾝｼｮﾝﾌﾚｰﾑ
100
AcDbLine
 10
324.835363952335
 20
839.4541256117108
 30
0.0
 11
329.8525636863557
 21
844.4713356117107
 31
0.0
  0
LINE
  5
1B01
330
1F
100
AcDbEntity
  8
ｴｸｽﾃﾝｼｮﾝﾌﾚｰﾑ
100
AcDbLine
 10
339.0585436863556
 20
851.1481556117107
 30
0.0
 11
339.0585436863556
 21
854.6481556117107
 31
0.0
  0
LINE
  5
1B02
330
1F
100
AcDbEntity
  8
ｴｸｽﾃﾝｼｮﾝﾌﾚｰﾑ
100
AcDbLine
 10
338.6585236863556
 20
851.1481556117107
 30
0.0
 11
338.6585236863556
 21
854.6481556117107
 31
0.0
  0
LINE
  5
1B03
330
1F
100
AcDbEntity
  8
ｴｸｽﾃﾝｼｮﾝﾌﾚｰﾑ
100
AcDbLine
 10
334.6670036863555
 20
842.9039356117108
 30
0.0
 11
336.5029436863556
 21
842.9039356117108
 31
0.0
  0
LINE
  5
1B1A
330
1F
100
AcDbEntity
  8
ｴｸｽﾃﾝｼｮﾝﾌﾚｰﾑ
100
AcDbLine
 10
336.5029436863556
 20
842.9039356117108
 30
0.0
 11
337.1357736863556
 21
842.2711156117108
 31
0.0
  0
LINE
  5
1B1D
330
1F
100
AcDbEntity
  8
ｴｸｽﾃﾝｼｮﾝﾌﾚｰﾑ
100
AcDbLine
 10
331.7497059683801
 20
845.8212333296863
 30
0.0
 11
334.6670036863555
 21
842.9039356117108
 31
0.0
  0
LINE
  5
1B2D
330
1F
100
AcDbEntity
  8
ｴｸｽﾃﾝｼｮﾝﾌﾚｰﾑ
100
AcDbLine
 10
334.3073336863556
 20
839.4426956117108
 30
0.0
 11
329.8525636863557
 21
843.8974656117107
 31
0.0
  0
LINE
  5
1B4D
330
1F
100
AcDbEntity
  8
ｴｸｽﾃﾝｼｮﾝﾌﾚｰﾑ
100
AcDbLine
 10
337.1357736863556
 20
842.2711156117108
 30
0.0
 11
334.3073336863556
 21
839.4426956117108
 31
0.0
  0
LINE
  5
1B7C
330
1F
100
AcDbEntity
  8
ｴｸｽﾃﾝｼｮﾝﾌﾚｰﾑ
100
AcDbLine
 10
329.8525636863557
 20
843.8974656117107
 30
0.0
 11
329.8525636863557
 21
847.0820626723321
 31
0.0
  0
ARC
  5
1C0C
330
1F
100
AcDbEntity
  8
ｴｸｽﾃﾝｼｮﾝﾌﾚｰﾑ
100
AcDbCircle
 10
336.4085236863556
 20
850.9981556117107
 30
0.0
 40
6.294209999999999
100
AcDbArc
 50
338.2298552169081
 51
0.0
  0
ARC
  5
1C0D
330
1F
100
AcDbEntity
  8
ｴｸｽﾃﾝｼｮﾝﾌﾚｰﾑ
100
AcDbCircle
 10
336.4085236863556
 20
850.9981556117107
 30
0.0
 40
6.294209999999999
100
AcDbArc
 50
269.999989999999
 51
315.966937440745
  0
ARC
  5
1C22
330
1F
100
AcDbEntity
  8
ｴｸｽﾃﾝｼｮﾝﾌﾚｰﾑ
100
AcDbCircle
 10
336.1585236863556
 20
851.1481556117107
 30
0.0
 40
2.5
100
AcDbArc
 50
269.999989999999
 51
0.0
  0
ARC
  5
1C23
330
1F
100
AcDbEntity
  8
ｴｸｽﾃﾝｼｮﾝﾌﾚｰﾑ
100
AcDbCircle
 10
328.8635436863556
 20
849.6481556117107
 30
0.0
 40
1.0
100
AcDbArc
 50
170.6875499999997
 51
270.0
  0
ARC
  5
1C24
330
1F
100
AcDbEntity
  8
ｴｸｽﾃﾝｼｮﾝﾌﾚｰﾑ
100
AcDbCircle
 10
318.0085436863556
 20
851.4281556117108
 30
0.0
 40
10.0
100
AcDbArc
 50
350.6875599999983
 51
34.4338499999979
  0
ARC
  5
1C25
330
1F
100
AcDbEntity
  8
ｴｸｽﾃﾝｼｮﾝﾌﾚｰﾑ
100
AcDbCircle
 10
327.0810936863556
 20
857.6481556117107
 30
0.0
 40
1.0
100
AcDbArc
 50
89.99998999999897
 51
214.4338600000021
  0
ARC
  5
1C32
330
1F
100
AcDbEntity
  8
ｴｸｽﾃﾝｼｮﾝﾌﾚｰﾑ
100
AcDbCircle
 10
329.9062036863555
 20
845.6481556117108
 30
0.0
 40
1.43491
100
AcDbArc
 50
89.99998999999897
 51
135.0
  0
ARC
  5
1C33
330
1F
100
AcDbEntity
  8
ｴｸｽﾃﾝｼｮﾝﾌﾚｰﾑ
100
AcDbCircle
 10
336.1585236863556
 20
851.1481556117107
 30
0.0
 40
4.06509
100
AcDbArc
 50
269.999989999999
 51
0.0
  0
ARC
  5
1C35
330
1F
100
AcDbEntity
  8
ｴｸｽﾃﾝｼｮﾝﾌﾚｰﾑ
100
AcDbCircle
 10
342.6585336863555
 20
854.6481556117107
 30
0.0
 40
3.6
100
AcDbArc
 50
89.99998999999897
 51
179.999989999999
  0
ARC
  5
1C36
330
1F
100
AcDbEntity
  8
ｴｸｽﾃﾝｼｮﾝﾌﾚｰﾑ
100
AcDbCircle
 10
336.1585236863556
 20
851.1481556117107
 30
0.0
 40
2.9
100
AcDbArc
 50
269.999989999999
 51
0.0
  0
ARC
  5
1C37
330
1F
100
AcDbEntity
  8
ｴｸｽﾃﾝｼｮﾝﾌﾚｰﾑ
100
AcDbCircle
 10
329.9062036863555
 20
845.6481556117108
 30
0.0
 40
2.6
100
AcDbArc
 50
89.99998999999897
 51
135.0
  0
LINE
  5
1E03
330
1F
100
AcDbEntity
  8
ｴｸｽﾃﾝｼｮﾝﾌﾚｰﾑ
100
AcDbLine
 10
701.5747212440924
 20
1053.09774825711
 30
0.0
 11
707.2097943198873
 21
1053.09774825711
 31
0.0
  0
LINE
  5
1E60
330
1F
100
AcDbEntity
  8
ｴｸｽﾃﾝｼｮﾝﾌﾚｰﾑ
100
AcDbLine
 10
707.1740636863555
 20
998.0977482571102
 30
0.0
 11
704.7175196632861
 21
998.0977482571102
 31
0.0
  0
LINE
  5
1E67
330
1F
100
AcDbEntity
  8
ｴｸｽﾃﾝｼｮﾝﾌﾚｰﾑ
100
AcDbLine
 10
707.1740636863555
 20
999.5977482571102
 30
0.0
 11
707.6740636863555
 21
999.8977482571101
 31
0.0
  0
LINE
  5
1E6D
330
1F
100
AcDbEntity
  8
ｴｸｽﾃﾝｼｮﾝﾌﾚｰﾑ
100
AcDbLine
 10
313.9874679817219
 20
1055.49774825711
 30
0.0
 11
701.3606593909894
 21
1055.49774825711
 31
0.0
  0
LINE
  5
1EBE
330
1F
100
AcDbEntity
  8
ｴｸｽﾃﾝｼｮﾝﾌﾚｰﾑ
100
AcDbLine
 10
311.0585336863555
 20
994.0977482571101
 30
0.0
 11
704.2895936863556
 21
994.0977482571101
 31
0.0
  0
LINE
  5
1F54
330
1F
100
AcDbEntity
  8
ｴｸｽﾃﾝｼｮﾝﾌﾚｰﾑ
100
AcDbLine
 10
330.6740636863556
 20
557.3752706117107
 30
0.0
 11
330.6740636863556
 21
565.8899906117108
 31
0.0
  0
LINE
  5
1F6C
330
1F
100
AcDbEntity
  8
ｴｸｽﾃﾝｼｮﾝﾌﾚｰﾑ
100
AcDbLine
 10
328.1940636863556
 20
557.5740906117109
 30
0.0
 11
328.1940636863556
 21
565.6911606117108
 31
0.0
  0
LINE
  5
1F70
330
1F
100
AcDbEntity
  8
ｴｸｽﾃﾝｼｮﾝﾌﾚｰﾑ
100
AcDbLine
 10
327.0289636863555
 20
557.9324306117107
 30
0.0
 11
327.0289636863555
 21
565.3328306117108
 31
0.0
  0
LINE
  5
1F93
330
1F
100
AcDbEntity
  8
ｴｸｽﾃﾝｼｮﾝﾌﾚｰﾑ
100
AcDbLine
 10
325.5771836863554
 20
572.2295106117108
 30
0.0
 11
329.7953836863554
 21
568.0113106117109
 31
0.0
  0
LINE
  5
1F94
330
1F
100
AcDbEntity
  8
ｴｸｽﾃﾝｼｮﾝﾌﾚｰﾑ
100
AcDbLine
 10
315.8527436863557
 20
596.2326306117107
 30
0.0
 11
318.4045036863556
 21
596.2326306117107
 31
0.0
  0
ARC
  5
1F95
330
1F
100
AcDbEntity
  8
ｴｸｽﾃﾝｼｮﾝﾌﾚｰﾑ
100
AcDbCircle
 10
318.4045036863555
 20
589.9386306117107
 30
0.0
 40
6.293999999999999
100
AcDbArc
 50
68.01399601074812
 51
89.99999999999998
  0
LINE
  5
1FB1
330
1F
100
AcDbEntity
  8
ｴｸｽﾃﾝｼｮﾝﾌﾚｰﾑ
100
AcDbLine
 10
322.5427068630006
 20
594.4374190137186
 30
0.0
 11
321.2337759733997
 21
592.442491441671
 31
0.0
  0
LINE
  5
1FCD
330
1F
100
AcDbEntity
  8
ｴｸｽﾃﾝｼｮﾝﾌﾚｰﾑ
100
AcDbLine
 10
320.8711418379919
 20
595.5314279658426
 30
0.0
 11
319.6018933289531
 21
593.5873134074584
 31
0.0
  0
ARC
  5
1FD0
330
1F
100
AcDbEntity
  8
ｴｸｽﾃﾝｼｮﾝﾌﾚｰﾑ
100
AcDbCircle
 10
322.7044836863554
 20
596.5086206117108
 30
0.0
 40
2.077509999999999
100
AcDbArc
 50
265.5338253106227
 51
208.0581375509453
  0
ARC
  5
1FD5
330
1F
100
AcDbEntity
  8
ｴｸｽﾃﾝｼｮﾝﾌﾚｰﾑ
100
AcDbCircle
 10
318.4045036863555
 20
589.9386306117107
 30
0.0
 40
6.293999999999999
100
AcDbArc
 50
0.0
 51
45.5774679019036
  0
LINE
  5
1FE3
330
1F
100
AcDbEntity
  8
ｴｸｽﾃﾝｼｮﾝﾌﾚｰﾑ
100
AcDbLine
 10
318.1544936863556
 20
593.8537206117108
 30
0.0
 11
314.6585336863557
 21
593.8537206117108
 31
0.0
  0
ARC
  5
1FE4
330
1F
100
AcDbEntity
  8
ｴｸｽﾃﾝｼｮﾝﾌﾚｰﾑ
100
AcDbCircle
 10
318.1544936863555
 20
589.7886306117108
 30
0.0
 40
4.06509
100
AcDbArc
 50
0.0
 51
90.00001000000098
  0
LINE
  5
1FE5
330
1F
100
AcDbEntity
  8
ｴｸｽﾃﾝｼｮﾝﾌﾚｰﾑ
100
AcDbLine
 10
322.2195936863554
 20
572.9082706117107
 30
0.0
 11
322.2195936863556
 21
589.7886306117108
 31
0.0
  0
LINE
  5
1FE7
330
1F
100
AcDbEntity
  8
ｴｸｽﾃﾝｼｮﾝﾌﾚｰﾑ
100
AcDbLine
 10
314.6585336863557
 20
592.6886306117108
 30
0.0
 11
318.1544936863556
 21
592.6886306117108
 31
0.0
  0
ARC
  5
1FE8
330
1F
100
AcDbEntity
  8
ｴｸｽﾃﾝｼｮﾝﾌﾚｰﾑ
100
AcDbCircle
 10
318.1544936863555
 20
589.7886306117108
 30
0.0
 40
2.9
100
AcDbArc
 50
0.0
 51
90.00001000000098
  0
LINE
  5
1FE9
330
1F
100
AcDbEntity
  8
ｴｸｽﾃﾝｼｮﾝﾌﾚｰﾑ
100
AcDbLine
 10
321.0544936863556
 20
589.7886306117108
 30
0.0
 11
321.0544936863555
 21
572.3388906117107
 31
0.0
  0
LINE
  5
1FEA
330
1F
100
AcDbEntity
  8
ｴｸｽﾃﾝｼｮﾝﾌﾚｰﾑ
100
AcDbLine
 10
324.6985036863556
 20
589.9386306117107
 30
0.0
 11
324.6985036863555
 21
574.3508306117107
 31
0.0
  0
LINE
  5
1FEC
330
1F
100
AcDbEntity
  8
ｴｸｽﾃﾝｼｮﾝﾌﾚｰﾑ
100
AcDbLine
 10
310.6740636863558
 20
592.788210805583
 30
0.0
 11
310.6740636863556
 21
570.5030406117108
 31
0.0
  0
ARC
  5
1FED
330
1F
100
AcDbEntity
  8
ｴｸｽﾃﾝｼｮﾝﾌﾚｰﾑ
100
AcDbCircle
 10
327.6740636863556
 20
565.8899906117108
 30
0.0
 40
3.0
100
AcDbArc
 50
0.0
 51
44.99999999999999
  0
ARC
  5
1FEE
330
1F
100
AcDbEntity
  8
ｴｸｽﾃﾝｼｮﾝﾌﾚｰﾑ
100
AcDbCircle
 10
327.6985036863555
 20
574.3508306117107
 30
0.0
 40
3.0
100
AcDbArc
 50
180.0
 51
225.0
  0
ARC
  5
1FFE
330
1F
100
AcDbEntity
  8
ｴｸｽﾃﾝｼｮﾝﾌﾚｰﾑ
100
AcDbCircle
 10
311.6740636863556
 20
570.5030406117108
 30
0.0
 40
1.0
100
AcDbArc
 50
180.0
 51
305.5311500000009
  0
ARC
  5
1FFF
330
1F
100
AcDbEntity
  8
ｴｸｽﾃﾝｼｮﾝﾌﾚｰﾑ
100
AcDbCircle
 10
318.0085436863554
 20
561.6326306117107
 30
0.0
 40
9.9
100
AcDbArc
 50
79.18131999999959
 51
125.5311500000009
  0
ARC
  5
2000
330
1F
100
AcDbEntity
  8
ｴｸｽﾃﾝｼｮﾝﾌﾚｰﾑ
100
AcDbCircle
 10
320.0544936863555
 20
572.3388906117107
 30
0.0
 40
1.0
100
AcDbArc
 50
259.1813199999996
 51
0.0
  0
LINE
  5
2001
330
1F
100
AcDbEntity
  8
ｴｸｽﾃﾝｼｮﾝﾌﾚｰﾑ
100
AcDbLine
 10
322.8053836863554
 20
571.4940606117107
 30
0.0
 11
327.9011636863555
 21
566.3982706117108
 31
0.0
  0
ARC
  5
2002
330
1F
100
AcDbEntity
  8
ｴｸｽﾃﾝｼｮﾝﾌﾚｰﾑ
100
AcDbCircle
 10
327.1940636863555
 20
565.6911606117108
 30
0.0
 40
1.0
100
AcDbArc
 50
0.0
 51
44.99999999999999
  0
ARC
  5
2003
330
1F
100
AcDbEntity
  8
ｴｸｽﾃﾝｼｮﾝﾌﾚｰﾑ
100
AcDbCircle
 10
324.2195936863554
 20
572.9082706117107
 30
0.0
 40
2.0
100
AcDbArc
 50
180.0
 51
225.0
  0
LINE
  5
2004
330
1F
100
AcDbEntity
  8
ｴｸｽﾃﾝｼｮﾝﾌﾚｰﾑ
100
AcDbLine
 10
321.6402736863555
 20
571.0114606117108
 30
0.0
 11
326.8239336863554
 21
565.8278006117107
 31
0.0
  0
ARC
  5
2005
330
1F
100
AcDbEntity
  8
ｴｸｽﾃﾝｼｮﾝﾌﾚｰﾑ
100
AcDbCircle
 10
326.3289636863555
 20
565.3328306117108
 30
0.0
 40
0.7
100
AcDbArc
 50
0.0
 51
44.99999999999999
  0
ARC
  5
2006
330
1F
100
AcDbEntity
  8
ｴｸｽﾃﾝｼｮﾝﾌﾚｰﾑ
100
AcDbCircle
 10
323.0544936863555
 20
572.4256706117109
 30
0.0
 40
2.0
100
AcDbArc
 50
180.0
 51
225.0
  0
LINE
  5
27A3
330
1F
100
AcDbEntity
  8
ｴｸｽﾃﾝｼｮﾝﾌﾚｰﾑ
100
AcDbLine
 10
331.7497059683801
 20
845.8212333296863
 30
0.0
 11
331.7492138008526
 21
847.0830556117109
 31
0.0
  0
CIRCLE
  5
27A8
330
1F
100
AcDbEntity
  8
ｴｸｽﾃﾝｼｮﾝﾌﾚｰﾑ
100
AcDbCircle
 10
343.0085336863556
 20
846.7281556117107
 30
0.0
 40
2.077509999999989
  0
ARC
  5
27DA
330
1F
100
AcDbEntity
  8
ｴｸｽﾃﾝｼｮﾝﾌﾚｰﾑ
100
AcDbCircle
 10
343.0027536863556
 20
853.4539456117107
 30
0.0
 40
0.3
100
AcDbArc
 50
89.99999999999998
 51
180.0
1001
GENIUS_GENODEF_13
1002
{
1000
HIER
1070
     0
1002
}
1002
{
1000
MANEDIT
1070
     0
1002
}
1002
{
1000
NOSEL
1070
     0
1002
}
1002
{
1000
BEHIND
1070
     0
1002
}
1002
{
1000
OTHER
1070
     0
1002
}
1002
{
1000
REACTOR
1002
}
1001
GENIUS_GENOBJ-N-FIL_13
1002
{
1000
OWNER
1000
GEN
1002
}
  0
ARC
  5
2806
330
1F
100
AcDbEntity
  8
ｴｸｽﾃﾝｼｮﾝﾌﾚｰﾑ
100
AcDbCircle
 10
342.6236136863556
 20
854.6481556117107
 30
0.0
 40
2.399999999999999
100
AcDbArc
 50
89.99999999999998
 51
180.0
1001
GENIUS_GENODEF_13
1002
{
1000
HIER
1070
     0
1002
}
1002
{
1000
MANEDIT
1070
     0
1002
}
1002
{
1000
NOSEL
1070
     0
1002
}
1002
{
1000
BEHIND
1070
     0
1002
}
1002
{
1000
OTHER
1070
     0
1002
}
1002
{
1000
REACTOR
1002
}
1001
GENIUS_GENOBJ-N-FIL_13
1002
{
1000
OWNER
1000
GEN
1002
}
  0
ARC
  5
2841
330
1F
100
AcDbEntity
  8
ｴｸｽﾃﾝｼｮﾝﾌﾚｰﾑ
100
AcDbCircle
 10
342.6585336863555
 20
854.6481556117107
 30
0.0
 40
4.000020000000096
100
AcDbArc
 50
143.1302742406287
 51
179.999989999999
  0
ARC
  5
2870
330
1F
100
AcDbEntity
  8
ｴｸｽﾃﾝｼｮﾝﾌﾚｰﾑ
100
AcDbCircle
 10
338.6585086863815
 20
857.6481556117107
 30
0.0
 40
1.0
100
AcDbArc
 50
323.1302742406261
 51
89.99999999999673
1001
GENIUS_GENOBJ-N-FIL_13
1002
{
1000
OWNER
1000
GEN
1002
}
1001
GENIUS_GENODEF_13
1002
{
1000
HIER
1070
     0
1002
}
1002
{
1000
MANEDIT
1070
     0
1002
}
1002
{
1000
NOSEL
1070
     0
1002
}
1002
{
1000
BEHIND
1070
     0
1002
}
1002
{
1000
OTHER
1070
     0
1002
}
1002
{
1000
REACTOR
1002
}
  0
ARC
  5
28A3
330
1F
100
AcDbEntity
  8
ｴｸｽﾃﾝｼｮﾝﾌﾚｰﾑ
100
AcDbCircle
 10
317.6740636863557
 20
851.6326256117107
 30
0.0
 40
10.0
100
AcDbArc
 50
89.99999999999998
 51
180.0
1001
GENIUS_GENOBJ-N-FIL_13
1002
{
1000
OWNER
1000
GEN
1002
}
1001
GENIUS_GENODEF_13
1002
{
1000
HIER
1070
     0
1002
}
1002
{
1000
MANEDIT
1070
     0
1002
}
1002
{
1000
NOSEL
1070
     0
1002
}
1002
{
1000
BEHIND
1070
     0
1002
}
1002
{
1000
OTHER
1070
     0
1002
}
1002
{
1000
REACTOR
1002
}
  0
LINE
  5
28AD
330
1F
100
AcDbEntity
  8
ｴｸｽﾃﾝｼｮﾝﾌﾚｰﾑ
100
AcDbLine
 10
697.6740636886188
 20
861.1326256117108
 30
0.0
 11
317.6740636863557
 21
861.1326256117108
 31
0.0
  0
ARC
  5
28B3
330
1F
100
AcDbEntity
  8
ｴｸｽﾃﾝｼｮﾝﾌﾚｰﾑ
100
AcDbCircle
 10
317.6740636863557
 20
851.6326256117107
 30
0.0
 40
9.5
100
AcDbArc
 50
89.99999999999998
 51
180.0
1001
GENIUS_GENOBJ-N-FIL_13
1002
{
1000
OWNER
1000
GEN
1002
}
1001
GENIUS_GENODEF_13
1002
{
1000
HIER
1070
     0
1002
}
1002
{
1000
MANEDIT
1070
     0
1002
}
1002
{
1000
NOSEL
1070
     0
1002
}
1002
{
1000
BEHIND
1070
     0
1002
}
1002
{
1000
OTHER
1070
     0
1002
}
1002
{
1000
REACTOR
1002
}
  0
LINE
  5
28E7
330
1F
100
AcDbEntity
  8
ｴｸｽﾃﾝｼｮﾝﾌﾚｰﾑ
100
AcDbLine
 10
341.9240636863557
 20
861.3326256117106
 30
0.0
 11
338.4240636863557
 21
861.3326256117106
 31
0.0
  0
ARC
  5
2977
330
1F
100
AcDbEntity
  8
ｴｸｽﾃﾝｼｮﾝﾌﾚｰﾑ
100
AcDbCircle
 10
342.2240636863555
 20
861.3326256117108
 30
0.0
 40
0.3
100
AcDbArc
 50
89.9999999999788
 51
180.0000000000227
1001
GENIUS_GENOBJ-N-FIL_13
1002
{
1000
OWNER
1000
GEN
1002
}
1001
GENIUS_GENODEF_13
1002
{
1000
HIER
1070
     0
1002
}
1002
{
1000
MANEDIT
1070
     0
1002
}
1002
{
1000
NOSEL
1070
     0
1002
}
1002
{
1000
BEHIND
1070
     0
1002
}
1002
{
1000
OTHER
1070
     0
1002
}
1002
{
1000
REACTOR
1002
}
  0
ARC
  5
2979
330
1F
100
AcDbEntity
  8
ｴｸｽﾃﾝｼｮﾝﾌﾚｰﾑ
100
AcDbCircle
 10
338.1240636863557
 20
861.3326256117108
 30
0.0
 40
0.3
100
AcDbArc
 50
359.9999999999675
 51
90.00000000001138
1001
GENIUS_GENOBJ-N-FIL_13
1002
{
1000
OWNER
1000
GEN
1002
}
1001
GENIUS_GENODEF_13
1002
{
1000
HIER
1070
     0
1002
}
1002
{
1000
MANEDIT
1070
     0
1002
}
1002
{
1000
NOSEL
1070
     0
1002
}
1002
{
1000
BEHIND
1070
     0
1002
}
1002
{
1000
OTHER
1070
     0
1002
}
1002
{
1000
REACTOR
1002
}
  0
ARC
  5
297B
330
1F
100
AcDbEntity
  8
ｴｸｽﾃﾝｼｮﾝﾌﾚｰﾑ
100
AcDbCircle
 10
336.2240636863556
 20
861.3326256117108
 30
0.0
 40
0.3
100
AcDbArc
 50
89.99999999998859
 51
180.0000000000227
1001
GENIUS_GENOBJ-N-FIL_13
1002
{
1000
OWNER
1000
GEN
1002
}
1001
GENIUS_GENODEF_13
1002
{
1000
HIER
1070
     0
1002
}
1002
{
1000
MANEDIT
1070
     0
1002
}
1002
{
1000
NOSEL
1070
     0
1002
}
1002
{
1000
BEHIND
1070
     0
1002
}
1002
{
1000
OTHER
1070
     0
1002
}
1002
{
1000
REACTOR
1002
}
  0
ARC
  5
297D
330
1F
100
AcDbEntity
  8
ｴｸｽﾃﾝｼｮﾝﾌﾚｰﾑ
100
AcDbCircle
 10
332.1240636863557
 20
861.3326256117108
 30
0.0
 40
0.3
100
AcDbArc
 50
359.9999999999675
 51
90.00000000001138
1001
GENIUS_GENOBJ-N-FIL_13
1002
{
1000
OWNER
1000
GEN
1002
}
1001
GENIUS_GENODEF_13
1002
{
1000
HIER
1070
     0
1002
}
1002
{
1000
MANEDIT
1070
     0
1002
}
1002
{
1000
NOSEL
1070
     0
1002
}
1002
{
1000
BEHIND
1070
     0
1002
}
1002
{
1000
OTHER
1070
     0
1002
}
1002
{
1000
REACTOR
1002
}
  0
LINE
  5
297E
330
1F
100
AcDbEntity
  8
ｴｸｽﾃﾝｼｮﾝﾌﾚｰﾑ
100
AcDbLine
 10
335.9240636863557
 20
861.3326256117106
 30
0.0
 11
332.4240636863557
 21
861.3326256117106
 31
0.0
  0
LINE
  5
2B3C
330
1F
100
AcDbEntity
  8
ｴｸｽﾃﾝｼｮﾝﾌﾚｰﾑ
100
AcDbLine
 10
307.6740636863557
 20
595.1826256117107
 30
0.0
 11
307.6740636863557
 21
827.0826256117107
 31
0.0
  0
LINE
  5
2B3D
330
1F
100
AcDbEntity
  8
ｴｸｽﾃﾝｼｮﾝﾌﾚｰﾑ
100
AcDbLine
 10
308.1740636863556
 20
271.6326256117109
 30
0.0
 11
308.1740636863557
 21
851.6326256117107
 31
0.0
  0
LINE
  5
2B3E
330
1F
100
AcDbEntity
  8
ｴｸｽﾃﾝｼｮﾝﾌﾚｰﾑ
100
AcDbLine
 10
311.0585336863558
 20
596.2886306117107
 30
0.0
 11
311.0585336863558
 21
826.6481556117108
 31
0.0
  0
LINE
  5
2B3F
330
1F
100
AcDbEntity
  8
ｴｸｽﾃﾝｼｮﾝﾌﾚｰﾑ
100
AcDbLine
 10
312.2585336863558
 20
826.6830756117109
 30
0.0
 11
312.2585336863557
 21
596.2537206117108
 31
0.0
  0
LINE
  5
2B40
330
1F
100
AcDbEntity
  8
ｴｸｽﾃﾝｼｮﾝﾌﾚｰﾑ
100
AcDbLine
 10
315.5527436863556
 20
596.5326306117106
 30
0.0
 11
315.5527436863557
 21
826.303935611711
 31
0.0
  0
LINE
  5
2B41
330
1F
100
AcDbEntity
  8
ｴｸｽﾃﾝｼｮﾝﾌﾚｰﾑ
100
AcDbLine
 10
307.6740636863557
 20
831.1826256117107
 30
0.0
 11
307.6740636863557
 21
833.0826256117108
 31
0.0
  0
LINE
  5
2B42
330
1F
100
AcDbEntity
  8
ｴｸｽﾃﾝｼｮﾝﾌﾚｰﾑ
100
AcDbLine
 10
307.6740636863557
 20
837.1826256117108
 30
0.0
 11
307.6740636863557
 21
851.6326256117107
 31
0.0
  0
LINE
  5
2B43
330
1F
100
AcDbEntity
  8
ｴｸｽﾃﾝｼｮﾝﾌﾚｰﾑ
100
AcDbLine
 10
310.6585336863556
 20
830.6481806116847
 30
0.0
 11
310.6585336863556
 21
842.2255956117108
 31
0.0
  0
LINE
  5
2B44
330
1F
100
AcDbEntity
  8
ｴｸｽﾃﾝｼｮﾝﾌﾚｰﾑ
100
AcDbLine
 10
320.7489437029214
 20
827.282354927204
 30
0.0
 11
319.4792582060811
 21
829.3036053701364
 31
0.0
  0
LINE
  5
2B45
330
1F
100
AcDbEntity
  8
ｴｸｽﾃﾝｼｮﾝﾌﾚｰﾑ
100
AcDbLine
 10
318.3085336863558
 20
826.6039356117108
 30
0.0
 11
315.8527436863558
 21
826.6039356117108
 31
0.0
  0
ARC
  5
2B46
330
1F
100
AcDbEntity
  8
ｴｸｽﾃﾝｼｮﾝﾌﾚｰﾑ
100
AcDbCircle
 10
315.8527436863558
 20
826.303935611711
 30
0.0
 40
0.3
100
AcDbArc
 50
89.99999999999998
 51
180.0
1001
GENIUS_GENODEF_13
1002
{
1000
HIER
1070
     0
1002
}
1002
{
1000
MANEDIT
1070
     0
1002
}
1002
{
1000
NOSEL
1070
     0
1002
}
1002
{
1000
BEHIND
1070
     0
1002
}
1002
{
1000
OTHER
1070
     0
1002
}
1002
{
1000
REACTOR
1002
}
1001
GENIUS_GENOBJ-N-FIL_13
1002
{
1000
OWNER
1000
GEN
1002
}
  0
LINE
  5
2B47
330
1F
100
AcDbEntity
  8
ｴｸｽﾃﾝｼｮﾝﾌﾚｰﾑ
100
AcDbLine
 10
321.1085079558624
 20
830.3512729578271
 30
0.0
 11
322.4322342258794
 21
828.370507963017
 31
0.0
  0
LINE
  5
2B48
330
1F
100
AcDbEntity
  8
ｴｸｽﾃﾝｼｮﾝﾌﾚｰﾑ
100
AcDbLine
 10
320.6585336863557
 20
840.4431456117109
 30
0.0
 11
320.6585336863557
 21
833.1481656117109
 31
0.0
  0
LINE
  5
2B49
330
1F
100
AcDbEntity
  8
ｴｸｽﾃﾝｼｮﾝﾌﾚｰﾑ
100
AcDbLine
 10
321.0585336863557
 20
839.4004856117108
 30
0.0
 11
321.0585336863557
 21
833.1481656117109
 31
0.0
  0
LINE
  5
2B4A
330
1F
100
AcDbEntity
  8
ｴｸｽﾃﾝｼｮﾝﾌﾚｰﾑ
100
AcDbLine
 10
322.2236336863557
 20
833.1481656117109
 30
0.0
 11
322.2236336863557
 21
839.4004856117108
 31
0.0
  0
LINE
  5
2B4B
330
1F
100
AcDbEntity
  8
ｴｸｽﾃﾝｼｮﾝﾌﾚｰﾑ
100
AcDbLine
 10
314.6585336863557
 20
829.0830756117108
 30
0.0
 11
318.1585336863557
 21
829.0830756117108
 31
0.0
  0
ARC
  5
2B4C
330
1F
100
AcDbEntity
  8
ｴｸｽﾃﾝｼｮﾝﾌﾚｰﾑ
100
AcDbCircle
 10
314.6585336863557
 20
826.6830756117109
 30
0.0
 40
2.399999999999999
100
AcDbArc
 50
89.99999999999998
 51
180.0
1001
GENIUS_GENODEF_13
1002
{
1000
HIER
1070
     0
1002
}
1002
{
1000
MANEDIT
1070
     0
1002
}
1002
{
1000
NOSEL
1070
     0
1002
}
1002
{
1000
BEHIND
1070
     0
1002
}
1002
{
1000
OTHER
1070
     0
1002
}
1002
{
1000
REACTOR
1002
}
1001
GENIUS_GENOBJ-N-FIL_13
1002
{
1000
OWNER
1000
GEN
1002
}
  0
LINE
  5
2B4D
330
1F
100
AcDbEntity
  8
ｴｸｽﾃﾝｼｮﾝﾌﾚｰﾑ
100
AcDbLine
 10
324.6027436863557
 20
836.4396956117108
 30
0.0
 11
324.6027436863557
 21
832.8981656117107
 31
0.0
  0
LINE
  5
2B4E
330
1F
100
AcDbEntity
  8
ｴｸｽﾃﾝｼｮﾝﾌﾚｰﾑ
100
AcDbLine
 10
318.1585336863557
 20
830.2481456117108
 30
0.0
 11
314.6585336863557
 21
830.2481456117108
 31
0.0
  0
LINE
  5
2B4F
330
1F
100
AcDbEntity
  8
ｴｸｽﾃﾝｼｮﾝﾌﾚｰﾑ
100
AcDbLine
 10
318.1585336863557
 20
830.6481656117108
 30
0.0
 11
314.6585336863557
 21
830.6481656117108
 31
0.0
  0
LINE
  5
2B50
330
1F
100
AcDbEntity
  8
ｴｸｽﾃﾝｼｮﾝﾌﾚｰﾑ
100
AcDbLine
 10
326.4027536863557
 20
834.6396856117108
 30
0.0
 11
326.4027536863557
 21
832.803745611711
 31
0.0
  0
LINE
  5
2B51
330
1F
100
AcDbEntity
  8
ｴｸｽﾃﾝｼｮﾝﾌﾚｰﾑ
100
AcDbLine
 10
326.4027536863557
 20
832.803745611711
 30
0.0
 11
327.0355736863558
 21
832.1709156117108
 31
0.0
  0
LINE
  5
2B52
330
1F
100
AcDbEntity
  8
ｴｸｽﾃﾝｼｮﾝﾌﾚｰﾑ
100
AcDbLine
 10
323.4854559683802
 20
837.5569833296864
 30
0.0
 11
326.4027536863557
 21
834.6396856117108
 31
0.0
  0
LINE
  5
2B53
330
1F
100
AcDbEntity
  8
ｴｸｽﾃﾝｼｮﾝﾌﾚｰﾑ
100
AcDbLine
 10
329.8639936863557
 20
834.9993556117109
 30
0.0
 11
325.4092236863558
 21
839.4541256117108
 31
0.0
  0
LINE
  5
2B54
330
1F
100
AcDbEntity
  8
ｴｸｽﾃﾝｼｮﾝﾌﾚｰﾑ
100
AcDbLine
 10
327.0355736863558
 20
832.1709156117108
 30
0.0
 11
329.8639936863557
 21
834.9993556117109
 31
0.0
  0
LINE
  5
2B55
330
1F
100
AcDbEntity
  8
ｴｸｽﾃﾝｼｮﾝﾌﾚｰﾑ
100
AcDbLine
 10
323.4854559683802
 20
837.5569833296864
 30
0.0
 11
322.2236336863557
 21
837.5574754972138
 31
0.0
  0
LINE
  5
2B56
330
1F
100
AcDbEntity
  8
ｴｸｽﾃﾝｼｮﾝﾌﾚｰﾑ
100
AcDbLine
 10
325.4092236863558
 20
839.4541256117108
 30
0.0
 11
322.2246266257343
 21
839.4541256117108
 31
0.0
  0
ARC
  5
2B57
330
1F
100
AcDbEntity
  8
ｴｸｽﾃﾝｼｮﾝﾌﾚｰﾑ
100
AcDbCircle
 10
318.3085336863558
 20
832.8981656117107
 30
0.0
 40
6.294209999999999
100
AcDbArc
 50
270.0
 51
291.7701447830904
  0
ARC
  5
2B58
330
1F
100
AcDbEntity
  8
ｴｸｽﾃﾝｼｮﾝﾌﾚｰﾑ
100
AcDbCircle
 10
318.3085336863558
 20
832.8981656117107
 30
0.0
 40
6.294209999999999
100
AcDbArc
 50
314.0330625592539
 51
0.0000100000009937
  0
ARC
  5
2B59
330
1F
100
AcDbEntity
  8
ｴｸｽﾃﾝｼｮﾝﾌﾚｰﾑ
100
AcDbCircle
 10
318.1585336863557
 20
833.1481656117109
 30
0.0
 40
2.5
100
AcDbArc
 50
270.0
 51
0.0000100000009937
  0
ARC
  5
2B5A
330
1F
100
AcDbEntity
  8
ｴｸｽﾃﾝｼｮﾝﾌﾚｰﾑ
100
AcDbCircle
 10
319.6585336863557
 20
840.4431456117109
 30
0.0
 40
1.0
100
AcDbArc
 50
0.0
 51
99.3124500000003
  0
ARC
  5
2B5B
330
1F
100
AcDbEntity
  8
ｴｸｽﾃﾝｼｮﾝﾌﾚｰﾑ
100
AcDbCircle
 10
317.8785336863557
 20
851.298145611711
 30
0.0
 40
10.0
100
AcDbArc
 50
235.5661500000021
 51
279.31244
  0
ARC
  5
2B5C
330
1F
100
AcDbEntity
  8
ｴｸｽﾃﾝｼｮﾝﾌﾚｰﾑ
100
AcDbCircle
 10
311.6585336863557
 20
842.2255956117108
 30
0.0
 40
1.0
100
AcDbArc
 50
55.56613999999926
 51
180.0000100000009
  0
ARC
  5
2B5D
330
1F
100
AcDbEntity
  8
ｴｸｽﾃﾝｼｮﾝﾌﾚｰﾑ
100
AcDbCircle
 10
323.6585336863557
 20
839.4004856117108
 30
0.0
 40
1.43491
100
AcDbArc
 50
135.0
 51
180.0000100000009
  0
ARC
  5
2B5E
330
1F
100
AcDbEntity
  8
ｴｸｽﾃﾝｼｮﾝﾌﾚｰﾑ
100
AcDbCircle
 10
318.1585336863557
 20
833.1481656117109
 30
0.0
 40
4.06509
100
AcDbArc
 50
270.0
 51
0.0000100000009937
  0
ARC
  5
2B5F
330
1F
100
AcDbEntity
  8
ｴｸｽﾃﾝｼｮﾝﾌﾚｰﾑ
100
AcDbCircle
 10
314.6585336863557
 20
826.6481556117108
 30
0.0
 40
3.6
100
AcDbArc
 50
90.00000999999937
 51
180.0000100000009
  0
ARC
  5
2B60
330
1F
100
AcDbEntity
  8
ｴｸｽﾃﾝｼｮﾝﾌﾚｰﾑ
100
AcDbCircle
 10
314.6585336863557
 20
826.6481556117108
 30
0.0
 40
4.000020000000096
100
AcDbArc
 50
90.00000999999937
 51
126.8697257593716
  0
ARC
  5
2B61
330
1F
100
AcDbEntity
  8
ｴｸｽﾃﾝｼｮﾝﾌﾚｰﾑ
100
AcDbCircle
 10
311.6585336863557
 20
830.6481806116849
 30
0.0
 40
1.0
100
AcDbArc
 50
180.0000000000032
 51
306.8697257593748
1001
GENIUS_GENOBJ-N-FIL_13
1002
{
1000
OWNER
1000
GEN
1002
}
1001
GENIUS_GENODEF_13
1002
{
1000
HIER
1070
     0
1002
}
1002
{
1000
MANEDIT
1070
     0
1002
}
1002
{
1000
NOSEL
1070
     0
1002
}
1002
{
1000
BEHIND
1070
     0
1002
}
1002
{
1000
OTHER
1070
     0
1002
}
1002
{
1000
REACTOR
1002
}
  0
ARC
  5
2B62
330
1F
100
AcDbEntity
  8
ｴｸｽﾃﾝｼｮﾝﾌﾚｰﾑ
100
AcDbCircle
 10
318.1585336863557
 20
833.1481656117109
 30
0.0
 40
2.9
100
AcDbArc
 50
270.0
 51
0.0000100000009937
  0
ARC
  5
2B63
330
1F
100
AcDbEntity
  8
ｴｸｽﾃﾝｼｮﾝﾌﾚｰﾑ
100
AcDbCircle
 10
323.6585336863557
 20
839.4004856117108
 30
0.0
 40
2.6
100
AcDbArc
 50
135.0
 51
180.0000100000009
  0
CIRCLE
  5
2B6C
330
1F
100
AcDbEntity
  8
ｴｸｽﾃﾝｼｮﾝﾌﾚｰﾑ
100
AcDbCircle
 10
322.5785336863558
 20
826.2981556117109
 30
0.0
 40
2.077509999999989
  0
LINE
  5
2B6D
330
1F
100
AcDbEntity
  8
ｴｸｽﾃﾝｼｮﾝﾌﾚｰﾑ
100
AcDbLine
 10
307.9740636863558
 20
827.3826256117107
 30
0.0
 11
307.9740636863558
 21
830.8826256117107
 31
0.0
  0
LINE
  5
2B6E
330
1F
100
AcDbEntity
  8
ｴｸｽﾃﾝｼｮﾝﾌﾚｰﾑ
100
AcDbLine
 10
307.9740636863558
 20
833.3826256117108
 30
0.0
 11
307.9740636863558
 21
836.8826256117108
 31
0.0
  0
ARC
  5
2B6F
330
1F
100
AcDbEntity
  8
ｴｸｽﾃﾝｼｮﾝﾌﾚｰﾑ
100
AcDbCircle
 10
307.9740636863555
 20
827.0826256117109
 30
0.0
 40
0.3
100
AcDbArc
 50
89.9999999999788
 51
180.0000000000227
1001
GENIUS_GENOBJ-N-FIL_13
1002
{
1000
OWNER
1000
GEN
1002
}
1001
GENIUS_GENODEF_13
1002
{
1000
HIER
1070
     0
1002
}
1002
{
1000
MANEDIT
1070
     0
1002
}
1002
{
1000
NOSEL
1070
     0
1002
}
1002
{
1000
BEHIND
1070
     0
1002
}
1002
{
1000
OTHER
1070
     0
1002
}
1002
{
1000
REACTOR
1002
}
  0
ARC
  5
2B70
330
1F
100
AcDbEntity
  8
ｴｸｽﾃﾝｼｮﾝﾌﾚｰﾑ
100
AcDbCircle
 10
307.9740636863555
 20
831.1826256117107
 30
0.0
 40
0.3
100
AcDbArc
 50
179.9999999999902
 51
270.0000000000326
1001
GENIUS_GENOBJ-N-FIL_13
1002
{
1000
OWNER
1000
GEN
1002
}
1001
GENIUS_GENODEF_13
1002
{
1000
HIER
1070
     0
1002
}
1002
{
1000
MANEDIT
1070
     0
1002
}
1002
{
1000
NOSEL
1070
     0
1002
}
1002
{
1000
BEHIND
1070
     0
1002
}
1002
{
1000
OTHER
1070
     0
1002
}
1002
{
1000
REACTOR
1002
}
  0
ARC
  5
2B71
330
1F
100
AcDbEntity
  8
ｴｸｽﾃﾝｼｮﾝﾌﾚｰﾑ
100
AcDbCircle
 10
307.9740636863555
 20
833.0826256117108
 30
0.0
 40
0.3
100
AcDbArc
 50
89.9999999999788
 51
180.0000000000097
1001
GENIUS_GENOBJ-N-FIL_13
1002
{
1000
OWNER
1000
GEN
1002
}
1001
GENIUS_GENODEF_13
1002
{
1000
HIER
1070
     0
1002
}
1002
{
1000
MANEDIT
1070
     0
1002
}
1002
{
1000
NOSEL
1070
     0
1002
}
1002
{
1000
BEHIND
1070
     0
1002
}
1002
{
1000
OTHER
1070
     0
1002
}
1002
{
1000
REACTOR
1002
}
  0
ARC
  5
2B72
330
1F
100
AcDbEntity
  8
ｴｸｽﾃﾝｼｮﾝﾌﾚｰﾑ
100
AcDbCircle
 10
307.9740636863555
 20
837.1826256117106
 30
0.0
 40
0.3
100
AcDbArc
 50
179.9999999999902
 51
270.0000000000326
1001
GENIUS_GENOBJ-N-FIL_13
1002
{
1000
OWNER
1000
GEN
1002
}
1001
GENIUS_GENODEF_13
1002
{
1000
HIER
1070
     0
1002
}
1002
{
1000
MANEDIT
1070
     0
1002
}
1002
{
1000
NOSEL
1070
     0
1002
}
1002
{
1000
BEHIND
1070
     0
1002
}
1002
{
1000
OTHER
1070
     0
1002
}
1002
{
1000
REACTOR
1002
}
  0
ARC
  5
2BD1
330
1F
100
AcDbEntity
  8
ｴｸｽﾃﾝｼｮﾝﾌﾚｰﾑ
100
AcDbCircle
 10
314.6585336863556
 20
596.2886306117107
 30
0.0
 40
3.6
100
AcDbArc
 50
180.0
 51
270.0
1001
GENIUS_GENOBJ-N-FIL_13
1002
{
1000
OWNER
1000
GEN
1002
}
1001
GENIUS_GENODEF_13
1002
{
1000
HIER
1070
     0
1002
}
1002
{
1000
MANEDIT
1070
     0
1002
}
1002
{
1000
NOSEL
1070
     0
1002
}
1002
{
1000
BEHIND
1070
     0
1002
}
1002
{
1000
OTHER
1070
     0
1002
}
1002
{
1000
REACTOR
1002
}
  0
ARC
  5
2BD3
330
1F
100
AcDbEntity
  8
ｴｸｽﾃﾝｼｮﾝﾌﾚｰﾑ
100
AcDbCircle
 10
314.6585336863556
 20
596.2537206117108
 30
0.0
 40
2.399999999999999
100
AcDbArc
 50
180.0
 51
270.0
1001
GENIUS_GENODEF_13
1002
{
1000
HIER
1070
     0
1002
}
1002
{
1000
MANEDIT
1070
     0
1002
}
1002
{
1000
NOSEL
1070
     0
1002
}
1002
{
1000
BEHIND
1070
     0
1002
}
1002
{
1000
OTHER
1070
     0
1002
}
1002
{
1000
REACTOR
1002
}
1001
GENIUS_GENOBJ-N-FIL_13
1002
{
1000
OWNER
1000
GEN
1002
}
  0
ARC
  5
2BD6
330
1F
100
AcDbEntity
  8
ｴｸｽﾃﾝｼｮﾝﾌﾚｰﾑ
100
AcDbCircle
 10
315.8527436863555
 20
596.5326306117106
 30
0.0
 40
0.3
100
AcDbArc
 50
180.0
 51
270.0
1001
GENIUS_GENODEF_13
1002
{
1000
HIER
1070
     0
1002
}
1002
{
1000
MANEDIT
1070
     0
1002
}
1002
{
1000
NOSEL
1070
     0
1002
}
1002
{
1000
BEHIND
1070
     0
1002
}
1002
{
1000
OTHER
1070
     0
1002
}
1002
{
1000
REACTOR
1002
}
1001
GENIUS_GENOBJ-N-FIL_13
1002
{
1000
OWNER
1000
GEN
1002
}
  0
ARC
  5
2BD9
330
1F
100
AcDbEntity
  8
ｴｸｽﾃﾝｼｮﾝﾌﾚｰﾑ
100
AcDbCircle
 10
311.6740636863557
 20
592.7882108055829
 30
0.0
 40
1.0
100
AcDbArc
 50
49.54897568188311
 51
179.9999999999935
1001
GENIUS_GENODEF_13
1002
{
1000
HIER
1070
     0
1002
}
1002
{
1000
MANEDIT
1070
     0
1002
}
1002
{
1000
NOSEL
1070
     0
1002
}
1002
{
1000
BEHIND
1070
     0
1002
}
1002
{
1000
OTHER
1070
     0
1002
}
1002
{
1000
REACTOR
1002
}
1001
GENIUS_GENOBJ-N-FIL_13
1002
{
1000
OWNER
1000
GEN
1002
}
  0
LINE
  5
2C03
330
1F
100
AcDbEntity
  8
ｴｸｽﾃﾝｼｮﾝﾌﾚｰﾑ
100
AcDbLine
 10
307.6740636863556
 20
538.1826256117107
 30
0.0
 11
307.6740636863557
 21
585.0826256117106
 31
0.0
  0
LINE
  5
2C04
330
1F
100
AcDbEntity
  8
ｴｸｽﾃﾝｼｮﾝﾌﾚｰﾑ
100
AcDbLine
 10
307.6740636863557
 20
589.1826256117107
 30
0.0
 11
307.6740636863557
 21
591.0826256117107
 31
0.0
  0
LINE
  5
2C06
330
1F
100
AcDbEntity
  8
ｴｸｽﾃﾝｼｮﾝﾌﾚｰﾑ
100
AcDbLine
 10
307.9740636863558
 20
585.3826256117107
 30
0.0
 11
307.9740636863558
 21
588.8826256117107
 31
0.0
  0
LINE
  5
2C07
330
1F
100
AcDbEntity
  8
ｴｸｽﾃﾝｼｮﾝﾌﾚｰﾑ
100
AcDbLine
 10
307.9740636863558
 20
591.3826256117107
 30
0.0
 11
307.9740636863558
 21
594.8826256117107
 31
0.0
  0
ARC
  5
2C08
330
1F
100
AcDbEntity
  8
ｴｸｽﾃﾝｼｮﾝﾌﾚｰﾑ
100
AcDbCircle
 10
307.9740636863554
 20
585.0826256117108
 30
0.0
 40
0.3
100
AcDbArc
 50
89.9999999999788
 51
180.0000000000227
1001
GENIUS_GENOBJ-N-FIL_13
1002
{
1000
OWNER
1000
GEN
1002
}
1001
GENIUS_GENODEF_13
1002
{
1000
HIER
1070
     0
1002
}
1002
{
1000
MANEDIT
1070
     0
1002
}
1002
{
1000
NOSEL
1070
     0
1002
}
1002
{
1000
BEHIND
1070
     0
1002
}
1002
{
1000
OTHER
1070
     0
1002
}
1002
{
1000
REACTOR
1002
}
  0
ARC
  5
2C09
330
1F
100
AcDbEntity
  8
ｴｸｽﾃﾝｼｮﾝﾌﾚｰﾑ
100
AcDbCircle
 10
307.9740636863554
 20
589.1826256117107
 30
0.0
 40
0.3
100
AcDbArc
 50
179.9999999999902
 51
270.0000000000326
1001
GENIUS_GENOBJ-N-FIL_13
1002
{
1000
OWNER
1000
GEN
1002
}
1001
GENIUS_GENODEF_13
1002
{
1000
HIER
1070
     0
1002
}
1002
{
1000
MANEDIT
1070
     0
1002
}
1002
{
1000
NOSEL
1070
     0
1002
}
1002
{
1000
BEHIND
1070
     0
1002
}
1002
{
1000
OTHER
1070
     0
1002
}
1002
{
1000
REACTOR
1002
}
  0
ARC
  5
2C0A
330
1F
100
AcDbEntity
  8
ｴｸｽﾃﾝｼｮﾝﾌﾚｰﾑ
100
AcDbCircle
 10
307.9740636863554
 20
591.0826256117108
 30
0.0
 40
0.3
100
AcDbArc
 50
89.9999999999788
 51
180.0000000000097
1001
GENIUS_GENOBJ-N-FIL_13
1002
{
1000
OWNER
1000
GEN
1002
}
1001
GENIUS_GENODEF_13
1002
{
1000
HIER
1070
     0
1002
}
1002
{
1000
MANEDIT
1070
     0
1002
}
1002
{
1000
NOSEL
1070
     0
1002
}
1002
{
1000
BEHIND
1070
     0
1002
}
1002
{
1000
OTHER
1070
     0
1002
}
1002
{
1000
REACTOR
1002
}
  0
ARC
  5
2C0B
330
1F
100
AcDbEntity
  8
ｴｸｽﾃﾝｼｮﾝﾌﾚｰﾑ
100
AcDbCircle
 10
307.9740636863554
 20
595.1826256117107
 30
0.0
 40
0.3
100
AcDbArc
 50
179.9999999999902
 51
270.0000000000326
1001
GENIUS_GENOBJ-N-FIL_13
1002
{
1000
OWNER
1000
GEN
1002
}
1001
GENIUS_GENODEF_13
1002
{
1000
HIER
1070
     0
1002
}
1002
{
1000
MANEDIT
1070
     0
1002
}
1002
{
1000
NOSEL
1070
     0
1002
}
1002
{
1000
BEHIND
1070
     0
1002
}
1002
{
1000
OTHER
1070
     0
1002
}
1002
{
1000
REACTOR
1002
}
  0
LINE
  5
2C6D
330
1F
100
AcDbEntity
  8
ｴｸｽﾃﾝｼｮﾝﾌﾚｰﾑ
100
AcDbLine
 10
673.1240636886191
 20
261.6326256117107
 30
0.0
 11
342.2240636863556
 21
261.6326256117109
 31
0.0
  0
LINE
  5
2C6E
330
1F
100
AcDbEntity
  8
ｴｸｽﾃﾝｼｮﾝﾌﾚｰﾑ
100
AcDbLine
 10
697.6740636886188
 20
262.1326256117106
 30
0.0
 11
317.6740636863556
 21
262.1326256117109
 31
0.0
  0
LINE
  5
2C6F
330
1F
100
AcDbEntity
  8
ｴｸｽﾃﾝｼｮﾝﾌﾚｰﾑ
100
AcDbLine
 10
672.6895936886189
 20
265.0170956117106
 30
0.0
 11
342.6585336863555
 21
265.0170956117108
 31
0.0
  0
LINE
  5
2C70
330
1F
100
AcDbEntity
  8
ｴｸｽﾃﾝｼｮﾝﾌﾚｰﾑ
100
AcDbLine
 10
342.6236136863555
 20
266.2170956117111
 30
0.0
 11
672.724513688619
 21
266.2170956117104
 31
0.0
  0
LINE
  5
2C71
330
1F
100
AcDbEntity
  8
ｴｸｽﾃﾝｼｮﾝﾌﾚｰﾑ
100
AcDbLine
 10
672.345373688619
 20
269.5113056117107
 30
0.0
 11
343.0027536863555
 21
269.5113056117109
 31
0.0
  0
LINE
  5
2C72
330
1F
100
AcDbEntity
  8
ｴｸｽﾃﾝｼｮﾝﾌﾚｰﾑ
100
AcDbLine
 10
338.1240636863555
 20
261.6326256117109
 30
0.0
 11
336.2240636863556
 21
261.6326256117109
 31
0.0
  0
LINE
  5
2C73
330
1F
100
AcDbEntity
  8
ｴｸｽﾃﾝｼｮﾝﾌﾚｰﾑ
100
AcDbLine
 10
332.1240636863555
 20
261.6326256117109
 30
0.0
 11
317.6740636863556
 21
261.6326256117109
 31
0.0
  0
LINE
  5
2C74
330
1F
100
AcDbEntity
  8
ｴｸｽﾃﾝｼｮﾝﾌﾚｰﾑ
100
AcDbLine
 10
338.6585086863815
 20
264.617095611711
 30
0.0
 11
327.0810936863555
 21
264.617095611711
 31
0.0
  0
LINE
  5
2C75
330
1F
100
AcDbEntity
  8
ｴｸｽﾃﾝｼｮﾝﾌﾚｰﾑ
100
AcDbLine
 10
342.0243343708623
 20
274.7075056282767
 30
0.0
 11
340.0030839279301
 21
273.4378201314362
 31
0.0
  0
LINE
  5
2C76
330
1F
100
AcDbEntity
  8
ｴｸｽﾃﾝｼｮﾝﾌﾚｰﾑ
100
AcDbLine
 10
321.8200436863555
 20
282.0262856117111
 30
0.0
 11
328.0677136863555
 21
275.778625611711
 31
0.0
  0
LINE
  5
2C77
330
1F
100
AcDbEntity
  8
ｴｸｽﾃﾝｼｮﾝﾌﾚｰﾑ
100
AcDbLine
 10
342.7027536863554
 20
272.2670956117108
 30
0.0
 11
342.7027536863554
 21
269.8113056117108
 31
0.0
  0
ARC
  5
2C78
330
1F
100
AcDbEntity
  8
ｴｸｽﾃﾝｼｮﾝﾌﾚｰﾑ
100
AcDbCircle
 10
343.0027536863555
 20
269.8113056117108
 30
0.0
 40
0.3
100
AcDbArc
 50
180.0
 51
270.0
1001
GENIUS_GENODEF_13
1002
{
1000
HIER
1070
     0
1002
}
1002
{
1000
MANEDIT
1070
     0
1002
}
1002
{
1000
NOSEL
1070
     0
1002
}
1002
{
1000
BEHIND
1070
     0
1002
}
1002
{
1000
OTHER
1070
     0
1002
}
1002
{
1000
REACTOR
1002
}
1001
GENIUS_GENOBJ-N-FIL_13
1002
{
1000
OWNER
1000
GEN
1002
}
  0
LINE
  5
2C79
330
1F
100
AcDbEntity
  8
ｴｸｽﾃﾝｼｮﾝﾌﾚｰﾑ
100
AcDbLine
 10
338.9554163402392
 20
275.0670698812176
 30
0.0
 11
340.9361813350494
 21
276.3907961512345
 31
0.0
  0
LINE
  5
2C7A
330
1F
100
AcDbEntity
  8
ｴｸｽﾃﾝｼｮﾝﾌﾚｰﾑ
100
AcDbLine
 10
328.8635436863554
 20
274.617095611711
 30
0.0
 11
336.1585236863555
 21
274.617095611711
 31
0.0
  0
LINE
  5
2C7B
330
1F
100
AcDbEntity
  8
ｴｸｽﾃﾝｼｮﾝﾌﾚｰﾑ
100
AcDbLine
 10
329.9062036863554
 20
275.0170956117108
 30
0.0
 11
336.1585236863555
 21
275.0170956117108
 31
0.0
  0
LINE
  5
2C7C
330
1F
100
AcDbEntity
  8
ｴｸｽﾃﾝｼｮﾝﾌﾚｰﾑ
100
AcDbLine
 10
336.1585236863555
 20
276.182195611711
 30
0.0
 11
329.9062036863554
 21
276.182195611711
 31
0.0
  0
LINE
  5
2C7D
330
1F
100
AcDbEntity
  8
ｴｸｽﾃﾝｼｮﾝﾌﾚｰﾑ
100
AcDbLine
 10
328.8915736863555
 20
276.6024656117111
 30
0.0
 11
322.6439036863554
 21
282.8501356117108
 31
0.0
  0
LINE
  5
2C7E
330
1F
100
AcDbEntity
  8
ｴｸｽﾃﾝｼｮﾝﾌﾚｰﾑ
100
AcDbLine
 10
340.2236136863555
 20
268.617095611711
 30
0.0
 11
340.2236136863555
 21
272.117095611711
 31
0.0
  0
ARC
  5
2C7F
330
1F
100
AcDbEntity
  8
ｴｸｽﾃﾝｼｮﾝﾌﾚｰﾑ
100
AcDbCircle
 10
342.6236136863555
 20
268.6170956117107
 30
0.0
 40
2.399999999999999
100
AcDbArc
 50
180.0
 51
270.0
1001
GENIUS_GENODEF_13
1002
{
1000
HIER
1070
     0
1002
}
1002
{
1000
MANEDIT
1070
     0
1002
}
1002
{
1000
NOSEL
1070
     0
1002
}
1002
{
1000
BEHIND
1070
     0
1002
}
1002
{
1000
OTHER
1070
     0
1002
}
1002
{
1000
REACTOR
1002
}
1001
GENIUS_GENOBJ-N-FIL_13
1002
{
1000
OWNER
1000
GEN
1002
}
  0
LINE
  5
2C80
330
1F
100
AcDbEntity
  8
ｴｸｽﾃﾝｼｮﾝﾌﾚｰﾑ
100
AcDbLine
 10
332.8669936863555
 20
278.5613056117108
 30
0.0
 11
336.4085236863555
 21
278.5613056117108
 31
0.0
  0
LINE
  5
2C81
330
1F
100
AcDbEntity
  8
ｴｸｽﾃﾝｼｮﾝﾌﾚｰﾑ
100
AcDbLine
 10
324.8353639523349
 20
283.8111256117108
 30
0.0
 11
329.8525636863555
 21
278.7939156117109
 31
0.0
  0
LINE
  5
2C82
330
1F
100
AcDbEntity
  8
ｴｸｽﾃﾝｼｮﾝﾌﾚｰﾑ
100
AcDbLine
 10
339.0585436863555
 20
272.117095611711
 30
0.0
 11
339.0585436863555
 21
268.617095611711
 31
0.0
  0
LINE
  5
2C83
330
1F
100
AcDbEntity
  8
ｴｸｽﾃﾝｼｮﾝﾌﾚｰﾑ
100
AcDbLine
 10
338.6585236863555
 20
272.117095611711
 30
0.0
 11
338.6585236863555
 21
268.617095611711
 31
0.0
  0
LINE
  5
2C84
330
1F
100
AcDbEntity
  8
ｴｸｽﾃﾝｼｮﾝﾌﾚｰﾑ
100
AcDbLine
 10
334.6670036863554
 20
280.3613156117108
 30
0.0
 11
336.5029436863555
 21
280.3613156117108
 31
0.0
  0
LINE
  5
2C85
330
1F
100
AcDbEntity
  8
ｴｸｽﾃﾝｼｮﾝﾌﾚｰﾑ
100
AcDbLine
 10
336.5029436863555
 20
280.3613156117108
 30
0.0
 11
337.1357736863555
 21
280.9941356117111
 31
0.0
  0
LINE
  5
2C86
330
1F
100
AcDbEntity
  8
ｴｸｽﾃﾝｼｮﾝﾌﾚｰﾑ
100
AcDbLine
 10
331.74970596838
 20
277.4440178937354
 30
0.0
 11
334.6670036863554
 21
280.3613156117108
 31
0.0
  0
LINE
  5
2C87
330
1F
100
AcDbEntity
  8
ｴｸｽﾃﾝｼｮﾝﾌﾚｰﾑ
100
AcDbLine
 10
334.3073336863555
 20
283.8225556117109
 30
0.0
 11
329.8525636863555
 21
279.367785611711
 31
0.0
  0
LINE
  5
2C88
330
1F
100
AcDbEntity
  8
ｴｸｽﾃﾝｼｮﾝﾌﾚｰﾑ
100
AcDbLine
 10
337.1357736863555
 20
280.9941356117111
 30
0.0
 11
334.3073336863555
 21
283.8225556117109
 31
0.0
  0
LINE
  5
2C89
330
1F
100
AcDbEntity
  8
ｴｸｽﾃﾝｼｮﾝﾌﾚｰﾑ
100
AcDbLine
 10
331.74970596838
 20
277.4440178937354
 30
0.0
 11
331.7492138008524
 21
276.182195611711
 31
0.0
  0
LINE
  5
2C8A
330
1F
100
AcDbEntity
  8
ｴｸｽﾃﾝｼｮﾝﾌﾚｰﾑ
100
AcDbLine
 10
329.8525636863555
 20
279.367785611711
 30
0.0
 11
329.8525636863555
 21
276.1831885510896
 31
0.0
  0
ARC
  5
2C8B
330
1F
100
AcDbEntity
  8
ｴｸｽﾃﾝｼｮﾝﾌﾚｰﾑ
100
AcDbCircle
 10
317.6740636863556
 20
271.6326256117109
 30
0.0
 40
10.0
100
AcDbArc
 50
180.0
 51
270.0
1001
GENIUS_GENOBJ-N-FIL_13
1002
{
1000
OWNER
1000
GEN
1002
}
1001
GENIUS_GENODEF_13
1002
{
1000
HIER
1070
     0
1002
}
1002
{
1000
MANEDIT
1070
     0
1002
}
1002
{
1000
NOSEL
1070
     0
1002
}
1002
{
1000
BEHIND
1070
     0
1002
}
1002
{
1000
OTHER
1070
     0
1002
}
1002
{
1000
REACTOR
1002
}
  0
ARC
  5
2C8C
330
1F
100
AcDbEntity
  8
ｴｸｽﾃﾝｼｮﾝﾌﾚｰﾑ
100
AcDbCircle
 10
317.6740636863556
 20
271.6326256117109
 30
0.0
 40
9.5
100
AcDbArc
 50
180.0
 51
270.0
1001
GENIUS_GENOBJ-N-FIL_13
1002
{
1000
OWNER
1000
GEN
1002
}
1001
GENIUS_GENODEF_13
1002
{
1000
HIER
1070
     0
1002
}
1002
{
1000
MANEDIT
1070
     0
1002
}
1002
{
1000
NOSEL
1070
     0
1002
}
1002
{
1000
BEHIND
1070
     0
1002
}
1002
{
1000
OTHER
1070
     0
1002
}
1002
{
1000
REACTOR
1002
}
  0
ARC
  5
2C8D
330
1F
100
AcDbEntity
  8
ｴｸｽﾃﾝｼｮﾝﾌﾚｰﾑ
100
AcDbCircle
 10
336.4085236863555
 20
272.2670956117108
 30
0.0
 40
6.294209999999999
100
AcDbArc
 50
0.0
 51
21.77014478309192
  0
ARC
  5
2C8E
330
1F
100
AcDbEntity
  8
ｴｸｽﾃﾝｼｮﾝﾌﾚｰﾑ
100
AcDbCircle
 10
336.4085236863555
 20
272.2670956117108
 30
0.0
 40
6.294209999999999
100
AcDbArc
 50
44.03306255925501
 51
90.00001000000098
  0
ARC
  5
2C90
330
1F
100
AcDbEntity
  8
ｴｸｽﾃﾝｼｮﾝﾌﾚｰﾑ
100
AcDbCircle
 10
336.1585236863555
 20
272.1170956117108
 30
0.0
 40
2.5
100
AcDbArc
 50
0.0
 51
90.00001000000098
  0
ARC
  5
2C91
330
1F
100
AcDbEntity
  8
ｴｸｽﾃﾝｼｮﾝﾌﾚｰﾑ
100
AcDbCircle
 10
328.8635436863554
 20
273.6170956117107
 30
0.0
 40
1.0
100
AcDbArc
 50
89.99999999999998
 51
189.3124500000003
  0
ARC
  5
2C92
330
1F
100
AcDbEntity
  8
ｴｸｽﾃﾝｼｮﾝﾌﾚｰﾑ
100
AcDbCircle
 10
318.0085436863554
 20
271.837095611711
 30
0.0
 40
10.0
100
AcDbArc
 50
325.5661500000021
 51
9.312440000001689
  0
ARC
  5
2C93
330
1F
100
AcDbEntity
  8
ｴｸｽﾃﾝｼｮﾝﾌﾚｰﾑ
100
AcDbCircle
 10
327.0810936863555
 20
265.6170956117108
 30
0.0
 40
1.0
100
AcDbArc
 50
145.5661399999979
 51
270.000010000001
  0
ARC
  5
2C95
330
1F
100
AcDbEntity
  8
ｴｸｽﾃﾝｼｮﾝﾌﾚｰﾑ
100
AcDbCircle
 10
329.9062036863554
 20
277.6170956117107
 30
0.0
 40
1.43491
100
AcDbArc
 50
225.0
 51
270.000010000001
  0
ARC
  5
2C96
330
1F
100
AcDbEntity
  8
ｴｸｽﾃﾝｼｮﾝﾌﾚｰﾑ
100
AcDbCircle
 10
336.1585236863555
 20
272.1170956117108
 30
0.0
 40
4.06509
100
AcDbArc
 50
0.0
 51
90.00001000000098
  0
ARC
  5
2C97
330
1F
100
AcDbEntity
  8
ｴｸｽﾃﾝｼｮﾝﾌﾚｰﾑ
100
AcDbCircle
 10
342.6585336863555
 20
268.6170956117107
 30
0.0
 40
3.6
100
AcDbArc
 50
180.0000099999977
 51
270.000010000001
  0
ARC
  5
2C98
330
1F
100
AcDbEntity
  8
ｴｸｽﾃﾝｼｮﾝﾌﾚｰﾑ
100
AcDbCircle
 10
342.6585336863555
 20
268.6170956117107
 30
0.0
 40
4.000020000000096
100
AcDbArc
 50
180.0000099999977
 51
216.8697257593713
  0
ARC
  5
2C99
330
1F
100
AcDbEntity
  8
ｴｸｽﾃﾝｼｮﾝﾌﾚｰﾑ
100
AcDbCircle
 10
338.6585086863814
 20
265.6170956117108
 30
0.0
 40
1.0
100
AcDbArc
 50
270.0000000000033
 51
36.86972575937386
1001
GENIUS_GENOBJ-N-FIL_13
1002
{
1000
OWNER
1000
GEN
1002
}
1001
GENIUS_GENODEF_13
1002
{
1000
HIER
1070
     0
1002
}
1002
{
1000
MANEDIT
1070
     0
1002
}
1002
{
1000
NOSEL
1070
     0
1002
}
1002
{
1000
BEHIND
1070
     0
1002
}
1002
{
1000
OTHER
1070
     0
1002
}
1002
{
1000
REACTOR
1002
}
  0
ARC
  5
2C9A
330
1F
100
AcDbEntity
  8
ｴｸｽﾃﾝｼｮﾝﾌﾚｰﾑ
100
AcDbCircle
 10
336.1585236863555
 20
272.1170956117108
 30
0.0
 40
2.9
100
AcDbArc
 50
0.0
 51
90.00001000000098
  0
ARC
  5
2C9B
330
1F
100
AcDbEntity
  8
ｴｸｽﾃﾝｼｮﾝﾌﾚｰﾑ
100
AcDbCircle
 10
329.9062036863554
 20
277.6170956117107
 30
0.0
 40
2.6
100
AcDbArc
 50
225.0
 51
270.000010000001
  0
LINE
  5
2C9C
330
1F
100
AcDbEntity
  8
ｴｸｽﾃﾝｼｮﾝﾌﾚｰﾑ
100
AcDbLine
 10
325.5771836863554
 20
551.0357406117106
 30
0.0
 11
329.7953836863554
 21
555.2539406117106
 31
0.0
  0
LINE
  5
2C9D
330
1F
100
AcDbEntity
  8
ｴｸｽﾃﾝｼｮﾝﾌﾚｰﾑ
100
AcDbLine
 10
315.8527436863555
 20
527.0326206117107
 30
0.0
 11
318.4045036863555
 21
527.0326206117107
 31
0.0
  0
ARC
  5
2C9E
330
1F
100
AcDbEntity
  8
ｴｸｽﾃﾝｼｮﾝﾌﾚｰﾑ
100
AcDbCircle
 10
315.8527436863555
 20
526.7326206117108
 30
0.0
 40
0.3
100
AcDbArc
 50
89.99999999999998
 51
180.0
1001
GENIUS_GENODEF_13
1002
{
1000
HIER
1070
     0
1002
}
1002
{
1000
MANEDIT
1070
     0
1002
}
1002
{
1000
NOSEL
1070
     0
1002
}
1002
{
1000
BEHIND
1070
     0
1002
}
1002
{
1000
OTHER
1070
     0
1002
}
1002
{
1000
REACTOR
1002
}
1001
GENIUS_GENOBJ-N-FIL_13
1002
{
1000
OWNER
1000
GEN
1002
}
  0
ARC
  5
2C9F
330
1F
100
AcDbEntity
  8
ｴｸｽﾃﾝｼｮﾝﾌﾚｰﾑ
100
AcDbCircle
 10
318.4045036863555
 20
533.3266206117107
 30
0.0
 40
6.293999999999999
100
AcDbArc
 50
270.0
 51
291.9860039892519
  0
LINE
  5
2CA0
330
1F
100
AcDbEntity
  8
ｴｸｽﾃﾝｼｮﾝﾌﾚｰﾑ
100
AcDbLine
 10
322.5427068630005
 20
528.8278322097028
 30
0.0
 11
321.2337759733996
 21
530.8227597817505
 31
0.0
  0
LINE
  5
2CA1
330
1F
100
AcDbEntity
  8
ｴｸｽﾃﾝｼｮﾝﾌﾚｰﾑ
100
AcDbLine
 10
320.8711418379918
 20
527.7338232575788
 30
0.0
 11
319.601893328953
 21
529.6779378159631
 31
0.0
  0
ARC
  5
2CA2
330
1F
100
AcDbEntity
  8
ｴｸｽﾃﾝｼｮﾝﾌﾚｰﾑ
100
AcDbCircle
 10
322.7044836863554
 20
526.7566306117106
 30
0.0
 40
2.077509999999999
100
AcDbArc
 50
151.9418624490547
 51
94.46617468937727
  0
ARC
  5
2CA3
330
1F
100
AcDbEntity
  8
ｴｸｽﾃﾝｼｮﾝﾌﾚｰﾑ
100
AcDbCircle
 10
318.4045036863555
 20
533.3266206117107
 30
0.0
 40
6.293999999999999
100
AcDbArc
 50
314.4225320980964
 51
0.0
  0
LINE
  5
2CA4
330
1F
100
AcDbEntity
  8
ｴｸｽﾃﾝｼｮﾝﾌﾚｰﾑ
100
AcDbLine
 10
318.1544936863555
 20
529.4115306117106
 30
0.0
 11
314.6585336863556
 21
529.4115306117106
 31
0.0
  0
ARC
  5
2CA5
330
1F
100
AcDbEntity
  8
ｴｸｽﾃﾝｼｮﾝﾌﾚｰﾑ
100
AcDbCircle
 10
314.6585336863556
 20
527.0115306117106
 30
0.0
 40
2.399999999999999
100
AcDbArc
 50
89.99999999999998
 51
180.0
1001
GENIUS_GENODEF_13
1002
{
1000
HIER
1070
     0
1002
}
1002
{
1000
MANEDIT
1070
     0
1002
}
1002
{
1000
NOSEL
1070
     0
1002
}
1002
{
1000
BEHIND
1070
     0
1002
}
1002
{
1000
OTHER
1070
     0
1002
}
1002
{
1000
REACTOR
1002
}
1001
GENIUS_GENOBJ-N-FIL_13
1002
{
1000
OWNER
1000
GEN
1002
}
  0
ARC
  5
2CA6
330
1F
100
AcDbEntity
  8
ｴｸｽﾃﾝｼｮﾝﾌﾚｰﾑ
100
AcDbCircle
 10
318.1544936863555
 20
533.4766206117107
 30
0.0
 40
4.06509
100
AcDbArc
 50
269.999989999999
 51
0.0
  0
LINE
  5
2CA7
330
1F
100
AcDbEntity
  8
ｴｸｽﾃﾝｼｮﾝﾌﾚｰﾑ
100
AcDbLine
 10
322.2195936863554
 20
550.3569806117106
 30
0.0
 11
322.2195936863554
 21
533.4766206117107
 31
0.0
  0
LINE
  5
2CA8
330
1F
100
AcDbEntity
  8
ｴｸｽﾃﾝｼｮﾝﾌﾚｰﾑ
100
AcDbLine
 10
314.6585336863556
 20
530.5766206117107
 30
0.0
 11
318.1544936863555
 21
530.5766206117107
 31
0.0
  0
ARC
  5
2CA9
330
1F
100
AcDbEntity
  8
ｴｸｽﾃﾝｼｮﾝﾌﾚｰﾑ
100
AcDbCircle
 10
314.6585336863556
 20
526.9766206117107
 30
0.0
 40
3.6
100
AcDbArc
 50
89.99999999999998
 51
180.0
1001
GENIUS_GENOBJ-N-FIL_13
1002
{
1000
OWNER
1000
GEN
1002
}
1001
GENIUS_GENODEF_13
1002
{
1000
HIER
1070
     0
1002
}
1002
{
1000
MANEDIT
1070
     0
1002
}
1002
{
1000
NOSEL
1070
     0
1002
}
1002
{
1000
BEHIND
1070
     0
1002
}
1002
{
1000
OTHER
1070
     0
1002
}
1002
{
1000
REACTOR
1002
}
  0
ARC
  5
2CAA
330
1F
100
AcDbEntity
  8
ｴｸｽﾃﾝｼｮﾝﾌﾚｰﾑ
100
AcDbCircle
 10
311.6740636863557
 20
530.4770404178385
 30
0.0
 40
1.0
100
AcDbArc
 50
180.0000000000065
 51
310.4510243181168
1001
GENIUS_GENODEF_13
1002
{
1000
HIER
1070
     0
1002
}
1002
{
1000
MANEDIT
1070
     0
1002
}
1002
{
1000
NOSEL
1070
     0
1002
}
1002
{
1000
BEHIND
1070
     0
1002
}
1002
{
1000
OTHER
1070
     0
1002
}
1002
{
1000
REACTOR
1002
}
1001
GENIUS_GENOBJ-N-FIL_13
1002
{
1000
OWNER
1000
GEN
1002
}
  0
ARC
  5
2CAB
330
1F
100
AcDbEntity
  8
ｴｸｽﾃﾝｼｮﾝﾌﾚｰﾑ
100
AcDbCircle
 10
318.1544936863555
 20
533.4766206117107
 30
0.0
 40
2.9
100
AcDbArc
 50
269.999989999999
 51
0.0
  0
LINE
  5
2CAC
330
1F
100
AcDbEntity
  8
ｴｸｽﾃﾝｼｮﾝﾌﾚｰﾑ
100
AcDbLine
 10
321.0544936863555
 20
533.4766206117107
 30
0.0
 11
321.0544936863555
 21
550.9263606117107
 31
0.0
  0
LINE
  5
2CAD
330
1F
100
AcDbEntity
  8
ｴｸｽﾃﾝｼｮﾝﾌﾚｰﾑ
100
AcDbLine
 10
324.6985036863555
 20
533.3266206117107
 30
0.0
 11
324.6985036863555
 21
548.9144206117107
 31
0.0
  0
LINE
  5
2CAE
330
1F
100
AcDbEntity
  8
ｴｸｽﾃﾝｼｮﾝﾌﾚｰﾑ
100
AcDbLine
 10
310.6740636863557
 20
530.4770404178384
 30
0.0
 11
310.6740636863556
 21
552.7622106117106
 31
0.0
  0
ARC
  5
2CAF
330
1F
100
AcDbEntity
  8
ｴｸｽﾃﾝｼｮﾝﾌﾚｰﾑ
100
AcDbCircle
 10
327.6740636863556
 20
557.3752606117107
 30
0.0
 40
3.0
100
AcDbArc
 50
315.0
 51
0.0
  0
ARC
  5
2CB0
330
1F
100
AcDbEntity
  8
ｴｸｽﾃﾝｼｮﾝﾌﾚｰﾑ
100
AcDbCircle
 10
327.6985036863555
 20
548.9144206117107
 30
0.0
 40
3.0
100
AcDbArc
 50
135.0
 51
180.0
  0
ARC
  5
2CB1
330
1F
100
AcDbEntity
  8
ｴｸｽﾃﾝｼｮﾝﾌﾚｰﾑ
100
AcDbCircle
 10
311.6740636863556
 20
552.7622106117106
 30
0.0
 40
1.0
100
AcDbArc
 50
54.46884999999907
 51
180.0
  0
ARC
  5
2CB2
330
1F
100
AcDbEntity
  8
ｴｸｽﾃﾝｼｮﾝﾌﾚｰﾑ
100
AcDbCircle
 10
318.0085436863554
 20
561.6326206117107
 30
0.0
 40
9.9
100
AcDbArc
 50
234.4688499999991
 51
280.8186800000004
  0
ARC
  5
2CB3
330
1F
100
AcDbEntity
  8
ｴｸｽﾃﾝｼｮﾝﾌﾚｰﾑ
100
AcDbCircle
 10
320.0544936863555
 20
550.9263606117107
 30
0.0
 40
1.0
100
AcDbArc
 50
0.0
 51
100.8186800000004
  0
LINE
  5
2CB4
330
1F
100
AcDbEntity
  8
ｴｸｽﾃﾝｼｮﾝﾌﾚｰﾑ
100
AcDbLine
 10
322.8053836863554
 20
551.7711906117106
 30
0.0
 11
327.9011636863555
 21
556.8669806117107
 31
0.0
  0
ARC
  5
2CB5
330
1F
100
AcDbEntity
  8
ｴｸｽﾃﾝｼｮﾝﾌﾚｰﾑ
100
AcDbCircle
 10
327.1940636863555
 20
557.5740906117106
 30
0.0
 40
1.0
100
AcDbArc
 50
315.0
 51
0.0
  0
ARC
  5
2CB6
330
1F
100
AcDbEntity
  8
ｴｸｽﾃﾝｼｮﾝﾌﾚｰﾑ
100
AcDbCircle
 10
324.2195936863554
 20
550.3569806117106
 30
0.0
 40
2.0
100
AcDbArc
 50
135.0
 51
180.0
  0
LINE
  5
2CB7
330
1F
100
AcDbEntity
  8
ｴｸｽﾃﾝｼｮﾝﾌﾚｰﾑ
100
AcDbLine
 10
321.6402736863555
 20
552.2537906117106
 30
0.0
 11
326.8239336863554
 21
557.4374506117107
 31
0.0
  0
ARC
  5
2CB8
330
1F
100
AcDbEntity
  8
ｴｸｽﾃﾝｼｮﾝﾌﾚｰﾑ
100
AcDbCircle
 10
326.3289636863555
 20
557.9324206117106
 30
0.0
 40
0.7
100
AcDbArc
 50
315.0
 51
0.0
  0
ARC
  5
2CB9
330
1F
100
AcDbEntity
  8
ｴｸｽﾃﾝｼｮﾝﾌﾚｰﾑ
100
AcDbCircle
 10
323.0544936863555
 20
550.8395806117106
 30
0.0
 40
2.0
100
AcDbArc
 50
135.0
 51
180.0
  0
CIRCLE
  5
2CC2
330
1F
100
AcDbEntity
  8
ｴｸｽﾃﾝｼｮﾝﾌﾚｰﾑ
100
AcDbCircle
 10
343.0085336863555
 20
276.5370956117108
 30
0.0
 40
2.077509999999989
  0
LINE
  5
2CC3
330
1F
100
AcDbEntity
  8
ｴｸｽﾃﾝｼｮﾝﾌﾚｰﾑ
100
AcDbLine
 10
341.9240636863556
 20
261.9326256117111
 30
0.0
 11
338.4240636863556
 21
261.9326256117111
 31
0.0
  0
LINE
  5
2CC4
330
1F
100
AcDbEntity
  8
ｴｸｽﾃﾝｼｮﾝﾌﾚｰﾑ
100
AcDbLine
 10
335.9240636863556
 20
261.9326256117111
 30
0.0
 11
332.4240636863556
 21
261.9326256117111
 31
0.0
  0
ARC
  5
2CC5
330
1F
100
AcDbEntity
  8
ｴｸｽﾃﾝｼｮﾝﾌﾚｰﾑ
100
AcDbCircle
 10
342.2240636863554
 20
261.9326256117106
 30
0.0
 40
0.3
100
AcDbArc
 50
179.9999999999772
 51
270.0000000000212
1001
GENIUS_GENOBJ-N-FIL_13
1002
{
1000
OWNER
1000
GEN
1002
}
1001
GENIUS_GENODEF_13
1002
{
1000
HIER
1070
     0
1002
}
1002
{
1000
MANEDIT
1070
     0
1002
}
1002
{
1000
NOSEL
1070
     0
1002
}
1002
{
1000
BEHIND
1070
     0
1002
}
1002
{
1000
OTHER
1070
     0
1002
}
1002
{
1000
REACTOR
1002
}
  0
ARC
  5
2CC6
330
1F
100
AcDbEntity
  8
ｴｸｽﾃﾝｼｮﾝﾌﾚｰﾑ
100
AcDbCircle
 10
338.1240636863556
 20
261.9326256117106
 30
0.0
 40
0.3
100
AcDbArc
 50
269.9999999999886
 51
0.0000000000325562
1001
GENIUS_GENOBJ-N-FIL_13
1002
{
1000
OWNER
1000
GEN
1002
}
1001
GENIUS_GENODEF_13
1002
{
1000
HIER
1070
     0
1002
}
1002
{
1000
MANEDIT
1070
     0
1002
}
1002
{
1000
NOSEL
1070
     0
1002
}
1002
{
1000
BEHIND
1070
     0
1002
}
1002
{
1000
OTHER
1070
     0
1002
}
1002
{
1000
REACTOR
1002
}
  0
ARC
  5
2CC7
330
1F
100
AcDbEntity
  8
ｴｸｽﾃﾝｼｮﾝﾌﾚｰﾑ
100
AcDbCircle
 10
336.2240636863555
 20
261.9326256117106
 30
0.0
 40
0.3
100
AcDbArc
 50
179.9999999999772
 51
270.0000000000114
1001
GENIUS_GENOBJ-N-FIL_13
1002
{
1000
OWNER
1000
GEN
1002
}
1001
GENIUS_GENODEF_13
1002
{
1000
HIER
1070
     0
1002
}
1002
{
1000
MANEDIT
1070
     0
1002
}
1002
{
1000
NOSEL
1070
     0
1002
}
1002
{
1000
BEHIND
1070
     0
1002
}
1002
{
1000
OTHER
1070
     0
1002
}
1002
{
1000
REACTOR
1002
}
  0
ARC
  5
2CC8
330
1F
100
AcDbEntity
  8
ｴｸｽﾃﾝｼｮﾝﾌﾚｰﾑ
100
AcDbCircle
 10
332.1240636863556
 20
261.9326256117106
 30
0.0
 40
0.3
100
AcDbArc
 50
269.9999999999886
 51
0.0000000000325562
1001
GENIUS_GENOBJ-N-FIL_13
1002
{
1000
OWNER
1000
GEN
1002
}
1001
GENIUS_GENODEF_13
1002
{
1000
HIER
1070
     0
1002
}
1002
{
1000
MANEDIT
1070
     0
1002
}
1002
{
1000
NOSEL
1070
     0
1002
}
1002
{
1000
BEHIND
1070
     0
1002
}
1002
{
1000
OTHER
1070
     0
1002
}
1002
{
1000
REACTOR
1002
}
  0
LINE
  5
2CC9
330
1F
100
AcDbEntity
  8
ｴｸｽﾃﾝｼｮﾝﾌﾚｰﾑ
100
AcDbLine
 10
307.6740636863556
 20
528.0826256117108
 30
0.0
 11
307.6740636863556
 21
296.182625611711
 31
0.0
  0
LINE
  5
2CCA
330
1F
100
AcDbEntity
  8
ｴｸｽﾃﾝｼｮﾝﾌﾚｰﾑ
100
AcDbLine
 10
311.0585336863556
 20
526.9766206117107
 30
0.0
 11
311.0585336863556
 21
296.6170956117107
 31
0.0
  0
LINE
  5
2CCB
330
1F
100
AcDbEntity
  8
ｴｸｽﾃﾝｼｮﾝﾌﾚｰﾑ
100
AcDbLine
 10
312.2585336863557
 20
296.5821756117109
 30
0.0
 11
312.2585336863556
 21
527.0115306117106
 31
0.0
  0
LINE
  5
2CCC
330
1F
100
AcDbEntity
  8
ｴｸｽﾃﾝｼｮﾝﾌﾚｰﾑ
100
AcDbLine
 10
315.5527436863555
 20
526.7326206117108
 30
0.0
 11
315.5527436863556
 21
296.9613156117107
 31
0.0
  0
LINE
  5
2CCD
330
1F
100
AcDbEntity
  8
ｴｸｽﾃﾝｼｮﾝﾌﾚｰﾑ
100
AcDbLine
 10
307.6740636863556
 20
292.0826256117109
 30
0.0
 11
307.6740636863556
 21
290.182625611711
 31
0.0
  0
LINE
  5
2CCE
330
1F
100
AcDbEntity
  8
ｴｸｽﾃﾝｼｮﾝﾌﾚｰﾑ
100
AcDbLine
 10
307.6740636863556
 20
286.0826256117109
 30
0.0
 11
307.6740636863556
 21
271.6326256117109
 31
0.0
  0
LINE
  5
2CCF
330
1F
100
AcDbEntity
  8
ｴｸｽﾃﾝｼｮﾝﾌﾚｰﾑ
100
AcDbLine
 10
310.6585336863556
 20
292.6170706117368
 30
0.0
 11
310.6585336863556
 21
281.039655611711
 31
0.0
  0
LINE
  5
2CD0
330
1F
100
AcDbEntity
  8
ｴｸｽﾃﾝｼｮﾝﾌﾚｰﾑ
100
AcDbLine
 10
320.7489437029213
 20
295.9828962962177
 30
0.0
 11
319.479258206081
 21
293.9616458532855
 31
0.0
  0
LINE
  5
2CD1
330
1F
100
AcDbEntity
  8
ｴｸｽﾃﾝｼｮﾝﾌﾚｰﾑ
100
AcDbLine
 10
318.3085336863556
 20
296.6613156117107
 30
0.0
 11
315.8527436863557
 21
296.6613156117107
 31
0.0
  0
ARC
  5
2CD2
330
1F
100
AcDbEntity
  8
ｴｸｽﾃﾝｼｮﾝﾌﾚｰﾑ
100
AcDbCircle
 10
315.8527436863557
 20
296.9613156117107
 30
0.0
 40
0.3
100
AcDbArc
 50
180.0
 51
270.0
1001
GENIUS_GENODEF_13
1002
{
1000
HIER
1070
     0
1002
}
1002
{
1000
MANEDIT
1070
     0
1002
}
1002
{
1000
NOSEL
1070
     0
1002
}
1002
{
1000
BEHIND
1070
     0
1002
}
1002
{
1000
OTHER
1070
     0
1002
}
1002
{
1000
REACTOR
1002
}
1001
GENIUS_GENOBJ-N-FIL_13
1002
{
1000
OWNER
1000
GEN
1002
}
  0
LINE
  5
2CD3
330
1F
100
AcDbEntity
  8
ｴｸｽﾃﾝｼｮﾝﾌﾚｰﾑ
100
AcDbLine
 10
321.1085079558622
 20
292.9139782655946
 30
0.0
 11
322.4322342258793
 21
294.8947432604045
 31
0.0
  0
LINE
  5
2CD4
330
1F
100
AcDbEntity
  8
ｴｸｽﾃﾝｼｮﾝﾌﾚｰﾑ
100
AcDbLine
 10
320.6585336863556
 20
282.8221056117109
 30
0.0
 11
320.6585336863556
 21
290.1170856117108
 31
0.0
  0
LINE
  5
2CD5
330
1F
100
AcDbEntity
  8
ｴｸｽﾃﾝｼｮﾝﾌﾚｰﾑ
100
AcDbLine
 10
321.0585336863557
 20
283.8647656117107
 30
0.0
 11
321.0585336863557
 21
290.1170856117108
 31
0.0
  0
LINE
  5
2CD6
330
1F
100
AcDbEntity
  8
ｴｸｽﾃﾝｼｮﾝﾌﾚｰﾑ
100
AcDbLine
 10
322.2236336863556
 20
290.1170856117108
 30
0.0
 11
322.2236336863556
 21
283.8647656117107
 31
0.0
  0
LINE
  5
2CD7
330
1F
100
AcDbEntity
  8
ｴｸｽﾃﾝｼｮﾝﾌﾚｰﾑ
100
AcDbLine
 10
314.6585336863556
 20
294.1821756117108
 30
0.0
 11
318.1585336863556
 21
294.1821756117108
 31
0.0
  0
ARC
  5
2CD8
330
1F
100
AcDbEntity
  8
ｴｸｽﾃﾝｼｮﾝﾌﾚｰﾑ
100
AcDbCircle
 10
314.6585336863556
 20
296.5821756117107
 30
0.0
 40
2.399999999999999
100
AcDbArc
 50
180.0
 51
270.0
1001
GENIUS_GENODEF_13
1002
{
1000
HIER
1070
     0
1002
}
1002
{
1000
MANEDIT
1070
     0
1002
}
1002
{
1000
NOSEL
1070
     0
1002
}
1002
{
1000
BEHIND
1070
     0
1002
}
1002
{
1000
OTHER
1070
     0
1002
}
1002
{
1000
REACTOR
1002
}
1001
GENIUS_GENOBJ-N-FIL_13
1002
{
1000
OWNER
1000
GEN
1002
}
  0
LINE
  5
2CD9
330
1F
100
AcDbEntity
  8
ｴｸｽﾃﾝｼｮﾝﾌﾚｰﾑ
100
AcDbLine
 10
324.6027436863556
 20
286.8255556117108
 30
0.0
 11
324.6027436863556
 21
290.3670856117108
 31
0.0
  0
LINE
  5
2CDA
330
1F
100
AcDbEntity
  8
ｴｸｽﾃﾝｼｮﾝﾌﾚｰﾑ
100
AcDbLine
 10
318.1585336863556
 20
293.0171056117108
 30
0.0
 11
314.6585336863556
 21
293.0171056117108
 31
0.0
  0
LINE
  5
2CDB
330
1F
100
AcDbEntity
  8
ｴｸｽﾃﾝｼｮﾝﾌﾚｰﾑ
100
AcDbLine
 10
318.1585336863556
 20
292.6170856117108
 30
0.0
 11
314.6585336863556
 21
292.6170856117108
 31
0.0
  0
LINE
  5
2CDC
330
1F
100
AcDbEntity
  8
ｴｸｽﾃﾝｼｮﾝﾌﾚｰﾑ
100
AcDbLine
 10
326.4027536863556
 20
288.6255656117107
 30
0.0
 11
326.4027536863556
 21
290.4615056117109
 31
0.0
  0
LINE
  5
2CDD
330
1F
100
AcDbEntity
  8
ｴｸｽﾃﾝｼｮﾝﾌﾚｰﾑ
100
AcDbLine
 10
326.4027536863556
 20
290.4615056117109
 30
0.0
 11
327.0355736863556
 21
291.0943356117109
 31
0.0
  0
LINE
  5
2CDE
330
1F
100
AcDbEntity
  8
ｴｸｽﾃﾝｼｮﾝﾌﾚｰﾑ
100
AcDbLine
 10
323.48545596838
 20
285.7082678937354
 30
0.0
 11
326.4027536863556
 21
288.6255656117107
 31
0.0
  0
LINE
  5
2CDF
330
1F
100
AcDbEntity
  8
ｴｸｽﾃﾝｼｮﾝﾌﾚｰﾑ
100
AcDbLine
 10
329.8639936863556
 20
288.2658956117109
 30
0.0
 11
325.4092236863556
 21
283.8111256117108
 31
0.0
  0
LINE
  5
2CE0
330
1F
100
AcDbEntity
  8
ｴｸｽﾃﾝｼｮﾝﾌﾚｰﾑ
100
AcDbLine
 10
327.0355736863556
 20
291.0943356117109
 30
0.0
 11
329.8639936863556
 21
288.2658956117109
 31
0.0
  0
LINE
  5
2CE1
330
1F
100
AcDbEntity
  8
ｴｸｽﾃﾝｼｮﾝﾌﾚｰﾑ
100
AcDbLine
 10
323.48545596838
 20
285.7082678937354
 30
0.0
 11
322.2236336863556
 21
285.7077757262077
 31
0.0
  0
LINE
  5
2CE2
330
1F
100
AcDbEntity
  8
ｴｸｽﾃﾝｼｮﾝﾌﾚｰﾑ
100
AcDbLine
 10
325.4092236863556
 20
283.8111256117108
 30
0.0
 11
322.2246266257343
 21
283.8111256117108
 31
0.0
  0
ARC
  5
2CE3
330
1F
100
AcDbEntity
  8
ｴｸｽﾃﾝｼｮﾝﾌﾚｰﾑ
100
AcDbCircle
 10
318.3085336863556
 20
290.3670856117106
 30
0.0
 40
6.294209999999999
100
AcDbArc
 50
68.22985521690956
 51
89.99999999999998
  0
ARC
  5
2CE4
330
1F
100
AcDbEntity
  8
ｴｸｽﾃﾝｼｮﾝﾌﾚｰﾑ
100
AcDbCircle
 10
318.3085336863556
 20
290.3670856117106
 30
0.0
 40
6.294209999999999
100
AcDbArc
 50
359.999989999999
 51
45.96693744074608
  0
ARC
  5
2CE5
330
1F
100
AcDbEntity
  8
ｴｸｽﾃﾝｼｮﾝﾌﾚｰﾑ
100
AcDbCircle
 10
318.1585336863556
 20
290.1170856117105
 30
0.0
 40
2.5
100
AcDbArc
 50
359.999989999999
 51
89.99999999999998
  0
ARC
  5
2CE6
330
1F
100
AcDbEntity
  8
ｴｸｽﾃﾝｼｮﾝﾌﾚｰﾑ
100
AcDbCircle
 10
319.6585336863555
 20
282.8221056117109
 30
0.0
 40
1.0
100
AcDbArc
 50
260.6875499999997
 51
0.0
  0
ARC
  5
2CE7
330
1F
100
AcDbEntity
  8
ｴｸｽﾃﾝｼｮﾝﾌﾚｰﾑ
100
AcDbCircle
 10
317.8785336863556
 20
271.9671056117109
 30
0.0
 40
10.0
100
AcDbArc
 50
80.68755999999988
 51
124.4338499999979
  0
ARC
  5
2CE8
330
1F
100
AcDbEntity
  8
ｴｸｽﾃﾝｼｮﾝﾌﾚｰﾑ
100
AcDbCircle
 10
311.6585336863555
 20
281.0396556117107
 30
0.0
 40
1.0
100
AcDbArc
 50
179.999989999999
 51
304.4338600000007
  0
ARC
  5
2CE9
330
1F
100
AcDbEntity
  8
ｴｸｽﾃﾝｼｮﾝﾌﾚｰﾑ
100
AcDbCircle
 10
323.6585336863555
 20
283.8647656117105
 30
0.0
 40
1.43491
100
AcDbArc
 50
179.999989999999
 51
225.0
  0
ARC
  5
2CEA
330
1F
100
AcDbEntity
  8
ｴｸｽﾃﾝｼｮﾝﾌﾚｰﾑ
100
AcDbCircle
 10
318.1585336863556
 20
290.1170856117105
 30
0.0
 40
4.06509
100
AcDbArc
 50
359.999989999999
 51
89.99999999999998
  0
ARC
  5
2CEB
330
1F
100
AcDbEntity
  8
ｴｸｽﾃﾝｼｮﾝﾌﾚｰﾑ
100
AcDbCircle
 10
314.6585336863556
 20
296.6170956117107
 30
0.0
 40
3.6
100
AcDbArc
 50
179.999989999999
 51
269.9999900000006
  0
ARC
  5
2CEC
330
1F
100
AcDbEntity
  8
ｴｸｽﾃﾝｼｮﾝﾌﾚｰﾑ
100
AcDbCircle
 10
314.6585336863556
 20
296.6170956117107
 30
0.0
 40
4.000020000000096
100
AcDbArc
 50
233.1302742406284
 51
269.9999900000006
  0
ARC
  5
2CED
330
1F
100
AcDbEntity
  8
ｴｸｽﾃﾝｼｮﾝﾌﾚｰﾑ
100
AcDbCircle
 10
311.6585336863555
 20
292.6170706117368
 30
0.0
 40
1.0
100
AcDbArc
 50
53.13027424062513
 51
179.9999999999967
1001
GENIUS_GENOBJ-N-FIL_13
1002
{
1000
OWNER
1000
GEN
1002
}
1001
GENIUS_GENODEF_13
1002
{
1000
HIER
1070
     0
1002
}
1002
{
1000
MANEDIT
1070
     0
1002
}
1002
{
1000
NOSEL
1070
     0
1002
}
1002
{
1000
BEHIND
1070
     0
1002
}
1002
{
1000
OTHER
1070
     0
1002
}
1002
{
1000
REACTOR
1002
}
  0
ARC
  5
2CEE
330
1F
100
AcDbEntity
  8
ｴｸｽﾃﾝｼｮﾝﾌﾚｰﾑ
100
AcDbCircle
 10
318.1585336863556
 20
290.1170856117105
 30
0.0
 40
2.9
100
AcDbArc
 50
359.999989999999
 51
89.99999999999998
  0
ARC
  5
2CEF
330
1F
100
AcDbEntity
  8
ｴｸｽﾃﾝｼｮﾝﾌﾚｰﾑ
100
AcDbCircle
 10
323.6585336863555
 20
283.8647656117105
 30
0.0
 40
2.6
100
AcDbArc
 50
179.999989999999
 51
225.0
  0
CIRCLE
  5
2CF8
330
1F
100
AcDbEntity
  8
ｴｸｽﾃﾝｼｮﾝﾌﾚｰﾑ
100
AcDbCircle
 10
322.5785336863556
 20
296.9670956117107
 30
0.0
 40
2.077509999999989
  0
LINE
  5
2CF9
330
1F
100
AcDbEntity
  8
ｴｸｽﾃﾝｼｮﾝﾌﾚｰﾑ
100
AcDbLine
 10
307.9740636863556
 20
295.8826256117109
 30
0.0
 11
307.9740636863556
 21
292.3826256117109
 31
0.0
  0
LINE
  5
2CFA
330
1F
100
AcDbEntity
  8
ｴｸｽﾃﾝｼｮﾝﾌﾚｰﾑ
100
AcDbLine
 10
307.9740636863556
 20
289.8826256117109
 30
0.0
 11
307.9740636863556
 21
286.3826256117109
 31
0.0
  0
ARC
  5
2CFB
330
1F
100
AcDbEntity
  8
ｴｸｽﾃﾝｼｮﾝﾌﾚｰﾑ
100
AcDbCircle
 10
307.9740636863554
 20
296.1826256117106
 30
0.0
 40
0.3
100
AcDbArc
 50
179.9999999999772
 51
270.0000000000212
1001
GENIUS_GENOBJ-N-FIL_13
1002
{
1000
OWNER
1000
GEN
1002
}
1001
GENIUS_GENODEF_13
1002
{
1000
HIER
1070
     0
1002
}
1002
{
1000
MANEDIT
1070
     0
1002
}
1002
{
1000
NOSEL
1070
     0
1002
}
1002
{
1000
BEHIND
1070
     0
1002
}
1002
{
1000
OTHER
1070
     0
1002
}
1002
{
1000
REACTOR
1002
}
  0
ARC
  5
2CFC
330
1F
100
AcDbEntity
  8
ｴｸｽﾃﾝｼｮﾝﾌﾚｰﾑ
100
AcDbCircle
 10
307.9740636863554
 20
292.0826256117107
 30
0.0
 40
0.3
100
AcDbArc
 50
89.99999999996742
 51
180.0000000000097
1001
GENIUS_GENOBJ-N-FIL_13
1002
{
1000
OWNER
1000
GEN
1002
}
1001
GENIUS_GENODEF_13
1002
{
1000
HIER
1070
     0
1002
}
1002
{
1000
MANEDIT
1070
     0
1002
}
1002
{
1000
NOSEL
1070
     0
1002
}
1002
{
1000
BEHIND
1070
     0
1002
}
1002
{
1000
OTHER
1070
     0
1002
}
1002
{
1000
REACTOR
1002
}
  0
ARC
  5
2CFD
330
1F
100
AcDbEntity
  8
ｴｸｽﾃﾝｼｮﾝﾌﾚｰﾑ
100
AcDbCircle
 10
307.9740636863554
 20
290.1826256117106
 30
0.0
 40
0.3
100
AcDbArc
 50
179.9999999999902
 51
270.0000000000212
1001
GENIUS_GENOBJ-N-FIL_13
1002
{
1000
OWNER
1000
GEN
1002
}
1001
GENIUS_GENODEF_13
1002
{
1000
HIER
1070
     0
1002
}
1002
{
1000
MANEDIT
1070
     0
1002
}
1002
{
1000
NOSEL
1070
     0
1002
}
1002
{
1000
BEHIND
1070
     0
1002
}
1002
{
1000
OTHER
1070
     0
1002
}
1002
{
1000
REACTOR
1002
}
  0
ARC
  5
2CFE
330
1F
100
AcDbEntity
  8
ｴｸｽﾃﾝｼｮﾝﾌﾚｰﾑ
100
AcDbCircle
 10
307.9740636863554
 20
286.0826256117107
 30
0.0
 40
0.3
100
AcDbArc
 50
89.99999999996742
 51
180.0000000000097
1001
GENIUS_GENOBJ-N-FIL_13
1002
{
1000
OWNER
1000
GEN
1002
}
1001
GENIUS_GENODEF_13
1002
{
1000
HIER
1070
     0
1002
}
1002
{
1000
MANEDIT
1070
     0
1002
}
1002
{
1000
NOSEL
1070
     0
1002
}
1002
{
1000
BEHIND
1070
     0
1002
}
1002
{
1000
OTHER
1070
     0
1002
}
1002
{
1000
REACTOR
1002
}
  0
LINE
  5
2D07
330
1F
100
AcDbEntity
  8
ｴｸｽﾃﾝｼｮﾝﾌﾚｰﾑ
100
AcDbLine
 10
307.6740636863556
 20
534.0826256117107
 30
0.0
 11
307.6740636863556
 21
532.1826256117108
 31
0.0
  0
LINE
  5
2D08
330
1F
100
AcDbEntity
  8
ｴｸｽﾃﾝｼｮﾝﾌﾚｰﾑ
100
AcDbLine
 10
307.9740636863556
 20
537.8826256117107
 30
0.0
 11
307.9740636863556
 21
534.3826256117107
 31
0.0
  0
LINE
  5
2D09
330
1F
100
AcDbEntity
  8
ｴｸｽﾃﾝｼｮﾝﾌﾚｰﾑ
100
AcDbLine
 10
307.9740636863556
 20
531.8826256117107
 30
0.0
 11
307.9740636863556
 21
528.3826256117107
 31
0.0
  0
ARC
  5
2D0A
330
1F
100
AcDbEntity
  8
ｴｸｽﾃﾝｼｮﾝﾌﾚｰﾑ
100
AcDbCircle
 10
307.9740636863554
 20
538.1826256117107
 30
0.0
 40
0.3
100
AcDbArc
 50
179.9999999999772
 51
270.0000000000212
1001
GENIUS_GENOBJ-N-FIL_13
1002
{
1000
OWNER
1000
GEN
1002
}
1001
GENIUS_GENODEF_13
1002
{
1000
HIER
1070
     0
1002
}
1002
{
1000
MANEDIT
1070
     0
1002
}
1002
{
1000
NOSEL
1070
     0
1002
}
1002
{
1000
BEHIND
1070
     0
1002
}
1002
{
1000
OTHER
1070
     0
1002
}
1002
{
1000
REACTOR
1002
}
  0
ARC
  5
2D0B
330
1F
100
AcDbEntity
  8
ｴｸｽﾃﾝｼｮﾝﾌﾚｰﾑ
100
AcDbCircle
 10
307.9740636863554
 20
534.0826256117107
 30
0.0
 40
0.3
100
AcDbArc
 50
89.99999999996742
 51
180.0000000000097
1001
GENIUS_GENOBJ-N-FIL_13
1002
{
1000
OWNER
1000
GEN
1002
}
1001
GENIUS_GENODEF_13
1002
{
1000
HIER
1070
     0
1002
}
1002
{
1000
MANEDIT
1070
     0
1002
}
1002
{
1000
NOSEL
1070
     0
1002
}
1002
{
1000
BEHIND
1070
     0
1002
}
1002
{
1000
OTHER
1070
     0
1002
}
1002
{
1000
REACTOR
1002
}
  0
ARC
  5
2D0C
330
1F
100
AcDbEntity
  8
ｴｸｽﾃﾝｼｮﾝﾌﾚｰﾑ
100
AcDbCircle
 10
307.9740636863554
 20
532.1826256117106
 30
0.0
 40
0.3
100
AcDbArc
 50
179.9999999999902
 51
270.0000000000212
1001
GENIUS_GENOBJ-N-FIL_13
1002
{
1000
OWNER
1000
GEN
1002
}
1001
GENIUS_GENODEF_13
1002
{
1000
HIER
1070
     0
1002
}
1002
{
1000
MANEDIT
1070
     0
1002
}
1002
{
1000
NOSEL
1070
     0
1002
}
1002
{
1000
BEHIND
1070
     0
1002
}
1002
{
1000
OTHER
1070
     0
1002
}
1002
{
1000
REACTOR
1002
}
  0
ARC
  5
2D0D
330
1F
100
AcDbEntity
  8
ｴｸｽﾃﾝｼｮﾝﾌﾚｰﾑ
100
AcDbCircle
 10
307.9740636863554
 20
528.0826256117108
 30
0.0
 40
0.3
100
AcDbArc
 50
89.99999999996742
 51
180.0000000000097
1001
GENIUS_GENOBJ-N-FIL_13
1002
{
1000
OWNER
1000
GEN
1002
}
1001
GENIUS_GENODEF_13
1002
{
1000
HIER
1070
     0
1002
}
1002
{
1000
MANEDIT
1070
     0
1002
}
1002
{
1000
NOSEL
1070
     0
1002
}
1002
{
1000
BEHIND
1070
     0
1002
}
1002
{
1000
OTHER
1070
     0
1002
}
1002
{
1000
REACTOR
1002
}
  0
LINE
  5
2E57
330
1F
100
AcDbEntity
  8
ｴｸｽﾃﾝｼｮﾝﾌﾚｰﾑ
100
AcDbLine
 10
677.224063688619
 20
861.6326256117108
 30
0.0
 11
679.1240636886189
 21
861.6326256117108
 31
0.0
  0
LINE
  5
2E58
330
1F
100
AcDbEntity
  8
ｴｸｽﾃﾝｼｮﾝﾌﾚｰﾑ
100
AcDbLine
 10
683.224063688619
 20
861.6326256117108
 30
0.0
 11
697.6740636886188
 21
861.6326256117108
 31
0.0
  0
LINE
  5
2E59
330
1F
100
AcDbEntity
  8
ｴｸｽﾃﾝｼｮﾝﾌﾚｰﾑ
100
AcDbLine
 10
676.6896186885928
 20
858.6481556117107
 30
0.0
 11
688.267033688619
 21
858.6481556117107
 31
0.0
  0
LINE
  5
2E5A
330
1F
100
AcDbEntity
  8
ｴｸｽﾃﾝｼｮﾝﾌﾚｰﾑ
100
AcDbLine
 10
673.3237930041123
 20
848.5577455951451
 30
0.0
 11
675.3450434470444
 21
849.8274310919853
 31
0.0
  0
LINE
  5
2E5B
330
1F
100
AcDbEntity
  8
ｴｸｽﾃﾝｼｮﾝﾌﾚｰﾑ
100
AcDbLine
 10
693.5280836886191
 20
841.2389656117108
 30
0.0
 11
687.2804136886188
 21
847.4866256117108
 31
0.0
  0
LINE
  5
2E5C
330
1F
100
AcDbEntity
  8
ｴｸｽﾃﾝｼｮﾝﾌﾚｰﾑ
100
AcDbLine
 10
672.6453736886192
 20
850.9981556117107
 30
0.0
 11
672.6453736886192
 21
853.4539456117107
 31
0.0
  0
ARC
  5
2E5D
330
1F
100
AcDbEntity
  8
ｴｸｽﾃﾝｼｮﾝﾌﾚｰﾑ
100
AcDbCircle
 10
672.345373688619
 20
853.4539456117107
 30
0.0
 40
0.3
100
AcDbArc
 50
0.0
 51
89.99999999999998
1001
GENIUS_GENODEF_13
1002
{
1000
HIER
1070
     0
1002
}
1002
{
1000
MANEDIT
1070
     0
1002
}
1002
{
1000
NOSEL
1070
     0
1002
}
1002
{
1000
BEHIND
1070
     0
1002
}
1002
{
1000
OTHER
1070
     0
1002
}
1002
{
1000
REACTOR
1002
}
1001
GENIUS_GENOBJ-N-FIL_13
1002
{
1000
OWNER
1000
GEN
1002
}
  0
LINE
  5
2E5E
330
1F
100
AcDbEntity
  8
ｴｸｽﾃﾝｼｮﾝﾌﾚｰﾑ
100
AcDbLine
 10
676.3927110347354
 20
848.198181342204
 30
0.0
 11
674.4119460399251
 21
846.874455072187
 31
0.0
  0
LINE
  5
2E5F
330
1F
100
AcDbEntity
  8
ｴｸｽﾃﾝｼｮﾝﾌﾚｰﾑ
100
AcDbLine
 10
686.484583688619
 20
848.6481556117107
 30
0.0
 11
679.1896036886192
 21
848.6481556117107
 31
0.0
  0
LINE
  5
2E60
330
1F
100
AcDbEntity
  8
ｴｸｽﾃﾝｼｮﾝﾌﾚｰﾑ
100
AcDbLine
 10
685.4419236886192
 20
848.2481556117107
 30
0.0
 11
679.1896036886192
 21
848.2481556117107
 31
0.0
  0
LINE
  5
2E61
330
1F
100
AcDbEntity
  8
ｴｸｽﾃﾝｼｮﾝﾌﾚｰﾑ
100
AcDbLine
 10
679.1896036886192
 20
847.0830556117109
 30
0.0
 11
685.4419236886192
 21
847.0830556117109
 31
0.0
  0
LINE
  5
2E62
330
1F
100
AcDbEntity
  8
ｴｸｽﾃﾝｼｮﾝﾌﾚｰﾑ
100
AcDbLine
 10
686.4565536886189
 20
846.6627856117108
 30
0.0
 11
692.704223688619
 21
840.4151156117107
 31
0.0
  0
LINE
  5
2E63
330
1F
100
AcDbEntity
  8
ｴｸｽﾃﾝｼｮﾝﾌﾚｰﾑ
100
AcDbLine
 10
675.1245136886191
 20
854.6481556117107
 30
0.0
 11
675.1245136886191
 21
851.1481556117107
 31
0.0
  0
ARC
  5
2E64
330
1F
100
AcDbEntity
  8
ｴｸｽﾃﾝｼｮﾝﾌﾚｰﾑ
100
AcDbCircle
 10
672.724513688619
 20
854.6481556117106
 30
0.0
 40
2.399999999999999
100
AcDbArc
 50
0.0
 51
89.99999999999998
1001
GENIUS_GENODEF_13
1002
{
1000
HIER
1070
     0
1002
}
1002
{
1000
MANEDIT
1070
     0
1002
}
1002
{
1000
NOSEL
1070
     0
1002
}
1002
{
1000
BEHIND
1070
     0
1002
}
1002
{
1000
OTHER
1070
     0
1002
}
1002
{
1000
REACTOR
1002
}
1001
GENIUS_GENOBJ-N-FIL_13
1002
{
1000
OWNER
1000
GEN
1002
}
  0
LINE
  5
2E65
330
1F
100
AcDbEntity
  8
ｴｸｽﾃﾝｼｮﾝﾌﾚｰﾑ
100
AcDbLine
 10
682.4811336886191
 20
844.7039456117106
 30
0.0
 11
678.9396036886191
 21
844.7039456117106
 31
0.0
  0
LINE
  5
2E66
330
1F
100
AcDbEntity
  8
ｴｸｽﾃﾝｼｮﾝﾌﾚｰﾑ
100
AcDbLine
 10
690.5127634226396
 20
839.4541256117108
 30
0.0
 11
685.4955636886188
 21
844.4713356117107
 31
0.0
  0
LINE
  5
2E67
330
1F
100
AcDbEntity
  8
ｴｸｽﾃﾝｼｮﾝﾌﾚｰﾑ
100
AcDbLine
 10
676.2895836886191
 20
851.1481556117107
 30
0.0
 11
676.2895836886191
 21
854.6481556117107
 31
0.0
  0
LINE
  5
2E68
330
1F
100
AcDbEntity
  8
ｴｸｽﾃﾝｼｮﾝﾌﾚｰﾑ
100
AcDbLine
 10
676.6896036886191
 20
851.1481556117107
 30
0.0
 11
676.6896036886191
 21
854.6481556117107
 31
0.0
  0
LINE
  5
2E69
330
1F
100
AcDbEntity
  8
ｴｸｽﾃﾝｼｮﾝﾌﾚｰﾑ
100
AcDbLine
 10
680.6811236886192
 20
842.9039356117108
 30
0.0
 11
678.845183688619
 21
842.9039356117108
 31
0.0
  0
LINE
  5
2E6A
330
1F
100
AcDbEntity
  8
ｴｸｽﾃﾝｼｮﾝﾌﾚｰﾑ
100
AcDbLine
 10
678.845183688619
 20
842.9039356117108
 30
0.0
 11
678.212353688619
 21
842.2711156117108
 31
0.0
  0
LINE
  5
2E6B
330
1F
100
AcDbEntity
  8
ｴｸｽﾃﾝｼｮﾝﾌﾚｰﾑ
100
AcDbLine
 10
683.5984214065945
 20
845.8212333296863
 30
0.0
 11
680.6811236886192
 21
842.9039356117108
 31
0.0
  0
LINE
  5
2E6C
330
1F
100
AcDbEntity
  8
ｴｸｽﾃﾝｼｮﾝﾌﾚｰﾑ
100
AcDbLine
 10
681.040793688619
 20
839.4426956117108
 30
0.0
 11
685.4955636886188
 21
843.8974656117107
 31
0.0
  0
LINE
  5
2E6D
330
1F
100
AcDbEntity
  8
ｴｸｽﾃﾝｼｮﾝﾌﾚｰﾑ
100
AcDbLine
 10
678.212353688619
 20
842.2711156117108
 30
0.0
 11
681.040793688619
 21
839.4426956117108
 31
0.0
  0
LINE
  5
2E6E
330
1F
100
AcDbEntity
  8
ｴｸｽﾃﾝｼｮﾝﾌﾚｰﾑ
100
AcDbLine
 10
683.5984214065945
 20
845.8212333296863
 30
0.0
 11
683.5989135741219
 21
847.0830556117109
 31
0.0
  0
LINE
  5
2E6F
330
1F
100
AcDbEntity
  8
ｴｸｽﾃﾝｼｮﾝﾌﾚｰﾑ
100
AcDbLine
 10
685.4955636886188
 20
843.8974656117107
 30
0.0
 11
685.4955636886188
 21
847.0820626723321
 31
0.0
  0
ARC
  5
2E70
330
1F
100
AcDbEntity
  8
ｴｸｽﾃﾝｼｮﾝﾌﾚｰﾑ
100
AcDbCircle
 10
697.6740636886191
 20
851.6326256117107
 30
0.0
 40
10.0
100
AcDbArc
 50
0.0
 51
89.99999999999998
1001
GENIUS_GENOBJ-N-FIL_13
1002
{
1000
OWNER
1000
GEN
1002
}
1001
GENIUS_GENODEF_13
1002
{
1000
HIER
1070
     0
1002
}
1002
{
1000
MANEDIT
1070
     0
1002
}
1002
{
1000
NOSEL
1070
     0
1002
}
1002
{
1000
BEHIND
1070
     0
1002
}
1002
{
1000
OTHER
1070
     0
1002
}
1002
{
1000
REACTOR
1002
}
  0
ARC
  5
2E71
330
1F
100
AcDbEntity
  8
ｴｸｽﾃﾝｼｮﾝﾌﾚｰﾑ
100
AcDbCircle
 10
697.6740636886191
 20
851.6326256117107
 30
0.0
 40
9.5
100
AcDbArc
 50
0.0
 51
89.99999999999998
1001
GENIUS_GENOBJ-N-FIL_13
1002
{
1000
OWNER
1000
GEN
1002
}
1001
GENIUS_GENODEF_13
1002
{
1000
HIER
1070
     0
1002
}
1002
{
1000
MANEDIT
1070
     0
1002
}
1002
{
1000
NOSEL
1070
     0
1002
}
1002
{
1000
BEHIND
1070
     0
1002
}
1002
{
1000
OTHER
1070
     0
1002
}
1002
{
1000
REACTOR
1002
}
  0
ARC
  5
2E72
330
1F
100
AcDbEntity
  8
ｴｸｽﾃﾝｼｮﾝﾌﾚｰﾑ
100
AcDbCircle
 10
678.9396036886191
 20
850.9981556117107
 30
0.0
 40
6.294209999999999
100
AcDbArc
 50
180.0
 51
201.7701447830919
  0
ARC
  5
2E73
330
1F
100
AcDbEntity
  8
ｴｸｽﾃﾝｼｮﾝﾌﾚｰﾑ
100
AcDbCircle
 10
678.9396036886191
 20
850.9981556117107
 30
0.0
 40
6.294209999999999
100
AcDbArc
 50
224.033062559255
 51
270.000010000001
  0
ARC
  5
2E75
330
1F
100
AcDbEntity
  8
ｴｸｽﾃﾝｼｮﾝﾌﾚｰﾑ
100
AcDbCircle
 10
679.1896036886192
 20
851.1481556117105
 30
0.0
 40
2.5
100
AcDbArc
 50
180.0
 51
270.000010000001
  0
ARC
  5
2E76
330
1F
100
AcDbEntity
  8
ｴｸｽﾃﾝｼｮﾝﾌﾚｰﾑ
100
AcDbCircle
 10
686.484583688619
 20
849.6481556117107
 30
0.0
 40
1.0
100
AcDbArc
 50
270.0
 51
9.312450000000279
  0
ARC
  5
2E77
330
1F
100
AcDbEntity
  8
ｴｸｽﾃﾝｼｮﾝﾌﾚｰﾑ
100
AcDbCircle
 10
697.339583688619
 20
851.4281556117108
 30
0.0
 40
10.0
100
AcDbArc
 50
145.5661500000021
 51
189.3124400000017
  0
ARC
  5
2E78
330
1F
100
AcDbEntity
  8
ｴｸｽﾃﾝｼｮﾝﾌﾚｰﾑ
100
AcDbCircle
 10
688.267033688619
 20
857.6481556117107
 30
0.0
 40
1.0
100
AcDbArc
 50
325.5661399999979
 51
90.00001000000098
  0
ARC
  5
2E7A
330
1F
100
AcDbEntity
  8
ｴｸｽﾃﾝｼｮﾝﾌﾚｰﾑ
100
AcDbCircle
 10
685.4419236886192
 20
845.6481556117106
 30
0.0
 40
1.43491
100
AcDbArc
 50
44.99999999999999
 51
90.00001000000098
  0
ARC
  5
2E7B
330
1F
100
AcDbEntity
  8
ｴｸｽﾃﾝｼｮﾝﾌﾚｰﾑ
100
AcDbCircle
 10
679.1896036886192
 20
851.1481556117105
 30
0.0
 40
4.06509
100
AcDbArc
 50
180.0
 51
270.000010000001
  0
ARC
  5
2E7C
330
1F
100
AcDbEntity
  8
ｴｸｽﾃﾝｼｮﾝﾌﾚｰﾑ
100
AcDbCircle
 10
672.6895936886192
 20
854.6481556117106
 30
0.0
 40
3.6
100
AcDbArc
 50
0.0000100000009937
 51
90.00001000000098
  0
ARC
  5
2E7D
330
1F
100
AcDbEntity
  8
ｴｸｽﾃﾝｼｮﾝﾌﾚｰﾑ
100
AcDbCircle
 10
672.6895936886192
 20
854.6481556117106
 30
0.0
 40
4.000020000000096
100
AcDbArc
 50
0.0000100000009937
 51
36.86972575937126
  0
ARC
  5
2E7E
330
1F
100
AcDbEntity
  8
ｴｸｽﾃﾝｼｮﾝﾌﾚｰﾑ
100
AcDbCircle
 10
676.689618688593
 20
857.6481556117107
 30
0.0
 40
1.0
100
AcDbArc
 50
90.00000000000323
 51
216.8697257593739
1001
GENIUS_GENOBJ-N-FIL_13
1002
{
1000
OWNER
1000
GEN
1002
}
1001
GENIUS_GENODEF_13
1002
{
1000
HIER
1070
     0
1002
}
1002
{
1000
MANEDIT
1070
     0
1002
}
1002
{
1000
NOSEL
1070
     0
1002
}
1002
{
1000
BEHIND
1070
     0
1002
}
1002
{
1000
OTHER
1070
     0
1002
}
1002
{
1000
REACTOR
1002
}
  0
ARC
  5
2E7F
330
1F
100
AcDbEntity
  8
ｴｸｽﾃﾝｼｮﾝﾌﾚｰﾑ
100
AcDbCircle
 10
679.1896036886192
 20
851.1481556117105
 30
0.0
 40
2.9
100
AcDbArc
 50
180.0
 51
270.000010000001
  0
ARC
  5
2E80
330
1F
100
AcDbEntity
  8
ｴｸｽﾃﾝｼｮﾝﾌﾚｰﾑ
100
AcDbCircle
 10
685.4419236886192
 20
845.6481556117106
 30
0.0
 40
2.6
100
AcDbArc
 50
44.99999999999999
 51
90.00001000000098
  0
LINE
  5
2E81
330
1F
100
AcDbEntity
  8
ｴｸｽﾃﾝｼｮﾝﾌﾚｰﾑ
100
AcDbLine
 10
684.6740636886188
 20
557.3752706117107
 30
0.0
 11
684.6740636886188
 21
565.8899906117108
 31
0.0
  0
LINE
  5
2E82
330
1F
100
AcDbEntity
  8
ｴｸｽﾃﾝｼｮﾝﾌﾚｰﾑ
100
AcDbLine
 10
687.1540636886188
 20
557.5740906117109
 30
0.0
 11
687.1540636886188
 21
565.6911606117108
 31
0.0
  0
LINE
  5
2E83
330
1F
100
AcDbEntity
  8
ｴｸｽﾃﾝｼｮﾝﾌﾚｰﾑ
100
AcDbLine
 10
688.319163688619
 20
557.9324306117107
 30
0.0
 11
688.319163688619
 21
565.3328306117108
 31
0.0
  0
LINE
  5
2E84
330
1F
100
AcDbEntity
  8
ｴｸｽﾃﾝｼｮﾝﾌﾚｰﾑ
100
AcDbLine
 10
689.7709436886189
 20
572.2295106117108
 30
0.0
 11
685.5527436886191
 21
568.0113106117109
 31
0.0
  0
LINE
  5
2E85
330
1F
100
AcDbEntity
  8
ｴｸｽﾃﾝｼｮﾝﾌﾚｰﾑ
100
AcDbLine
 10
699.4953836886188
 20
596.2326306117107
 30
0.0
 11
696.943623688619
 21
596.2326306117107
 31
0.0
  0
ARC
  5
2E86
330
1F
100
AcDbEntity
  8
ｴｸｽﾃﾝｼｮﾝﾌﾚｰﾑ
100
AcDbCircle
 10
699.4953836886191
 20
596.5326306117106
 30
0.0
 40
0.3
100
AcDbArc
 50
270.0
 51
0.0
1001
GENIUS_GENODEF_13
1002
{
1000
HIER
1070
     0
1002
}
1002
{
1000
MANEDIT
1070
     0
1002
}
1002
{
1000
NOSEL
1070
     0
1002
}
1002
{
1000
BEHIND
1070
     0
1002
}
1002
{
1000
OTHER
1070
     0
1002
}
1002
{
1000
REACTOR
1002
}
1001
GENIUS_GENOBJ-N-FIL_13
1002
{
1000
OWNER
1000
GEN
1002
}
  0
ARC
  5
2E87
330
1F
100
AcDbEntity
  8
ｴｸｽﾃﾝｼｮﾝﾌﾚｰﾑ
100
AcDbCircle
 10
696.943623688619
 20
589.9386306117106
 30
0.0
 40
6.293999999999999
100
AcDbArc
 50
89.99999999999998
 51
111.9860039892518
  0
LINE
  5
2E88
330
1F
100
AcDbEntity
  8
ｴｸｽﾃﾝｼｮﾝﾌﾚｰﾑ
100
AcDbLine
 10
692.805420511974
 20
594.4374190137186
 30
0.0
 11
694.1143514015748
 21
592.442491441671
 31
0.0
  0
LINE
  5
2E89
330
1F
100
AcDbEntity
  8
ｴｸｽﾃﾝｼｮﾝﾌﾚｰﾑ
100
AcDbLine
 10
694.4769855369827
 20
595.5314279658426
 30
0.0
 11
695.7462340460215
 21
593.5873134074584
 31
0.0
  0
ARC
  5
2E8A
330
1F
100
AcDbEntity
  8
ｴｸｽﾃﾝｼｮﾝﾌﾚｰﾑ
100
AcDbCircle
 10
692.6436436886192
 20
596.5086206117107
 30
0.0
 40
2.077509999999999
100
AcDbArc
 50
331.9418624490547
 51
274.4661746893773
  0
ARC
  5
2E8B
330
1F
100
AcDbEntity
  8
ｴｸｽﾃﾝｼｮﾝﾌﾚｰﾑ
100
AcDbCircle
 10
696.943623688619
 20
589.9386306117106
 30
0.0
 40
6.293999999999999
100
AcDbArc
 50
134.4225320980964
 51
180.0
  0
LINE
  5
2E8C
330
1F
100
AcDbEntity
  8
ｴｸｽﾃﾝｼｮﾝﾌﾚｰﾑ
100
AcDbLine
 10
697.193633688619
 20
593.8537206117108
 30
0.0
 11
700.689593688619
 21
593.8537206117108
 31
0.0
  0
ARC
  5
2E8D
330
1F
100
AcDbEntity
  8
ｴｸｽﾃﾝｼｮﾝﾌﾚｰﾑ
100
AcDbCircle
 10
700.689593688619
 20
596.2537206117107
 30
0.0
 40
2.399999999999999
100
AcDbArc
 50
270.0
 51
0.0
1001
GENIUS_GENODEF_13
1002
{
1000
HIER
1070
     0
1002
}
1002
{
1000
MANEDIT
1070
     0
1002
}
1002
{
1000
NOSEL
1070
     0
1002
}
1002
{
1000
BEHIND
1070
     0
1002
}
1002
{
1000
OTHER
1070
     0
1002
}
1002
{
1000
REACTOR
1002
}
1001
GENIUS_GENOBJ-N-FIL_13
1002
{
1000
OWNER
1000
GEN
1002
}
  0
ARC
  5
2E8E
330
1F
100
AcDbEntity
  8
ｴｸｽﾃﾝｼｮﾝﾌﾚｰﾑ
100
AcDbCircle
 10
697.193633688619
 20
589.7886306117107
 30
0.0
 40
4.06509
100
AcDbArc
 50
89.99998999999897
 51
180.0
  0
LINE
  5
2E8F
330
1F
100
AcDbEntity
  8
ｴｸｽﾃﾝｼｮﾝﾌﾚｰﾑ
100
AcDbLine
 10
693.1285336886189
 20
572.9082706117107
 30
0.0
 11
693.1285336886189
 21
589.7886306117108
 31
0.0
  0
LINE
  5
2E90
330
1F
100
AcDbEntity
  8
ｴｸｽﾃﾝｼｮﾝﾌﾚｰﾑ
100
AcDbLine
 10
700.689593688619
 20
592.6886306117108
 30
0.0
 11
697.193633688619
 21
592.6886306117108
 31
0.0
  0
ARC
  5
2E91
330
1F
100
AcDbEntity
  8
ｴｸｽﾃﾝｼｮﾝﾌﾚｰﾑ
100
AcDbCircle
 10
700.689593688619
 20
596.2886306117106
 30
0.0
 40
3.6
100
AcDbArc
 50
270.0
 51
0.0
1001
GENIUS_GENOBJ-N-FIL_13
1002
{
1000
OWNER
1000
GEN
1002
}
1001
GENIUS_GENODEF_13
1002
{
1000
HIER
1070
     0
1002
}
1002
{
1000
MANEDIT
1070
     0
1002
}
1002
{
1000
NOSEL
1070
     0
1002
}
1002
{
1000
BEHIND
1070
     0
1002
}
1002
{
1000
OTHER
1070
     0
1002
}
1002
{
1000
REACTOR
1002
}
  0
ARC
  5
2E92
330
1F
100
AcDbEntity
  8
ｴｸｽﾃﾝｼｮﾝﾌﾚｰﾑ
100
AcDbCircle
 10
703.6740636886188
 20
592.7882108055828
 30
0.0
 40
1.0
100
AcDbArc
 50
0.0000000000065011
 51
130.4510243181168
1001
GENIUS_GENODEF_13
1002
{
1000
HIER
1070
     0
1002
}
1002
{
1000
MANEDIT
1070
     0
1002
}
1002
{
1000
NOSEL
1070
     0
1002
}
1002
{
1000
BEHIND
1070
     0
1002
}
1002
{
1000
OTHER
1070
     0
1002
}
1002
{
1000
REACTOR
1002
}
1001
GENIUS_GENOBJ-N-FIL_13
1002
{
1000
OWNER
1000
GEN
1002
}
  0
ARC
  5
2E93
330
1F
100
AcDbEntity
  8
ｴｸｽﾃﾝｼｮﾝﾌﾚｰﾑ
100
AcDbCircle
 10
697.193633688619
 20
589.7886306117107
 30
0.0
 40
2.9
100
AcDbArc
 50
89.99998999999897
 51
180.0
  0
LINE
  5
2E94
330
1F
100
AcDbEntity
  8
ｴｸｽﾃﾝｼｮﾝﾌﾚｰﾑ
100
AcDbLine
 10
694.2936336886191
 20
589.7886306117108
 30
0.0
 11
694.2936336886189
 21
572.3388906117107
 31
0.0
  0
LINE
  5
2E95
330
1F
100
AcDbEntity
  8
ｴｸｽﾃﾝｼｮﾝﾌﾚｰﾑ
100
AcDbLine
 10
690.6496236886191
 20
589.9386306117107
 30
0.0
 11
690.6496236886189
 21
574.3508306117107
 31
0.0
  0
LINE
  5
2E96
330
1F
100
AcDbEntity
  8
ｴｸｽﾃﾝｼｮﾝﾌﾚｰﾑ
100
AcDbLine
 10
704.6740636886188
 20
592.7882108055829
 30
0.0
 11
704.6740636886188
 21
570.5030406117107
 31
0.0
  0
ARC
  5
2E97
330
1F
100
AcDbEntity
  8
ｴｸｽﾃﾝｼｮﾝﾌﾚｰﾑ
100
AcDbCircle
 10
687.674063688619
 20
565.8899906117106
 30
0.0
 40
3.0
100
AcDbArc
 50
135.0
 51
180.0
  0
ARC
  5
2E98
330
1F
100
AcDbEntity
  8
ｴｸｽﾃﾝｼｮﾝﾌﾚｰﾑ
100
AcDbCircle
 10
687.6496236886191
 20
574.3508306117106
 30
0.0
 40
3.0
100
AcDbArc
 50
315.0
 51
0.0
  0
ARC
  5
2E99
330
1F
100
AcDbEntity
  8
ｴｸｽﾃﾝｼｮﾝﾌﾚｰﾑ
100
AcDbCircle
 10
703.674063688619
 20
570.5030406117107
 30
0.0
 40
1.0
100
AcDbArc
 50
234.4688499999991
 51
0.0
  0
ARC
  5
2E9A
330
1F
100
AcDbEntity
  8
ｴｸｽﾃﾝｼｮﾝﾌﾚｰﾑ
100
AcDbCircle
 10
697.339583688619
 20
561.6326306117106
 30
0.0
 40
9.9
100
AcDbArc
 50
54.46884999999907
 51
100.8186800000004
  0
ARC
  5
2E9B
330
1F
100
AcDbEntity
  8
ｴｸｽﾃﾝｼｮﾝﾌﾚｰﾑ
100
AcDbCircle
 10
695.2936336886191
 20
572.3388906117106
 30
0.0
 40
1.0
100
AcDbArc
 50
180.0
 51
280.8186800000004
  0
LINE
  5
2E9C
330
1F
100
AcDbEntity
  8
ｴｸｽﾃﾝｼｮﾝﾌﾚｰﾑ
100
AcDbLine
 10
692.5427436886188
 20
571.4940606117107
 30
0.0
 11
687.4469636886187
 21
566.3982706117108
 31
0.0
  0
ARC
  5
2E9D
330
1F
100
AcDbEntity
  8
ｴｸｽﾃﾝｼｮﾝﾌﾚｰﾑ
100
AcDbCircle
 10
688.1540636886191
 20
565.6911606117107
 30
0.0
 40
1.0
100
AcDbArc
 50
135.0
 51
180.0
  0
ARC
  5
2E9E
330
1F
100
AcDbEntity
  8
ｴｸｽﾃﾝｼｮﾝﾌﾚｰﾑ
100
AcDbCircle
 10
691.1285336886192
 20
572.9082706117107
 30
0.0
 40
2.0
100
AcDbArc
 50
315.0
 51
0.0
  0
LINE
  5
2E9F
330
1F
100
AcDbEntity
  8
ｴｸｽﾃﾝｼｮﾝﾌﾚｰﾑ
100
AcDbLine
 10
693.7078536886188
 20
571.0114606117108
 30
0.0
 11
688.5241936886191
 21
565.8278006117107
 31
0.0
  0
ARC
  5
2EA0
330
1F
100
AcDbEntity
  8
ｴｸｽﾃﾝｼｮﾝﾌﾚｰﾑ
100
AcDbCircle
 10
689.019163688619
 20
565.3328306117107
 30
0.0
 40
0.7
100
AcDbArc
 50
135.0
 51
180.0
  0
ARC
  5
2EA1
330
1F
100
AcDbEntity
  8
ｴｸｽﾃﾝｼｮﾝﾌﾚｰﾑ
100
AcDbCircle
 10
692.2936336886191
 20
572.4256706117107
 30
0.0
 40
2.0
100
AcDbArc
 50
315.0
 51
0.0
  0
CIRCLE
  5
2EAA
330
1F
100
AcDbEntity
  8
ｴｸｽﾃﾝｼｮﾝﾌﾚｰﾑ
100
AcDbCircle
 10
672.339593688619
 20
846.7281556117107
 30
0.0
 40
2.077509999999989
  0
LINE
  5
2EAB
330
1F
100
AcDbEntity
  8
ｴｸｽﾃﾝｼｮﾝﾌﾚｰﾑ
100
AcDbLine
 10
673.4240636886188
 20
861.3326256117106
 30
0.0
 11
676.9240636886188
 21
861.3326256117106
 31
0.0
  0
LINE
  5
2EAC
330
1F
100
AcDbEntity
  8
ｴｸｽﾃﾝｼｮﾝﾌﾚｰﾑ
100
AcDbLine
 10
679.4240636886188
 20
861.3326256117106
 30
0.0
 11
682.9240636886188
 21
861.3326256117106
 31
0.0
  0
ARC
  5
2EAD
330
1F
100
AcDbEntity
  8
ｴｸｽﾃﾝｼｮﾝﾌﾚｰﾑ
100
AcDbCircle
 10
673.1240636886191
 20
861.3326256117108
 30
0.0
 40
0.3
100
AcDbArc
 50
359.9999999999772
 51
90.00000000002115
1001
GENIUS_GENOBJ-N-FIL_13
1002
{
1000
OWNER
1000
GEN
1002
}
1001
GENIUS_GENODEF_13
1002
{
1000
HIER
1070
     0
1002
}
1002
{
1000
MANEDIT
1070
     0
1002
}
1002
{
1000
NOSEL
1070
     0
1002
}
1002
{
1000
BEHIND
1070
     0
1002
}
1002
{
1000
OTHER
1070
     0
1002
}
1002
{
1000
REACTOR
1002
}
  0
ARC
  5
2EAE
330
1F
100
AcDbEntity
  8
ｴｸｽﾃﾝｼｮﾝﾌﾚｰﾑ
100
AcDbCircle
 10
677.224063688619
 20
861.3326256117108
 30
0.0
 40
0.3
100
AcDbArc
 50
89.99999999998859
 51
180.0000000000325
1001
GENIUS_GENOBJ-N-FIL_13
1002
{
1000
OWNER
1000
GEN
1002
}
1001
GENIUS_GENODEF_13
1002
{
1000
HIER
1070
     0
1002
}
1002
{
1000
MANEDIT
1070
     0
1002
}
1002
{
1000
NOSEL
1070
     0
1002
}
1002
{
1000
BEHIND
1070
     0
1002
}
1002
{
1000
OTHER
1070
     0
1002
}
1002
{
1000
REACTOR
1002
}
  0
ARC
  5
2EAF
330
1F
100
AcDbEntity
  8
ｴｸｽﾃﾝｼｮﾝﾌﾚｰﾑ
100
AcDbCircle
 10
679.1240636886191
 20
861.3326256117108
 30
0.0
 40
0.3
100
AcDbArc
 50
359.9999999999772
 51
90.00000000001138
1001
GENIUS_GENOBJ-N-FIL_13
1002
{
1000
OWNER
1000
GEN
1002
}
1001
GENIUS_GENODEF_13
1002
{
1000
HIER
1070
     0
1002
}
1002
{
1000
MANEDIT
1070
     0
1002
}
1002
{
1000
NOSEL
1070
     0
1002
}
1002
{
1000
BEHIND
1070
     0
1002
}
1002
{
1000
OTHER
1070
     0
1002
}
1002
{
1000
REACTOR
1002
}
  0
ARC
  5
2EB0
330
1F
100
AcDbEntity
  8
ｴｸｽﾃﾝｼｮﾝﾌﾚｰﾑ
100
AcDbCircle
 10
683.224063688619
 20
861.3326256117108
 30
0.0
 40
0.3
100
AcDbArc
 50
89.99999999998859
 51
180.0000000000325
1001
GENIUS_GENOBJ-N-FIL_13
1002
{
1000
OWNER
1000
GEN
1002
}
1001
GENIUS_GENODEF_13
1002
{
1000
HIER
1070
     0
1002
}
1002
{
1000
MANEDIT
1070
     0
1002
}
1002
{
1000
NOSEL
1070
     0
1002
}
1002
{
1000
BEHIND
1070
     0
1002
}
1002
{
1000
OTHER
1070
     0
1002
}
1002
{
1000
REACTOR
1002
}
  0
LINE
  5
2EB1
330
1F
100
AcDbEntity
  8
ｴｸｽﾃﾝｼｮﾝﾌﾚｰﾑ
100
AcDbLine
 10
707.6740636886188
 20
595.1826256117105
 30
0.0
 11
707.6740636886188
 21
827.0826256117107
 31
0.0
  0
LINE
  5
2EB2
330
1F
100
AcDbEntity
  8
ｴｸｽﾃﾝｼｮﾝﾌﾚｰﾑ
100
AcDbLine
 10
707.1740636886188
 20
271.6326256117106
 30
0.0
 11
707.1740636886188
 21
851.6326256117107
 31
0.0
  0
LINE
  5
2EB3
330
1F
100
AcDbEntity
  8
ｴｸｽﾃﾝｼｮﾝﾌﾚｰﾑ
100
AcDbLine
 10
704.2895936886188
 20
596.2886306117106
 30
0.0
 11
704.2895936886188
 21
826.6481556117108
 31
0.0
  0
LINE
  5
2EB4
330
1F
100
AcDbEntity
  8
ｴｸｽﾃﾝｼｮﾝﾌﾚｰﾑ
100
AcDbLine
 10
703.0895936886188
 20
826.6830756117109
 30
0.0
 11
703.089593688619
 21
596.2537206117108
 31
0.0
  0
LINE
  5
2EB5
330
1F
100
AcDbEntity
  8
ｴｸｽﾃﾝｼｮﾝﾌﾚｰﾑ
100
AcDbLine
 10
699.795383688619
 20
596.5326306117106
 30
0.0
 11
699.795383688619
 21
826.303935611711
 31
0.0
  0
LINE
  5
2EB6
330
1F
100
AcDbEntity
  8
ｴｸｽﾃﾝｼｮﾝﾌﾚｰﾑ
100
AcDbLine
 10
707.6740636886188
 20
831.1826256117107
 30
0.0
 11
707.6740636886188
 21
833.0826256117106
 31
0.0
  0
LINE
  5
2EB7
330
1F
100
AcDbEntity
  8
ｴｸｽﾃﾝｼｮﾝﾌﾚｰﾑ
100
AcDbLine
 10
707.6740636886188
 20
837.1826256117106
 30
0.0
 11
707.6740636886188
 21
851.6326256117107
 31
0.0
  0
LINE
  5
2EB8
330
1F
100
AcDbEntity
  8
ｴｸｽﾃﾝｼｮﾝﾌﾚｰﾑ
100
AcDbLine
 10
704.689593688619
 20
830.6481806116845
 30
0.0
 11
704.689593688619
 21
842.2255956117108
 31
0.0
  0
LINE
  5
2EB9
330
1F
100
AcDbEntity
  8
ｴｸｽﾃﾝｼｮﾝﾌﾚｰﾑ
100
AcDbLine
 10
694.5991836720532
 20
827.282354927204
 30
0.0
 11
695.8688691688935
 21
829.3036053701364
 31
0.0
  0
LINE
  5
2EBA
330
1F
100
AcDbEntity
  8
ｴｸｽﾃﾝｼｮﾝﾌﾚｰﾑ
100
AcDbLine
 10
697.0395936886188
 20
826.6039356117108
 30
0.0
 11
699.4953836886188
 21
826.6039356117108
 31
0.0
  0
ARC
  5
2EBB
330
1F
100
AcDbEntity
  8
ｴｸｽﾃﾝｼｮﾝﾌﾚｰﾑ
100
AcDbCircle
 10
699.4953836886188
 20
826.3039356117108
 30
0.0
 40
0.3
100
AcDbArc
 50
0.0
 51
89.99999999999998
1001
GENIUS_GENODEF_13
1002
{
1000
HIER
1070
     0
1002
}
1002
{
1000
MANEDIT
1070
     0
1002
}
1002
{
1000
NOSEL
1070
     0
1002
}
1002
{
1000
BEHIND
1070
     0
1002
}
1002
{
1000
OTHER
1070
     0
1002
}
1002
{
1000
REACTOR
1002
}
1001
GENIUS_GENOBJ-N-FIL_13
1002
{
1000
OWNER
1000
GEN
1002
}
  0
LINE
  5
2EBC
330
1F
100
AcDbEntity
  8
ｴｸｽﾃﾝｼｮﾝﾌﾚｰﾑ
100
AcDbLine
 10
694.2396194191124
 20
830.3512729578271
 30
0.0
 11
692.9158931490952
 21
828.370507963017
 31
0.0
  0
LINE
  5
2EBD
330
1F
100
AcDbEntity
  8
ｴｸｽﾃﾝｼｮﾝﾌﾚｰﾑ
100
AcDbLine
 10
694.6895936886189
 20
840.4431456117109
 30
0.0
 11
694.6895936886189
 21
833.1481656117109
 31
0.0
  0
LINE
  5
2EBE
330
1F
100
AcDbEntity
  8
ｴｸｽﾃﾝｼｮﾝﾌﾚｰﾑ
100
AcDbLine
 10
694.2895936886189
 20
839.4004856117108
 30
0.0
 11
694.2895936886189
 21
833.1481656117109
 31
0.0
  0
LINE
  5
2EBF
330
1F
100
AcDbEntity
  8
ｴｸｽﾃﾝｼｮﾝﾌﾚｰﾑ
100
AcDbLine
 10
693.1244936886189
 20
833.1481656117109
 30
0.0
 11
693.1244936886189
 21
839.4004856117108
 31
0.0
  0
LINE
  5
2EC0
330
1F
100
AcDbEntity
  8
ｴｸｽﾃﾝｼｮﾝﾌﾚｰﾑ
100
AcDbLine
 10
700.689593688619
 20
829.0830756117108
 30
0.0
 11
697.1895936886189
 21
829.0830756117108
 31
0.0
  0
ARC
  5
2EC1
330
1F
100
AcDbEntity
  8
ｴｸｽﾃﾝｼｮﾝﾌﾚｰﾑ
100
AcDbCircle
 10
700.689593688619
 20
826.6830756117109
 30
0.0
 40
2.399999999999999
100
AcDbArc
 50
0.0
 51
89.99999999999998
1001
GENIUS_GENODEF_13
1002
{
1000
HIER
1070
     0
1002
}
1002
{
1000
MANEDIT
1070
     0
1002
}
1002
{
1000
NOSEL
1070
     0
1002
}
1002
{
1000
BEHIND
1070
     0
1002
}
1002
{
1000
OTHER
1070
     0
1002
}
1002
{
1000
REACTOR
1002
}
1001
GENIUS_GENOBJ-N-FIL_13
1002
{
1000
OWNER
1000
GEN
1002
}
  0
LINE
  5
2EC2
330
1F
100
AcDbEntity
  8
ｴｸｽﾃﾝｼｮﾝﾌﾚｰﾑ
100
AcDbLine
 10
690.7453836886189
 20
836.4396956117108
 30
0.0
 11
690.7453836886189
 21
832.8981656117107
 31
0.0
  0
LINE
  5
2EC3
330
1F
100
AcDbEntity
  8
ｴｸｽﾃﾝｼｮﾝﾌﾚｰﾑ
100
AcDbLine
 10
697.1895936886189
 20
830.2481456117108
 30
0.0
 11
700.689593688619
 21
830.2481456117108
 31
0.0
  0
LINE
  5
2EC4
330
1F
100
AcDbEntity
  8
ｴｸｽﾃﾝｼｮﾝﾌﾚｰﾑ
100
AcDbLine
 10
697.1895936886189
 20
830.6481656117108
 30
0.0
 11
700.689593688619
 21
830.6481656117108
 31
0.0
  0
LINE
  5
2EC5
330
1F
100
AcDbEntity
  8
ｴｸｽﾃﾝｼｮﾝﾌﾚｰﾑ
100
AcDbLine
 10
688.9453736886189
 20
834.6396856117108
 30
0.0
 11
688.9453736886189
 21
832.803745611711
 31
0.0
  0
LINE
  5
2EC6
330
1F
100
AcDbEntity
  8
ｴｸｽﾃﾝｼｮﾝﾌﾚｰﾑ
100
AcDbLine
 10
688.9453736886189
 20
832.803745611711
 30
0.0
 11
688.3125536886189
 21
832.1709156117108
 31
0.0
  0
LINE
  5
2EC7
330
1F
100
AcDbEntity
  8
ｴｸｽﾃﾝｼｮﾝﾌﾚｰﾑ
100
AcDbLine
 10
691.8626714065944
 20
837.5569833296864
 30
0.0
 11
688.9453736886189
 21
834.6396856117108
 31
0.0
  0
LINE
  5
2EC8
330
1F
100
AcDbEntity
  8
ｴｸｽﾃﾝｼｮﾝﾌﾚｰﾑ
100
AcDbLine
 10
685.4841336886188
 20
834.9993556117109
 30
0.0
 11
689.9389036886189
 21
839.4541256117108
 31
0.0
  0
LINE
  5
2EC9
330
1F
100
AcDbEntity
  8
ｴｸｽﾃﾝｼｮﾝﾌﾚｰﾑ
100
AcDbLine
 10
688.3125536886189
 20
832.1709156117108
 30
0.0
 11
685.4841336886188
 21
834.9993556117109
 31
0.0
  0
LINE
  5
2ECA
330
1F
100
AcDbEntity
  8
ｴｸｽﾃﾝｼｮﾝﾌﾚｰﾑ
100
AcDbLine
 10
691.8626714065944
 20
837.5569833296864
 30
0.0
 11
693.1244936886189
 21
837.5574754972138
 31
0.0
  0
LINE
  5
2ECB
330
1F
100
AcDbEntity
  8
ｴｸｽﾃﾝｼｮﾝﾌﾚｰﾑ
100
AcDbLine
 10
689.9389036886189
 20
839.4541256117108
 30
0.0
 11
693.1235007492403
 21
839.4541256117108
 31
0.0
  0
ARC
  5
2ECC
330
1F
100
AcDbEntity
  8
ｴｸｽﾃﾝｼｮﾝﾌﾚｰﾑ
100
AcDbCircle
 10
697.0395936886188
 20
832.8981656117107
 30
0.0
 40
6.294209999999999
100
AcDbArc
 50
248.2298552169096
 51
270.0
  0
ARC
  5
2ECD
330
1F
100
AcDbEntity
  8
ｴｸｽﾃﾝｼｮﾝﾌﾚｰﾑ
100
AcDbCircle
 10
697.0395936886188
 20
832.8981656117107
 30
0.0
 40
6.294209999999999
100
AcDbArc
 50
179.999989999999
 51
225.9669374407461
  0
ARC
  5
2ECE
330
1F
100
AcDbEntity
  8
ｴｸｽﾃﾝｼｮﾝﾌﾚｰﾑ
100
AcDbCircle
 10
697.1895936886189
 20
833.1481656117107
 30
0.0
 40
2.5
100
AcDbArc
 50
179.999989999999
 51
270.0
  0
ARC
  5
2ECF
330
1F
100
AcDbEntity
  8
ｴｸｽﾃﾝｼｮﾝﾌﾚｰﾑ
100
AcDbCircle
 10
695.689593688619
 20
840.4431456117109
 30
0.0
 40
1.0
100
AcDbArc
 50
80.68754999999969
 51
180.0
  0
ARC
  5
2ED0
330
1F
100
AcDbEntity
  8
ｴｸｽﾃﾝｼｮﾝﾌﾚｰﾑ
100
AcDbCircle
 10
697.4695936886189
 20
851.2981456117108
 30
0.0
 40
10.0
100
AcDbArc
 50
260.6875599999999
 51
304.4338499999979
  0
ARC
  5
2ED1
330
1F
100
AcDbEntity
  8
ｴｸｽﾃﾝｼｮﾝﾌﾚｰﾑ
100
AcDbCircle
 10
703.6895936886189
 20
842.2255956117108
 30
0.0
 40
1.0
100
AcDbArc
 50
359.999989999999
 51
124.4338600000007
  0
ARC
  5
2ED2
330
1F
100
AcDbEntity
  8
ｴｸｽﾃﾝｼｮﾝﾌﾚｰﾑ
100
AcDbCircle
 10
691.689593688619
 20
839.4004856117108
 30
0.0
 40
1.43491
100
AcDbArc
 50
359.999989999999
 51
44.99999999999999
  0
ARC
  5
2ED3
330
1F
100
AcDbEntity
  8
ｴｸｽﾃﾝｼｮﾝﾌﾚｰﾑ
100
AcDbCircle
 10
697.1895936886189
 20
833.1481656117107
 30
0.0
 40
4.06509
100
AcDbArc
 50
179.999989999999
 51
270.0
  0
ARC
  5
2ED4
330
1F
100
AcDbEntity
  8
ｴｸｽﾃﾝｼｮﾝﾌﾚｰﾑ
100
AcDbCircle
 10
700.689593688619
 20
826.6481556117108
 30
0.0
 40
3.6
100
AcDbArc
 50
359.999989999999
 51
89.99999000000061
  0
ARC
  5
2ED5
330
1F
100
AcDbEntity
  8
ｴｸｽﾃﾝｼｮﾝﾌﾚｰﾑ
100
AcDbCircle
 10
700.689593688619
 20
826.6481556117108
 30
0.0
 40
4.000020000000096
100
AcDbArc
 50
53.13027424062838
 51
89.99999000000061
  0
ARC
  5
2ED6
330
1F
100
AcDbEntity
  8
ｴｸｽﾃﾝｼｮﾝﾌﾚｰﾑ
100
AcDbCircle
 10
703.6895936886189
 20
830.6481806116847
 30
0.0
 40
1.0
100
AcDbArc
 50
233.1302742406252
 51
359.9999999999968
1001
GENIUS_GENOBJ-N-FIL_13
1002
{
1000
OWNER
1000
GEN
1002
}
1001
GENIUS_GENODEF_13
1002
{
1000
HIER
1070
     0
1002
}
1002
{
1000
MANEDIT
1070
     0
1002
}
1002
{
1000
NOSEL
1070
     0
1002
}
1002
{
1000
BEHIND
1070
     0
1002
}
1002
{
1000
OTHER
1070
     0
1002
}
1002
{
1000
REACTOR
1002
}
  0
ARC
  5
2ED7
330
1F
100
AcDbEntity
  8
ｴｸｽﾃﾝｼｮﾝﾌﾚｰﾑ
100
AcDbCircle
 10
697.1895936886189
 20
833.1481656117107
 30
0.0
 40
2.9
100
AcDbArc
 50
179.999989999999
 51
270.0
  0
ARC
  5
2ED8
330
1F
100
AcDbEntity
  8
ｴｸｽﾃﾝｼｮﾝﾌﾚｰﾑ
100
AcDbCircle
 10
691.689593688619
 20
839.4004856117108
 30
0.0
 40
2.6
100
AcDbArc
 50
359.999989999999
 51
44.99999999999999
  0
CIRCLE
  5
2EE1
330
1F
100
AcDbEntity
  8
ｴｸｽﾃﾝｼｮﾝﾌﾚｰﾑ
100
AcDbCircle
 10
692.7695936886189
 20
826.2981556117107
 30
0.0
 40
2.077509999999989
  0
LINE
  5
2EE2
330
1F
100
AcDbEntity
  8
ｴｸｽﾃﾝｼｮﾝﾌﾚｰﾑ
100
AcDbLine
 10
707.3740636886189
 20
827.3826256117105
 30
0.0
 11
707.3740636886189
 21
830.8826256117106
 31
0.0
  0
LINE
  5
2EE3
330
1F
100
AcDbEntity
  8
ｴｸｽﾃﾝｼｮﾝﾌﾚｰﾑ
100
AcDbLine
 10
707.3740636886189
 20
833.3826256117106
 30
0.0
 11
707.3740636886189
 21
836.8826256117106
 31
0.0
  0
ARC
  5
2EE4
330
1F
100
AcDbEntity
  8
ｴｸｽﾃﾝｼｮﾝﾌﾚｰﾑ
100
AcDbCircle
 10
707.3740636886191
 20
827.0826256117107
 30
0.0
 40
0.3
100
AcDbArc
 50
359.9999999999772
 51
90.00000000002115
1001
GENIUS_GENOBJ-N-FIL_13
1002
{
1000
OWNER
1000
GEN
1002
}
1001
GENIUS_GENODEF_13
1002
{
1000
HIER
1070
     0
1002
}
1002
{
1000
MANEDIT
1070
     0
1002
}
1002
{
1000
NOSEL
1070
     0
1002
}
1002
{
1000
BEHIND
1070
     0
1002
}
1002
{
1000
OTHER
1070
     0
1002
}
1002
{
1000
REACTOR
1002
}
  0
ARC
  5
2EE5
330
1F
100
AcDbEntity
  8
ｴｸｽﾃﾝｼｮﾝﾌﾚｰﾑ
100
AcDbCircle
 10
707.3740636886191
 20
831.1826256117106
 30
0.0
 40
0.3
100
AcDbArc
 50
269.9999999999674
 51
0.0000000000097579
1001
GENIUS_GENOBJ-N-FIL_13
1002
{
1000
OWNER
1000
GEN
1002
}
1001
GENIUS_GENODEF_13
1002
{
1000
HIER
1070
     0
1002
}
1002
{
1000
MANEDIT
1070
     0
1002
}
1002
{
1000
NOSEL
1070
     0
1002
}
1002
{
1000
BEHIND
1070
     0
1002
}
1002
{
1000
OTHER
1070
     0
1002
}
1002
{
1000
REACTOR
1002
}
  0
ARC
  5
2EE6
330
1F
100
AcDbEntity
  8
ｴｸｽﾃﾝｼｮﾝﾌﾚｰﾑ
100
AcDbCircle
 10
707.3740636886191
 20
833.0826256117106
 30
0.0
 40
0.3
100
AcDbArc
 50
359.9999999999902
 51
90.00000000002115
1001
GENIUS_GENOBJ-N-FIL_13
1002
{
1000
OWNER
1000
GEN
1002
}
1001
GENIUS_GENODEF_13
1002
{
1000
HIER
1070
     0
1002
}
1002
{
1000
MANEDIT
1070
     0
1002
}
1002
{
1000
NOSEL
1070
     0
1002
}
1002
{
1000
BEHIND
1070
     0
1002
}
1002
{
1000
OTHER
1070
     0
1002
}
1002
{
1000
REACTOR
1002
}
  0
ARC
  5
2EE7
330
1F
100
AcDbEntity
  8
ｴｸｽﾃﾝｼｮﾝﾌﾚｰﾑ
100
AcDbCircle
 10
707.3740636886191
 20
837.1826256117106
 30
0.0
 40
0.3
100
AcDbArc
 50
269.9999999999674
 51
0.0000000000097579
1001
GENIUS_GENOBJ-N-FIL_13
1002
{
1000
OWNER
1000
GEN
1002
}
1001
GENIUS_GENODEF_13
1002
{
1000
HIER
1070
     0
1002
}
1002
{
1000
MANEDIT
1070
     0
1002
}
1002
{
1000
NOSEL
1070
     0
1002
}
1002
{
1000
BEHIND
1070
     0
1002
}
1002
{
1000
OTHER
1070
     0
1002
}
1002
{
1000
REACTOR
1002
}
  0
LINE
  5
2EF2
330
1F
100
AcDbEntity
  8
ｴｸｽﾃﾝｼｮﾝﾌﾚｰﾑ
100
AcDbLine
 10
707.6740636886188
 20
538.1826256117106
 30
0.0
 11
707.6740636886188
 21
585.0826256117105
 31
0.0
  0
LINE
  5
2EF3
330
1F
100
AcDbEntity
  8
ｴｸｽﾃﾝｼｮﾝﾌﾚｰﾑ
100
AcDbLine
 10
707.6740636886188
 20
589.1826256117106
 30
0.0
 11
707.6740636886188
 21
591.0826256117105
 31
0.0
  0
LINE
  5
2EF4
330
1F
100
AcDbEntity
  8
ｴｸｽﾃﾝｼｮﾝﾌﾚｰﾑ
100
AcDbLine
 10
707.3740636886189
 20
585.3826256117106
 30
0.0
 11
707.3740636886189
 21
588.8826256117106
 31
0.0
  0
LINE
  5
2EF5
330
1F
100
AcDbEntity
  8
ｴｸｽﾃﾝｼｮﾝﾌﾚｰﾑ
100
AcDbLine
 10
707.3740636886189
 20
591.3826256117106
 30
0.0
 11
707.3740636886189
 21
594.8826256117106
 31
0.0
  0
ARC
  5
2EF6
330
1F
100
AcDbEntity
  8
ｴｸｽﾃﾝｼｮﾝﾌﾚｰﾑ
100
AcDbCircle
 10
707.3740636886191
 20
585.0826256117106
 30
0.0
 40
0.3
100
AcDbArc
 50
359.9999999999772
 51
90.00000000002115
1001
GENIUS_GENOBJ-N-FIL_13
1002
{
1000
OWNER
1000
GEN
1002
}
1001
GENIUS_GENODEF_13
1002
{
1000
HIER
1070
     0
1002
}
1002
{
1000
MANEDIT
1070
     0
1002
}
1002
{
1000
NOSEL
1070
     0
1002
}
1002
{
1000
BEHIND
1070
     0
1002
}
1002
{
1000
OTHER
1070
     0
1002
}
1002
{
1000
REACTOR
1002
}
  0
ARC
  5
2EF7
330
1F
100
AcDbEntity
  8
ｴｸｽﾃﾝｼｮﾝﾌﾚｰﾑ
100
AcDbCircle
 10
707.3740636886191
 20
589.1826256117106
 30
0.0
 40
0.3
100
AcDbArc
 50
269.9999999999674
 51
0.0000000000097579
1001
GENIUS_GENOBJ-N-FIL_13
1002
{
1000
OWNER
1000
GEN
1002
}
1001
GENIUS_GENODEF_13
1002
{
1000
HIER
1070
     0
1002
}
1002
{
1000
MANEDIT
1070
     0
1002
}
1002
{
1000
NOSEL
1070
     0
1002
}
1002
{
1000
BEHIND
1070
     0
1002
}
1002
{
1000
OTHER
1070
     0
1002
}
1002
{
1000
REACTOR
1002
}
  0
ARC
  5
2EF8
330
1F
100
AcDbEntity
  8
ｴｸｽﾃﾝｼｮﾝﾌﾚｰﾑ
100
AcDbCircle
 10
707.3740636886191
 20
591.0826256117107
 30
0.0
 40
0.3
100
AcDbArc
 50
359.9999999999902
 51
90.00000000002115
1001
GENIUS_GENOBJ-N-FIL_13
1002
{
1000
OWNER
1000
GEN
1002
}
1001
GENIUS_GENODEF_13
1002
{
1000
HIER
1070
     0
1002
}
1002
{
1000
MANEDIT
1070
     0
1002
}
1002
{
1000
NOSEL
1070
     0
1002
}
1002
{
1000
BEHIND
1070
     0
1002
}
1002
{
1000
OTHER
1070
     0
1002
}
1002
{
1000
REACTOR
1002
}
  0
ARC
  5
2EF9
330
1F
100
AcDbEntity
  8
ｴｸｽﾃﾝｼｮﾝﾌﾚｰﾑ
100
AcDbCircle
 10
707.3740636886191
 20
595.1826256117105
 30
0.0
 40
0.3
100
AcDbArc
 50
269.9999999999674
 51
0.0000000000097579
1001
GENIUS_GENOBJ-N-FIL_13
1002
{
1000
OWNER
1000
GEN
1002
}
1001
GENIUS_GENODEF_13
1002
{
1000
HIER
1070
     0
1002
}
1002
{
1000
MANEDIT
1070
     0
1002
}
1002
{
1000
NOSEL
1070
     0
1002
}
1002
{
1000
BEHIND
1070
     0
1002
}
1002
{
1000
OTHER
1070
     0
1002
}
1002
{
1000
REACTOR
1002
}
  0
LINE
  5
2EFA
330
1F
100
AcDbEntity
  8
ｴｸｽﾃﾝｼｮﾝﾌﾚｰﾑ
100
AcDbLine
 10
677.224063688619
 20
261.6326256117107
 30
0.0
 11
679.1240636886186
 21
261.6326256117107
 31
0.0
  0
LINE
  5
2EFB
330
1F
100
AcDbEntity
  8
ｴｸｽﾃﾝｼｮﾝﾌﾚｰﾑ
100
AcDbLine
 10
683.224063688619
 20
261.6326256117107
 30
0.0
 11
697.6740636886188
 21
261.6326256117107
 31
0.0
  0
LINE
  5
2EFC
330
1F
100
AcDbEntity
  8
ｴｸｽﾃﾝｼｮﾝﾌﾚｰﾑ
100
AcDbLine
 10
676.6896186885928
 20
264.6170956117107
 30
0.0
 11
688.267033688619
 21
264.6170956117107
 31
0.0
  0
LINE
  5
2EFD
330
1F
100
AcDbEntity
  8
ｴｸｽﾃﾝｼｮﾝﾌﾚｰﾑ
100
AcDbLine
 10
673.323793004112
 20
274.7075056282765
 30
0.0
 11
675.3450434470441
 21
273.437820131436
 31
0.0
  0
LINE
  5
2EFE
330
1F
100
AcDbEntity
  8
ｴｸｽﾃﾝｼｮﾝﾌﾚｰﾑ
100
AcDbLine
 10
693.5280836886191
 20
282.0262856117108
 30
0.0
 11
687.2804136886188
 21
275.7786256117108
 31
0.0
  0
LINE
  5
2EFF
330
1F
100
AcDbEntity
  8
ｴｸｽﾃﾝｼｮﾝﾌﾚｰﾑ
100
AcDbLine
 10
672.6453736886189
 20
272.2670956117106
 30
0.0
 11
672.6453736886189
 21
269.8113056117106
 31
0.0
  0
ARC
  5
2F00
330
1F
100
AcDbEntity
  8
ｴｸｽﾃﾝｼｮﾝﾌﾚｰﾑ
100
AcDbCircle
 10
672.3453736886187
 20
269.8113056117106
 30
0.0
 40
0.3
100
AcDbArc
 50
270.0
 51
0.0
1001
GENIUS_GENODEF_13
1002
{
1000
HIER
1070
     0
1002
}
1002
{
1000
MANEDIT
1070
     0
1002
}
1002
{
1000
NOSEL
1070
     0
1002
}
1002
{
1000
BEHIND
1070
     0
1002
}
1002
{
1000
OTHER
1070
     0
1002
}
1002
{
1000
REACTOR
1002
}
1001
GENIUS_GENOBJ-N-FIL_13
1002
{
1000
OWNER
1000
GEN
1002
}
  0
LINE
  5
2F01
330
1F
100
AcDbEntity
  8
ｴｸｽﾃﾝｼｮﾝﾌﾚｰﾑ
100
AcDbLine
 10
676.3927110347354
 20
275.0670698812173
 30
0.0
 11
674.4119460399251
 21
276.3907961512343
 31
0.0
  0
LINE
  5
2F02
330
1F
100
AcDbEntity
  8
ｴｸｽﾃﾝｼｮﾝﾌﾚｰﾑ
100
AcDbLine
 10
686.4845836886188
 20
274.6170956117107
 30
0.0
 11
679.1896036886189
 21
274.6170956117107
 31
0.0
  0
LINE
  5
2F03
330
1F
100
AcDbEntity
  8
ｴｸｽﾃﾝｼｮﾝﾌﾚｰﾑ
100
AcDbLine
 10
685.4419236886189
 20
275.0170956117106
 30
0.0
 11
679.1896036886189
 21
275.0170956117106
 31
0.0
  0
LINE
  5
2F04
330
1F
100
AcDbEntity
  8
ｴｸｽﾃﾝｼｮﾝﾌﾚｰﾑ
100
AcDbLine
 10
679.1896036886189
 20
276.1821956117108
 30
0.0
 11
685.4419236886189
 21
276.1821956117108
 31
0.0
  0
LINE
  5
2F05
330
1F
100
AcDbEntity
  8
ｴｸｽﾃﾝｼｮﾝﾌﾚｰﾑ
100
AcDbLine
 10
686.4565536886189
 20
276.6024656117108
 30
0.0
 11
692.704223688619
 21
282.8501356117106
 31
0.0
  0
LINE
  5
2F06
330
1F
100
AcDbEntity
  8
ｴｸｽﾃﾝｼｮﾝﾌﾚｰﾑ
100
AcDbLine
 10
675.1245136886189
 20
268.6170956117107
 30
0.0
 11
675.1245136886189
 21
272.1170956117108
 31
0.0
  0
ARC
  5
2F07
330
1F
100
AcDbEntity
  8
ｴｸｽﾃﾝｼｮﾝﾌﾚｰﾑ
100
AcDbCircle
 10
672.7245136886188
 20
268.6170956117107
 30
0.0
 40
2.399999999999999
100
AcDbArc
 50
270.0
 51
0.0
1001
GENIUS_GENODEF_13
1002
{
1000
HIER
1070
     0
1002
}
1002
{
1000
MANEDIT
1070
     0
1002
}
1002
{
1000
NOSEL
1070
     0
1002
}
1002
{
1000
BEHIND
1070
     0
1002
}
1002
{
1000
OTHER
1070
     0
1002
}
1002
{
1000
REACTOR
1002
}
1001
GENIUS_GENOBJ-N-FIL_13
1002
{
1000
OWNER
1000
GEN
1002
}
  0
LINE
  5
2F08
330
1F
100
AcDbEntity
  8
ｴｸｽﾃﾝｼｮﾝﾌﾚｰﾑ
100
AcDbLine
 10
682.4811336886189
 20
278.5613056117106
 30
0.0
 11
678.9396036886189
 21
278.5613056117106
 31
0.0
  0
LINE
  5
2F09
330
1F
100
AcDbEntity
  8
ｴｸｽﾃﾝｼｮﾝﾌﾚｰﾑ
100
AcDbLine
 10
690.5127634226396
 20
283.8111256117106
 30
0.0
 11
685.4955636886188
 21
278.7939156117106
 31
0.0
  0
LINE
  5
2F0A
330
1F
100
AcDbEntity
  8
ｴｸｽﾃﾝｼｮﾝﾌﾚｰﾑ
100
AcDbLine
 10
676.2895836886189
 20
272.1170956117108
 30
0.0
 11
676.2895836886189
 21
268.6170956117107
 31
0.0
  0
LINE
  5
2F0B
330
1F
100
AcDbEntity
  8
ｴｸｽﾃﾝｼｮﾝﾌﾚｰﾑ
100
AcDbLine
 10
676.6896036886189
 20
272.1170956117108
 30
0.0
 11
676.6896036886189
 21
268.6170956117107
 31
0.0
  0
LINE
  5
2F0C
330
1F
100
AcDbEntity
  8
ｴｸｽﾃﾝｼｮﾝﾌﾚｰﾑ
100
AcDbLine
 10
680.681123688619
 20
280.3613156117105
 30
0.0
 11
678.8451836886188
 21
280.3613156117105
 31
0.0
  0
LINE
  5
2F0D
330
1F
100
AcDbEntity
  8
ｴｸｽﾃﾝｼｮﾝﾌﾚｰﾑ
100
AcDbLine
 10
678.8451836886188
 20
280.3613156117105
 30
0.0
 11
678.2123536886188
 21
280.9941356117108
 31
0.0
  0
LINE
  5
2F0E
330
1F
100
AcDbEntity
  8
ｴｸｽﾃﾝｼｮﾝﾌﾚｰﾑ
100
AcDbLine
 10
683.5984214065943
 20
277.4440178937352
 30
0.0
 11
680.681123688619
 21
280.3613156117105
 31
0.0
  0
LINE
  5
2F0F
330
1F
100
AcDbEntity
  8
ｴｸｽﾃﾝｼｮﾝﾌﾚｰﾑ
100
AcDbLine
 10
681.040793688619
 20
283.8225556117107
 30
0.0
 11
685.4955636886188
 21
279.3677856117108
 31
0.0
  0
LINE
  5
2F10
330
1F
100
AcDbEntity
  8
ｴｸｽﾃﾝｼｮﾝﾌﾚｰﾑ
100
AcDbLine
 10
678.2123536886188
 20
280.9941356117108
 30
0.0
 11
681.040793688619
 21
283.8225556117107
 31
0.0
  0
LINE
  5
2F11
330
1F
100
AcDbEntity
  8
ｴｸｽﾃﾝｼｮﾝﾌﾚｰﾑ
100
AcDbLine
 10
683.5984214065943
 20
277.4440178937352
 30
0.0
 11
683.5989135741219
 21
276.1821956117108
 31
0.0
  0
LINE
  5
2F12
330
1F
100
AcDbEntity
  8
ｴｸｽﾃﾝｼｮﾝﾌﾚｰﾑ
100
AcDbLine
 10
685.4955636886188
 20
279.3677856117108
 30
0.0
 11
685.4955636886188
 21
276.1831885510894
 31
0.0
  0
ARC
  5
2F13
330
1F
100
AcDbEntity
  8
ｴｸｽﾃﾝｼｮﾝﾌﾚｰﾑ
100
AcDbCircle
 10
697.6740636886188
 20
271.6326256117106
 30
0.0
 40
10.0
100
AcDbArc
 50
270.0
 51
0.0
1001
GENIUS_GENOBJ-N-FIL_13
1002
{
1000
OWNER
1000
GEN
1002
}
1001
GENIUS_GENODEF_13
1002
{
1000
HIER
1070
     0
1002
}
1002
{
1000
MANEDIT
1070
     0
1002
}
1002
{
1000
NOSEL
1070
     0
1002
}
1002
{
1000
BEHIND
1070
     0
1002
}
1002
{
1000
OTHER
1070
     0
1002
}
1002
{
1000
REACTOR
1002
}
  0
ARC
  5
2F14
330
1F
100
AcDbEntity
  8
ｴｸｽﾃﾝｼｮﾝﾌﾚｰﾑ
100
AcDbCircle
 10
697.6740636886188
 20
271.6326256117106
 30
0.0
 40
9.5
100
AcDbArc
 50
270.0
 51
0.0
1001
GENIUS_GENOBJ-N-FIL_13
1002
{
1000
OWNER
1000
GEN
1002
}
1001
GENIUS_GENODEF_13
1002
{
1000
HIER
1070
     0
1002
}
1002
{
1000
MANEDIT
1070
     0
1002
}
1002
{
1000
NOSEL
1070
     0
1002
}
1002
{
1000
BEHIND
1070
     0
1002
}
1002
{
1000
OTHER
1070
     0
1002
}
1002
{
1000
REACTOR
1002
}
  0
ARC
  5
2F15
330
1F
100
AcDbEntity
  8
ｴｸｽﾃﾝｼｮﾝﾌﾚｰﾑ
100
AcDbCircle
 10
678.9396036886189
 20
272.2670956117106
 30
0.0
 40
6.294209999999999
100
AcDbArc
 50
158.2298552169081
 51
180.0
  0
ARC
  5
2F16
330
1F
100
AcDbEntity
  8
ｴｸｽﾃﾝｼｮﾝﾌﾚｰﾑ
100
AcDbCircle
 10
678.9396036886189
 20
272.2670956117106
 30
0.0
 40
6.294209999999999
100
AcDbArc
 50
89.99998999999897
 51
135.9669374407449
  0
ARC
  5
2F18
330
1F
100
AcDbEntity
  8
ｴｸｽﾃﾝｼｮﾝﾌﾚｰﾑ
100
AcDbCircle
 10
679.1896036886189
 20
272.1170956117108
 30
0.0
 40
2.5
100
AcDbArc
 50
89.99998999999897
 51
180.0
  0
ARC
  5
2F19
330
1F
100
AcDbEntity
  8
ｴｸｽﾃﾝｼｮﾝﾌﾚｰﾑ
100
AcDbCircle
 10
686.4845836886188
 20
273.6170956117107
 30
0.0
 40
1.0
100
AcDbArc
 50
350.6875499999997
 51
89.99999999999998
  0
ARC
  5
2F1A
330
1F
100
AcDbEntity
  8
ｴｸｽﾃﾝｼｮﾝﾌﾚｰﾑ
100
AcDbCircle
 10
697.3395836886188
 20
271.8370956117108
 30
0.0
 40
10.0
100
AcDbArc
 50
170.6875599999983
 51
214.4338499999979
  0
ARC
  5
2F1B
330
1F
100
AcDbEntity
  8
ｴｸｽﾃﾝｼｮﾝﾌﾚｰﾑ
100
AcDbCircle
 10
688.2670336886187
 20
265.6170956117108
 30
0.0
 40
1.0
100
AcDbArc
 50
269.999989999999
 51
34.43386000000206
  0
ARC
  5
2F1D
330
1F
100
AcDbEntity
  8
ｴｸｽﾃﾝｼｮﾝﾌﾚｰﾑ
100
AcDbCircle
 10
685.4419236886189
 20
277.6170956117107
 30
0.0
 40
1.43491
100
AcDbArc
 50
269.999989999999
 51
315.0
  0
ARC
  5
2F1E
330
1F
100
AcDbEntity
  8
ｴｸｽﾃﾝｼｮﾝﾌﾚｰﾑ
100
AcDbCircle
 10
679.1896036886189
 20
272.1170956117108
 30
0.0
 40
4.06509
100
AcDbArc
 50
89.99998999999897
 51
180.0
  0
ARC
  5
2F1F
330
1F
100
AcDbEntity
  8
ｴｸｽﾃﾝｼｮﾝﾌﾚｰﾑ
100
AcDbCircle
 10
672.6895936886189
 20
268.6170956117107
 30
0.0
 40
3.6
100
AcDbArc
 50
269.999989999999
 51
359.9999900000022
  0
ARC
  5
2F20
330
1F
100
AcDbEntity
  8
ｴｸｽﾃﾝｼｮﾝﾌﾚｰﾑ
100
AcDbCircle
 10
672.6895936886189
 20
268.6170956117107
 30
0.0
 40
4.000020000000096
100
AcDbArc
 50
323.1302742406287
 51
359.9999900000022
  0
ARC
  5
2F21
330
1F
100
AcDbEntity
  8
ｴｸｽﾃﾝｼｮﾝﾌﾚｰﾑ
100
AcDbCircle
 10
676.6896186885928
 20
265.6170956117108
 30
0.0
 40
1.0
100
AcDbArc
 50
143.1302742406261
 51
269.9999999999968
1001
GENIUS_GENOBJ-N-FIL_13
1002
{
1000
OWNER
1000
GEN
1002
}
1001
GENIUS_GENODEF_13
1002
{
1000
HIER
1070
     0
1002
}
1002
{
1000
MANEDIT
1070
     0
1002
}
1002
{
1000
NOSEL
1070
     0
1002
}
1002
{
1000
BEHIND
1070
     0
1002
}
1002
{
1000
OTHER
1070
     0
1002
}
1002
{
1000
REACTOR
1002
}
  0
ARC
  5
2F22
330
1F
100
AcDbEntity
  8
ｴｸｽﾃﾝｼｮﾝﾌﾚｰﾑ
100
AcDbCircle
 10
679.1896036886189
 20
272.1170956117108
 30
0.0
 40
2.9
100
AcDbArc
 50
89.99998999999897
 51
180.0
  0
ARC
  5
2F23
330
1F
100
AcDbEntity
  8
ｴｸｽﾃﾝｼｮﾝﾌﾚｰﾑ
100
AcDbCircle
 10
685.4419236886189
 20
277.6170956117107
 30
0.0
 40
2.6
100
AcDbArc
 50
269.999989999999
 51
315.0
  0
LINE
  5
2F24
330
1F
100
AcDbEntity
  8
ｴｸｽﾃﾝｼｮﾝﾌﾚｰﾑ
100
AcDbLine
 10
689.7709436886189
 20
551.0357406117106
 30
0.0
 11
685.5527436886191
 21
555.2539406117106
 31
0.0
  0
LINE
  5
2F25
330
1F
100
AcDbEntity
  8
ｴｸｽﾃﾝｼｮﾝﾌﾚｰﾑ
100
AcDbLine
 10
699.4953836886188
 20
527.0326206117107
 30
0.0
 11
696.943623688619
 21
527.0326206117107
 31
0.0
  0
ARC
  5
2F26
330
1F
100
AcDbEntity
  8
ｴｸｽﾃﾝｼｮﾝﾌﾚｰﾑ
100
AcDbCircle
 10
699.4953836886191
 20
526.7326206117107
 30
0.0
 40
0.3
100
AcDbArc
 50
0.0
 51
89.99999999999998
1001
GENIUS_GENODEF_13
1002
{
1000
HIER
1070
     0
1002
}
1002
{
1000
MANEDIT
1070
     0
1002
}
1002
{
1000
NOSEL
1070
     0
1002
}
1002
{
1000
BEHIND
1070
     0
1002
}
1002
{
1000
OTHER
1070
     0
1002
}
1002
{
1000
REACTOR
1002
}
1001
GENIUS_GENOBJ-N-FIL_13
1002
{
1000
OWNER
1000
GEN
1002
}
  0
ARC
  5
2F27
330
1F
100
AcDbEntity
  8
ｴｸｽﾃﾝｼｮﾝﾌﾚｰﾑ
100
AcDbCircle
 10
696.943623688619
 20
533.3266206117106
 30
0.0
 40
6.293999999999999
100
AcDbArc
 50
248.0139960107481
 51
270.0
  0
LINE
  5
2F28
330
1F
100
AcDbEntity
  8
ｴｸｽﾃﾝｼｮﾝﾌﾚｰﾑ
100
AcDbLine
 10
692.8054205119738
 20
528.8278322097028
 30
0.0
 11
694.1143514015748
 21
530.8227597817505
 31
0.0
  0
LINE
  5
2F29
330
1F
100
AcDbEntity
  8
ｴｸｽﾃﾝｼｮﾝﾌﾚｰﾑ
100
AcDbLine
 10
694.4769855369827
 20
527.7338232575788
 30
0.0
 11
695.7462340460215
 21
529.6779378159631
 31
0.0
  0
ARC
  5
2F2A
330
1F
100
AcDbEntity
  8
ｴｸｽﾃﾝｼｮﾝﾌﾚｰﾑ
100
AcDbCircle
 10
692.6436436886192
 20
526.7566306117105
 30
0.0
 40
2.077509999999999
100
AcDbArc
 50
85.53382531062272
 51
28.05813755094529
  0
ARC
  5
2F2B
330
1F
100
AcDbEntity
  8
ｴｸｽﾃﾝｼｮﾝﾌﾚｰﾑ
100
AcDbCircle
 10
696.943623688619
 20
533.3266206117106
 30
0.0
 40
6.293999999999999
100
AcDbArc
 50
180.0
 51
225.5774679019036
  0
LINE
  5
2F2C
330
1F
100
AcDbEntity
  8
ｴｸｽﾃﾝｼｮﾝﾌﾚｰﾑ
100
AcDbLine
 10
697.1936336886187
 20
529.4115306117106
 30
0.0
 11
700.689593688619
 21
529.4115306117106
 31
0.0
  0
ARC
  5
2F2D
330
1F
100
AcDbEntity
  8
ｴｸｽﾃﾝｼｮﾝﾌﾚｰﾑ
100
AcDbCircle
 10
700.689593688619
 20
527.0115306117105
 30
0.0
 40
2.399999999999999
100
AcDbArc
 50
0.0
 51
89.99999999999998
1001
GENIUS_GENODEF_13
1002
{
1000
HIER
1070
     0
1002
}
1002
{
1000
MANEDIT
1070
     0
1002
}
1002
{
1000
NOSEL
1070
     0
1002
}
1002
{
1000
BEHIND
1070
     0
1002
}
1002
{
1000
OTHER
1070
     0
1002
}
1002
{
1000
REACTOR
1002
}
1001
GENIUS_GENOBJ-N-FIL_13
1002
{
1000
OWNER
1000
GEN
1002
}
  0
ARC
  5
2F2E
330
1F
100
AcDbEntity
  8
ｴｸｽﾃﾝｼｮﾝﾌﾚｰﾑ
100
AcDbCircle
 10
697.193633688619
 20
533.4766206117105
 30
0.0
 40
4.06509
100
AcDbArc
 50
180.0
 51
270.000010000001
  0
LINE
  5
2F2F
330
1F
100
AcDbEntity
  8
ｴｸｽﾃﾝｼｮﾝﾌﾚｰﾑ
100
AcDbLine
 10
693.1285336886189
 20
550.3569806117106
 30
0.0
 11
693.1285336886189
 21
533.4766206117107
 31
0.0
  0
LINE
  5
2F30
330
1F
100
AcDbEntity
  8
ｴｸｽﾃﾝｼｮﾝﾌﾚｰﾑ
100
AcDbLine
 10
700.689593688619
 20
530.5766206117107
 30
0.0
 11
697.1936336886187
 21
530.5766206117107
 31
0.0
  0
ARC
  5
2F31
330
1F
100
AcDbEntity
  8
ｴｸｽﾃﾝｼｮﾝﾌﾚｰﾑ
100
AcDbCircle
 10
700.689593688619
 20
526.9766206117106
 30
0.0
 40
3.6
100
AcDbArc
 50
0.0
 51
89.99999999999998
1001
GENIUS_GENOBJ-N-FIL_13
1002
{
1000
OWNER
1000
GEN
1002
}
1001
GENIUS_GENODEF_13
1002
{
1000
HIER
1070
     0
1002
}
1002
{
1000
MANEDIT
1070
     0
1002
}
1002
{
1000
NOSEL
1070
     0
1002
}
1002
{
1000
BEHIND
1070
     0
1002
}
1002
{
1000
OTHER
1070
     0
1002
}
1002
{
1000
REACTOR
1002
}
  0
ARC
  5
2F32
330
1F
100
AcDbEntity
  8
ｴｸｽﾃﾝｼｮﾝﾌﾚｰﾑ
100
AcDbCircle
 10
703.6740636886188
 20
530.4770404178384
 30
0.0
 40
1.0
100
AcDbArc
 50
229.5489756818831
 51
359.9999999999935
1001
GENIUS_GENODEF_13
1002
{
1000
HIER
1070
     0
1002
}
1002
{
1000
MANEDIT
1070
     0
1002
}
1002
{
1000
NOSEL
1070
     0
1002
}
1002
{
1000
BEHIND
1070
     0
1002
}
1002
{
1000
OTHER
1070
     0
1002
}
1002
{
1000
REACTOR
1002
}
1001
GENIUS_GENOBJ-N-FIL_13
1002
{
1000
OWNER
1000
GEN
1002
}
  0
ARC
  5
2F33
330
1F
100
AcDbEntity
  8
ｴｸｽﾃﾝｼｮﾝﾌﾚｰﾑ
100
AcDbCircle
 10
697.193633688619
 20
533.4766206117105
 30
0.0
 40
2.9
100
AcDbArc
 50
180.0
 51
270.000010000001
  0
LINE
  5
2F34
330
1F
100
AcDbEntity
  8
ｴｸｽﾃﾝｼｮﾝﾌﾚｰﾑ
100
AcDbLine
 10
694.2936336886189
 20
533.4766206117107
 30
0.0
 11
694.2936336886189
 21
550.9263606117107
 31
0.0
  0
LINE
  5
2F35
330
1F
100
AcDbEntity
  8
ｴｸｽﾃﾝｼｮﾝﾌﾚｰﾑ
100
AcDbLine
 10
690.6496236886189
 20
533.3266206117107
 30
0.0
 11
690.6496236886189
 21
548.9144206117107
 31
0.0
  0
LINE
  5
2F36
330
1F
100
AcDbEntity
  8
ｴｸｽﾃﾝｼｮﾝﾌﾚｰﾑ
100
AcDbLine
 10
704.6740636886188
 20
530.4770404178383
 30
0.0
 11
704.6740636886188
 21
552.7622106117105
 31
0.0
  0
ARC
  5
2F37
330
1F
100
AcDbEntity
  8
ｴｸｽﾃﾝｼｮﾝﾌﾚｰﾑ
100
AcDbCircle
 10
687.674063688619
 20
557.3752606117105
 30
0.0
 40
3.0
100
AcDbArc
 50
180.0
 51
225.0
  0
ARC
  5
2F38
330
1F
100
AcDbEntity
  8
ｴｸｽﾃﾝｼｮﾝﾌﾚｰﾑ
100
AcDbCircle
 10
687.6496236886191
 20
548.9144206117106
 30
0.0
 40
3.0
100
AcDbArc
 50
0.0
 51
44.99999999999999
  0
ARC
  5
2F39
330
1F
100
AcDbEntity
  8
ｴｸｽﾃﾝｼｮﾝﾌﾚｰﾑ
100
AcDbCircle
 10
703.674063688619
 20
552.7622106117105
 30
0.0
 40
1.0
100
AcDbArc
 50
0.0
 51
125.5311500000009
  0
ARC
  5
2F3A
330
1F
100
AcDbEntity
  8
ｴｸｽﾃﾝｼｮﾝﾌﾚｰﾑ
100
AcDbCircle
 10
697.339583688619
 20
561.6326206117106
 30
0.0
 40
9.9
100
AcDbArc
 50
259.1813199999996
 51
305.5311500000009
  0
ARC
  5
2F3B
330
1F
100
AcDbEntity
  8
ｴｸｽﾃﾝｼｮﾝﾌﾚｰﾑ
100
AcDbCircle
 10
695.2936336886191
 20
550.9263606117106
 30
0.0
 40
1.0
100
AcDbArc
 50
79.18131999999959
 51
180.0
  0
LINE
  5
2F3C
330
1F
100
AcDbEntity
  8
ｴｸｽﾃﾝｼｮﾝﾌﾚｰﾑ
100
AcDbLine
 10
692.5427436886188
 20
551.7711906117106
 30
0.0
 11
687.4469636886187
 21
556.8669806117107
 31
0.0
  0
ARC
  5
2F3D
330
1F
100
AcDbEntity
  8
ｴｸｽﾃﾝｼｮﾝﾌﾚｰﾑ
100
AcDbCircle
 10
688.1540636886191
 20
557.5740906117105
 30
0.0
 40
1.0
100
AcDbArc
 50
180.0
 51
225.0
  0
ARC
  5
2F3E
330
1F
100
AcDbEntity
  8
ｴｸｽﾃﾝｼｮﾝﾌﾚｰﾑ
100
AcDbCircle
 10
691.1285336886192
 20
550.3569806117106
 30
0.0
 40
2.0
100
AcDbArc
 50
0.0
 51
44.99999999999999
  0
LINE
  5
2F3F
330
1F
100
AcDbEntity
  8
ｴｸｽﾃﾝｼｮﾝﾌﾚｰﾑ
100
AcDbLine
 10
693.7078536886188
 20
552.2537906117106
 30
0.0
 11
688.5241936886191
 21
557.4374506117107
 31
0.0
  0
ARC
  5
2F40
330
1F
100
AcDbEntity
  8
ｴｸｽﾃﾝｼｮﾝﾌﾚｰﾑ
100
AcDbCircle
 10
689.019163688619
 20
557.9324206117105
 30
0.0
 40
0.7
100
AcDbArc
 50
180.0
 51
225.0
  0
ARC
  5
2F41
330
1F
100
AcDbEntity
  8
ｴｸｽﾃﾝｼｮﾝﾌﾚｰﾑ
100
AcDbCircle
 10
692.2936336886191
 20
550.8395806117105
 30
0.0
 40
2.0
100
AcDbArc
 50
0.0
 51
44.99999999999999
  0
CIRCLE
  5
2F4A
330
1F
100
AcDbEntity
  8
ｴｸｽﾃﾝｼｮﾝﾌﾚｰﾑ
100
AcDbCircle
 10
672.3395936886188
 20
276.5370956117106
 30
0.0
 40
2.077509999999989
  0
LINE
  5
2F4B
330
1F
100
AcDbEntity
  8
ｴｸｽﾃﾝｼｮﾝﾌﾚｰﾑ
100
AcDbLine
 10
673.4240636886188
 20
261.9326256117108
 30
0.0
 11
676.9240636886188
 21
261.9326256117108
 31
0.0
  0
LINE
  5
2F4C
330
1F
100
AcDbEntity
  8
ｴｸｽﾃﾝｼｮﾝﾌﾚｰﾑ
100
AcDbLine
 10
679.4240636886188
 20
261.9326256117108
 30
0.0
 11
682.9240636886188
 21
261.9326256117108
 31
0.0
  0
ARC
  5
2F4D
330
1F
100
AcDbEntity
  8
ｴｸｽﾃﾝｼｮﾝﾌﾚｰﾑ
100
AcDbCircle
 10
673.1240636886188
 20
261.9326256117106
 30
0.0
 40
0.3
100
AcDbArc
 50
269.9999999999789
 51
0.0000000000227855
1001
GENIUS_GENOBJ-N-FIL_13
1002
{
1000
OWNER
1000
GEN
1002
}
1001
GENIUS_GENODEF_13
1002
{
1000
HIER
1070
     0
1002
}
1002
{
1000
MANEDIT
1070
     0
1002
}
1002
{
1000
NOSEL
1070
     0
1002
}
1002
{
1000
BEHIND
1070
     0
1002
}
1002
{
1000
OTHER
1070
     0
1002
}
1002
{
1000
REACTOR
1002
}
  0
ARC
  5
2F4E
330
1F
100
AcDbEntity
  8
ｴｸｽﾃﾝｼｮﾝﾌﾚｰﾑ
100
AcDbCircle
 10
677.2240636886188
 20
261.9326256117106
 30
0.0
 40
0.3
100
AcDbArc
 50
179.9999999999674
 51
270.0000000000114
1001
GENIUS_GENOBJ-N-FIL_13
1002
{
1000
OWNER
1000
GEN
1002
}
1001
GENIUS_GENODEF_13
1002
{
1000
HIER
1070
     0
1002
}
1002
{
1000
MANEDIT
1070
     0
1002
}
1002
{
1000
NOSEL
1070
     0
1002
}
1002
{
1000
BEHIND
1070
     0
1002
}
1002
{
1000
OTHER
1070
     0
1002
}
1002
{
1000
REACTOR
1002
}
  0
ARC
  5
2F4F
330
1F
100
AcDbEntity
  8
ｴｸｽﾃﾝｼｮﾝﾌﾚｰﾑ
100
AcDbCircle
 10
679.1240636886189
 20
261.9326256117106
 30
0.0
 40
0.3
100
AcDbArc
 50
269.9999999999886
 51
0.0000000000227855
1001
GENIUS_GENOBJ-N-FIL_13
1002
{
1000
OWNER
1000
GEN
1002
}
1001
GENIUS_GENODEF_13
1002
{
1000
HIER
1070
     0
1002
}
1002
{
1000
MANEDIT
1070
     0
1002
}
1002
{
1000
NOSEL
1070
     0
1002
}
1002
{
1000
BEHIND
1070
     0
1002
}
1002
{
1000
OTHER
1070
     0
1002
}
1002
{
1000
REACTOR
1002
}
  0
ARC
  5
2F50
330
1F
100
AcDbEntity
  8
ｴｸｽﾃﾝｼｮﾝﾌﾚｰﾑ
100
AcDbCircle
 10
683.2240636886187
 20
261.9326256117106
 30
0.0
 40
0.3
100
AcDbArc
 50
179.9999999999674
 51
270.0000000000114
1001
GENIUS_GENOBJ-N-FIL_13
1002
{
1000
OWNER
1000
GEN
1002
}
1001
GENIUS_GENODEF_13
1002
{
1000
HIER
1070
     0
1002
}
1002
{
1000
MANEDIT
1070
     0
1002
}
1002
{
1000
NOSEL
1070
     0
1002
}
1002
{
1000
BEHIND
1070
     0
1002
}
1002
{
1000
OTHER
1070
     0
1002
}
1002
{
1000
REACTOR
1002
}
  0
LINE
  5
2F51
330
1F
100
AcDbEntity
  8
ｴｸｽﾃﾝｼｮﾝﾌﾚｰﾑ
100
AcDbLine
 10
707.6740636886188
 20
528.0826256117107
 30
0.0
 11
707.6740636886188
 21
296.1826256117108
 31
0.0
  0
LINE
  5
2F52
330
1F
100
AcDbEntity
  8
ｴｸｽﾃﾝｼｮﾝﾌﾚｰﾑ
100
AcDbLine
 10
704.2895936886188
 20
526.9766206117106
 30
0.0
 11
704.2895936886188
 21
296.6170956117105
 31
0.0
  0
LINE
  5
2F53
330
1F
100
AcDbEntity
  8
ｴｸｽﾃﾝｼｮﾝﾌﾚｰﾑ
100
AcDbLine
 10
703.0895936886186
 20
296.5821756117107
 30
0.0
 11
703.0895936886188
 21
527.0115306117106
 31
0.0
  0
LINE
  5
2F54
330
1F
100
AcDbEntity
  8
ｴｸｽﾃﾝｼｮﾝﾌﾚｰﾑ
100
AcDbLine
 10
699.795383688619
 20
526.7326206117108
 30
0.0
 11
699.7953836886188
 21
296.9613156117105
 31
0.0
  0
LINE
  5
2F55
330
1F
100
AcDbEntity
  8
ｴｸｽﾃﾝｼｮﾝﾌﾚｰﾑ
100
AcDbLine
 10
707.6740636886188
 20
292.0826256117107
 30
0.0
 11
707.6740636886188
 21
290.1826256117108
 31
0.0
  0
LINE
  5
2F56
330
1F
100
AcDbEntity
  8
ｴｸｽﾃﾝｼｮﾝﾌﾚｰﾑ
100
AcDbLine
 10
707.6740636886188
 20
286.0826256117107
 30
0.0
 11
707.6740636886188
 21
271.6326256117106
 31
0.0
  0
LINE
  5
2F57
330
1F
100
AcDbEntity
  8
ｴｸｽﾃﾝｼｮﾝﾌﾚｰﾑ
100
AcDbLine
 10
704.689593688619
 20
292.6170706117366
 30
0.0
 11
704.689593688619
 21
281.0396556117107
 31
0.0
  0
LINE
  5
2F58
330
1F
100
AcDbEntity
  8
ｴｸｽﾃﾝｼｮﾝﾌﾚｰﾑ
100
AcDbLine
 10
694.5991836720532
 20
295.9828962962174
 30
0.0
 11
695.8688691688935
 21
293.9616458532853
 31
0.0
  0
LINE
  5
2F59
330
1F
100
AcDbEntity
  8
ｴｸｽﾃﾝｼｮﾝﾌﾚｰﾑ
100
AcDbLine
 10
697.0395936886188
 20
296.6613156117105
 30
0.0
 11
699.4953836886188
 21
296.6613156117105
 31
0.0
  0
ARC
  5
2F5A
330
1F
100
AcDbEntity
  8
ｴｸｽﾃﾝｼｮﾝﾌﾚｰﾑ
100
AcDbCircle
 10
699.4953836886186
 20
296.9613156117105
 30
0.0
 40
0.3
100
AcDbArc
 50
270.0
 51
0.0
1001
GENIUS_GENODEF_13
1002
{
1000
HIER
1070
     0
1002
}
1002
{
1000
MANEDIT
1070
     0
1002
}
1002
{
1000
NOSEL
1070
     0
1002
}
1002
{
1000
BEHIND
1070
     0
1002
}
1002
{
1000
OTHER
1070
     0
1002
}
1002
{
1000
REACTOR
1002
}
1001
GENIUS_GENOBJ-N-FIL_13
1002
{
1000
OWNER
1000
GEN
1002
}
  0
LINE
  5
2F5B
330
1F
100
AcDbEntity
  8
ｴｸｽﾃﾝｼｮﾝﾌﾚｰﾑ
100
AcDbLine
 10
694.2396194191121
 20
292.9139782655943
 30
0.0
 11
692.9158931490952
 21
294.8947432604043
 31
0.0
  0
LINE
  5
2F5C
330
1F
100
AcDbEntity
  8
ｴｸｽﾃﾝｼｮﾝﾌﾚｰﾑ
100
AcDbLine
 10
694.6895936886189
 20
282.8221056117106
 30
0.0
 11
694.6895936886189
 21
290.1170856117105
 31
0.0
  0
LINE
  5
2F5D
330
1F
100
AcDbEntity
  8
ｴｸｽﾃﾝｼｮﾝﾌﾚｰﾑ
100
AcDbLine
 10
694.2895936886189
 20
283.8647656117105
 30
0.0
 11
694.2895936886189
 21
290.1170856117105
 31
0.0
  0
LINE
  5
2F5E
330
1F
100
AcDbEntity
  8
ｴｸｽﾃﾝｼｮﾝﾌﾚｰﾑ
100
AcDbLine
 10
693.1244936886187
 20
290.1170856117105
 30
0.0
 11
693.1244936886187
 21
283.8647656117105
 31
0.0
  0
LINE
  5
2F5F
330
1F
100
AcDbEntity
  8
ｴｸｽﾃﾝｼｮﾝﾌﾚｰﾑ
100
AcDbLine
 10
700.689593688619
 20
294.1821756117106
 30
0.0
 11
697.1895936886189
 21
294.1821756117106
 31
0.0
  0
ARC
  5
2F60
330
1F
100
AcDbEntity
  8
ｴｸｽﾃﾝｼｮﾝﾌﾚｰﾑ
100
AcDbCircle
 10
700.6895936886187
 20
296.5821756117107
 30
0.0
 40
2.399999999999999
100
AcDbArc
 50
270.0
 51
0.0
1001
GENIUS_GENODEF_13
1002
{
1000
HIER
1070
     0
1002
}
1002
{
1000
MANEDIT
1070
     0
1002
}
1002
{
1000
NOSEL
1070
     0
1002
}
1002
{
1000
BEHIND
1070
     0
1002
}
1002
{
1000
OTHER
1070
     0
1002
}
1002
{
1000
REACTOR
1002
}
1001
GENIUS_GENOBJ-N-FIL_13
1002
{
1000
OWNER
1000
GEN
1002
}
  0
LINE
  5
2F61
330
1F
100
AcDbEntity
  8
ｴｸｽﾃﾝｼｮﾝﾌﾚｰﾑ
100
AcDbLine
 10
690.7453836886189
 20
286.8255556117106
 30
0.0
 11
690.7453836886189
 21
290.3670856117106
 31
0.0
  0
LINE
  5
2F62
330
1F
100
AcDbEntity
  8
ｴｸｽﾃﾝｼｮﾝﾌﾚｰﾑ
100
AcDbLine
 10
697.1895936886189
 20
293.0171056117106
 30
0.0
 11
700.689593688619
 21
293.0171056117106
 31
0.0
  0
LINE
  5
2F63
330
1F
100
AcDbEntity
  8
ｴｸｽﾃﾝｼｮﾝﾌﾚｰﾑ
100
AcDbLine
 10
697.1895936886189
 20
292.6170856117106
 30
0.0
 11
700.689593688619
 21
292.6170856117106
 31
0.0
  0
LINE
  5
2F64
330
1F
100
AcDbEntity
  8
ｴｸｽﾃﾝｼｮﾝﾌﾚｰﾑ
100
AcDbLine
 10
688.9453736886189
 20
288.6255656117105
 30
0.0
 11
688.9453736886189
 21
290.4615056117107
 31
0.0
  0
LINE
  5
2F65
330
1F
100
AcDbEntity
  8
ｴｸｽﾃﾝｼｮﾝﾌﾚｰﾑ
100
AcDbLine
 10
688.9453736886189
 20
290.4615056117107
 30
0.0
 11
688.3125536886186
 21
291.0943356117107
 31
0.0
  0
LINE
  5
2F66
330
1F
100
AcDbEntity
  8
ｴｸｽﾃﾝｼｮﾝﾌﾚｰﾑ
100
AcDbLine
 10
691.8626714065944
 20
285.7082678937352
 30
0.0
 11
688.9453736886189
 21
288.6255656117105
 31
0.0
  0
LINE
  5
2F67
330
1F
100
AcDbEntity
  8
ｴｸｽﾃﾝｼｮﾝﾌﾚｰﾑ
100
AcDbLine
 10
685.4841336886188
 20
288.2658956117107
 30
0.0
 11
689.9389036886186
 21
283.8111256117106
 31
0.0
  0
LINE
  5
2F68
330
1F
100
AcDbEntity
  8
ｴｸｽﾃﾝｼｮﾝﾌﾚｰﾑ
100
AcDbLine
 10
688.3125536886186
 20
291.0943356117107
 30
0.0
 11
685.4841336886188
 21
288.2658956117107
 31
0.0
  0
LINE
  5
2F69
330
1F
100
AcDbEntity
  8
ｴｸｽﾃﾝｼｮﾝﾌﾚｰﾑ
100
AcDbLine
 10
691.8626714065944
 20
285.7082678937352
 30
0.0
 11
693.1244936886187
 21
285.7077757262075
 31
0.0
  0
LINE
  5
2F6A
330
1F
100
AcDbEntity
  8
ｴｸｽﾃﾝｼｮﾝﾌﾚｰﾑ
100
AcDbLine
 10
689.9389036886186
 20
283.8111256117106
 30
0.0
 11
693.12350074924
 21
283.8111256117106
 31
0.0
  0
ARC
  5
2F6B
330
1F
100
AcDbEntity
  8
ｴｸｽﾃﾝｼｮﾝﾌﾚｰﾑ
100
AcDbCircle
 10
697.0395936886186
 20
290.3670856117106
 30
0.0
 40
6.294209999999999
100
AcDbArc
 50
89.99999999999998
 51
111.7701447830904
  0
ARC
  5
2F6C
330
1F
100
AcDbEntity
  8
ｴｸｽﾃﾝｼｮﾝﾌﾚｰﾑ
100
AcDbCircle
 10
697.0395936886186
 20
290.3670856117106
 30
0.0
 40
6.294209999999999
100
AcDbArc
 50
134.0330625592539
 51
180.0000100000009
  0
ARC
  5
2F6D
330
1F
100
AcDbEntity
  8
ｴｸｽﾃﾝｼｮﾝﾌﾚｰﾑ
100
AcDbCircle
 10
697.1895936886187
 20
290.1170856117105
 30
0.0
 40
2.5
100
AcDbArc
 50
89.99999999999998
 51
180.0000100000009
  0
ARC
  5
2F6E
330
1F
100
AcDbEntity
  8
ｴｸｽﾃﾝｼｮﾝﾌﾚｰﾑ
100
AcDbCircle
 10
695.6895936886187
 20
282.8221056117106
 30
0.0
 40
1.0
100
AcDbArc
 50
180.0
 51
279.3124500000003
  0
ARC
  5
2F6F
330
1F
100
AcDbEntity
  8
ｴｸｽﾃﾝｼｮﾝﾌﾚｰﾑ
100
AcDbCircle
 10
697.4695936886186
 20
271.9671056117106
 30
0.0
 40
10.0
100
AcDbArc
 50
55.56615000000207
 51
99.31244000000011
  0
ARC
  5
2F70
330
1F
100
AcDbEntity
  8
ｴｸｽﾃﾝｼｮﾝﾌﾚｰﾑ
100
AcDbCircle
 10
703.6895936886187
 20
281.0396556117107
 30
0.0
 40
1.0
100
AcDbArc
 50
235.5661399999993
 51
0.0000100000009937
  0
ARC
  5
2F71
330
1F
100
AcDbEntity
  8
ｴｸｽﾃﾝｼｮﾝﾌﾚｰﾑ
100
AcDbCircle
 10
691.6895936886187
 20
283.8647656117105
 30
0.0
 40
1.43491
100
AcDbArc
 50
315.0
 51
0.0000100000009937
  0
ARC
  5
2F72
330
1F
100
AcDbEntity
  8
ｴｸｽﾃﾝｼｮﾝﾌﾚｰﾑ
100
AcDbCircle
 10
697.1895936886187
 20
290.1170856117105
 30
0.0
 40
4.06509
100
AcDbArc
 50
89.99999999999998
 51
180.0000100000009
  0
ARC
  5
2F73
330
1F
100
AcDbEntity
  8
ｴｸｽﾃﾝｼｮﾝﾌﾚｰﾑ
100
AcDbCircle
 10
700.6895936886187
 20
296.6170956117105
 30
0.0
 40
3.6
100
AcDbArc
 50
270.0000099999993
 51
0.0000100000009937
  0
ARC
  5
2F74
330
1F
100
AcDbEntity
  8
ｴｸｽﾃﾝｼｮﾝﾌﾚｰﾑ
100
AcDbCircle
 10
700.6895936886187
 20
296.6170956117105
 30
0.0
 40
4.000020000000096
100
AcDbArc
 50
270.0000099999993
 51
306.8697257593716
  0
ARC
  5
2F75
330
1F
100
AcDbEntity
  8
ｴｸｽﾃﾝｼｮﾝﾌﾚｰﾑ
100
AcDbCircle
 10
703.6895936886187
 20
292.6170706117366
 30
0.0
 40
1.0
100
AcDbArc
 50
0.0000000000032442
 51
126.8697257593748
1001
GENIUS_GENOBJ-N-FIL_13
1002
{
1000
OWNER
1000
GEN
1002
}
1001
GENIUS_GENODEF_13
1002
{
1000
HIER
1070
     0
1002
}
1002
{
1000
MANEDIT
1070
     0
1002
}
1002
{
1000
NOSEL
1070
     0
1002
}
1002
{
1000
BEHIND
1070
     0
1002
}
1002
{
1000
OTHER
1070
     0
1002
}
1002
{
1000
REACTOR
1002
}
  0
ARC
  5
2F76
330
1F
100
AcDbEntity
  8
ｴｸｽﾃﾝｼｮﾝﾌﾚｰﾑ
100
AcDbCircle
 10
697.1895936886187
 20
290.1170856117105
 30
0.0
 40
2.9
100
AcDbArc
 50
89.99999999999998
 51
180.0000100000009
  0
ARC
  5
2F77
330
1F
100
AcDbEntity
  8
ｴｸｽﾃﾝｼｮﾝﾌﾚｰﾑ
100
AcDbCircle
 10
691.6895936886187
 20
283.8647656117105
 30
0.0
 40
2.6
100
AcDbArc
 50
315.0
 51
0.0000100000009937
  0
CIRCLE
  5
2F80
330
1F
100
AcDbEntity
  8
ｴｸｽﾃﾝｼｮﾝﾌﾚｰﾑ
100
AcDbCircle
 10
692.7695936886187
 20
296.9670956117107
 30
0.0
 40
2.077509999999989
  0
LINE
  5
2F81
330
1F
100
AcDbEntity
  8
ｴｸｽﾃﾝｼｮﾝﾌﾚｰﾑ
100
AcDbLine
 10
707.3740636886186
 20
295.8826256117106
 30
0.0
 11
707.3740636886186
 21
292.3826256117106
 31
0.0
  0
LINE
  5
2F82
330
1F
100
AcDbEntity
  8
ｴｸｽﾃﾝｼｮﾝﾌﾚｰﾑ
100
AcDbLine
 10
707.3740636886186
 20
289.8826256117106
 30
0.0
 11
707.3740636886186
 21
286.3826256117107
 31
0.0
  0
ARC
  5
2F83
330
1F
100
AcDbEntity
  8
ｴｸｽﾃﾝｼｮﾝﾌﾚｰﾑ
100
AcDbCircle
 10
707.3740636886189
 20
296.1826256117106
 30
0.0
 40
0.3
100
AcDbArc
 50
269.9999999999789
 51
0.0000000000227855
1001
GENIUS_GENOBJ-N-FIL_13
1002
{
1000
OWNER
1000
GEN
1002
}
1001
GENIUS_GENODEF_13
1002
{
1000
HIER
1070
     0
1002
}
1002
{
1000
MANEDIT
1070
     0
1002
}
1002
{
1000
NOSEL
1070
     0
1002
}
1002
{
1000
BEHIND
1070
     0
1002
}
1002
{
1000
OTHER
1070
     0
1002
}
1002
{
1000
REACTOR
1002
}
  0
ARC
  5
2F84
330
1F
100
AcDbEntity
  8
ｴｸｽﾃﾝｼｮﾝﾌﾚｰﾑ
100
AcDbCircle
 10
707.3740636886189
 20
292.0826256117107
 30
0.0
 40
0.3
100
AcDbArc
 50
359.9999999999902
 51
90.00000000003256
1001
GENIUS_GENOBJ-N-FIL_13
1002
{
1000
OWNER
1000
GEN
1002
}
1001
GENIUS_GENODEF_13
1002
{
1000
HIER
1070
     0
1002
}
1002
{
1000
MANEDIT
1070
     0
1002
}
1002
{
1000
NOSEL
1070
     0
1002
}
1002
{
1000
BEHIND
1070
     0
1002
}
1002
{
1000
OTHER
1070
     0
1002
}
1002
{
1000
REACTOR
1002
}
  0
ARC
  5
2F85
330
1F
100
AcDbEntity
  8
ｴｸｽﾃﾝｼｮﾝﾌﾚｰﾑ
100
AcDbCircle
 10
707.3740636886189
 20
290.1826256117106
 30
0.0
 40
0.3
100
AcDbArc
 50
269.9999999999789
 51
0.0000000000097579
1001
GENIUS_GENOBJ-N-FIL_13
1002
{
1000
OWNER
1000
GEN
1002
}
1001
GENIUS_GENODEF_13
1002
{
1000
HIER
1070
     0
1002
}
1002
{
1000
MANEDIT
1070
     0
1002
}
1002
{
1000
NOSEL
1070
     0
1002
}
1002
{
1000
BEHIND
1070
     0
1002
}
1002
{
1000
OTHER
1070
     0
1002
}
1002
{
1000
REACTOR
1002
}
  0
ARC
  5
2F86
330
1F
100
AcDbEntity
  8
ｴｸｽﾃﾝｼｮﾝﾌﾚｰﾑ
100
AcDbCircle
 10
707.3740636886189
 20
286.0826256117107
 30
0.0
 40
0.3
100
AcDbArc
 50
359.9999999999902
 51
90.00000000003256
1001
GENIUS_GENOBJ-N-FIL_13
1002
{
1000
OWNER
1000
GEN
1002
}
1001
GENIUS_GENODEF_13
1002
{
1000
HIER
1070
     0
1002
}
1002
{
1000
MANEDIT
1070
     0
1002
}
1002
{
1000
NOSEL
1070
     0
1002
}
1002
{
1000
BEHIND
1070
     0
1002
}
1002
{
1000
OTHER
1070
     0
1002
}
1002
{
1000
REACTOR
1002
}
  0
LINE
  5
2F8F
330
1F
100
AcDbEntity
  8
ｴｸｽﾃﾝｼｮﾝﾌﾚｰﾑ
100
AcDbLine
 10
707.6740636886188
 20
534.0826256117106
 30
0.0
 11
707.6740636886188
 21
532.1826256117106
 31
0.0
  0
LINE
  5
2F90
330
1F
100
AcDbEntity
  8
ｴｸｽﾃﾝｼｮﾝﾌﾚｰﾑ
100
AcDbLine
 10
707.3740636886186
 20
537.8826256117106
 30
0.0
 11
707.3740636886186
 21
534.3826256117106
 31
0.0
  0
LINE
  5
2F91
330
1F
100
AcDbEntity
  8
ｴｸｽﾃﾝｼｮﾝﾌﾚｰﾑ
100
AcDbLine
 10
707.3740636886186
 20
531.8826256117106
 30
0.0
 11
707.3740636886186
 21
528.3826256117106
 31
0.0
  0
ARC
  5
2F92
330
1F
100
AcDbEntity
  8
ｴｸｽﾃﾝｼｮﾝﾌﾚｰﾑ
100
AcDbCircle
 10
707.3740636886191
 20
538.1826256117106
 30
0.0
 40
0.3
100
AcDbArc
 50
269.9999999999789
 51
0.0000000000227855
1001
GENIUS_GENOBJ-N-FIL_13
1002
{
1000
OWNER
1000
GEN
1002
}
1001
GENIUS_GENODEF_13
1002
{
1000
HIER
1070
     0
1002
}
1002
{
1000
MANEDIT
1070
     0
1002
}
1002
{
1000
NOSEL
1070
     0
1002
}
1002
{
1000
BEHIND
1070
     0
1002
}
1002
{
1000
OTHER
1070
     0
1002
}
1002
{
1000
REACTOR
1002
}
  0
ARC
  5
2F93
330
1F
100
AcDbEntity
  8
ｴｸｽﾃﾝｼｮﾝﾌﾚｰﾑ
100
AcDbCircle
 10
707.3740636886191
 20
534.0826256117106
 30
0.0
 40
0.3
100
AcDbArc
 50
359.9999999999902
 51
90.00000000003256
1001
GENIUS_GENOBJ-N-FIL_13
1002
{
1000
OWNER
1000
GEN
1002
}
1001
GENIUS_GENODEF_13
1002
{
1000
HIER
1070
     0
1002
}
1002
{
1000
MANEDIT
1070
     0
1002
}
1002
{
1000
NOSEL
1070
     0
1002
}
1002
{
1000
BEHIND
1070
     0
1002
}
1002
{
1000
OTHER
1070
     0
1002
}
1002
{
1000
REACTOR
1002
}
  0
ARC
  5
2F94
330
1F
100
AcDbEntity
  8
ｴｸｽﾃﾝｼｮﾝﾌﾚｰﾑ
100
AcDbCircle
 10
707.3740636886191
 20
532.1826256117105
 30
0.0
 40
0.3
100
AcDbArc
 50
269.9999999999789
 51
0.0000000000097579
1001
GENIUS_GENOBJ-N-FIL_13
1002
{
1000
OWNER
1000
GEN
1002
}
1001
GENIUS_GENODEF_13
1002
{
1000
HIER
1070
     0
1002
}
1002
{
1000
MANEDIT
1070
     0
1002
}
1002
{
1000
NOSEL
1070
     0
1002
}
1002
{
1000
BEHIND
1070
     0
1002
}
1002
{
1000
OTHER
1070
     0
1002
}
1002
{
1000
REACTOR
1002
}
  0
ARC
  5
2F95
330
1F
100
AcDbEntity
  8
ｴｸｽﾃﾝｼｮﾝﾌﾚｰﾑ
100
AcDbCircle
 10
707.3740636886191
 20
528.0826256117107
 30
0.0
 40
0.3
100
AcDbArc
 50
359.9999999999902
 51
90.00000000003256
1001
GENIUS_GENOBJ-N-FIL_13
1002
{
1000
OWNER
1000
GEN
1002
}
1001
GENIUS_GENODEF_13
1002
{
1000
HIER
1070
     0
1002
}
1002
{
1000
MANEDIT
1070
     0
1002
}
1002
{
1000
NOSEL
1070
     0
1002
}
1002
{
1000
BEHIND
1070
     0
1002
}
1002
{
1000
OTHER
1070
     0
1002
}
1002
{
1000
REACTOR
1002
}
  0
LINE
  5
30AF
330
1F
100
AcDbEntity
  8
ｴｸｽﾃﾝｼｮﾝﾌﾚｰﾑ
100
AcDbLine
 10
707.6740636863555
 20
999.8977482571101
 30
0.0
 11
707.2097943198873
 21
1053.09774825711
 31
0.0
  0
LINE
  5
30C7
330
1F
100
AcDbEntity
  8
ｴｸｽﾃﾝｼｮﾝﾌﾚｰﾑ
100
AcDbLine
 10
699.8832508487467
 20
1045.429168728011
 30
0.0
 11
699.7953836863557
 21
1055.49774825711
 31
0.0
  0
LINE
  5
316D
330
1F
100
AcDbEntity
  8
ｴｸｽﾃﾝｼｮﾝﾌﾚｰﾑ
100
AcDbLine
 10
702.6895936863557
 20
994.8977482571102
 30
0.0
 11
702.2670747053016
 21
1043.313627950086
 31
0.0
  0
LINE
  5
31A0
330
1F
100
AcDbEntity
  8
ｴｸｽﾃﾝｼｮﾝﾌﾚｰﾑ
100
AcDbLine
 10
704.6895936863556
 20
994.8977482571102
 30
0.0
 11
704.2895936863556
 21
994.0977482571101
 31
0.0
  0
LINE
  5
31A2
330
1F
100
AcDbEntity
  8
ｴｸｽﾃﾝｼｮﾝﾌﾚｰﾑ
100
AcDbLine
 10
703.0895936863553
 20
994.0977482571101
 30
0.0
 11
702.6895936863557
 21
994.8977482571102
 31
0.0
  0
LINE
  5
321E
330
1F
100
AcDbEntity
  8
ｴｸｽﾃﾝｼｮﾝﾌﾚｰﾑ
100
AcDbLine
 10
704.7175196632861
 20
998.0977482571102
 30
0.0
 11
704.6895936863556
 21
994.8977482571102
 31
0.0
  0
LINE
  5
3317
330
1F
100
AcDbEntity
  8
ｴｸｽﾃﾝｼｮﾝﾌﾚｰﾑ
100
AcDbLine
 10
700.3832127718192
 20
1044.571869859725
 30
0.0
 11
702.1170861283821
 21
1043.570817610572
 31
0.0
  0
ARC
  5
331D
330
1F
100
AcDbEntity
  8
ｴｸｽﾃﾝｼｮﾝﾌﾚｰﾑ
100
AcDbCircle
 10
700.8832127718194
 20
1045.43789526351
 30
0.0
 40
1.0
100
AcDbArc
 50
180.5000000000078
 51
239.9999999999995
1001
GENIUS_GENODEF_13
1002
{
1000
HIER
1070
     0
1002
}
1002
{
1000
MANEDIT
1070
     0
1002
}
1002
{
1000
NOSEL
1070
     0
1002
}
1002
{
1000
BEHIND
1070
     0
1002
}
1002
{
1000
OTHER
1070
     0
1002
}
1002
{
1000
REACTOR
1002
}
1001
GENIUS_GENOBJ-N-FIL_13
1002
{
1000
OWNER
1000
GEN
1002
}
  0
LINE
  5
3321
330
1F
100
AcDbEntity
  8
ｴｸｽﾃﾝｼｮﾝﾌﾚｰﾑ
100
AcDbLine
 10
707.1740636863555
 20
999.5977482571102
 30
0.0
 11
707.1740636863555
 21
998.0977482571102
 31
0.0
  0
LINE
  5
33DA
330
1F
100
AcDbEntity
  8
ｴｸｽﾃﾝｼｮﾝﾌﾚｰﾑ
100
AcDbLine
 10
705.2625321542386
 20
1047.782040493213
 30
0.0
 11
705.3071914906145
 21
1052.89949356421
 31
0.0
  0
LINE
  5
33F6
330
1F
100
AcDbEntity
  8
ｴｸｽﾃﾝｼｮﾝﾌﾚｰﾑ
100
AcDbLine
 10
701.6262555946759
 20
1047.782040493213
 30
0.0
 11
701.5606517756022
 21
1055.29949356421
 31
0.0
  0
LINE
  5
3401
330
1F
100
AcDbEntity
  8
ｴｸｽﾃﾝｼｮﾝﾌﾚｰﾑ
100
AcDbLine
 10
703.4626006927233
 20
1045.99774825711
 30
0.0
 11
703.4261870561908
 21
1045.99774825711
 31
0.0
  0
ARC
  5
342D
330
1F
100
AcDbEntity
  8
ｴｸｽﾃﾝｼｮﾝﾌﾚｰﾑ
100
AcDbCircle
 10
703.4626006927235
 20
1047.79774825711
 30
0.0
 40
1.8
100
AcDbArc
 50
270.0
 51
359.4999999999986
1001
GENIUS_GENODEF_13
1002
{
1000
HIER
1070
     0
1002
}
1002
{
1000
MANEDIT
1070
     0
1002
}
1002
{
1000
NOSEL
1070
     0
1002
}
1002
{
1000
BEHIND
1070
     0
1002
}
1002
{
1000
OTHER
1070
     0
1002
}
1002
{
1000
REACTOR
1002
}
1001
GENIUS_GENOBJ-N-FIL_13
1002
{
1000
OWNER
1000
GEN
1002
}
  0
ARC
  5
342F
330
1F
100
AcDbEntity
  8
ｴｸｽﾃﾝｼｮﾝﾌﾚｰﾑ
100
AcDbCircle
 10
703.4261870561911
 20
1047.79774825711
 30
0.0
 40
1.8
100
AcDbArc
 50
180.5000000000013
 51
270.0
1001
GENIUS_GENODEF_13
1002
{
1000
HIER
1070
     0
1002
}
1002
{
1000
MANEDIT
1070
     0
1002
}
1002
{
1000
NOSEL
1070
     0
1002
}
1002
{
1000
BEHIND
1070
     0
1002
}
1002
{
1000
OTHER
1070
     0
1002
}
1002
{
1000
REACTOR
1002
}
1001
GENIUS_GENOBJ-N-FIL_13
1002
{
1000
OWNER
1000
GEN
1002
}
  0
ARC
  5
3433
330
1F
100
AcDbEntity
  8
ｴｸｽﾃﾝｼｮﾝﾌﾚｰﾑ
100
AcDbCircle
 10
705.5071838752273
 20
1052.89774825711
 30
0.0
 40
0.2
100
AcDbArc
 50
89.99999999999998
 51
179.4999999999987
1001
GENIUS_GENODEF_13
1002
{
1000
HIER
1070
     0
1002
}
1002
{
1000
MANEDIT
1070
     0
1002
}
1002
{
1000
NOSEL
1070
     0
1002
}
1002
{
1000
BEHIND
1070
     0
1002
}
1002
{
1000
OTHER
1070
     0
1002
}
1002
{
1000
REACTOR
1002
}
1001
GENIUS_GENOBJ-N-FIL_13
1002
{
1000
OWNER
1000
GEN
1002
}
  0
ARC
  5
3435
330
1F
100
AcDbEntity
  8
ｴｸｽﾃﾝｼｮﾝﾌﾚｰﾑ
100
AcDbCircle
 10
701.3606593909894
 20
1055.29774825711
 30
0.0
 40
0.2
100
AcDbArc
 50
0.5000000000013048
 51
89.99999999999998
1001
GENIUS_GENOBJ-N-FIL_13
1002
{
1000
OWNER
1000
GEN
1002
}
1001
GENIUS_GENODEF_13
1002
{
1000
HIER
1070
     0
1002
}
1002
{
1000
MANEDIT
1070
     0
1002
}
1002
{
1000
NOSEL
1070
     0
1002
}
1002
{
1000
BEHIND
1070
     0
1002
}
1002
{
1000
OTHER
1070
     0
1002
}
1002
{
1000
REACTOR
1002
}
  0
LINE
  5
3495
330
1F
100
AcDbEntity
  8
ｴｸｽﾃﾝｼｮﾝﾌﾚｰﾑ
100
AcDbLine
 10
674.4171036863559
 20
1002.59773825711
 30
0.0
 11
674.8787550797556
 21
1055.49774825711
 31
0.0
  0
LINE
  5
349B
330
1F
100
AcDbEntity
  8
ｴｸｽﾃﾝｼｮﾝﾌﾚｰﾑ
100
AcDbLine
 10
678.2123536863555
 20
1002.59773825711
 30
0.0
 11
677.7507022929557
 21
1055.49774825711
 31
0.0
  0
LINE
  5
34A1
330
1F
100
AcDbEntity
  8
ｴｸｽﾃﾝｼｮﾝﾌﾚｰﾑ
100
AcDbLine
 10
681.0407936863557
 20
1002.59773825711
 30
0.0
 11
681.0407936863557
 21
1055.49774825711
 31
0.0
  0
LINE
  5
34A7
330
1F
100
AcDbEntity
  8
ｴｸｽﾃﾝｼｮﾝﾌﾚｰﾑ
100
AcDbLine
 10
685.4841336863556
 20
1002.59773825711
 30
0.0
 11
685.0224822929558
 21
1055.49774825711
 31
0.0
  0
LINE
  5
34AD
330
1F
100
AcDbEntity
  8
ｴｸｽﾃﾝｼｮﾝﾌﾚｰﾑ
100
AcDbLine
 10
688.3125536863554
 20
1002.59773825711
 30
0.0
 11
688.3125536863554
 21
1055.49774825711
 31
0.0
  0
LINE
  5
34B3
330
1F
100
AcDbEntity
  8
ｴｸｽﾃﾝｼｮﾝﾌﾚｰﾑ
100
AcDbLine
 10
688.9453736863556
 20
1002.59773825711
 30
0.0
 11
689.4070250797554
 21
1055.49774825711
 31
0.0
  0
LINE
  5
34B9
330
1F
100
AcDbEntity
  8
ｴｸｽﾃﾝｼｮﾝﾌﾚｰﾑ
100
AcDbLine
 10
690.6920836863555
 20
1002.59773825711
 30
0.0
 11
690.2304322929558
 21
1055.49774825711
 31
0.0
  0
LINE
  5
34BF
330
1F
100
AcDbEntity
  8
ｴｸｽﾃﾝｼｮﾝﾌﾚｰﾑ
100
AcDbLine
 10
694.8471036863557
 20
1002.59773825711
 30
0.0
 11
695.3087550797554
 21
1055.49774825711
 31
0.0
  0
LINE
  5
34CF
330
1F
100
AcDbEntity
  8
ｴｸｽﾃﾝｼｮﾝﾌﾚｰﾑ
100
AcDbLine
 10
670.2620836863557
 20
1002.59773825711
 30
0.0
 11
695.8688691666302
 21
1002.59773825711
 31
0.0
  0
LINE
  5
34D4
330
1F
100
AcDbEntity
  8
ｴｸｽﾃﾝｼｮﾝﾌﾚｰﾑ
100
AcDbLine
 10
669.8004322929559
 20
1055.49774825711
 30
0.0
 11
670.2620836863557
 21
1002.59773825711
 31
0.0
  0
LINE
  5
34EB
330
1F
100
AcDbEntity
  8
ｴｸｽﾃﾝｼｮﾝﾌﾚｰﾑ
100
AcDbLine
 10
695.8688691666302
 20
1002.59773825711
 30
0.0
 11
696.3305205600299
 21
1055.49774825711
 31
0.0
  0
LINE
  5
352B
330
1F
100
AcDbEntity
  8
ｴｸｽﾃﾝｼｮﾝﾌﾚｰﾑ
100
AcDbLine
 10
692.7244936863558
 20
994.8977482571102
 30
0.0
 11
692.6572968916352
 21
1002.59773825711
 31
0.0
  0
LINE
  5
352C
330
1F
100
AcDbEntity
  8
ｴｸｽﾃﾝｼｮﾝﾌﾚｰﾑ
100
AcDbLine
 10
693.1244936863554
 20
994.0977482571101
 30
0.0
 11
692.7244936863558
 21
994.8977482571102
 31
0.0
  0
LINE
  5
352D
330
1F
100
AcDbEntity
  8
ｴｸｽﾃﾝｼｮﾝﾌﾚｰﾑ
100
AcDbLine
 10
674.7245136863557
 20
994.8977482571102
 30
0.0
 11
674.6573168916357
 21
1002.59773825711
 31
0.0
  0
LINE
  5
352E
330
1F
100
AcDbEntity
  8
ｴｸｽﾃﾝｼｮﾝﾌﾚｰﾑ
100
AcDbLine
 10
675.1245136863558
 20
994.0977482571101
 30
0.0
 11
674.7245136863557
 21
994.8977482571102
 31
0.0
  0
LINE
  5
36F9
330
1F
100
AcDbEntity
  8
ｴｸｽﾃﾝｼｮﾝﾌﾚｰﾑ
100
AcDbLine
 10
308.1740636863558
 20
998.0977482571102
 30
0.0
 11
338.5956877094248
 21
998.0977482571102
 31
0.0
  0
LINE
  5
36FA
330
1F
100
AcDbEntity
  8
ｴｸｽﾃﾝｼｮﾝﾌﾚｰﾑ
100
AcDbLine
 10
308.1740636863558
 20
999.5977482571102
 30
0.0
 11
307.6740636863556
 21
999.8977482571104
 31
0.0
  0
LINE
  5
36FB
330
1F
100
AcDbEntity
  8
ｴｸｽﾃﾝｼｮﾝﾌﾚｰﾑ
100
AcDbLine
 10
307.6740636863556
 20
999.8977482571104
 30
0.0
 11
308.1383330528238
 21
1053.09774825711
 31
0.0
  0
LINE
  5
36FC
330
1F
100
AcDbEntity
  8
ｴｸｽﾃﾝｼｮﾝﾌﾚｰﾑ
100
AcDbLine
 10
308.1740636863558
 20
999.5977482571102
 30
0.0
 11
308.1740636863558
 21
998.0977482571102
 31
0.0
  0
LINE
  5
36FD
330
1F
100
AcDbEntity
  8
ｴｸｽﾃﾝｼｮﾝﾌﾚｰﾑ
100
AcDbLine
 10
310.6306077094253
 20
998.0977482571102
 30
0.0
 11
310.6585336863556
 21
994.8977482571104
 31
0.0
  0
LINE
  5
36FE
330
1F
100
AcDbEntity
  8
ｴｸｽﾃﾝｼｮﾝﾌﾚｰﾑ
100
AcDbLine
 10
310.6585336863556
 20
994.8977482571104
 30
0.0
 11
311.0585336863555
 21
994.0977482571101
 31
0.0
  0
ARC
  5
3728
330
1F
100
AcDbEntity
  8
ｴｸｽﾃﾝｼｮﾝﾌﾚｰﾑ
100
AcDbCircle
 10
313.9874679817219
 20
1055.29774825711
 30
0.0
 40
0.2
100
AcDbArc
 50
89.99999999999998
 51
179.4999999999987
1001
GENIUS_GENOBJ-N-FIL_13
1002
{
1000
OWNER
1000
GEN
1002
}
1001
GENIUS_GENODEF_13
1002
{
1000
HIER
1070
     0
1002
}
1002
{
1000
MANEDIT
1070
     0
1002
}
1002
{
1000
NOSEL
1070
     0
1002
}
1002
{
1000
BEHIND
1070
     0
1002
}
1002
{
1000
OTHER
1070
     0
1002
}
1002
{
1000
REACTOR
1002
}
  0
LINE
  5
3729
330
1F
100
AcDbEntity
  8
ｴｸｽﾃﾝｼｮﾝﾌﾚｰﾑ
100
AcDbLine
 10
313.7682612569051
 20
1053.09774825711
 30
0.0
 11
313.7874755971091
 21
1055.29949356421
 31
0.0
  0
ARC
  5
37DB
330
1F
100
AcDbEntity
  8
ｴｸｽﾃﾝｼｮﾝﾌﾚｰﾑ
100
AcDbCircle
 10
701.9670861283823
 20
1043.311009989437
 30
0.0
 40
0.3
100
AcDbArc
 50
0.5000000000013048
 51
59.99999999999944
1001
GENIUS_GENODEF_13
1002
{
1000
HIER
1070
     0
1002
}
1002
{
1000
MANEDIT
1070
     0
1002
}
1002
{
1000
NOSEL
1070
     0
1002
}
1002
{
1000
BEHIND
1070
     0
1002
}
1002
{
1000
OTHER
1070
     0
1002
}
1002
{
1000
REACTOR
1002
}
1001
GENIUS_GENOBJ-N-FIL_13
1002
{
1000
OWNER
1000
GEN
1002
}
  0
LINE
  5
39A5
330
1F
100
AcDbEntity
  8
ｴｸｽﾃﾝｼｮﾝﾌﾚｰﾑ
100
AcDbLine
 10
313.9874679817218
 20
125.5949404680375
 30
0.0
 11
701.3606593909892
 21
125.5949404680373
 31
0.0
  0
LINE
  5
39A6
330
1F
100
AcDbEntity
  8
ｴｸｽﾃﾝｼｮﾝﾌﾚｰﾑ
100
AcDbLine
 10
308.1383330528236
 20
127.9949404680376
 30
0.0
 11
707.2097943198875
 21
127.9949404680374
 31
0.0
  0
LINE
  5
39A7
330
1F
100
AcDbEntity
  8
ｴｸｽﾃﾝｼｮﾝﾌﾚｰﾑ
100
AcDbLine
 10
307.6740636863555
 20
181.1949404680374
 30
0.0
 11
332.4240636863557
 21
181.1949404680374
 31
0.0
  0
LINE
  5
39A8
330
1F
100
AcDbEntity
  8
ｴｸｽﾃﾝｼｮﾝﾌﾚｰﾑ
100
AcDbLine
 10
335.9240536863555
 20
181.1949404680374
 30
0.0
 11
338.4240636863557
 21
181.1949404680374
 31
0.0
  0
LINE
  5
39A9
330
1F
100
AcDbEntity
  8
ｴｸｽﾃﾝｼｮﾝﾌﾚｰﾑ
100
AcDbLine
 10
341.9240636863555
 20
181.1949404680374
 30
0.0
 11
673.4240636863558
 21
181.1949404680372
 31
0.0
  0
LINE
  5
39AA
330
1F
100
AcDbEntity
  8
ｴｸｽﾃﾝｼｮﾝﾌﾚｰﾑ
100
AcDbLine
 10
308.1740636863557
 20
181.4949404680376
 30
0.0
 11
707.1740636863555
 21
181.4949404680374
 31
0.0
  0
LINE
  5
39AB
330
1F
100
AcDbEntity
  8
ｴｸｽﾃﾝｼｮﾝﾌﾚｰﾑ
100
AcDbLine
 10
311.0585336863554
 20
186.9949404680376
 30
0.0
 11
704.2895936863556
 21
186.9949404680374
 31
0.0
  0
LINE
  5
39AC
330
1F
100
AcDbEntity
  8
ｴｸｽﾃﾝｼｮﾝﾌﾚｰﾑ
100
AcDbLine
 10
341.9240636863555
 20
127.9949404680376
 30
0.0
 11
341.9240636863555
 21
181.4949404680376
 31
0.0
  0
LINE
  5
39AD
330
1F
100
AcDbEntity
  8
ｴｸｽﾃﾝｼｮﾝﾌﾚｰﾑ
100
AcDbLine
 10
338.4240636863557
 20
127.9949404680376
 30
0.0
 11
338.4240636863557
 21
181.4949404680376
 31
0.0
  0
LINE
  5
39AE
330
1F
100
AcDbEntity
  8
ｴｸｽﾃﾝｼｮﾝﾌﾚｰﾑ
100
AcDbLine
 10
335.9240536863555
 20
127.9949404680376
 30
0.0
 11
335.9240536863555
 21
181.4949404680376
 31
0.0
  0
LINE
  5
39AF
330
1F
100
AcDbEntity
  8
ｴｸｽﾃﾝｼｮﾝﾌﾚｰﾑ
100
AcDbLine
 10
332.4240636863557
 20
127.9949404680376
 30
0.0
 11
332.4240636863557
 21
181.4949404680376
 31
0.0
  0
LINE
  5
39B0
330
1F
100
AcDbEntity
  8
ｴｸｽﾃﾝｼｮﾝﾌﾚｰﾑ
100
AcDbLine
 10
320.6306001516881
 20
182.9949404680376
 30
0.0
 11
320.6585261286185
 21
186.1949404680376
 31
0.0
  0
LINE
  5
39B1
330
1F
100
AcDbEntity
  8
ｴｸｽﾃﾝｼｮﾝﾌﾚｰﾑ
100
AcDbLine
 10
320.6585261286185
 20
186.1949404680376
 30
0.0
 11
321.0585261286184
 21
186.9949404680376
 31
0.0
  0
LINE
  5
39B2
330
1F
100
AcDbEntity
  8
ｴｸｽﾃﾝｼｮﾝﾌﾚｰﾑ
100
AcDbLine
 10
338.630610151688
 20
182.9949404680376
 30
0.0
 11
338.6585361286184
 21
186.1949404680376
 31
0.0
  0
LINE
  5
39B3
330
1F
100
AcDbEntity
  8
ｴｸｽﾃﾝｼｮﾝﾌﾚｰﾑ
100
AcDbLine
 10
338.6585361286184
 20
186.1949404680376
 30
0.0
 11
339.0585361286184
 21
186.9949404680376
 31
0.0
  0
LINE
  5
39B4
330
1F
100
AcDbEntity
  8
ｴｸｽﾃﾝｼｮﾝﾌﾚｰﾑ
100
AcDbLine
 10
308.1740636863557
 20
182.9949404680376
 30
0.0
 11
707.1740636863555
 21
182.994940468033
 31
0.0
  0
LINE
  5
39B5
330
1F
100
AcDbEntity
  8
ｴｸｽﾃﾝｼｮﾝﾌﾚｰﾑ
100
AcDbLine
 10
308.1740636863557
 20
181.4949404680376
 30
0.0
 11
307.6740636863555
 21
181.1949404680376
 31
0.0
  0
LINE
  5
39B6
330
1F
100
AcDbEntity
  8
ｴｸｽﾃﾝｼｮﾝﾌﾚｰﾑ
100
AcDbLine
 10
307.6740636863555
 20
181.1949404680376
 30
0.0
 11
308.1383330528236
 21
127.9949404680376
 31
0.0
  0
LINE
  5
39B7
330
1F
100
AcDbEntity
  8
ｴｸｽﾃﾝｼｮﾝﾌﾚｰﾑ
100
AcDbLine
 10
308.1740636863557
 20
181.4949404680376
 30
0.0
 11
308.1740636863557
 21
182.9949404680376
 31
0.0
  0
LINE
  5
39B8
330
1F
100
AcDbEntity
  8
ｴｸｽﾃﾝｼｮﾝﾌﾚｰﾑ
100
AcDbLine
 10
310.6306077094251
 20
182.9949404680376
 30
0.0
 11
310.6585336863556
 21
186.1949404680376
 31
0.0
  0
LINE
  5
39B9
330
1F
100
AcDbEntity
  8
ｴｸｽﾃﾝｼｮﾝﾌﾚｰﾑ
100
AcDbLine
 10
310.6585336863556
 20
186.1949404680376
 30
0.0
 11
311.0585336863554
 21
186.9949404680376
 31
0.0
  0
ARC
  5
39BA
330
1F
100
AcDbEntity
  8
ｴｸｽﾃﾝｼｮﾝﾌﾚｰﾑ
100
AcDbCircle
 10
313.9874679817217
 20
125.7949404680375
 30
0.0
 40
0.2
100
AcDbArc
 50
180.5000000000013
 51
270.0
1001
GENIUS_GENOBJ-N-FIL_13
1002
{
1000
OWNER
1000
GEN
1002
}
1001
GENIUS_GENODEF_13
1002
{
1000
HIER
1070
     0
1002
}
1002
{
1000
MANEDIT
1070
     0
1002
}
1002
{
1000
NOSEL
1070
     0
1002
}
1002
{
1000
BEHIND
1070
     0
1002
}
1002
{
1000
OTHER
1070
     0
1002
}
1002
{
1000
REACTOR
1002
}
  0
LINE
  5
39BB
330
1F
100
AcDbEntity
  8
ｴｸｽﾃﾝｼｮﾝﾌﾚｰﾑ
100
AcDbLine
 10
313.768261256905
 20
127.9949404680376
 30
0.0
 11
313.7874755971089
 21
125.7931951609378
 31
0.0
  0
ARC
  5
39BC
330
1F
100
AcDbEntity
  8
ｴｸｽﾃﾝｼｮﾝﾌﾚｰﾑ
100
AcDbCircle
 10
323.9851638058324
 20
125.7949404680375
 30
0.0
 40
0.2
100
AcDbArc
 50
180.5000000000013
 51
270.0
1001
GENIUS_GENOBJ-N-FIL_13
1002
{
1000
OWNER
1000
GEN
1002
}
1001
GENIUS_GENODEF_13
1002
{
1000
HIER
1070
     0
1002
}
1002
{
1000
MANEDIT
1070
     0
1002
}
1002
{
1000
NOSEL
1070
     0
1002
}
1002
{
1000
BEHIND
1070
     0
1002
}
1002
{
1000
OTHER
1070
     0
1002
}
1002
{
1000
REACTOR
1002
}
  0
LINE
  5
39BD
330
1F
100
AcDbEntity
  8
ｴｸｽﾃﾝｼｮﾝﾌﾚｰﾑ
100
AcDbLine
 10
323.7659570810157
 20
127.9949404680376
 30
0.0
 11
323.7851714212196
 21
125.7931951609378
 31
0.0
  0
ARC
  5
39BE
330
1F
100
AcDbEntity
  8
ｴｸｽﾃﾝｼｮﾝﾌﾚｰﾑ
100
AcDbCircle
 10
341.9851738058323
 20
125.7949404680375
 30
0.0
 40
0.2
100
AcDbArc
 50
180.5000000000013
 51
270.0
1001
GENIUS_GENOBJ-N-FIL_13
1002
{
1000
OWNER
1000
GEN
1002
}
1001
GENIUS_GENODEF_13
1002
{
1000
HIER
1070
     0
1002
}
1002
{
1000
MANEDIT
1070
     0
1002
}
1002
{
1000
NOSEL
1070
     0
1002
}
1002
{
1000
BEHIND
1070
     0
1002
}
1002
{
1000
OTHER
1070
     0
1002
}
1002
{
1000
REACTOR
1002
}
  0
LINE
  5
39BF
330
1F
100
AcDbEntity
  8
ｴｸｽﾃﾝｼｮﾝﾌﾚｰﾑ
100
AcDbLine
 10
341.7659670810157
 20
127.9949404680376
 30
0.0
 11
341.7851814212196
 21
125.7931951609378
 31
0.0
  0
LINE
  5
39C1
330
1F
100
AcDbEntity
  8
ｴｸｽﾃﾝｼｮﾝﾌﾚｰﾑ
100
AcDbLine
 10
707.6740636863555
 20
181.1949404680372
 30
0.0
 11
682.9240636863556
 21
181.1949404680372
 31
0.0
  0
LINE
  5
39C2
330
1F
100
AcDbEntity
  8
ｴｸｽﾃﾝｼｮﾝﾌﾚｰﾑ
100
AcDbLine
 10
679.4240736863558
 20
181.1949404680372
 30
0.0
 11
676.9240636863555
 21
181.1949404680372
 31
0.0
  0
LINE
  5
39C3
330
1F
100
AcDbEntity
  8
ｴｸｽﾃﾝｼｮﾝﾌﾚｰﾑ
100
AcDbLine
 10
673.4240636863558
 20
127.9949404680374
 30
0.0
 11
673.4240636863558
 21
181.4949404680374
 31
0.0
  0
LINE
  5
39C4
330
1F
100
AcDbEntity
  8
ｴｸｽﾃﾝｼｮﾝﾌﾚｰﾑ
100
AcDbLine
 10
676.9240636863555
 20
127.9949404680374
 30
0.0
 11
676.9240636863555
 21
181.4949404680374
 31
0.0
  0
LINE
  5
39C5
330
1F
100
AcDbEntity
  8
ｴｸｽﾃﾝｼｮﾝﾌﾚｰﾑ
100
AcDbLine
 10
679.4240736863558
 20
127.9949404680374
 30
0.0
 11
679.4240736863558
 21
181.4949404680374
 31
0.0
  0
LINE
  5
39C6
330
1F
100
AcDbEntity
  8
ｴｸｽﾃﾝｼｮﾝﾌﾚｰﾑ
100
AcDbLine
 10
682.9240636863556
 20
127.9949404680374
 30
0.0
 11
682.9240636863556
 21
181.4949404680374
 31
0.0
  0
LINE
  5
39C7
330
1F
100
AcDbEntity
  8
ｴｸｽﾃﾝｼｮﾝﾌﾚｰﾑ
100
AcDbLine
 10
694.7175272210231
 20
182.9949404680374
 30
0.0
 11
694.6896012440927
 21
186.1949404680374
 31
0.0
  0
LINE
  5
39C8
330
1F
100
AcDbEntity
  8
ｴｸｽﾃﾝｼｮﾝﾌﾚｰﾑ
100
AcDbLine
 10
694.6896012440927
 20
186.1949404680374
 30
0.0
 11
694.2896012440928
 21
186.9949404680374
 31
0.0
  0
LINE
  5
39C9
330
1F
100
AcDbEntity
  8
ｴｸｽﾃﾝｼｮﾝﾌﾚｰﾑ
100
AcDbLine
 10
676.7175172210231
 20
182.9949404680374
 30
0.0
 11
676.6895912440928
 21
186.1949404680374
 31
0.0
  0
LINE
  5
39CA
330
1F
100
AcDbEntity
  8
ｴｸｽﾃﾝｼｮﾝﾌﾚｰﾑ
100
AcDbLine
 10
676.6895912440928
 20
186.1949404680374
 30
0.0
 11
676.2895912440929
 21
186.9949404680374
 31
0.0
  0
LINE
  5
39CB
330
1F
100
AcDbEntity
  8
ｴｸｽﾃﾝｼｮﾝﾌﾚｰﾑ
100
AcDbLine
 10
707.1740636863555
 20
181.4949404680374
 30
0.0
 11
707.6740636863558
 21
181.1949404680374
 31
0.0
  0
LINE
  5
39CC
330
1F
100
AcDbEntity
  8
ｴｸｽﾃﾝｼｮﾝﾌﾚｰﾑ
100
AcDbLine
 10
707.6740636863558
 20
181.1949404680374
 30
0.0
 11
707.2097943198875
 21
127.9949404680374
 31
0.0
  0
LINE
  5
39CD
330
1F
100
AcDbEntity
  8
ｴｸｽﾃﾝｼｮﾝﾌﾚｰﾑ
100
AcDbLine
 10
707.1740636863555
 20
181.4949404680374
 30
0.0
 11
707.1740636863555
 21
182.9949404680374
 31
0.0
  0
LINE
  5
39CE
330
1F
100
AcDbEntity
  8
ｴｸｽﾃﾝｼｮﾝﾌﾚｰﾑ
100
AcDbLine
 10
704.7175196632861
 20
182.9949404680374
 30
0.0
 11
704.6895936863556
 21
186.1949404680374
 31
0.0
  0
LINE
  5
39CF
330
1F
100
AcDbEntity
  8
ｴｸｽﾃﾝｼｮﾝﾌﾚｰﾑ
100
AcDbLine
 10
704.6895936863556
 20
186.1949404680374
 30
0.0
 11
704.2895936863558
 21
186.9949404680374
 31
0.0
  0
ARC
  5
39D0
330
1F
100
AcDbEntity
  8
ｴｸｽﾃﾝｼｮﾝﾌﾚｰﾑ
100
AcDbCircle
 10
701.3606593909894
 20
125.7949404680373
 30
0.0
 40
0.2
100
AcDbArc
 50
270.0
 51
359.4999999999986
1001
GENIUS_GENOBJ-N-FIL_13
1002
{
1000
OWNER
1000
GEN
1002
}
1001
GENIUS_GENODEF_13
1002
{
1000
HIER
1070
     0
1002
}
1002
{
1000
MANEDIT
1070
     0
1002
}
1002
{
1000
NOSEL
1070
     0
1002
}
1002
{
1000
BEHIND
1070
     0
1002
}
1002
{
1000
OTHER
1070
     0
1002
}
1002
{
1000
REACTOR
1002
}
  0
LINE
  5
39D1
330
1F
100
AcDbEntity
  8
ｴｸｽﾃﾝｼｮﾝﾌﾚｰﾑ
100
AcDbLine
 10
701.5798661158062
 20
127.9949404680374
 30
0.0
 11
701.5606517756022
 21
125.7931951609375
 31
0.0
  0
ARC
  5
39D2
330
1F
100
AcDbEntity
  8
ｴｸｽﾃﾝｼｮﾝﾌﾚｰﾑ
100
AcDbCircle
 10
691.3629635668785
 20
125.7949404680373
 30
0.0
 40
0.2
100
AcDbArc
 50
270.0
 51
359.4999999999986
1001
GENIUS_GENOBJ-N-FIL_13
1002
{
1000
OWNER
1000
GEN
1002
}
1001
GENIUS_GENODEF_13
1002
{
1000
HIER
1070
     0
1002
}
1002
{
1000
MANEDIT
1070
     0
1002
}
1002
{
1000
NOSEL
1070
     0
1002
}
1002
{
1000
BEHIND
1070
     0
1002
}
1002
{
1000
OTHER
1070
     0
1002
}
1002
{
1000
REACTOR
1002
}
  0
LINE
  5
39D3
330
1F
100
AcDbEntity
  8
ｴｸｽﾃﾝｼｮﾝﾌﾚｰﾑ
100
AcDbLine
 10
691.5821702916955
 20
127.9949404680374
 30
0.0
 11
691.5629559514914
 21
125.7931951609375
 31
0.0
  0
ARC
  5
39D4
330
1F
100
AcDbEntity
  8
ｴｸｽﾃﾝｼｮﾝﾌﾚｰﾑ
100
AcDbCircle
 10
673.3629535668785
 20
125.7949404680373
 30
0.0
 40
0.2
100
AcDbArc
 50
270.0
 51
359.4999999999986
1001
GENIUS_GENOBJ-N-FIL_13
1002
{
1000
OWNER
1000
GEN
1002
}
1001
GENIUS_GENODEF_13
1002
{
1000
HIER
1070
     0
1002
}
1002
{
1000
MANEDIT
1070
     0
1002
}
1002
{
1000
NOSEL
1070
     0
1002
}
1002
{
1000
BEHIND
1070
     0
1002
}
1002
{
1000
OTHER
1070
     0
1002
}
1002
{
1000
REACTOR
1002
}
  0
LINE
  5
39D5
330
1F
100
AcDbEntity
  8
ｴｸｽﾃﾝｼｮﾝﾌﾚｰﾑ
100
AcDbLine
 10
673.5821602916955
 20
127.9949404680374
 30
0.0
 11
673.5629459514917
 21
125.7931951609375
 31
0.0
  0
LINE
  5
39E9
330
1F
100
AcDbEntity
  8
ｴｸｽﾃﾝｼｮﾝﾌﾚｰﾑ
100
AcDbLine
 10
986.0103118887703
 20
855.3192213163443
 30
0.0
 11
986.01031188877
 21
267.9460299070772
 31
0.0
  0
LINE
  5
39EA
330
1F
100
AcDbEntity
  8
ｴｸｽﾃﾝｼｮﾝﾌﾚｰﾑ
100
AcDbLine
 10
983.6103118887702
 20
861.1683562452427
 30
0.0
 11
983.6103118887697
 21
262.0968949781789
 31
0.0
  0
LINE
  5
39EB
330
1F
100
AcDbEntity
  8
ｴｸｽﾃﾝｼｮﾝﾌﾚｰﾑ
100
AcDbLine
 10
930.4103118887701
 20
861.6326256117107
 30
0.0
 11
930.4103118887701
 21
836.8826256117104
 31
0.0
  0
LINE
  5
39EC
330
1F
100
AcDbEntity
  8
ｴｸｽﾃﾝｼｮﾝﾌﾚｰﾑ
100
AcDbLine
 10
930.4103118887701
 20
833.3826356117107
 30
0.0
 11
930.4103118887701
 21
830.8826256117106
 31
0.0
  0
LINE
  5
39ED
330
1F
100
AcDbEntity
  8
ｴｸｽﾃﾝｼｮﾝﾌﾚｰﾑ
100
AcDbLine
 10
930.4103118887701
 20
827.3826256117107
 30
0.0
 11
930.4103118887701
 21
594.8826256117107
 31
0.0
  0
LINE
  5
39EE
330
1F
100
AcDbEntity
  8
ｴｸｽﾃﾝｼｮﾝﾌﾚｰﾑ
100
AcDbLine
 10
930.1103118887699
 20
861.1326256117104
 30
0.0
 11
930.1103118887699
 21
262.1326256117115
 31
0.0
  0
LINE
  5
39EF
330
1F
100
AcDbEntity
  8
ｴｸｽﾃﾝｼｮﾝﾌﾚｰﾑ
100
AcDbLine
 10
924.6103118887699
 20
858.2481556117109
 30
0.0
 11
924.6103118887699
 21
265.0170956117108
 31
0.0
  0
LINE
  5
39F0
330
1F
100
AcDbEntity
  8
ｴｸｽﾃﾝｼｮﾝﾌﾚｰﾑ
100
AcDbLine
 10
983.6103118887699
 20
827.3826256117107
 30
0.0
 11
930.1103118887699
 21
827.3826256117107
 31
0.0
  0
LINE
  5
39F1
330
1F
100
AcDbEntity
  8
ｴｸｽﾃﾝｼｮﾝﾌﾚｰﾑ
100
AcDbLine
 10
983.6103118887699
 20
830.8826256117106
 30
0.0
 11
930.1103118887699
 21
830.8826256117106
 31
0.0
  0
LINE
  5
39F2
330
1F
100
AcDbEntity
  8
ｴｸｽﾃﾝｼｮﾝﾌﾚｰﾑ
100
AcDbLine
 10
983.6103118887699
 20
833.3826356117107
 30
0.0
 11
930.1103118887699
 21
833.3826356117107
 31
0.0
  0
LINE
  5
39F3
330
1F
100
AcDbEntity
  8
ｴｸｽﾃﾝｼｮﾝﾌﾚｰﾑ
100
AcDbLine
 10
983.6103118887699
 20
836.8826256117104
 30
0.0
 11
930.1103118887699
 21
836.8826256117104
 31
0.0
  0
LINE
  5
39F4
330
1F
100
AcDbEntity
  8
ｴｸｽﾃﾝｼｮﾝﾌﾚｰﾑ
100
AcDbLine
 10
928.61031188877
 20
848.6760891463781
 30
0.0
 11
925.4103118887702
 21
848.6481631694477
 31
0.0
  0
LINE
  5
39F5
330
1F
100
AcDbEntity
  8
ｴｸｽﾃﾝｼｮﾝﾌﾚｰﾑ
100
AcDbLine
 10
925.4103118887702
 20
848.6481631694477
 30
0.0
 11
924.6103118887699
 21
848.2481631694477
 31
0.0
  0
LINE
  5
39F6
330
1F
100
AcDbEntity
  8
ｴｸｽﾃﾝｼｮﾝﾌﾚｰﾑ
100
AcDbLine
 10
928.61031188877
 20
830.6760791463782
 30
0.0
 11
925.4103118887702
 21
830.6481531694476
 31
0.0
  0
LINE
  5
39F7
330
1F
100
AcDbEntity
  8
ｴｸｽﾃﾝｼｮﾝﾌﾚｰﾑ
100
AcDbLine
 10
925.4103118887702
 20
830.6481531694476
 30
0.0
 11
924.6103118887699
 21
830.2481531694478
 31
0.0
  0
LINE
  5
39F8
330
1F
100
AcDbEntity
  8
ｴｸｽﾃﾝｼｮﾝﾌﾚｰﾑ
100
AcDbLine
 10
928.61031188877
 20
861.1326256117104
 30
0.0
 11
928.6103118887767
 21
262.1326256117111
 31
0.0
  0
LINE
  5
39F9
330
1F
100
AcDbEntity
  8
ｴｸｽﾃﾝｼｮﾝﾌﾚｰﾑ
100
AcDbLine
 10
930.1103118887699
 20
861.1326256117104
 30
0.0
 11
930.4103118887701
 21
861.6326256117108
 31
0.0
  0
LINE
  5
39FA
330
1F
100
AcDbEntity
  8
ｴｸｽﾃﾝｼｮﾝﾌﾚｰﾑ
100
AcDbLine
 10
930.4103118887701
 20
861.6326256117108
 30
0.0
 11
983.6103118887702
 21
861.1683562452427
 31
0.0
  0
LINE
  5
39FB
330
1F
100
AcDbEntity
  8
ｴｸｽﾃﾝｼｮﾝﾌﾚｰﾑ
100
AcDbLine
 10
930.1103118887699
 20
861.1326256117104
 30
0.0
 11
928.61031188877
 21
861.1326256117104
 31
0.0
  0
LINE
  5
39FC
330
1F
100
AcDbEntity
  8
ｴｸｽﾃﾝｼｮﾝﾌﾚｰﾑ
100
AcDbLine
 10
928.61031188877
 20
858.6760815886409
 30
0.0
 11
925.4103118887702
 21
858.6481556117105
 31
0.0
  0
LINE
  5
39FD
330
1F
100
AcDbEntity
  8
ｴｸｽﾃﾝｼｮﾝﾌﾚｰﾑ
100
AcDbLine
 10
925.4103118887702
 20
858.6481556117105
 30
0.0
 11
924.6103118887699
 21
858.2481556117109
 31
0.0
  0
ARC
  5
39FE
330
1F
100
AcDbEntity
  8
ｴｸｽﾃﾝｼｮﾝﾌﾚｰﾑ
100
AcDbCircle
 10
985.8103118887699
 20
855.3192213163445
 30
0.0
 40
0.2
100
AcDbArc
 50
0.000000000000007
 51
89.50000000000034
1001
GENIUS_GENOBJ-N-FIL_13
1002
{
1000
OWNER
1000
GEN
1002
}
1001
GENIUS_GENODEF_13
1002
{
1000
HIER
1070
     0
1002
}
1002
{
1000
MANEDIT
1070
     0
1002
}
1002
{
1000
NOSEL
1070
     0
1002
}
1002
{
1000
BEHIND
1070
     0
1002
}
1002
{
1000
OTHER
1070
     0
1002
}
1002
{
1000
REACTOR
1002
}
  0
LINE
  5
39FF
330
1F
100
AcDbEntity
  8
ｴｸｽﾃﾝｼｮﾝﾌﾚｰﾑ
100
AcDbLine
 10
983.6103118887702
 20
855.5384280411614
 30
0.0
 11
985.8120571958695
 21
855.5192137009571
 31
0.0
  0
ARC
  5
3A00
330
1F
100
AcDbEntity
  8
ｴｸｽﾃﾝｼｮﾝﾌﾚｰﾑ
100
AcDbCircle
 10
985.8103118887699
 20
845.3215254922335
 30
0.0
 40
0.2
100
AcDbArc
 50
0.000000000000007
 51
89.50000000000034
1001
GENIUS_GENOBJ-N-FIL_13
1002
{
1000
OWNER
1000
GEN
1002
}
1001
GENIUS_GENODEF_13
1002
{
1000
HIER
1070
     0
1002
}
1002
{
1000
MANEDIT
1070
     0
1002
}
1002
{
1000
NOSEL
1070
     0
1002
}
1002
{
1000
BEHIND
1070
     0
1002
}
1002
{
1000
OTHER
1070
     0
1002
}
1002
{
1000
REACTOR
1002
}
  0
LINE
  5
3A01
330
1F
100
AcDbEntity
  8
ｴｸｽﾃﾝｼｮﾝﾌﾚｰﾑ
100
AcDbLine
 10
983.6103118887702
 20
845.5407322170504
 30
0.0
 11
985.8120571958695
 21
845.5215178768465
 31
0.0
  0
ARC
  5
3A02
330
1F
100
AcDbEntity
  8
ｴｸｽﾃﾝｼｮﾝﾌﾚｰﾑ
100
AcDbCircle
 10
985.8103118887699
 20
827.3215154922336
 30
0.0
 40
0.2
100
AcDbArc
 50
0.000000000000007
 51
89.50000000000034
1001
GENIUS_GENOBJ-N-FIL_13
1002
{
1000
OWNER
1000
GEN
1002
}
1001
GENIUS_GENODEF_13
1002
{
1000
HIER
1070
     0
1002
}
1002
{
1000
MANEDIT
1070
     0
1002
}
1002
{
1000
NOSEL
1070
     0
1002
}
1002
{
1000
BEHIND
1070
     0
1002
}
1002
{
1000
OTHER
1070
     0
1002
}
1002
{
1000
REACTOR
1002
}
  0
LINE
  5
3A03
330
1F
100
AcDbEntity
  8
ｴｸｽﾃﾝｼｮﾝﾌﾚｰﾑ
100
AcDbLine
 10
983.6103118887699
 20
827.5407222170505
 30
0.0
 11
985.8120571958695
 21
827.5215078768464
 31
0.0
  0
LINE
  5
3A05
330
1F
100
AcDbEntity
  8
ｴｸｽﾃﾝｼｮﾝﾌﾚｰﾑ
100
AcDbLine
 10
930.4103118887701
 20
261.6326256117109
 30
0.0
 11
930.4103118887701
 21
286.3826256117111
 31
0.0
  0
LINE
  5
3A06
330
1F
100
AcDbEntity
  8
ｴｸｽﾃﾝｼｮﾝﾌﾚｰﾑ
100
AcDbLine
 10
930.4103118887701
 20
289.8826156117109
 30
0.0
 11
930.4103118887701
 21
292.3826256117111
 31
0.0
  0
LINE
  5
3A07
330
1F
100
AcDbEntity
  8
ｴｸｽﾃﾝｼｮﾝﾌﾚｰﾑ
100
AcDbLine
 10
983.6103118887702
 20
295.8826256117109
 30
0.0
 11
930.1103118887702
 21
295.8826256117109
 31
0.0
  0
LINE
  5
3A08
330
1F
100
AcDbEntity
  8
ｴｸｽﾃﾝｼｮﾝﾌﾚｰﾑ
100
AcDbLine
 10
983.6103118887702
 20
292.3826256117111
 30
0.0
 11
930.1103118887702
 21
292.3826256117111
 31
0.0
  0
LINE
  5
3A09
330
1F
100
AcDbEntity
  8
ｴｸｽﾃﾝｼｮﾝﾌﾚｰﾑ
100
AcDbLine
 10
983.6103118887702
 20
289.8826156117109
 30
0.0
 11
930.1103118887702
 21
289.8826156117109
 31
0.0
  0
LINE
  5
3A0A
330
1F
100
AcDbEntity
  8
ｴｸｽﾃﾝｼｮﾝﾌﾚｰﾑ
100
AcDbLine
 10
983.6103118887702
 20
286.3826256117111
 30
0.0
 11
930.1103118887702
 21
286.3826256117111
 31
0.0
  0
LINE
  5
3A0B
330
1F
100
AcDbEntity
  8
ｴｸｽﾃﾝｼｮﾝﾌﾚｰﾑ
100
AcDbLine
 10
928.6103118887702
 20
274.5891620770435
 30
0.0
 11
925.4103118887702
 21
274.617088053974
 31
0.0
  0
LINE
  5
3A0C
330
1F
100
AcDbEntity
  8
ｴｸｽﾃﾝｼｮﾝﾌﾚｰﾑ
100
AcDbLine
 10
925.4103118887702
 20
274.617088053974
 30
0.0
 11
924.6103118887699
 21
275.017088053974
 31
0.0
  0
LINE
  5
3A0D
330
1F
100
AcDbEntity
  8
ｴｸｽﾃﾝｼｮﾝﾌﾚｰﾑ
100
AcDbLine
 10
928.6103118887702
 20
292.5891720770435
 30
0.0
 11
925.4103118887702
 21
292.6170980539739
 31
0.0
  0
LINE
  5
3A0E
330
1F
100
AcDbEntity
  8
ｴｸｽﾃﾝｼｮﾝﾌﾚｰﾑ
100
AcDbLine
 10
925.4103118887702
 20
292.6170980539739
 30
0.0
 11
924.6103118887699
 21
293.0170980539738
 31
0.0
  0
LINE
  5
3A0F
330
1F
100
AcDbEntity
  8
ｴｸｽﾃﾝｼｮﾝﾌﾚｰﾑ
100
AcDbLine
 10
930.1103118887702
 20
262.1326256117111
 30
0.0
 11
930.4103118887701
 21
261.6326256117109
 31
0.0
  0
LINE
  5
3A10
330
1F
100
AcDbEntity
  8
ｴｸｽﾃﾝｼｮﾝﾌﾚｰﾑ
100
AcDbLine
 10
930.4103118887701
 20
261.6326256117109
 30
0.0
 11
983.6103118887702
 21
262.0968949781791
 31
0.0
  0
LINE
  5
3A11
330
1F
100
AcDbEntity
  8
ｴｸｽﾃﾝｼｮﾝﾌﾚｰﾑ
100
AcDbLine
 10
930.1103118887702
 20
262.1326256117111
 30
0.0
 11
928.6103118887702
 21
262.1326256117111
 31
0.0
  0
LINE
  5
3A12
330
1F
100
AcDbEntity
  8
ｴｸｽﾃﾝｼｮﾝﾌﾚｰﾑ
100
AcDbLine
 10
928.6103118887702
 20
264.5891696347805
 30
0.0
 11
925.4103118887702
 21
264.617095611711
 31
0.0
  0
LINE
  5
3A13
330
1F
100
AcDbEntity
  8
ｴｸｽﾃﾝｼｮﾝﾌﾚｰﾑ
100
AcDbLine
 10
925.4103118887702
 20
264.617095611711
 30
0.0
 11
924.6103118887699
 21
265.0170956117108
 31
0.0
  0
ARC
  5
3A14
330
1F
100
AcDbEntity
  8
ｴｸｽﾃﾝｼｮﾝﾌﾚｰﾑ
100
AcDbCircle
 10
985.8103118887703
 20
267.946029907077
 30
0.0
 40
0.2
100
AcDbArc
 50
270.4999999999996
 51
0.000000000000007
1001
GENIUS_GENOBJ-N-FIL_13
1002
{
1000
OWNER
1000
GEN
1002
}
1001
GENIUS_GENODEF_13
1002
{
1000
HIER
1070
     0
1002
}
1002
{
1000
MANEDIT
1070
     0
1002
}
1002
{
1000
NOSEL
1070
     0
1002
}
1002
{
1000
BEHIND
1070
     0
1002
}
1002
{
1000
OTHER
1070
     0
1002
}
1002
{
1000
REACTOR
1002
}
  0
LINE
  5
3A15
330
1F
100
AcDbEntity
  8
ｴｸｽﾃﾝｼｮﾝﾌﾚｰﾑ
100
AcDbLine
 10
983.6103118887702
 20
267.7268231822604
 30
0.0
 11
985.8120571958698
 21
267.7460375224644
 31
0.0
  0
ARC
  5
3A16
330
1F
100
AcDbEntity
  8
ｴｸｽﾃﾝｼｮﾝﾌﾚｰﾑ
100
AcDbCircle
 10
985.8103118887703
 20
277.9437257311879
 30
0.0
 40
0.2
100
AcDbArc
 50
270.4999999999996
 51
0.000000000000007
1001
GENIUS_GENOBJ-N-FIL_13
1002
{
1000
OWNER
1000
GEN
1002
}
1001
GENIUS_GENODEF_13
1002
{
1000
HIER
1070
     0
1002
}
1002
{
1000
MANEDIT
1070
     0
1002
}
1002
{
1000
NOSEL
1070
     0
1002
}
1002
{
1000
BEHIND
1070
     0
1002
}
1002
{
1000
OTHER
1070
     0
1002
}
1002
{
1000
REACTOR
1002
}
  0
LINE
  5
3A17
330
1F
100
AcDbEntity
  8
ｴｸｽﾃﾝｼｮﾝﾌﾚｰﾑ
100
AcDbLine
 10
983.6103118887702
 20
277.7245190063711
 30
0.0
 11
985.8120571958698
 21
277.743733346575
 31
0.0
  0
ARC
  5
3A18
330
1F
100
AcDbEntity
  8
ｴｸｽﾃﾝｼｮﾝﾌﾚｰﾑ
100
AcDbCircle
 10
985.8103118887699
 20
295.9437357311881
 30
0.0
 40
0.2
100
AcDbArc
 50
270.4999999999996
 51
0.000000000000007
1001
GENIUS_GENOBJ-N-FIL_13
1002
{
1000
OWNER
1000
GEN
1002
}
1001
GENIUS_GENODEF_13
1002
{
1000
HIER
1070
     0
1002
}
1002
{
1000
MANEDIT
1070
     0
1002
}
1002
{
1000
NOSEL
1070
     0
1002
}
1002
{
1000
BEHIND
1070
     0
1002
}
1002
{
1000
OTHER
1070
     0
1002
}
1002
{
1000
REACTOR
1002
}
  0
LINE
  5
3A19
330
1F
100
AcDbEntity
  8
ｴｸｽﾃﾝｼｮﾝﾌﾚｰﾑ
100
AcDbLine
 10
983.6103118887702
 20
295.7245290063711
 30
0.0
 11
985.8120571958698
 21
295.7437433465752
 31
0.0
  0
LINE
  5
3A4F
330
1F
100
AcDbEntity
  8
ｴｸｽﾃﾝｼｮﾝﾌﾚｰﾑ
100
AcDbLine
 10
930.4103118887701
 20
591.3826356117109
 30
0.0
 11
930.4103118887701
 21
588.8826256117107
 31
0.0
  0
LINE
  5
3A50
330
1F
100
AcDbEntity
  8
ｴｸｽﾃﾝｼｮﾝﾌﾚｰﾑ
100
AcDbLine
 10
983.6103118887699
 20
585.3826256117109
 30
0.0
 11
930.1103118887702
 21
585.3826256117109
 31
0.0
  0
LINE
  5
3A51
330
1F
100
AcDbEntity
  8
ｴｸｽﾃﾝｼｮﾝﾌﾚｰﾑ
100
AcDbLine
 10
983.6103118887699
 20
588.8826256117107
 30
0.0
 11
930.1103118887702
 21
588.8826256117107
 31
0.0
  0
LINE
  5
3A52
330
1F
100
AcDbEntity
  8
ｴｸｽﾃﾝｼｮﾝﾌﾚｰﾑ
100
AcDbLine
 10
983.6103118887699
 20
591.3826356117109
 30
0.0
 11
930.1103118887702
 21
591.3826356117109
 31
0.0
  0
LINE
  5
3A53
330
1F
100
AcDbEntity
  8
ｴｸｽﾃﾝｼｮﾝﾌﾚｰﾑ
100
AcDbLine
 10
983.6103118887699
 20
594.8826256117107
 30
0.0
 11
930.1103118887702
 21
594.8826256117107
 31
0.0
  0
LINE
  5
3A54
330
1F
100
AcDbEntity
  8
ｴｸｽﾃﾝｼｮﾝﾌﾚｰﾑ
100
AcDbLine
 10
930.4103118887701
 20
534.3826356117109
 30
0.0
 11
930.4103118887701
 21
531.8826256117107
 31
0.0
  0
LINE
  5
3A55
330
1F
100
AcDbEntity
  8
ｴｸｽﾃﾝｼｮﾝﾌﾚｰﾑ
100
AcDbLine
 10
983.6103118887699
 20
528.382625611711
 30
0.0
 11
930.1103118887702
 21
528.382625611711
 31
0.0
  0
LINE
  5
3A56
330
1F
100
AcDbEntity
  8
ｴｸｽﾃﾝｼｮﾝﾌﾚｰﾑ
100
AcDbLine
 10
983.6103118887699
 20
531.8826256117107
 30
0.0
 11
930.1103118887702
 21
531.8826256117107
 31
0.0
  0
LINE
  5
3A57
330
1F
100
AcDbEntity
  8
ｴｸｽﾃﾝｼｮﾝﾌﾚｰﾑ
100
AcDbLine
 10
983.6103118887699
 20
534.3826356117109
 30
0.0
 11
930.1103118887702
 21
534.3826356117109
 31
0.0
  0
LINE
  5
3A58
330
1F
100
AcDbEntity
  8
ｴｸｽﾃﾝｼｮﾝﾌﾚｰﾑ
100
AcDbLine
 10
983.6103118887699
 20
537.8826256117107
 30
0.0
 11
930.1103118887702
 21
537.8826256117107
 31
0.0
  0
LINE
  5
3A59
330
1F
100
AcDbEntity
  8
ｴｸｽﾃﾝｼｮﾝﾌﾚｰﾑ
100
AcDbLine
 10
930.4103118887701
 20
585.3826256117107
 30
0.0
 11
930.4103118887701
 21
537.8826256117107
 31
0.0
  0
LINE
  5
3A5A
330
1F
100
AcDbEntity
  8
ｴｸｽﾃﾝｼｮﾝﾌﾚｰﾑ
100
AcDbLine
 10
930.4103118887701
 20
528.3826256117107
 30
0.0
 11
930.4103118887701
 21
295.8826256117109
 31
0.0
  0
LINE
  5
3A6C
330
1F
100
AcDbEntity
  8
ｴｸｽﾃﾝｼｮﾝﾌﾚｰﾑ
100
AcDbLine
 10
928.6103118887702
 20
531.004546588641
 30
0.0
 11
925.4103118887702
 21
530.9766206117107
 31
0.0
  0
LINE
  5
3A6D
330
1F
100
AcDbEntity
  8
ｴｸｽﾃﾝｼｮﾝﾌﾚｰﾑ
100
AcDbLine
 10
925.4103118887702
 20
530.9766206117107
 30
0.0
 11
924.6103118887699
 21
530.5766206117107
 31
0.0
  0
LINE
  5
3A6E
330
1F
100
AcDbEntity
  8
ｴｸｽﾃﾝｼｮﾝﾌﾚｰﾑ
100
AcDbLine
 10
928.6103118887702
 20
592.2607046347804
 30
0.0
 11
925.4103118887702
 21
592.2886306117109
 31
0.0
  0
LINE
  5
3A6F
330
1F
100
AcDbEntity
  8
ｴｸｽﾃﾝｼｮﾝﾌﾚｰﾑ
100
AcDbLine
 10
925.4103118887702
 20
592.2886306117109
 30
0.0
 11
924.6103118887699
 21
592.6886306117108
 31
0.0
  0
INSERT
  5
3A74
102
{ACAD_REACTORS
330
3A71
102
}
330
1F
100
AcDbEntity
  8
AM_12
100
AcDbBlockReference
  2
*S9
 10
0.0
 20
0.0
 30
0.0
  0
INSERT
  5
3A79
102
{ACAD_REACTORS
330
3A78
102
}
330
1F
100
AcDbEntity
  8
AM_5
100
AcDbBlockReference
  2
*S10
 10
0.0
 20
0.0
 30
0.0
  0
INSERT
  5
3A9B
102
{ACAD_REACTORS
330
3A9A
102
}
330
1F
100
AcDbEntity
  8
AM_12
100
AcDbBlockReference
  2
*S11
 10
0.0
 20
0.0
 30
0.0
  0
INSERT
  5
3A9F
102
{ACAD_REACTORS
330
3A9E
102
}
330
1F
100
AcDbEntity
  8
AM_12
100
AcDbBlockReference
  2
*S12
 10
0.0
 20
0.0
 30
0.0
  0
CIRCLE
  5
3B2D
330
1F
100
AcDbEntity
  8
ｴｸｽﾃﾝｼｮﾝﾌﾚｰﾑ
100
AcDbCircle
 10
317.6740636863557
 20
851.6326256117107
 30
0.0
 40
7.504189999999999
  0
CIRCLE
  5
3B2E
330
1F
100
AcDbEntity
  8
ｴｸｽﾃﾝｼｮﾝﾌﾚｰﾑ
100
AcDbCircle
 10
317.6740636863557
 20
851.6326256117107
 30
0.0
 40
8.699999999999999
  0
LINE
  5
3B2F
330
1F
100
AcDbEntity
  8
ｴｸｽﾃﾝｼｮﾝﾌﾚｰﾑ
100
AcDbLine
 10
323.5059146388617
 20
846.9100858263985
 30
0.0
 11
324.4352335510314
 21
846.1575382095771
 31
0.0
  0
LINE
  5
3B30
330
1F
100
AcDbEntity
  8
ｴｸｽﾃﾝｼｮﾝﾌﾚｰﾑ
100
AcDbLine
 10
325.1371449483595
 20
850.8482241629423
 30
0.0
 11
326.3264041760598
 21
850.7232279812823
 31
0.0
  0
LINE
  5
3B31
330
1F
100
AcDbEntity
  8
ｴｸｽﾃﾝｼｮﾝﾌﾚｰﾑ
100
AcDbLine
 10
325.1371449483595
 20
852.4170270604795
 30
0.0
 11
326.3264041760598
 21
852.5420232421394
 31
0.0
  0
LINE
  5
3B32
330
1F
100
AcDbEntity
  8
ｴｸｽﾃﾝｼｮﾝﾌﾚｰﾑ
100
AcDbLine
 10
323.5059146388616
 20
856.3551653970231
 30
0.0
 11
324.4352335510314
 21
857.1077130138442
 31
0.0
  0
LINE
  5
3B33
330
1F
100
AcDbEntity
  8
ｴｸｽﾃﾝｼｮﾝﾌﾚｰﾑ
100
AcDbLine
 10
322.3966034716681
 20
857.4644765642165
 30
0.0
 11
323.1491510884894
 21
858.3937954763865
 31
0.0
  0
LINE
  5
3B34
330
1F
100
AcDbEntity
  8
ｴｸｽﾃﾝｼｮﾝﾌﾚｰﾑ
100
AcDbLine
 10
318.4584651351242
 20
859.0957068737143
 30
0.0
 11
318.5834613167845
 21
860.2849661014147
 31
0.0
  0
LINE
  5
3B35
330
1F
100
AcDbEntity
  8
ｴｸｽﾃﾝｼｮﾝﾌﾚｰﾑ
100
AcDbLine
 10
316.8896622375872
 20
859.0957068737143
 30
0.0
 11
316.7646660559273
 21
860.2849661014147
 31
0.0
  0
LINE
  5
3B36
330
1F
100
AcDbEntity
  8
ｴｸｽﾃﾝｼｮﾝﾌﾚｰﾑ
100
AcDbLine
 10
312.9515239010435
 20
857.4644765642165
 30
0.0
 11
312.1989762842221
 21
858.3937954763865
 31
0.0
  0
LINE
  5
3B37
330
1F
100
AcDbEntity
  8
ｴｸｽﾃﾝｼｮﾝﾌﾚｰﾑ
100
AcDbLine
 10
322.396603471668
 20
845.8007746592048
 30
0.0
 11
323.1491510884893
 21
844.8714557470349
 31
0.0
  0
LINE
  5
3B38
330
1F
100
AcDbEntity
  8
ｴｸｽﾃﾝｼｮﾝﾌﾚｰﾑ
100
AcDbLine
 10
318.4584651351241
 20
844.1695443497071
 30
0.0
 11
318.5834613167842
 21
842.9802851220067
 31
0.0
  0
LINE
  5
3B39
330
1F
100
AcDbEntity
  8
ｴｸｽﾃﾝｼｮﾝﾌﾚｰﾑ
100
AcDbLine
 10
316.8896622375871
 20
844.1695443497071
 30
0.0
 11
316.764666055927
 21
842.9802851220067
 31
0.0
  0
LINE
  5
3B3A
330
1F
100
AcDbEntity
  8
ｴｸｽﾃﾝｼｮﾝﾌﾚｰﾑ
100
AcDbLine
 10
312.9515239010434
 20
845.8007746592048
 30
0.0
 11
312.1989762842221
 21
844.8714557470349
 31
0.0
  0
LINE
  5
3B3B
330
1F
100
AcDbEntity
  8
ｴｸｽﾃﾝｼｮﾝﾌﾚｰﾑ
100
AcDbLine
 10
311.8422127338499
 20
846.9100858263983
 30
0.0
 11
310.9128938216801
 21
846.1575382095771
 31
0.0
  0
LINE
  5
3B3C
330
1F
100
AcDbEntity
  8
ｴｸｽﾃﾝｼｮﾝﾌﾚｰﾑ
100
AcDbLine
 10
310.210982424352
 20
850.8482241629421
 30
0.0
 11
309.0217231966517
 21
850.7232279812821
 31
0.0
  0
LINE
  5
3B3D
330
1F
100
AcDbEntity
  8
ｴｸｽﾃﾝｼｮﾝﾌﾚｰﾑ
100
AcDbLine
 10
310.210982424352
 20
852.4170270604791
 30
0.0
 11
309.0217231966517
 21
852.5420232421392
 31
0.0
  0
LINE
  5
3B3E
330
1F
100
AcDbEntity
  8
ｴｸｽﾃﾝｼｮﾝﾌﾚｰﾑ
100
AcDbLine
 10
311.8422127338498
 20
856.3551653970231
 30
0.0
 11
310.91289382168
 21
857.1077130138442
 31
0.0
  0
CIRCLE
  5
3B3F
330
1F
100
AcDbEntity
  8
ｴｸｽﾃﾝｼｮﾝﾌﾚｰﾑ
100
AcDbCircle
 10
317.6740636863556
 20
561.6326256117107
 30
0.0
 40
7.504189999999999
  0
CIRCLE
  5
3B40
330
1F
100
AcDbEntity
  8
ｴｸｽﾃﾝｼｮﾝﾌﾚｰﾑ
100
AcDbCircle
 10
317.6740636863556
 20
561.6326256117107
 30
0.0
 40
8.699999999999999
  0
LINE
  5
3B41
330
1F
100
AcDbEntity
  8
ｴｸｽﾃﾝｼｮﾝﾌﾚｰﾑ
100
AcDbLine
 10
323.5059146388616
 20
556.9100858263985
 30
0.0
 11
324.4352335510313
 21
556.1575382095772
 31
0.0
  0
LINE
  5
3B42
330
1F
100
AcDbEntity
  8
ｴｸｽﾃﾝｼｮﾝﾌﾚｰﾑ
100
AcDbLine
 10
325.1371449483594
 20
560.8482241629423
 30
0.0
 11
326.3264041760597
 21
560.7232279812823
 31
0.0
  0
LINE
  5
3B43
330
1F
100
AcDbEntity
  8
ｴｸｽﾃﾝｼｮﾝﾌﾚｰﾑ
100
AcDbLine
 10
325.1371449483594
 20
562.4170270604794
 30
0.0
 11
326.3264041760597
 21
562.5420232421394
 31
0.0
  0
LINE
  5
3B44
330
1F
100
AcDbEntity
  8
ｴｸｽﾃﾝｼｮﾝﾌﾚｰﾑ
100
AcDbLine
 10
323.5059146388615
 20
566.3551653970231
 30
0.0
 11
324.4352335510313
 21
567.1077130138443
 31
0.0
  0
LINE
  5
3B45
330
1F
100
AcDbEntity
  8
ｴｸｽﾃﾝｼｮﾝﾌﾚｰﾑ
100
AcDbLine
 10
322.396603471668
 20
567.4644765642166
 30
0.0
 11
323.1491510884893
 21
568.3937954763863
 31
0.0
  0
LINE
  5
3B46
330
1F
100
AcDbEntity
  8
ｴｸｽﾃﾝｼｮﾝﾌﾚｰﾑ
100
AcDbLine
 10
318.4584651351241
 20
569.0957068737144
 30
0.0
 11
318.5834613167843
 21
570.2849661014148
 31
0.0
  0
LINE
  5
3B47
330
1F
100
AcDbEntity
  8
ｴｸｽﾃﾝｼｮﾝﾌﾚｰﾑ
100
AcDbLine
 10
316.8896622375871
 20
569.0957068737144
 30
0.0
 11
316.7646660559271
 21
570.2849661014148
 31
0.0
  0
LINE
  5
3B48
330
1F
100
AcDbEntity
  8
ｴｸｽﾃﾝｼｮﾝﾌﾚｰﾑ
100
AcDbLine
 10
312.9515239010434
 20
567.4644765642166
 30
0.0
 11
312.198976284222
 21
568.3937954763865
 31
0.0
  0
LINE
  5
3B49
330
1F
100
AcDbEntity
  8
ｴｸｽﾃﾝｼｮﾝﾌﾚｰﾑ
100
AcDbLine
 10
322.3966034716678
 20
555.8007746592048
 30
0.0
 11
323.1491510884891
 21
554.871455747035
 31
0.0
  0
LINE
  5
3B4A
330
1F
100
AcDbEntity
  8
ｴｸｽﾃﾝｼｮﾝﾌﾚｰﾑ
100
AcDbLine
 10
318.458465135124
 20
554.169544349707
 30
0.0
 11
318.5834613167841
 21
552.9802851220066
 31
0.0
  0
LINE
  5
3B4B
330
1F
100
AcDbEntity
  8
ｴｸｽﾃﾝｼｮﾝﾌﾚｰﾑ
100
AcDbLine
 10
316.889662237587
 20
554.169544349707
 30
0.0
 11
316.7646660559269
 21
552.9802851220066
 31
0.0
  0
LINE
  5
3B4C
330
1F
100
AcDbEntity
  8
ｴｸｽﾃﾝｼｮﾝﾌﾚｰﾑ
100
AcDbLine
 10
312.9515239010433
 20
555.8007746592048
 30
0.0
 11
312.198976284222
 21
554.871455747035
 31
0.0
  0
LINE
  5
3B4D
330
1F
100
AcDbEntity
  8
ｴｸｽﾃﾝｼｮﾝﾌﾚｰﾑ
100
AcDbLine
 10
311.8422127338498
 20
556.9100858263984
 30
0.0
 11
310.91289382168
 21
556.1575382095772
 31
0.0
  0
LINE
  5
3B4E
330
1F
100
AcDbEntity
  8
ｴｸｽﾃﾝｼｮﾝﾌﾚｰﾑ
100
AcDbLine
 10
310.2109824243519
 20
560.8482241629421
 30
0.0
 11
309.0217231966516
 21
560.723227981282
 31
0.0
  0
LINE
  5
3B4F
330
1F
100
AcDbEntity
  8
ｴｸｽﾃﾝｼｮﾝﾌﾚｰﾑ
100
AcDbLine
 10
310.2109824243519
 20
562.4170270604792
 30
0.0
 11
309.0217231966516
 21
562.5420232421391
 31
0.0
  0
LINE
  5
3B50
330
1F
100
AcDbEntity
  8
ｴｸｽﾃﾝｼｮﾝﾌﾚｰﾑ
100
AcDbLine
 10
311.8422127338497
 20
566.3551653970229
 30
0.0
 11
310.9128938216799
 21
567.1077130138443
 31
0.0
  0
CIRCLE
  5
3B51
330
1F
100
AcDbEntity
  8
ｴｸｽﾃﾝｼｮﾝﾌﾚｰﾑ
100
AcDbCircle
 10
317.6740636863556
 20
271.6326256117109
 30
0.0
 40
7.504189999999999
  0
CIRCLE
  5
3B52
330
1F
100
AcDbEntity
  8
ｴｸｽﾃﾝｼｮﾝﾌﾚｰﾑ
100
AcDbCircle
 10
317.6740636863556
 20
271.6326256117109
 30
0.0
 40
8.699999999999999
  0
LINE
  5
3B53
330
1F
100
AcDbEntity
  8
ｴｸｽﾃﾝｼｮﾝﾌﾚｰﾑ
100
AcDbLine
 10
323.5059146388616
 20
266.9100858263987
 30
0.0
 11
324.4352335510313
 21
266.1575382095773
 31
0.0
  0
LINE
  5
3B54
330
1F
100
AcDbEntity
  8
ｴｸｽﾃﾝｼｮﾝﾌﾚｰﾑ
100
AcDbLine
 10
325.1371449483594
 20
270.8482241629424
 30
0.0
 11
326.3264041760597
 21
270.7232279812824
 31
0.0
  0
LINE
  5
3B55
330
1F
100
AcDbEntity
  8
ｴｸｽﾃﾝｼｮﾝﾌﾚｰﾑ
100
AcDbLine
 10
325.1371449483594
 20
272.4170270604795
 30
0.0
 11
326.3264041760597
 21
272.5420232421395
 31
0.0
  0
LINE
  5
3B56
330
1F
100
AcDbEntity
  8
ｴｸｽﾃﾝｼｮﾝﾌﾚｰﾑ
100
AcDbLine
 10
323.5059146388615
 20
276.3551653970233
 30
0.0
 11
324.4352335510313
 21
277.1077130138444
 31
0.0
  0
LINE
  5
3B57
330
1F
100
AcDbEntity
  8
ｴｸｽﾃﾝｼｮﾝﾌﾚｰﾑ
100
AcDbLine
 10
322.396603471668
 20
277.4644765642167
 30
0.0
 11
323.1491510884893
 21
278.3937954763865
 31
0.0
  0
LINE
  5
3B58
330
1F
100
AcDbEntity
  8
ｴｸｽﾃﾝｼｮﾝﾌﾚｰﾑ
100
AcDbLine
 10
318.4584651351241
 20
279.0957068737146
 30
0.0
 11
318.5834613167843
 21
280.284966101415
 31
0.0
  0
LINE
  5
3B59
330
1F
100
AcDbEntity
  8
ｴｸｽﾃﾝｼｮﾝﾌﾚｰﾑ
100
AcDbLine
 10
316.8896622375871
 20
279.0957068737146
 30
0.0
 11
316.7646660559271
 21
280.284966101415
 31
0.0
  0
LINE
  5
3B5A
330
1F
100
AcDbEntity
  8
ｴｸｽﾃﾝｼｮﾝﾌﾚｰﾑ
100
AcDbLine
 10
312.9515239010434
 20
277.4644765642167
 30
0.0
 11
312.198976284222
 21
278.3937954763867
 31
0.0
  0
LINE
  5
3B5B
330
1F
100
AcDbEntity
  8
ｴｸｽﾃﾝｼｮﾝﾌﾚｰﾑ
100
AcDbLine
 10
322.3966034716678
 20
265.800774659205
 30
0.0
 11
323.1491510884891
 21
264.8714557470353
 31
0.0
  0
LINE
  5
3B5C
330
1F
100
AcDbEntity
  8
ｴｸｽﾃﾝｼｮﾝﾌﾚｰﾑ
100
AcDbLine
 10
318.458465135124
 20
264.1695443497072
 30
0.0
 11
318.5834613167841
 21
262.9802851220067
 31
0.0
  0
LINE
  5
3B5D
330
1F
100
AcDbEntity
  8
ｴｸｽﾃﾝｼｮﾝﾌﾚｰﾑ
100
AcDbLine
 10
316.889662237587
 20
264.1695443497072
 30
0.0
 11
316.7646660559269
 21
262.9802851220067
 31
0.0
  0
LINE
  5
3B5E
330
1F
100
AcDbEntity
  8
ｴｸｽﾃﾝｼｮﾝﾌﾚｰﾑ
100
AcDbLine
 10
312.9515239010433
 20
265.800774659205
 30
0.0
 11
312.198976284222
 21
264.8714557470353
 31
0.0
  0
LINE
  5
3B5F
330
1F
100
AcDbEntity
  8
ｴｸｽﾃﾝｼｮﾝﾌﾚｰﾑ
100
AcDbLine
 10
311.8422127338498
 20
266.9100858263985
 30
0.0
 11
310.91289382168
 21
266.1575382095773
 31
0.0
  0
LINE
  5
3B60
330
1F
100
AcDbEntity
  8
ｴｸｽﾃﾝｼｮﾝﾌﾚｰﾑ
100
AcDbLine
 10
310.2109824243519
 20
270.8482241629422
 30
0.0
 11
309.0217231966516
 21
270.7232279812822
 31
0.0
  0
LINE
  5
3B61
330
1F
100
AcDbEntity
  8
ｴｸｽﾃﾝｼｮﾝﾌﾚｰﾑ
100
AcDbLine
 10
310.2109824243519
 20
272.4170270604793
 30
0.0
 11
309.0217231966516
 21
272.5420232421393
 31
0.0
  0
LINE
  5
3B62
330
1F
100
AcDbEntity
  8
ｴｸｽﾃﾝｼｮﾝﾌﾚｰﾑ
100
AcDbLine
 10
311.8422127338497
 20
276.355165397023
 30
0.0
 11
310.9128938216799
 21
277.1077130138444
 31
0.0
  0
CIRCLE
  5
3B63
330
1F
100
AcDbEntity
  8
ｴｸｽﾃﾝｼｮﾝﾌﾚｰﾑ
100
AcDbCircle
 10
697.6740636886188
 20
271.6326256117106
 30
0.0
 40
7.504189999999999
  0
CIRCLE
  5
3B64
330
1F
100
AcDbEntity
  8
ｴｸｽﾃﾝｼｮﾝﾌﾚｰﾑ
100
AcDbCircle
 10
697.6740636886188
 20
271.6326256117106
 30
0.0
 40
8.699999999999999
  0
LINE
  5
3B65
330
1F
100
AcDbEntity
  8
ｴｸｽﾃﾝｼｮﾝﾌﾚｰﾑ
100
AcDbLine
 10
703.5059146411247
 20
266.9100858263985
 30
0.0
 11
704.4352335532947
 21
266.1575382095771
 31
0.0
  0
LINE
  5
3B66
330
1F
100
AcDbEntity
  8
ｴｸｽﾃﾝｼｮﾝﾌﾚｰﾑ
100
AcDbLine
 10
705.1371449506225
 20
270.8482241629422
 30
0.0
 11
706.3264041783229
 21
270.7232279812822
 31
0.0
  0
LINE
  5
3B67
330
1F
100
AcDbEntity
  8
ｴｸｽﾃﾝｼｮﾝﾌﾚｰﾑ
100
AcDbLine
 10
705.1371449506225
 20
272.4170270604793
 30
0.0
 11
706.3264041783229
 21
272.5420232421393
 31
0.0
  0
LINE
  5
3B68
330
1F
100
AcDbEntity
  8
ｴｸｽﾃﾝｼｮﾝﾌﾚｰﾑ
100
AcDbLine
 10
703.5059146411247
 20
276.355165397023
 30
0.0
 11
704.4352335532947
 21
277.1077130138442
 31
0.0
  0
LINE
  5
3B69
330
1F
100
AcDbEntity
  8
ｴｸｽﾃﾝｼｮﾝﾌﾚｰﾑ
100
AcDbLine
 10
702.3966034739312
 20
277.4644765642165
 30
0.0
 11
703.1491510907526
 21
278.3937954763862
 31
0.0
  0
LINE
  5
3B6A
330
1F
100
AcDbEntity
  8
ｴｸｽﾃﾝｼｮﾝﾌﾚｰﾑ
100
AcDbLine
 10
698.4584651373875
 20
279.0957068737143
 30
0.0
 11
698.5834613190474
 21
280.2849661014148
 31
0.0
  0
LINE
  5
3B6B
330
1F
100
AcDbEntity
  8
ｴｸｽﾃﾝｼｮﾝﾌﾚｰﾑ
100
AcDbLine
 10
696.8896622398504
 20
279.0957068737143
 30
0.0
 11
696.7646660581904
 21
280.2849661014148
 31
0.0
  0
LINE
  5
3B6C
330
1F
100
AcDbEntity
  8
ｴｸｽﾃﾝｼｮﾝﾌﾚｰﾑ
100
AcDbLine
 10
692.9515239033066
 20
277.4644765642165
 30
0.0
 11
692.1989762864853
 21
278.3937954763865
 31
0.0
  0
LINE
  5
3B6D
330
1F
100
AcDbEntity
  8
ｴｸｽﾃﾝｼｮﾝﾌﾚｰﾑ
100
AcDbLine
 10
702.3966034739309
 20
265.8007746592048
 30
0.0
 11
703.1491510907524
 21
264.871455747035
 31
0.0
  0
LINE
  5
3B6E
330
1F
100
AcDbEntity
  8
ｴｸｽﾃﾝｼｮﾝﾌﾚｰﾑ
100
AcDbLine
 10
698.4584651373872
 20
264.169544349707
 30
0.0
 11
698.5834613190473
 21
262.9802851220065
 31
0.0
  0
LINE
  5
3B6F
330
1F
100
AcDbEntity
  8
ｴｸｽﾃﾝｼｮﾝﾌﾚｰﾑ
100
AcDbLine
 10
696.8896622398501
 20
264.169544349707
 30
0.0
 11
696.7646660581902
 21
262.9802851220065
 31
0.0
  0
LINE
  5
3B70
330
1F
100
AcDbEntity
  8
ｴｸｽﾃﾝｼｮﾝﾌﾚｰﾑ
100
AcDbLine
 10
692.9515239033066
 20
265.8007746592048
 30
0.0
 11
692.1989762864853
 21
264.871455747035
 31
0.0
  0
LINE
  5
3B71
330
1F
100
AcDbEntity
  8
ｴｸｽﾃﾝｼｮﾝﾌﾚｰﾑ
100
AcDbLine
 10
691.842212736113
 20
266.9100858263982
 30
0.0
 11
690.9128938239432
 21
266.1575382095771
 31
0.0
  0
LINE
  5
3B72
330
1F
100
AcDbEntity
  8
ｴｸｽﾃﾝｼｮﾝﾌﾚｰﾑ
100
AcDbLine
 10
690.2109824266151
 20
270.848224162942
 30
0.0
 11
689.0217231989147
 21
270.723227981282
 31
0.0
  0
LINE
  5
3B73
330
1F
100
AcDbEntity
  8
ｴｸｽﾃﾝｼｮﾝﾌﾚｰﾑ
100
AcDbLine
 10
690.2109824266151
 20
272.4170270604791
 30
0.0
 11
689.0217231989149
 21
272.5420232421391
 31
0.0
  0
LINE
  5
3B74
330
1F
100
AcDbEntity
  8
ｴｸｽﾃﾝｼｮﾝﾌﾚｰﾑ
100
AcDbLine
 10
691.842212736113
 20
276.3551653970228
 30
0.0
 11
690.912893823943
 21
277.1077130138442
 31
0.0
  0
CIRCLE
  5
3B75
330
1F
100
AcDbEntity
  8
ｴｸｽﾃﾝｼｮﾝﾌﾚｰﾑ
100
AcDbCircle
 10
697.6740636886191
 20
561.6326256117106
 30
0.0
 40
7.504189999999999
  0
CIRCLE
  5
3B76
330
1F
100
AcDbEntity
  8
ｴｸｽﾃﾝｼｮﾝﾌﾚｰﾑ
100
AcDbCircle
 10
697.6740636886191
 20
561.6326256117106
 30
0.0
 40
8.699999999999999
  0
LINE
  5
3B77
330
1F
100
AcDbEntity
  8
ｴｸｽﾃﾝｼｮﾝﾌﾚｰﾑ
100
AcDbLine
 10
703.5059146411247
 20
556.9100858263985
 30
0.0
 11
704.4352335532947
 21
556.157538209577
 31
0.0
  0
LINE
  5
3B78
330
1F
100
AcDbEntity
  8
ｴｸｽﾃﾝｼｮﾝﾌﾚｰﾑ
100
AcDbLine
 10
705.1371449506225
 20
560.8482241629421
 30
0.0
 11
706.3264041783229
 21
560.7232279812822
 31
0.0
  0
LINE
  5
3B79
330
1F
100
AcDbEntity
  8
ｴｸｽﾃﾝｼｮﾝﾌﾚｰﾑ
100
AcDbLine
 10
705.1371449506225
 20
562.4170270604793
 30
0.0
 11
706.3264041783229
 21
562.5420232421393
 31
0.0
  0
LINE
  5
3B7A
330
1F
100
AcDbEntity
  8
ｴｸｽﾃﾝｼｮﾝﾌﾚｰﾑ
100
AcDbLine
 10
703.5059146411247
 20
566.3551653970231
 30
0.0
 11
704.4352335532947
 21
567.1077130138441
 31
0.0
  0
LINE
  5
3B7B
330
1F
100
AcDbEntity
  8
ｴｸｽﾃﾝｼｮﾝﾌﾚｰﾑ
100
AcDbLine
 10
702.3966034739312
 20
567.4644765642166
 30
0.0
 11
703.1491510907526
 21
568.3937954763863
 31
0.0
  0
LINE
  5
3B7C
330
1F
100
AcDbEntity
  8
ｴｸｽﾃﾝｼｮﾝﾌﾚｰﾑ
100
AcDbLine
 10
698.4584651373875
 20
569.0957068737144
 30
0.0
 11
698.5834613190474
 21
570.2849661014148
 31
0.0
  0
LINE
  5
3B7D
330
1F
100
AcDbEntity
  8
ｴｸｽﾃﾝｼｮﾝﾌﾚｰﾑ
100
AcDbLine
 10
696.8896622398504
 20
569.0957068737144
 30
0.0
 11
696.7646660581904
 21
570.2849661014148
 31
0.0
  0
LINE
  5
3B7E
330
1F
100
AcDbEntity
  8
ｴｸｽﾃﾝｼｮﾝﾌﾚｰﾑ
100
AcDbLine
 10
692.9515239033066
 20
567.4644765642166
 30
0.0
 11
692.1989762864853
 21
568.3937954763865
 31
0.0
  0
LINE
  5
3B7F
330
1F
100
AcDbEntity
  8
ｴｸｽﾃﾝｼｮﾝﾌﾚｰﾑ
100
AcDbLine
 10
702.3966034739309
 20
555.8007746592048
 30
0.0
 11
703.1491510907524
 21
554.871455747035
 31
0.0
  0
LINE
  5
3B80
330
1F
100
AcDbEntity
  8
ｴｸｽﾃﾝｼｮﾝﾌﾚｰﾑ
100
AcDbLine
 10
698.4584651373872
 20
554.169544349707
 30
0.0
 11
698.5834613190473
 21
552.9802851220066
 31
0.0
  0
LINE
  5
3B81
330
1F
100
AcDbEntity
  8
ｴｸｽﾃﾝｼｮﾝﾌﾚｰﾑ
100
AcDbLine
 10
696.8896622398501
 20
554.169544349707
 30
0.0
 11
696.7646660581902
 21
552.9802851220066
 31
0.0
  0
LINE
  5
3B82
330
1F
100
AcDbEntity
  8
ｴｸｽﾃﾝｼｮﾝﾌﾚｰﾑ
100
AcDbLine
 10
692.9515239033066
 20
555.8007746592048
 30
0.0
 11
692.1989762864853
 21
554.871455747035
 31
0.0
  0
LINE
  5
3B83
330
1F
100
AcDbEntity
  8
ｴｸｽﾃﾝｼｮﾝﾌﾚｰﾑ
100
AcDbLine
 10
691.842212736113
 20
556.9100858263984
 30
0.0
 11
690.9128938239432
 21
556.1575382095772
 31
0.0
  0
LINE
  5
3B84
330
1F
100
AcDbEntity
  8
ｴｸｽﾃﾝｼｮﾝﾌﾚｰﾑ
100
AcDbLine
 10
690.2109824266151
 20
560.8482241629421
 30
0.0
 11
689.0217231989147
 21
560.723227981282
 31
0.0
  0
LINE
  5
3B85
330
1F
100
AcDbEntity
  8
ｴｸｽﾃﾝｼｮﾝﾌﾚｰﾑ
100
AcDbLine
 10
690.2109824266151
 20
562.4170270604792
 30
0.0
 11
689.0217231989149
 21
562.5420232421391
 31
0.0
  0
LINE
  5
3B86
330
1F
100
AcDbEntity
  8
ｴｸｽﾃﾝｼｮﾝﾌﾚｰﾑ
100
AcDbLine
 10
691.842212736113
 20
566.3551653970229
 30
0.0
 11
690.912893823943
 21
567.1077130138443
 31
0.0
  0
CIRCLE
  5
3B87
330
1F
100
AcDbEntity
  8
ｴｸｽﾃﾝｼｮﾝﾌﾚｰﾑ
100
AcDbCircle
 10
697.6740636886191
 20
851.6326256117107
 30
0.0
 40
7.504189999999999
  0
CIRCLE
  5
3B88
330
1F
100
AcDbEntity
  8
ｴｸｽﾃﾝｼｮﾝﾌﾚｰﾑ
100
AcDbCircle
 10
697.6740636886191
 20
851.6326256117107
 30
0.0
 40
8.699999999999999
  0
LINE
  5
3B89
330
1F
100
AcDbEntity
  8
ｴｸｽﾃﾝｼｮﾝﾌﾚｰﾑ
100
AcDbLine
 10
703.5059146411249
 20
846.9100858263985
 30
0.0
 11
704.4352335532948
 21
846.1575382095769
 31
0.0
  0
LINE
  5
3B8A
330
1F
100
AcDbEntity
  8
ｴｸｽﾃﾝｼｮﾝﾌﾚｰﾑ
100
AcDbLine
 10
705.1371449506227
 20
850.8482241629421
 30
0.0
 11
706.3264041783232
 21
850.7232279812821
 31
0.0
  0
LINE
  5
3B8B
330
1F
100
AcDbEntity
  8
ｴｸｽﾃﾝｼｮﾝﾌﾚｰﾑ
100
AcDbLine
 10
705.1371449506227
 20
852.4170270604793
 30
0.0
 11
706.3264041783232
 21
852.5420232421392
 31
0.0
  0
LINE
  5
3B8C
330
1F
100
AcDbEntity
  8
ｴｸｽﾃﾝｼｮﾝﾌﾚｰﾑ
100
AcDbLine
 10
703.5059146411249
 20
856.3551653970231
 30
0.0
 11
704.4352335532948
 21
857.1077130138442
 31
0.0
  0
LINE
  5
3B8D
330
1F
100
AcDbEntity
  8
ｴｸｽﾃﾝｼｮﾝﾌﾚｰﾑ
100
AcDbLine
 10
702.3966034739315
 20
857.4644765642165
 30
0.0
 11
703.1491510907526
 21
858.3937954763865
 31
0.0
  0
LINE
  5
3B8E
330
1F
100
AcDbEntity
  8
ｴｸｽﾃﾝｼｮﾝﾌﾚｰﾑ
100
AcDbLine
 10
698.4584651373875
 20
859.0957068737143
 30
0.0
 11
698.5834613190477
 21
860.2849661014147
 31
0.0
  0
LINE
  5
3B8F
330
1F
100
AcDbEntity
  8
ｴｸｽﾃﾝｼｮﾝﾌﾚｰﾑ
100
AcDbLine
 10
696.8896622398506
 20
859.0957068737143
 30
0.0
 11
696.7646660581904
 21
860.2849661014147
 31
0.0
  0
LINE
  5
3B90
330
1F
100
AcDbEntity
  8
ｴｸｽﾃﾝｼｮﾝﾌﾚｰﾑ
100
AcDbLine
 10
692.9515239033066
 20
857.4644765642165
 30
0.0
 11
692.1989762864854
 21
858.3937954763865
 31
0.0
  0
LINE
  5
3B91
330
1F
100
AcDbEntity
  8
ｴｸｽﾃﾝｼｮﾝﾌﾚｰﾑ
100
AcDbLine
 10
702.3966034739312
 20
845.8007746592048
 30
0.0
 11
703.1491510907526
 21
844.8714557470349
 31
0.0
  0
LINE
  5
3B92
330
1F
100
AcDbEntity
  8
ｴｸｽﾃﾝｼｮﾝﾌﾚｰﾑ
100
AcDbLine
 10
698.4584651373875
 20
844.1695443497071
 30
0.0
 11
698.5834613190474
 21
842.9802851220067
 31
0.0
  0
LINE
  5
3B93
330
1F
100
AcDbEntity
  8
ｴｸｽﾃﾝｼｮﾝﾌﾚｰﾑ
100
AcDbLine
 10
696.8896622398501
 20
844.1695443497071
 30
0.0
 11
696.7646660581904
 21
842.9802851220067
 31
0.0
  0
LINE
  5
3B94
330
1F
100
AcDbEntity
  8
ｴｸｽﾃﾝｼｮﾝﾌﾚｰﾑ
100
AcDbLine
 10
692.9515239033066
 20
845.8007746592048
 30
0.0
 11
692.1989762864854
 21
844.8714557470349
 31
0.0
  0
LINE
  5
3B95
330
1F
100
AcDbEntity
  8
ｴｸｽﾃﾝｼｮﾝﾌﾚｰﾑ
100
AcDbLine
 10
691.8422127361131
 20
846.9100858263983
 30
0.0
 11
690.9128938239432
 21
846.1575382095771
 31
0.0
  0
LINE
  5
3B96
330
1F
100
AcDbEntity
  8
ｴｸｽﾃﾝｼｮﾝﾌﾚｰﾑ
100
AcDbLine
 10
690.2109824266154
 20
850.8482241629421
 30
0.0
 11
689.0217231989149
 21
850.7232279812821
 31
0.0
  0
LINE
  5
3B97
330
1F
100
AcDbEntity
  8
ｴｸｽﾃﾝｼｮﾝﾌﾚｰﾑ
100
AcDbLine
 10
690.2109824266154
 20
852.4170270604791
 30
0.0
 11
689.0217231989149
 21
852.5420232421392
 31
0.0
  0
LINE
  5
3B98
330
1F
100
AcDbEntity
  8
ｴｸｽﾃﾝｼｮﾝﾌﾚｰﾑ
100
AcDbLine
 10
691.8422127361131
 20
856.3551653970231
 30
0.0
 11
690.9128938239432
 21
857.1077130138442
 31
0.0
  0
HATCH
  5
3BD9
330
1F
100
AcDbEntity
  8
AM_8
100
AcDbHatch
 10
0.0
 20
0.0
 30
0.0
210
0.0
220
0.0
230
1.0
  2
_U
 70
     0
 71
     0
 91
        1
 92
        1
 93
       22
 72
     2
 10
701.3606593909894
 20
1055.29774825711
 40
0.2000000000000354
 50
0.500000000006101
 51
89.99999999999998
 73
     1
 72
     1
 10
701.3606593909894
 20
1055.49774825711
 11
699.7953836863557
 21
1055.49774825711
 72
     1
 10
699.7953836863557
 20
1055.49774825711
 11
699.8832508487469
 21
1045.429168728011
 72
     2
 10
700.8832127718151
 20
1045.437895263517
 40
1.000000000004107
 50
180.5000000004332
 51
240.0000000004231
 73
     1
 72
     1
 10
700.3832127718192
 20
1044.571869859725
 11
702.1170861283821
 21
1043.570817610573
 72
     2
 10
701.9670861283826
 20
1043.311009989437
 40
0.299999999999986
 50
299.9999999999715
 51
359.5000000000019
 73
     0
 72
     1
 10
702.2670747053016
 20
1043.313627950086
 11
702.6895936863556
 21
994.8977482571102
 72
     1
 10
702.6895936863557
 20
994.8977482571102
 11
703.0895936863555
 21
994.0977482571099
 72
     1
 10
703.0895936863553
 20
994.0977482571101
 11
704.2895936863556
 21
994.0977482571101
 72
     1
 10
704.2895936863556
 20
994.0977482571101
 11
704.6895936863554
 21
994.8977482571102
 72
     1
 10
704.6895936863556
 20
994.8977482571102
 11
704.7175196632861
 21
998.0977482571102
 72
     1
 10
704.7175196632861
 20
998.0977482571102
 11
707.1740636863555
 21
998.0977482571102
 72
     1
 10
707.1740636863555
 20
998.0977482571102
 11
707.1740636863555
 21
999.5977482571102
 72
     1
 10
707.1740636863555
 20
999.5977482571102
 11
707.6740636863558
 21
999.8977482571101
 72
     1
 10
707.6740636863555
 20
999.8977482571101
 11
707.2097943198873
 21
1053.09774825711
 72
     1
 10
707.2097943198873
 20
1053.09774825711
 11
705.5071838752271
 21
1053.09774825711
 72
     2
 10
705.5071838752273
 20
1052.89774825711
 40
0.200000000000017
 50
89.99999999999998
 51
179.4999999999938
 73
     1
 72
     1
 10
705.3071914906145
 20
1052.89949356421
 11
705.2625321542386
 21
1047.782040493213
 72
     2
 10
703.4626006927233
 20
1047.79774825711
 40
1.799999999999859
 50
360.4999999999886
 51
449.9999999999928
 73
     0
 72
     1
 10
703.4626006927233
 20
1045.99774825711
 11
703.4261870561908
 21
1045.99774825711
 72
     2
 10
703.4261870561911
 20
1047.79774825711
 40
1.800000000000082
 50
90.00000000000362
 51
179.5000000000006
 73
     0
 72
     1
 10
701.6262555946755
 20
1047.782040493213
 11
701.5606517756022
 21
1055.29949356421
 97
        0
 75
     0
 76
     0
 52
-45.00000000000001
 41
10.0
 77
     0
 78
     1
 53
315.0
 43
-2.132649515056357
 44
1146.726909562633
 45
7.071067811865476
 46
7.071067811865473
 79
     0
 98
        1
 10
-2.132649515056357
 20
1146.726909562633
1001
GENIUS_GENOBJ-N-HTC_13
1002
{
1000
OWNER
1000
GEN
1002
}
1001
GENIUS_GENODEF_13
1002
{
1000
HIER
1070
     0
1002
}
1002
{
1000
MANEDIT
1070
     0
1002
}
1002
{
1000
NOSEL
1070
     0
1002
}
1002
{
1000
BEHIND
1070
     0
1002
}
1002
{
1000
OTHER
1070
     0
1002
}
1002
{
1000
REACTOR
1002
}
1001
GENIUS_GENHATCH_13
1002
{
1000
DATA
1040
45.0
1042
2.5
1000
_U
1070
     0
1011
704.6163189687127
1021
1032.781998636929
1031
0.0
1002
}
1002
{
1000
UCS
1010
0.0
1020
0.0
1030
0.0
1010
1.0
1020
0.0
1030
0.0
1010
0.0
1020
1.0
1030
0.0
1002
}
  0
LINE
  5
3BF5
330
1F
100
AcDbEntity
  8
ｶﾞｽｹｯﾄ
100
AcDbLine
 10
703.4855647081367
 20
1052.19774825711
 30
0.0
 11
703.4032230407778
 21
1052.19774825711
 31
0.0
  0
ARC
  5
3BF6
330
1F
100
AcDbEntity
  8
ｶﾞｽｹｯﾄ
100
AcDbCircle
 10
703.4855647081367
 20
1050.39774825711
 30
0.0
 40
1.8
100
AcDbArc
 50
0.5000000000013048
 51
89.99999999999998
1001
GENIUS_GENODEF_13
1002
{
1000
HIER
1070
     0
1002
}
1002
{
1000
MANEDIT
1070
     0
1002
}
1002
{
1000
NOSEL
1070
     0
1002
}
1002
{
1000
BEHIND
1070
     0
1002
}
1002
{
1000
OTHER
1070
     0
1002
}
1002
{
1000
REACTOR
1002
}
1001
GENIUS_GENOBJ-N-FIL_13
1002
{
1000
OWNER
1000
GEN
1002
}
  0
ARC
  5
3BF7
330
1F
100
AcDbEntity
  8
ｶﾞｽｹｯﾄ
100
AcDbCircle
 10
703.4032230407778
 20
1050.39774825711
 30
0.0
 40
1.8
100
AcDbArc
 50
89.99999999999998
 51
179.4999999999987
1001
GENIUS_GENODEF_13
1002
{
1000
HIER
1070
     0
1002
}
1002
{
1000
MANEDIT
1070
     0
1002
}
1002
{
1000
NOSEL
1070
     0
1002
}
1002
{
1000
BEHIND
1070
     0
1002
}
1002
{
1000
OTHER
1070
     0
1002
}
1002
{
1000
REACTOR
1002
}
1001
GENIUS_GENOBJ-N-FIL_13
1002
{
1000
OWNER
1000
GEN
1002
}
  0
HATCH
  5
3C06
330
1F
100
AcDbEntity
  8
ｶﾞｽｹｯﾄ
100
AcDbHatch
 10
0.0
 20
0.0
 30
0.0
210
0.0
220
0.0
230
1.0
  2
SOLID
 70
     1
 71
     0
 91
        1
 92
        1
 93
        8
 72
     1
 10
703.4261870561908
 20
1045.99774825711
 11
703.4626006927233
 21
1045.99774825711
 72
     2
 10
703.4626006927233
 20
1047.79774825711
 40
1.799999999999968
 50
-90.00000000000001
 51
-0.5000000000003379
 73
     1
 72
     1
 10
705.2625321542389
 20
1047.782040493213
 11
705.2854961696521
 21
1050.41345602101
 72
     2
 10
703.4855647081367
 20
1050.39774825711
 40
1.800000000000008
 50
0.5000000001188072
 51
89.99999999999998
 73
     1
 72
     1
 10
703.4855647081367
 20
1052.19774825711
 11
703.403223040778
 21
1052.19774825711
 72
     2
 10
703.4032230407778
 20
1050.39774825711
 40
1.800000000000096
 50
90.0000000000036
 51
179.4999999998879
 73
     1
 72
     1
 10
701.6032915792625
 20
1050.41345602101
 11
701.6262555946761
 21
1047.782040493213
 72
     2
 10
703.4261870561913
 20
1047.79774825711
 40
1.799999999999633
 50
180.4999999999923
 51
269.9999999999928
 73
     1
 97
        0
 75
     0
 76
     1
 98
        1
 10
-2.132649515056357
 20
1146.726909562633
1001
GENIUS_GENODEF_13
1002
{
1000
HIER
1070
     0
1002
}
1002
{
1000
MANEDIT
1070
     0
1002
}
1002
{
1000
NOSEL
1070
     0
1002
}
1002
{
1000
BEHIND
1070
     0
1002
}
1002
{
1000
OTHER
1070
     0
1002
}
1002
{
1000
REACTOR
1002
}
1001
GENIUS_GENOBJ-N-HTC_13
1002
{
1000
OWNER
1000
GEN
1002
}
1001
GENIUS_GENHATCH_13
1002
{
1000
DATA
1040
0.0
1042
1.0
1000
SOLID
1070
     0
1011
702.9006678089991
1021
1049.391822208018
1031
0.0
1002
}
1002
{
1000
UCS
1010
0.0
1020
0.0
1030
0.0
1010
1.0
1020
0.0
1030
0.0
1010
0.0
1020
1.0
1030
0.0
1002
}
  0
DIMENSION
  5
3D55
330
1F
100
AcDbEntity
  8
AM_5
100
AcDbDimension
  2
*D6
 10
983.6103118887702
 20
909.6326266217108
 30
0.0
 11
956.11031188877
 21
922.6326266217107
 31
0.0
 70
    32
 71
     5
 42
55.00000000000023
  3
AM_ISO$0
100
AcDbAlignedDimension
 13
928.61031188877
 23
861.1326256117104
 33
0.0
 14
983.6103118887702
 24
861.1683562452427
 34
0.0
100
AcDbRotatedDimension
1001
ACAD
1000
DSTYLE
1002
{
1070
    40
1040
4.0
1002
}
  0
LINE
  5
3EF6
330
1F
100
AcDbEntity
  8
ｴｸｽﾃﾝｼｮﾝﾌﾚｰﾑ
100
AcDbLine
 10
328.485558110489
 20
1048.99774825711
 30
0.0
 11
328.4384330244189
 21
1043.59774825711
 31
0.0
  0
LINE
  5
3F0D
330
1F
100
AcDbEntity
  8
ｴｸｽﾃﾝｼｮﾝﾌﾚｰﾑ
100
AcDbLine
 10
341.7384861286186
 20
1053.09774825711
 30
0.0
 11
308.1383330528238
 21
1053.09774825711
 31
0.0
  0
ARC
  5
3F0E
330
1F
100
AcDbEntity
  8
ｴｸｽﾃﾝｼｮﾝﾌﾚｰﾑ
100
AcDbCircle
 10
337.8060234974836
 20
1052.89774825711
 30
0.0
 40
0.2
100
AcDbArc
 50
0.500000000001299
 51
90.00000000000003
1001
GENIUS_GENODEF_13
1002
{
1000
HIER
1070
     0
1002
}
1002
{
1000
MANEDIT
1070
     0
1002
}
1002
{
1000
NOSEL
1070
     0
1002
}
1002
{
1000
BEHIND
1070
     0
1002
}
1002
{
1000
OTHER
1070
     0
1002
}
1002
{
1000
REACTOR
1002
}
1001
GENIUS_GENOBJ-N-FIL_13
1002
{
1000
OWNER
1000
GEN
1002
}
  0
ARC
  5
3F11
330
1F
100
AcDbEntity
  8
ｴｸｽﾃﾝｼｮﾝﾌﾚｰﾑ
100
AcDbCircle
 10
341.9525479817215
 20
1055.29774825711
 30
0.0
 40
0.2
100
AcDbArc
 50
90.00000000000003
 51
179.4999999999987
1001
GENIUS_GENOBJ-N-FIL_13
1002
{
1000
OWNER
1000
GEN
1002
}
1001
GENIUS_GENODEF_13
1002
{
1000
HIER
1070
     0
1002
}
1002
{
1000
MANEDIT
1070
     0
1002
}
1002
{
1000
NOSEL
1070
     0
1002
}
1002
{
1000
BEHIND
1070
     0
1002
}
1002
{
1000
OTHER
1070
     0
1002
}
1002
{
1000
REACTOR
1002
}
  0
LINE
  5
3F14
330
1F
100
AcDbEntity
  8
ｴｸｽﾃﾝｼｮﾝﾌﾚｰﾑ
100
AcDbLine
 10
342.6107590305979
 20
1044.956204834701
 30
0.0
 11
342.7027536863556
 21
1055.49774825711
 31
0.0
  0
LINE
  5
3F15
330
1F
100
AcDbEntity
  8
ｴｸｽﾃﾝｼｮﾝﾌﾚｰﾑ
100
AcDbLine
 10
340.6236136863553
 20
994.8977482571102
 30
0.0
 11
341.0461326674093
 21
1043.313627950086
 31
0.0
  0
LINE
  5
3F17
330
1F
100
AcDbEntity
  8
ｴｸｽﾃﾝｼｮﾝﾌﾚｰﾑ
100
AcDbLine
 10
338.6236136863553
 20
994.8977482571102
 30
0.0
 11
339.0236136863554
 21
994.0977482571101
 31
0.0
  0
LINE
  5
3F18
330
1F
100
AcDbEntity
  8
ｴｸｽﾃﾝｼｮﾝﾌﾚｰﾑ
100
AcDbLine
 10
340.2236136863556
 20
994.0977482571101
 30
0.0
 11
340.6236136863553
 21
994.8977482571102
 31
0.0
  0
LINE
  5
3F19
330
1F
100
AcDbEntity
  8
ｴｸｽﾃﾝｼｮﾝﾌﾚｰﾑ
100
AcDbLine
 10
342.1107971075338
 20
1044.098905966415
 30
0.0
 11
341.1961212443288
 21
1043.570817610572
 31
0.0
  0
ARC
  5
3F1A
330
1F
100
AcDbEntity
  8
ｴｸｽﾃﾝｼｮﾝﾌﾚｰﾑ
100
AcDbCircle
 10
341.3461212443286
 20
1043.311009989437
 30
0.0
 40
0.3
100
AcDbArc
 50
120.0000000000005
 51
179.4999999999987
1001
GENIUS_GENODEF_13
1002
{
1000
HIER
1070
     0
1002
}
1002
{
1000
MANEDIT
1070
     0
1002
}
1002
{
1000
NOSEL
1070
     0
1002
}
1002
{
1000
BEHIND
1070
     0
1002
}
1002
{
1000
OTHER
1070
     0
1002
}
1002
{
1000
REACTOR
1002
}
1001
GENIUS_GENOBJ-N-FIL_13
1002
{
1000
OWNER
1000
GEN
1002
}
  0
LINE
  5
3F1C
330
1F
100
AcDbEntity
  8
ｴｸｽﾃﾝｼｮﾝﾌﾚｰﾑ
100
AcDbLine
 10
338.0506752184723
 20
1047.782040493213
 30
0.0
 11
338.0060158820965
 21
1052.89949356421
 31
0.0
  0
LINE
  5
3F1D
330
1F
100
AcDbEntity
  8
ｴｸｽﾃﾝｼｮﾝﾌﾚｰﾑ
100
AcDbLine
 10
341.686951778035
 20
1047.782040493213
 30
0.0
 11
341.7525555971086
 21
1055.29949356421
 31
0.0
  0
LINE
  5
3F1E
330
1F
100
AcDbEntity
  8
ｴｸｽﾃﾝｼｮﾝﾌﾚｰﾑ
100
AcDbLine
 10
339.8506066799876
 20
1045.99774825711
 30
0.0
 11
339.8870203165201
 21
1045.99774825711
 31
0.0
  0
ARC
  5
3F1F
330
1F
100
AcDbEntity
  8
ｴｸｽﾃﾝｼｮﾝﾌﾚｰﾑ
100
AcDbCircle
 10
339.8506066799874
 20
1047.79774825711
 30
0.0
 40
1.8
100
AcDbArc
 50
180.5000000000013
 51
270.0
1001
GENIUS_GENODEF_13
1002
{
1000
HIER
1070
     0
1002
}
1002
{
1000
MANEDIT
1070
     0
1002
}
1002
{
1000
NOSEL
1070
     0
1002
}
1002
{
1000
BEHIND
1070
     0
1002
}
1002
{
1000
OTHER
1070
     0
1002
}
1002
{
1000
REACTOR
1002
}
1001
GENIUS_GENOBJ-N-FIL_13
1002
{
1000
OWNER
1000
GEN
1002
}
  0
ARC
  5
3F20
330
1F
100
AcDbEntity
  8
ｴｸｽﾃﾝｼｮﾝﾌﾚｰﾑ
100
AcDbCircle
 10
339.8870203165198
 20
1047.79774825711
 30
0.0
 40
1.8
100
AcDbArc
 50
270.0
 51
359.4999999999988
1001
GENIUS_GENODEF_13
1002
{
1000
HIER
1070
     0
1002
}
1002
{
1000
MANEDIT
1070
     0
1002
}
1002
{
1000
NOSEL
1070
     0
1002
}
1002
{
1000
BEHIND
1070
     0
1002
}
1002
{
1000
OTHER
1070
     0
1002
}
1002
{
1000
REACTOR
1002
}
1001
GENIUS_GENOBJ-N-FIL_13
1002
{
1000
OWNER
1000
GEN
1002
}
  0
LINE
  5
3F22
330
1F
100
AcDbEntity
  8
ｶﾞｽｹｯﾄ
100
AcDbLine
 10
339.8276426645742
 20
1052.19774825711
 30
0.0
 11
339.909984331933
 21
1052.19774825711
 31
0.0
  0
ARC
  5
3F23
330
1F
100
AcDbEntity
  8
ｶﾞｽｹｯﾄ
100
AcDbCircle
 10
339.8276426645742
 20
1050.39774825711
 30
0.0
 40
1.8
100
AcDbArc
 50
90.00000000000003
 51
179.4999999999987
1001
GENIUS_GENODEF_13
1002
{
1000
HIER
1070
     0
1002
}
1002
{
1000
MANEDIT
1070
     0
1002
}
1002
{
1000
NOSEL
1070
     0
1002
}
1002
{
1000
BEHIND
1070
     0
1002
}
1002
{
1000
OTHER
1070
     0
1002
}
1002
{
1000
REACTOR
1002
}
1001
GENIUS_GENOBJ-N-FIL_13
1002
{
1000
OWNER
1000
GEN
1002
}
  0
ARC
  5
3F24
330
1F
100
AcDbEntity
  8
ｶﾞｽｹｯﾄ
100
AcDbCircle
 10
339.909984331933
 20
1050.39774825711
 30
0.0
 40
1.8
100
AcDbArc
 50
0.500000000001299
 51
90.00000000000003
1001
GENIUS_GENODEF_13
1002
{
1000
HIER
1070
     0
1002
}
1002
{
1000
MANEDIT
1070
     0
1002
}
1002
{
1000
NOSEL
1070
     0
1002
}
1002
{
1000
BEHIND
1070
     0
1002
}
1002
{
1000
OTHER
1070
     0
1002
}
1002
{
1000
REACTOR
1002
}
1001
GENIUS_GENOBJ-N-FIL_13
1002
{
1000
OWNER
1000
GEN
1002
}
  0
HATCH
  5
3F25
330
1F
100
AcDbEntity
  8
ｶﾞｽｹｯﾄ
100
AcDbHatch
 10
0.0
 20
0.0
 30
0.0
210
0.0
220
0.0
230
1.0
  2
SOLID
 70
     1
 71
     0
 91
        1
 92
        1
 93
        8
 72
     1
 10
339.8870203165201
 20
1045.99774825711
 11
339.8506066799876
 21
1045.99774825711
 72
     2
 10
339.8506066799876
 20
1047.79774825711
 40
1.799999999999968
 50
-270.0
 51
-180.5000000000003
 73
     0
 72
     1
 10
338.0506752184721
 20
1047.782040493213
 11
338.0277112030589
 21
1050.41345602101
 72
     2
 10
339.8276426645742
 20
1050.39774825711
 40
1.800000000000008
 50
-179.4999999998812
 51
-90.00000000000001
 73
     0
 72
     1
 10
339.8276426645742
 20
1052.19774825711
 11
339.909984331933
 21
1052.19774825711
 72
     2
 10
339.909984331933
 20
1050.39774825711
 40
1.800000000000096
 50
-89.99999999999641
 51
-0.5000000001120262
 73
     0
 72
     1
 10
341.7099157934484
 20
1050.41345602101
 11
341.6869517780348
 21
1047.782040493213
 72
     2
 10
339.8870203165196
 20
1047.79774825711
 40
1.799999999999633
 50
0.4999999999922847
 51
89.99999999999277
 73
     0
 97
        0
 75
     0
 76
     1
 98
        1
 10
1045.445856887767
 20
1146.726909562633
1001
GENIUS_GENODEF_13
1002
{
1000
HIER
1070
     0
1002
}
1002
{
1000
MANEDIT
1070
     0
1002
}
1002
{
1000
NOSEL
1070
     0
1002
}
1002
{
1000
BEHIND
1070
     0
1002
}
1002
{
1000
OTHER
1070
     0
1002
}
1002
{
1000
REACTOR
1002
}
1001
GENIUS_GENOBJ-N-HTC_13
1002
{
1000
OWNER
1000
GEN
1002
}
1001
GENIUS_GENHATCH_13
1002
{
1000
DATA
1040
0.0
1042
-1.0
1000
SOLID
1070
     0
1011
340.4125395637119
1021
1049.391822208018
1031
0.0
1002
}
1002
{
1000
UCS
1010
0.0
1020
0.0
1030
0.0
1010
1.0
1020
0.0
1030
0.0
1010
0.0
1020
1.0
1030
0.0
1002
}
  0
ARC
  5
3F96
330
1F
100
AcDbEntity
  8
ｴｸｽﾃﾝｼｮﾝﾌﾚｰﾑ
100
AcDbCircle
 10
341.6107971075338
 20
1044.9649313702
 30
0.0
 40
1.0
100
AcDbArc
 50
299.9999999999981
 51
359.5000000000015
1001
GENIUS_GENODEF_13
1002
{
1000
HIER
1070
     0
1002
}
1002
{
1000
MANEDIT
1070
     0
1002
}
1002
{
1000
NOSEL
1070
     0
1002
}
1002
{
1000
BEHIND
1070
     0
1002
}
1002
{
1000
OTHER
1070
     0
1002
}
1002
{
1000
REACTOR
1002
}
1001
GENIUS_GENOBJ-N-FIL_13
1002
{
1000
OWNER
1000
GEN
1002
}
  0
LINE
  5
3FAC
330
1F
100
AcDbEntity
  8
ｴｸｽﾃﾝｼｮﾝﾌﾚｰﾑ
100
AcDbLine
 10
337.3027536863557
 20
1053.09774825711
 30
0.0
 11
337.3856589303679
 21
1043.59774825711
 31
0.0
  0
LINE
  5
40AC
330
1F
100
AcDbEntity
  8
ｴｸｽﾃﾝｼｮﾝﾌﾚｰﾑ
100
AcDbLine
 10
328.485558110489
 20
1048.99774825711
 30
0.0
 11
317.6740636863557
 21
1048.99774825711
 31
0.0
  0
LINE
  5
40BC
330
1F
100
AcDbEntity
  8
ｴｸｽﾃﾝｼｮﾝﾌﾚｰﾑ
100
AcDbLine
 10
326.3740636863557
 20
1019.09774825711
 30
0.0
 11
326.3740636863557
 21
998.0977482571102
 31
0.0
  0
LINE
  5
40C1
330
1F
100
AcDbEntity
  8
ｴｸｽﾃﾝｼｮﾝﾌﾚｰﾑ
100
AcDbLine
 10
326.3740636863557
 20
1019.09774825711
 30
0.0
 11
308.9740636863556
 21
1019.09774825711
 31
0.0
  0
LINE
  5
40C2
330
1F
100
AcDbEntity
  8
ｴｸｽﾃﾝｼｮﾝﾌﾚｰﾑ
100
AcDbLine
 10
325.1782536863557
 20
1019.09774825711
 30
0.0
 11
325.1782536863557
 21
1048.99774825711
 31
0.0
  0
LINE
  5
40CA
330
1F
100
AcDbEntity
  8
ｴｸｽﾃﾝｼｮﾝﾌﾚｰﾑ
100
AcDbLine
 10
308.9740636863556
 20
1019.09774825711
 30
0.0
 11
308.9740636863556
 21
998.0977482571102
 31
0.0
  0
LINE
  5
40D4
330
1F
100
AcDbEntity
  8
ｴｸｽﾃﾝｼｮﾝﾌﾚｰﾑ
100
AcDbLine
 10
310.1698736863557
 20
1019.09774825711
 30
0.0
 11
310.1698736863557
 21
1053.09774825711
 31
0.0
  0
LINE
  5
40E1
330
1F
100
AcDbEntity
  8
ｴｸｽﾃﾝｼｮﾝﾌﾚｰﾑ
100
AcDbLine
 10
337.3856589303679
 20
1043.59774825711
 30
0.0
 11
328.4384330244189
 21
1043.59774825711
 31
0.0
  0
LINE
  5
40F6
330
1F
100
AcDbEntity
  8
ｴｸｽﾃﾝｼｮﾝﾌﾚｰﾑ
100
AcDbLine
 10
328.4297061566282
 20
1042.59774825711
 30
0.0
 11
337.9073420927363
 21
1042.59774825711
 31
0.0
  0
LINE
  5
40F8
330
1F
100
AcDbEntity
  8
ｴｸｽﾃﾝｼｮﾝﾌﾚｰﾑ
100
AcDbLine
 10
328.4297061566282
 20
1042.59774825711
 30
0.0
 11
328.0413605399394
 21
998.0977482571102
 31
0.0
  0
HATCH
  5
410F
330
1F
100
AcDbEntity
  8
AM_8
100
AcDbHatch
 10
0.0
 20
0.0
 30
0.0
210
0.0
220
0.0
230
1.0
  2
_U
 70
     0
 71
     0
 91
        1
 92
        1
 93
        8
 72
     1
 10
308.1740636863558
 20
999.5977482571102
 11
308.1740636863558
 21
998.0977482571102
 72
     1
 10
308.1740636863558
 20
998.0977482571102
 11
308.9740636863556
 21
998.0977482571102
 72
     1
 10
308.9740636863556
 20
998.0977482571102
 11
308.9740636863556
 21
1019.09774825711
 72
     1
 10
308.9740636863556
 20
1019.09774825711
 11
310.1698736863557
 21
1019.09774825711
 72
     1
 10
310.1698736863557
 20
1019.09774825711
 11
310.1698736863557
 21
1053.09774825711
 72
     1
 10
310.1698736863557
 20
1053.09774825711
 11
308.1383330528238
 21
1053.09774825711
 72
     1
 10
308.1383330528238
 20
1053.09774825711
 11
307.6740636863556
 21
999.8977482571104
 72
     1
 10
307.6740636863556
 20
999.8977482571104
 11
308.1740636863558
 21
999.5977482571102
 97
        0
 75
     0
 76
     0
 52
45.0
 41
7.5
 77
     0
 78
     1
 53
45.0
 43
-249.6012465615804
 44
-218.5959386595646
 45
-5.303300858899106
 46
5.303300858899106
 79
     0
 98
        1
 10
-249.6012465615804
 20
-218.5959386595646
1001
GENIUS_GENODEF_13
1002
{
1000
HIER
1070
     0
1002
}
1002
{
1000
MANEDIT
1070
     0
1002
}
1002
{
1000
NOSEL
1070
     0
1002
}
1002
{
1000
BEHIND
1070
     0
1002
}
1002
{
1000
OTHER
1070
     0
1002
}
1002
{
1000
REACTOR
1002
}
1001
GENIUS_GENOBJ-N-HTC_13
1002
{
1000
OWNER
1000
GEN
1002
}
1001
GENIUS_GENHATCH_13
1002
{
1000
DATA
1040
45.0
1042
2.5
1000
_U
1070
     0
1011
309.0993033896348
1021
1045.854155178309
1031
0.0
1002
}
1002
{
1000
UCS
1010
0.0
1020
0.0
1030
0.0
1010
1.0
1020
0.0
1030
0.0
1010
0.0
1020
1.0
1030
0.0
1002
}
  0
LINE
  5
416A
330
1F
100
AcDbEntity
  8
ｴｸｽﾃﾝｼｮﾝﾌﾚｰﾑ
100
AcDbLine
 10
337.9073420927363
 20
1042.59774825711
 30
0.0
 11
338.2956877094249
 21
998.0977482571102
 31
0.0
  0
LINE
  5
4177
330
1F
100
AcDbEntity
  8
ｴｸｽﾃﾝｼｮﾝﾌﾚｰﾑ
100
AcDbLine
 10
338.5956877094248
 20
998.0977482571102
 30
0.0
 11
338.6236136863553
 21
994.8977482571102
 31
0.0
  0
HATCH
  5
4182
330
1F
100
AcDbEntity
  8
AM_8
100
AcDbHatch
 10
0.0
 20
0.0
 30
0.0
210
0.0
220
0.0
230
1.0
  2
_U
 70
     0
 71
     0
 91
        1
 92
        1
 93
       30
 72
     2
 10
339.8870203165198
 20
1047.79774825711
 40
1.799999999999749
 50
0.5000000000017501
 51
89.99999999999639
 73
     0
 72
     1
 10
339.8870203165198
 20
1045.99774825711
 11
339.8506066799876
 21
1045.99774825711
 72
     2
 10
339.8506066799874
 20
1047.79774825711
 40
1.799999999999954
 50
89.99999999999277
 51
179.4999999999983
 73
     0
 72
     1
 10
338.0506752184719
 20
1047.782040493213
 11
338.0060158820965
 21
1052.89949356421
 72
     2
 10
337.8060234974836
 20
1052.89774825711
 40
0.2000000000000362
 50
0.5000000000305426
 51
90.0
 73
     1
 72
     1
 10
337.8060234974836
 20
1053.09774825711
 11
337.3027536863557
 21
1053.09774825711
 72
     1
 10
337.3027536863557
 20
1053.09774825711
 11
337.3856589303679
 21
1043.59774825711
 72
     1
 10
337.3856589303679
 20
1043.59774825711
 11
328.4384330244189
 21
1043.59774825711
 72
     1
 10
328.4384330244189
 20
1043.59774825711
 11
328.485558110489
 21
1048.99774825711
 72
     1
 10
328.485558110489
 20
1048.99774825711
 11
325.1782536863557
 21
1048.99774825711
 72
     1
 10
325.1782536863557
 20
1048.99774825711
 11
325.1782536863557
 21
1019.09774825711
 72
     1
 10
325.1782536863557
 20
1019.09774825711
 11
326.3740636863557
 21
1019.09774825711
 72
     1
 10
326.3740636863557
 20
1019.09774825711
 11
326.3740636863557
 21
998.0977482571102
 72
     1
 10
326.3740636863557
 20
998.0977482571102
 11
328.0413605399394
 21
998.0977482571102
 72
     1
 10
328.0413605399394
 20
998.0977482571102
 11
328.4297061566282
 21
1042.59774825711
 72
     1
 10
328.4297061566282
 20
1042.59774825711
 11
337.9073420927363
 21
1042.59774825711
 72
     1
 10
337.9073420927363
 20
1042.59774825711
 11
338.2956877094249
 21
998.0977482571102
 72
     1
 10
338.2956877094249
 20
998.0977482571102
 11
338.5956877094248
 21
998.0977482571102
 72
     1
 10
338.5956877094248
 20
998.0977482571102
 11
338.6236136863553
 21
994.8977482571102
 72
     1
 10
338.6236136863553
 20
994.8977482571102
 11
339.0236136863554
 21
994.0977482571101
 72
     1
 10
339.0236136863554
 20
994.0977482571101
 11
340.2236136863556
 21
994.0977482571101
 72
     1
 10
340.2236136863556
 20
994.0977482571101
 11
340.6236136863553
 21
994.8977482571102
 72
     1
 10
340.6236136863553
 20
994.8977482571102
 11
341.0461326674093
 21
1043.313627950086
 72
     2
 10
341.3461212443285
 20
1043.311009989437
 40
0.2999999999999416
 50
180.5000000000524
 51
240.000000000034
 73
     0
 72
     1
 10
341.1961212443287
 20
1043.570817610572
 11
342.1107971075338
 21
1044.098905966415
 72
     2
 10
341.6107971075337
 20
1044.9649313702
 40
1.000000000000138
 50
300.0000000000029
 51
359.4999999999954
 73
     1
 72
     1
 10
342.6107590305979
 20
1044.956204834701
 11
342.7027536863556
 21
1055.49774825711
 72
     1
 10
342.7027536863556
 20
1055.49774825711
 11
341.9525479817215
 21
1055.49774825711
 72
     2
 10
341.9525479817215
 20
1055.29774825711
 40
0.2000000000000455
 50
90.0
 51
179.4999999999694
 73
     1
 72
     1
 10
341.7525555971086
 20
1055.29949356421
 11
341.686951778035
 21
1047.782040493213
 97
        0
 75
     0
 76
     0
 52
45.0
 41
12.5
 77
     0
 78
     1
 53
45.0
 43
-249.6012465615804
 44
-218.5959386595646
 45
-8.838834764831844
 46
8.838834764831844
 79
     0
 98
        1
 10
-249.6012465615804
 20
-218.5959386595646
1001
GENIUS_GENOBJ-N-HTC_13
1002
{
1000
OWNER
1000
GEN
1002
}
1001
GENIUS_GENODEF_13
1002
{
1000
HIER
1070
     0
1002
}
1002
{
1000
MANEDIT
1070
     0
1002
}
1002
{
1000
NOSEL
1070
     0
1002
}
1002
{
1000
BEHIND
1070
     0
1002
}
1002
{
1000
OTHER
1070
     0
1002
}
1002
{
1000
REACTOR
1002
}
1001
GENIUS_GENHATCH_13
1002
{
1000
DATA
1040
45.0
1042
2.5
1000
_U
1070
     0
1011
326.6441016037997
1021
1029.201039767344
1031
0.0
1002
}
1002
{
1000
UCS
1010
0.0
1020
0.0
1030
0.0
1010
1.0
1020
0.0
1030
0.0
1010
0.0
1020
1.0
1030
0.0
1002
}
  0
DIMENSION
  5
4288
330
1F
100
AcDbEntity
  8
AM_5
100
AcDbDimension
  2
*D7
 10
259.6740626763553
 20
261.6326256117109
 30
0.0
 11
246.6740626763553
 21
561.6326256117108
 31
0.0
 70
    32
 71
     5
 42
600.0
  3
AM_ISO$0
100
AcDbAlignedDimension
 13
317.6740636863557
 23
861.6326256117107
 33
0.0
 14
317.6740636863557
 24
261.6326256117109
 34
0.0
 50
90.0
100
AcDbRotatedDimension
1001
ACAD
1000
DSTYLE
1002
{
1070
    40
1040
4.0
1002
}
  0
DIMENSION
  5
42E7
330
1F
100
AcDbEntity
  8
AM_5
100
AcDbDimension
  2
*D8
 10
307.6740636863557
 20
909.6326266217108
 30
0.0
 11
507.6740636874872
 21
922.6326266217107
 31
0.0
 70
    32
 71
     5
 42
400.0000000022631
  3
AM_ISO$0
100
AcDbAlignedDimension
 13
707.6740636886188
 23
851.6326256117107
 33
0.0
 14
307.6740636863557
 24
851.6326256117107
 34
0.0
100
AcDbRotatedDimension
1001
ACAD
1000
DSTYLE
1002
{
1070
    40
1040
4.0
1002
}
  0
INSERT
  5
448D
102
{ACAD_REACTORS
330
9A8
102
}
330
1F
100
AcDbEntity
  8
0
100
AcDbBlockReference
  2
*S13
 10
0.0
 20
0.0
 30
0.0
  0
VIEWPORT
  5
186
102
{ACAD_XDICTIONARY
360
4549
102
}
330
23
100
AcDbEntity
 67
     1
  8
0
100
AcDbViewport
 10
5.249999639556163
 20
3.999999883606677
 30
0.0
 40
14.57585398793907
 41
8.992999745766947
 68
     1
 69
     1
 12
5.249999639556163
 22
3.999999883606677
 13
0.0
 23
0.0
 14
10.0
 24
10.0
 15
10.0
 25
10.0
 16
0.0
 26
0.0
 36
1.0
 17
0.0
 27
0.0
 37
0.0
 42
50.0
 43
0.0
 44
0.0
 45
8.992999745766947
 50
0.0
 51
0.0
 72
   100
 90
    32800
  1

281
     0
 71
     1
 74
     0
110
0.0
120
0.0
130
0.0
111
1.0
121
0.0
131
0.0
112
0.0
122
1.0
132
0.0
 79
     0
146
0.0
  0
ENDSEC
  0
SECTION
  2
OBJECTS
  0
DICTIONARY
  5
C
330
0
100
AcDbDictionary
281
     1
  3
ACAD_COLOR
350
C9
  3
ACAD_GROUP
350
D
  3
ACAD_LAYOUT
350
1A
  3
ACAD_MATERIAL
350
C8
  3
ACAD_MLEADERSTYLE
350
43B6
  3
ACAD_MLINESTYLE
350
17
  3
ACAD_PLOTSETTINGS
350
19
  3
ACAD_PLOTSTYLENAME
350
E
  3
ACAD_SCALELIST
350
43A4
  3
ACAD_TABLESTYLE
350
BD6
  3
ACAD_VISUALSTYLE
350
4393
  3
ACDB_RECOMPOSE_DATA
350
4425
  3
AcDbVariableDictionary
350
9E
  3
AcmDictionary
350
63
  3
AMG
350
49
  3
AMGSNAPSETTINGS
350
234
  3
ASE_INDEX_DICTIONARY
350
4375
  3
DWGPROPS
350
4540
  0
DICTIONARY
  5
4426
330
8
100
AcDbDictionary
280
     1
281
     1
  0
DICTIONARY
  5
2C1
330
2
100
AcDbDictionary
280
     1
281
     1
  3
ACAD_LAYERFILTERS
360
3BE7
  3
ACAD_LAYERSTATES
360
2C2
  3
ACLYDICTIONARY
360
3BE6
  3
AMLAYER_GROUPCOLORS
360
3BD6
  0
DICTIONARY
  5
440F
330
10
100
AcDbDictionary
280
     1
281
     1
  3
ADSK_XREC_LAYER_RECONCILED
360
4410
  0
DICTIONARY
  5
4411
330
1F0
100
AcDbDictionary
280
     1
281
     1
  3
ADSK_XREC_LAYER_RECONCILED
360
4412
  0
DICTIONARY
  5
4413
330
23E
100
AcDbDictionary
280
     1
281
     1
  3
ADSK_XREC_LAYER_RECONCILED
360
4414
  0
DICTIONARY
  5
4415
330
23F
100
AcDbDictionary
280
     1
281
     1
  3
ADSK_XREC_LAYER_RECONCILED
360
4416
  0
DICTIONARY
  5
4417
330
2AD
100
AcDbDictionary
280
     1
281
     1
  3
ADSK_XREC_LAYER_RECONCILED
360
4418
  0
DICTIONARY
  5
4419
330
3A72
100
AcDbDictionary
280
     1
281
     1
  3
ADSK_XREC_LAYER_RECONCILED
360
441A
  0
DICTIONARY
  5
441B
330
3A73
100
AcDbDictionary
280
     1
281
     1
  3
ADSK_XREC_LAYER_RECONCILED
360
441C
  0
DICTIONARY
  5
441D
330
3BDA
100
AcDbDictionary
280
     1
281
     1
  3
ADSK_XREC_LAYER_RECONCILED
360
441E
  0
DICTIONARY
  5
441F
330
3BE4
100
AcDbDictionary
280
     1
281
     1
  3
ADSK_XREC_LAYER_RECONCILED
360
4420
  0
DICTIONARY
  5
4421
330
4358
100
AcDbDictionary
280
     1
281
     1
  3
ADSK_XREC_LAYER_RECONCILED
360
4422
  0
DICTIONARY
  5
99
330
1F
100
AcDbDictionary
280
     1
281
     1
  3
ACAD_SORTENTS
360
2272
  0
DICTIONARY
  5
AF1
330
AE9
100
AcDbDictionary
280
     1
281
     1
  0
DICTIONARY
  5
B55
330
AFC
100
AcDbDictionary
280
     1
281
     1
  0
DICTIONARY
  5
4547
330
182
100
AcDbDictionary
280
     1
281
     1
  3
ACAD_XREC_ROUNDTRIP
360
4548
  0
DICTIONARY
  5
4549
330
186
100
AcDbDictionary
280
     1
281
     1
  3
ACAD_XREC_ROUNDTRIP
360
454A
  0
DICTIONARY
  5
C9
102
{ACAD_REACTORS
330
C
102
}
330
C
100
AcDbDictionary
281
     1
  0
DICTIONARY
  5
D
102
{ACAD_REACTORS
330
C
102
}
330
C
100
AcDbDictionary
281
     1
  0
DICTIONARY
  5
1A
102
{ACAD_REACTORS
330
C
102
}
330
C
100
AcDbDictionary
281
     1
  3
Model
350
22
  3
レイアウト1
350
1E
  3
レイアウト2
350
26
  0
DICTIONARY
  5
C8
102
{ACAD_REACTORS
330
C
102
}
330
C
100
AcDbDictionary
281
     1
  3
ByBlock
350
4383
  3
ByLayer
350
437B
  3
Global
350
438B
  0
DICTIONARY
  5
43B6
102
{ACAD_REACTORS
330
C
102
}
330
C
100
AcDbDictionary
281
     1
  3
Standard
350
43B7
  0
DICTIONARY
  5
17
102
{ACAD_REACTORS
330
C
102
}
330
C
100
AcDbDictionary
281
     1
  3
Standard
350
18
  0
DICTIONARY
  5
19
102
{ACAD_REACTORS
330
C
102
}
330
C
100
AcDbDictionary
281
     1
  0
ACDBDICTIONARYWDFLT
  5
E
102
{ACAD_REACTORS
330
C
102
}
330
C
100
AcDbDictionary
281
     1
  3
Normal
350
F
100
AcDbDictionaryWithDefault
340
F
  0
DICTIONARY
  5
43A4
102
{ACAD_REACTORS
330
C
102
}
330
C
100
AcDbDictionary
281
     1
  3
A0
350
43A5
  3
A1
350
43A6
  3
A2
350
43A7
  3
A3
350
43A8
  3
A4
350
43A9
  3
A5
350
43AA
  3
A6
350
43AB
  3
A7
350
43AC
  3
A8
350
43AD
  3
A9
350
43AE
  3
B0
350
43AF
  3
B1
350
43B0
  3
B2
350
43B1
  3
B3
350
43B2
  3
B4
350
43B3
  3
B5
350
43B4
  3
B6
350
43B5
  0
DICTIONARY
  5
BD6
102
{ACAD_REACTORS
330
C
102
}
330
C
100
AcDbDictionary
281
     1
  3
Standard
350
BD7
  0
DICTIONARY
  5
4393
102
{ACAD_REACTORS
330
C
102
}
330
C
100
AcDbDictionary
281
     1
  3
2dWireframe
350
4399
  3
3D Hidden
350
439B
  3
3dWireframe
350
439A
  3
Basic
350
4398
  3
Brighten
350
439F
  3
ColorChange
350
43A3
  3
Conceptual
350
439C
  3
Dim
350
439E
  3
Facepattern
350
43A2
  3
Flat
350
4394
  3
FlatWithEdges
350
4395
  3
Gouraud
350
4396
  3
GouraudWithEdges
350
4397
  3
Linepattern
350
43A1
  3
Realistic
350
439D
  3
Thicken
350
43A0
  0
XRECORD
  5
4425
102
{ACAD_REACTORS
330
C
102
}
330
C
100
AcDbXrecord
280
     1
 90
        1
330
BD7
  0
DICTIONARY
  5
9E
102
{ACAD_REACTORS
330
C
102
}
330
C
100
AcDbDictionary
281
     1
  3
CANNOSCALE
350
443E
  3
CMLEADERSTYLE
350
443D
  3
CTABLESTYLE
350
C25
  3
DIMASSOC
350
A0
  3
INDEXCTL
350
9F
  3
SORTENTS
350
453E
  0
DICTIONARY
  5
63
102
{ACAD_REACTORS
330
C
102
}
330
C
100
AcDbDictionary
281
     1
  3
AcmBOM
350
9A7
  3
AcmStdDictionary
350
69
  3
AMDTSECTSYM_ARROWCOLOR
350
BE7
  0
DICTIONARY
  5
49
102
{ACAD_REACTORS
330
C
102
}
330
C
100
AcDbDictionary
281
     1
  0
DICTIONARY
  5
234
102
{ACAD_REACTORS
330
C
102
}
330
C
100
AcDbDictionary
281
     1
  0
DICTIONARY
  5
4375
102
{ACAD_REACTORS
330
C
102
}
330
C
100
AcDbDictionary
281
     1
  3
ASEBlockHierarchyIndexRecord
350
4377
1001
DCO15
1040
1664516751.594
  0
XRECORD
  5
4540
102
{ACAD_REACTORS
330
C
102
}
330
C
100
AcDbXrecord
280
     1
  1
DWGPROPS COOKIE
  2

  3

  4

  6

  7

  8
Administrator
  9

300
AmdtFileType=84
301
=
302
=
303
=
304
=
305
=
306
=
307
=
308
=
309
=
 40
0.137674849537037
 41
2454770.465836227
 42
2455068.667567454
  1

 90
        1
  0
DICTIONARY
  5
3BE7
102
{ACAD_REACTORS
330
2C1
102
}
330
2C1
100
AcDbDictionary
281
     1
  0
DICTIONARY
  5
2C2
102
{ACAD_REACTORS
330
2C1
102
}
330
2C1
100
AcDbDictionary
281
     1
  0
DICTIONARY
  5
3BE6
102
{ACAD_REACTORS
330
2C1
102
}
330
2C1
100
AcDbDictionary
281
     1
1001
ACAD
1000
<All
  0
DICTIONARY
  5
3BD6
102
{ACAD_REACTORS
330
2C1
102
}
330
2C1
100
AcDbDictionary
280
     1
281
     1
  0
XRECORD
  5
4410
102
{ACAD_REACTORS
330
440F
102
}
330
440F
100
AcDbXrecord
280
     1
290
     1
  0
XRECORD
  5
4412
102
{ACAD_REACTORS
330
4411
102
}
330
4411
100
AcDbXrecord
280
     1
290
     1
  0
XRECORD
  5
4414
102
{ACAD_REACTORS
330
4413
102
}
330
4413
100
AcDbXrecord
280
     1
290
     1
  0
XRECORD
  5
4416
102
{ACAD_REACTORS
330
4415
102
}
330
4415
100
AcDbXrecord
280
     1
290
     1
  0
XRECORD
  5
4418
102
{ACAD_REACTORS
330
4417
102
}
330
4417
100
AcDbXrecord
280
     1
290
     1
  0
XRECORD
  5
441A
102
{ACAD_REACTORS
330
4419
102
}
330
4419
100
AcDbXrecord
280
     1
290
     1
  0
XRECORD
  5
441C
102
{ACAD_REACTORS
330
441B
102
}
330
441B
100
AcDbXrecord
280
     1
290
     1
  0
XRECORD
  5
441E
102
{ACAD_REACTORS
330
441D
102
}
330
441D
100
AcDbXrecord
280
     1
290
     1
  0
XRECORD
  5
4420
102
{ACAD_REACTORS
330
441F
102
}
330
441F
100
AcDbXrecord
280
     1
290
     1
  0
XRECORD
  5
4422
102
{ACAD_REACTORS
330
4421
102
}
330
4421
100
AcDbXrecord
280
     1
290
     1
  0
SORTENTSTABLE
  5
2272
102
{ACAD_REACTORS
330
99
102
}
330
99
100
AcDbSortentsTable
330
1F
331
2B48
  5
2B51
331
1FE3
  5
1FFD
331
1AD6
  5
1ADF
331
2CD5
  5
2CD8
331
2C96
  5
2C99
331
2B50
  5
2B59
331
1F54
  5
1FC3
331
1C0D
  5
1C1F
331
2C07
  5
2C0A
331
2E93
  5
2E96
331
2ECA
  5
2ECD
331
2F11
  5
2F14
331
2F50
  5
2F53
331
2E5C
  5
2E5F
331
2C9E
  5
2CA1
331
2B58
  5
2B61
331
1C25
  5
1C33
331
1F6C
  5
1FC4
331
2CDD
  5
2CE0
331
2E9B
  5
2E9E
331
2ED2
  5
2ED5
331
2F19
  5
2F1C
331
40D4
  5
40E2
331
3BF6
  5
3C05
331
3F25
  5
4013
331
2F21
  5
2F24
331
2CE5
  5
2CE8
331
2CA6
  5
2CA9
331
2C6F
  5
2C72
331
2B60
  5
2B69
331
27DA
  5
1ACA
331
2E64
  5
2E67
331
2F58
  5
2F5B
331
30AF
  5
321E
331
3B40
  5
3B42
331
3C06
  5
3D77
331
30C7
  5
32C4
331
2F60
  5
2F63
331
2E6C
  5
2E6F
331
2CAE
  5
2CB1
331
2EE2
  5
2EE5
331
39BB
  5
39BD
331
3A02
  5
3A07
331
3B48
  5
3B4A
331
3A0A
  5
3A0E
331
352C
  5
352E
331
39C3
  5
39C5
331
3A79
  5
3A9B
331
3B87
  5
3B89
331
3B8F
  5
3B91
331
3B50
  5
3B52
331
3A12
  5
3A16
331
34AD
  5
34DC
331
36FC
  5
3728
331
39CB
  5
39CD
331
3B97
  5
3BD7
331
33F6
  5
3433
331
3B58
  5
3B5A
331
1F94
  5
1FE6
331
1C35
  5
1E0F
331
1AA7
  5
1AAF
331
2003
  5
279C
331
2F29
  5
2F2C
331
2CED
  5
2CF0
331
2C77
  5
2C7A
331
2979
  5
2B42
331
1AAF
  5
1AB0
331
2B70
  5
2B84
331
2CB6
  5
2CB9
331
2EAB
  5
2EAE
331
2EF2
  5
2EF5
331
2F68
  5
2F6B
331
2F70
  5
2F73
331
2EFA
  5
2EFD
331
2E7C
  5
2E7F
331
2C7F
  5
2C82
331
2CFD
  5
2D00
331
2EB3
  5
2EB6
331
2F31
  5
2F34
331
3EF6
  5
3F02
331
2F80
  5
2F83
331
2F02
  5
2F05
331
2E84
  5
2E87
331
2CC6
  5
2CC9
331
2C87
  5
2C8A
331
1E6D
  5
1E91
331
2B41
  5
2B4A
331
2EBB
  5
2EBE
331
2F39
  5
2F3C
331
3B60
  5
3B62
331
3F0E
  5
3F15
331
2F0A
  5
2F0D
331
2E8C
  5
2E8F
331
2CCE
  5
2CD1
331
2D0D
  5
2E59
331
2EC3
  5
2EC6
331
2F41
  5
2F4C
331
39D3
  5
39D5
331
3B68
  5
3B6A
331
39EB
  5
39ED
331
3A52
  5
3A56
331
3B70
  5
3B72
331
3B31
  5
3B33
331
3A5A
  5
39F1
331
3F1E
  5
3F25
331
39AC
  5
39AE
331
39F3
  5
39F7
331
3B78
  5
3B7A
331
3B39
  5
3B3B
331
3317
  5
33CC
331
39B4
  5
39B6
331
39FB
  5
39FF
331
1708
  5
170B
331
1FE4
  5
2000
331
1AD7
  5
1AE5
331
2B49
  5
2B52
331
2F90
  5
2F93
331
2CD6
  5
2CD9
331
2C97
  5
2C9A
331
2B51
  5
2B5A
331
27A3
  5
1B79
331
1FEC
  5
2794
331
2C08
  5
2C0B
331
2E94
  5
2E97
331
2ECB
  5
2ECE
331
2F12
  5
2F15
331
2F51
  5
2F54
331
2E5D
  5
2E60
331
2C9F
  5
2CA2
331
2B59
  5
2B62
331
2CDE
  5
2CE1
331
2E9C
  5
2E9F
331
2ED3
  5
2ED6
331
2F1A
  5
2F1D
331
3BF7
  5
3D55
331
2F22
  5
2F25
331
2CE6
  5
2CE9
331
2CA7
  5
2CAA
331
2B61
  5
2B6A
331
2E65
  5
2E68
331
2F59
  5
2F5C
331
3B80
  5
3B82
331
3B41
  5
3B43
331
3F96
  5
3F20
331
2F61
  5
2F64
331
2E6D
  5
2E70
331
2CAF
  5
2CB2
331
2EE3
  5
2EE6
331
39BC
  5
39BE
331
3A03
  5
3A08
331
3B49
  5
3B4B
331
3A0B
  5
3A0F
331
352D
  5
3552
331
39C4
  5
39C6
331
3B88
  5
3B8A
331
3B90
  5
3B92
331
3B51
  5
3B53
331
3A13
  5
3A17
331
36FD
  5
3729
331
39CC
  5
39CE
331
3B59
  5
3B5B
331
2C70
  5
2C73
331
1C36
  5
1E12
331
1F95
  5
1FEE
331
2004
  5
279D
331
2F69
  5
2F6C
331
2EF3
  5
2EF6
331
2E75
  5
2E78
331
2CB7
  5
2CBA
331
2C78
  5
2C7B
331
2B71
  5
2B85
331
2CEE
  5
2CF1
331
2EAC
  5
2EAF
331
2F2A
  5
2F2D
331
3B98
  5
3BF5
331
2F71
  5
2F74
331
2EFB
  5
2EFE
331
2E7D
  5
2E80
331
2C80
  5
2C83
331
2BD1
  5
25CA
331
1FCD
  5
1FF8
331
2CFE
  5
2D09
331
2EB4
  5
2EB7
331
2F32
  5
2F35
331
2F81
  5
2F84
331
2F03
  5
2F06
331
2E85
  5
2E88
331
2C88
  5
2C8B
331
2BD9
  5
25D7
331
28A3
  5
1C15
331
1FD5
  5
1FFC
331
2B42
  5
2B4B
331
2CC7
  5
2CCA
331
2EBC
  5
2EBF
331
2F3A
  5
2F3D
331
3B61
  5
3B63
331
2F0B
  5
2F0E
331
2CCF
  5
2CD2
331
2E8D
  5
2E90
331
2EC4
  5
2EC7
331
31A0
  5
3321
331
39D4
  5
39E9
331
3B69
  5
3B6B
331
3F17
  5
3F1D
331
342F
  5
34A1
331
39A5
  5
39A7
331
39EC
  5
39EE
331
3A53
  5
3A57
331
3B71
  5
3B73
331
3B32
  5
3B34
331
3F1F
  5
3F26
331
39AD
  5
39AF
331
39F4
  5
39F8
331
3B79
  5
3B7B
331
3B3A
  5
3B3C
331
39B5
  5
39B7
331
39FC
  5
3A00
331
2C90
  5
2C93
331
2B4A
  5
2B53
331
1FE5
  5
2001
331
1EBE
  5
1F97
331
2F4A
  5
2F4D
331
2CD7
  5
2CDA
331
2C98
  5
2C9B
331
2B52
  5
2B5B
331
28B3
  5
1C18
331
1FED
  5
2795
331
2C09
  5
2C6D
331
2E95
  5
2E98
331
2ECC
  5
2ECF
331
2F13
  5
2F16
331
2F91
  5
2F94
331
2F52
  5
2F55
331
2E5E
  5
2E61
331
2CA0
  5
2CA3
331
2B5A
  5
2B63
331
2CDF
  5
2CE2
331
2E9D
  5
2EA0
331
2ED4
  5
2ED7
331
2F1B
  5
2F1F
331
2F23
  5
2F26
331
2CE7
  5
2CEA
331
2CA8
  5
2CAB
331
2B62
  5
2B6B
331
2E66
  5
2E69
331
2F5A
  5
2F5D
331
3B81
  5
3B83
331
2F62
  5
2F65
331
2E6E
  5
2E71
331
2EE4
  5
2EE7
331
39BD
  5
39BF
331
3B42
  5
3B44
331
3B4A
  5
3B4C
331
3A0C
  5
3A10
331
40F6
  5
4109
331
34A7
  5
34DA
331
352E
  5
3592
331
39C5
  5
39C7
331
3B89
  5
3B8B
331
3B91
  5
3B93
331
3B52
  5
3B54
331
3A14
  5
3A18
331
36FE
  5
372A
331
39CD
  5
39CF
331
3A9B
  5
3B2D
331
3B5A
  5
3B5C
331
2CB0
  5
2CB3
331
2C71
  5
2C74
331
2005
  5
279E
331
1C37
  5
1E19
331
2F6A
  5
2F6D
331
2EF4
  5
2EF7
331
2E76
  5
2E79
331
2CB8
  5
2CBB
331
2C79
  5
2C7C
331
2B72
  5
2C06
331
1AB1
  5
1AB8
331
297B
  5
2B43
331
2CEF
  5
2CFA
331
2EAD
  5
2EB0
331
2F2B
  5
2F2E
331
2F72
  5
2F75
331
2EFC
  5
2EFF
331
2E7E
  5
2E81
331
2C81
  5
2C84
331
1E67
  5
1E8E
331
2EB5
  5
2EB8
331
2F33
  5
2F36
331
2F82
  5
2F85
331
2F04
  5
2F07
331
2E86
  5
2E89
331
2CC8
  5
2CCB
331
2C89
  5
2C8C
331
2B43
  5
2B4C
331
2D07
  5
2D0A
331
2EBD
  5
2EC0
331
2F3B
  5
2F3E
331
3B62
  5
3B64
331
3BD9
  5
3BF6
331
2F0C
  5
2F0F
331
2E8E
  5
2E91
331
2EC5
  5
2EC8
331
39D5
  5
39EA
331
3B6A
  5
3B6C
331
3F18
  5
3F1E
331
34BF
  5
34EF
331
39A6
  5
39A8
331
39ED
  5
39EF
331
3A54
  5
3A58
331
3B72
  5
3B74
331
3B33
  5
3B35
331
34CF
  5
352B
331
39AE
  5
39B0
331
39F5
  5
39F9
331
3B7A
  5
3B7C
331
3B3B
  5
3B3D
331
39B6
  5
39B8
331
39FD
  5
3A01
331
3A6C
  5
3A6E
331
2C91
  5
2C94
331
2B4B
  5
2B54
331
1A7A
  5
1A7B
331
2CD0
  5
2CD3
331
2F4B
  5
2F4E
331
2E57
  5
2E5A
331
2C99
  5
2C9C
331
2B53
  5
2B5C
331
1FEE
  5
2796
331
2C0A
  5
2C6E
331
2CD8
  5
2CDB
331
2E96
  5
2E99
331
2ECD
  5
2ED0
331
2F14
  5
2F17
331
2F92
  5
2F95
331
3F20
  5
3F32
331
2F53
  5
2F56
331
2CE0
  5
2CE3
331
2CA1
  5
2CA4
331
1FFE
  5
2797
331
1AF1
  5
1B01
331
2B5B
  5
2B64
331
2E5F
  5
2E62
331
2E9E
  5
2EA1
331
2ED5
  5
2ED8
331
2F24
  5
2F27
331
2CA9
  5
2CAC
331
2B63
  5
2B7E
331
2E67
  5
2E6A
331
2F5B
  5
2F5E
331
3B82
  5
3B84
331
3A74
  5
3A7A
331
2F63
  5
2F66
331
2E6F
  5
2E72
331
2EE5
  5
2EE8
331
3321
  5
3256
331
39BE
  5
39C1
331
3A05
  5
3A09
331
3B43
  5
3B45
331
3B4B
  5
3B4D
331
3A0D
  5
3A11
331
39C6
  5
39C8
331
3B8A
  5
3B8C
331
3B92
  5
3B94
331
3B53
  5
3B55
331
3A15
  5
3A19
331
39CE
  5
39D0
331
3B5B
  5
3B5D
331
1B01
  5
1B0B
331
2CB1
  5
2CB4
331
2C72
  5
2C75
331
2006
  5
2B3D
331
2CE8
  5
2CEB
331
2F6B
  5
2F6E
331
2EF5
  5
2EF8
331
2E77
  5
2E7A
331
2CB9
  5
2CC4
331
2C7A
  5
2C7D
331
1E60
  5
1E83
331
2CF8
  5
2CFB
331
2EAE
  5
2EB1
331
2F2C
  5
2F2F
331
2F73
  5
2F76
331
2EFD
  5
2F00
331
2E7F
  5
2E82
331
2C82
  5
2C85
331
2BD3
  5
1FFF
331
1ACA
  5
1AD6
331
2B3C
  5
2B45
331
2EB6
  5
2EB9
331
2F34
  5
2F37
331
410F
  5
416A
331
2F83
  5
2F86
331
2F05
  5
2F08
331
2E87
  5
2E8A
331
2CC9
  5
2CCC
331
2C8A
  5
2C8D
331
2B44
  5
2B4D
331
2D08
  5
2D0B
331
2EBE
  5
2EC1
331
2F3C
  5
2F3F
331
3401
  5
3435
331
3F11
  5
3F16
331
2F0D
  5
2F10
331
2E8F
  5
2E92
331
2EC6
  5
2EC9
331
31A2
  5
3322
331
3B63
  5
3B65
331
3B6B
  5
3B6D
331
4177
  5
3F1B
331
3F19
  5
3F1F
331
39A7
  5
39A9
331
39EE
  5
39F2
331
3A55
  5
3A59
331
3B73
  5
3B75
331
3B34
  5
3B36
331
39AF
  5
39B1
331
39F6
  5
39FA
331
3B7B
  5
3B7D
331
3B3C
  5
3B3E
331
39B7
  5
39B9
331
39FE
  5
3A02
331
3A6D
  5
3A6F
331
170B
  5
1A7A
331
28AD
  5
16FC
331
1FE7
  5
2002
331
1A7B
  5
1A7C
331
2B4C
  5
2B55
331
2C03
  5
2C07
331
2C92
  5
2C95
331
2CD1
  5
2CD4
331
2F4C
  5
2F4F
331
2E58
  5
2E5B
331
2B54
  5
2B5D
331
2C0B
  5
2C6F
331
2C9A
  5
2C9D
331
2CD9
  5
2CDC
331
2E97
  5
2E9A
331
2ECE
  5
2ED1
331
2F15
  5
2F18
331
2F93
  5
2FCD
331
2F54
  5
2F57
331
2CE1
  5
2CE4
331
1FFF
  5
2798
331
1F70
  5
1FC9
331
2B5C
  5
2B65
331
2CA2
  5
2CA5
331
2E60
  5
2E63
331
2E9F
  5
2EA2
331
2ED6
  5
2ED9
331
2F1D
  5
2F20
331
2F25
  5
2F28
331
2E68
  5
2E6B
331
2CAA
  5
2CAD
331
2F5C
  5
2F5F
331
3B83
  5
3B85
331
3B44
  5
3B46
331
2F64
  5
2F67
331
2EE6
  5
2EE9
331
34A1
  5
34D7
331
39BF
  5
39C2
331
3A06
  5
3A0A
331
3B4C
  5
3B4E
331
3A0E
  5
3A12
331
40F8
  5
3F0F
331
33DA
  5
3430
331
39C7
  5
39C9
331
3B8B
  5
3B8D
331
3B93
  5
3B95
331
3B54
  5
3B56
331
3A16
  5
3A21
331
3728
  5
375B
331
39CF
  5
39D1
331
3B5C
  5
3B5E
331
1B02
  5
1B0C
331
C54
  5
C54
331
2E70
  5
2E73
331
2CB2
  5
2CB5
331
2C73
  5
2C76
331
2B6C
  5
2B7F
331
1B1A
  5
1B2D
331
2806
  5
1AF4
331
2CE9
  5
2CEC
331
2F6C
  5
2F6F
331
2EF6
  5
2EF9
331
2E78
  5
2E7C
331
2C7B
  5
2C7E
331
297D
  5
2B44
331
2CF9
  5
2CFC
331
2EAF
  5
2EB2
331
2F2D
  5
2F30
331
2F74
  5
2F77
331
2EFE
  5
2F01
331
2E80
  5
2E83
331
2CC2
  5
2CC5
331
2C83
  5
2C86
331
1FD0
  5
1FF9
331
16FC
  5
1708
331
2B3D
  5
2B46
331
2EB7
  5
2EBA
331
2F35
  5
2F38
331
2F84
  5
2F87
331
2F06
  5
2F09
331
2E88
  5
2E8B
331
2CCA
  5
2CCD
331
2C8B
  5
2C8E
331
2B45
  5
2B4E
331
2D09
  5
2D0C
331
2EBF
  5
2EC2
331
2F3D
  5
2F40
331
40C1
  5
40C1
331
2F0E
  5
2F11
331
2EC7
  5
2ECA
331
34B9
  5
34E4
331
3B64
  5
3B66
331
3B6C
  5
3B6E
331
3B2D
  5
3B2F
331
39EF
  5
39F3
331
3F1A
  5
3F21
331
39A8
  5
39AA
331
3A56
  5
3A5A
331
3B74
  5
3B76
331
3B35
  5
3B37
331
39B0
  5
39B2
331
39F7
  5
39FB
331
3B7C
  5
3B7E
331
3B3D
  5
3B3F
331
39FF
  5
3A03
331
3A6E
  5
3A74
331
2C93
  5
2C97
331
2B4D
  5
2B56
331
1FE8
  5
25E7
331
2C04
  5
2C08
331
2CD2
  5
2CD5
331
2E90
  5
2E93
331
2F4D
  5
2F50
331
2E59
  5
2E5C
331
2C9B
  5
2C9E
331
1C22
  5
1C2E
331
2B55
  5
2B5E
331
2CDA
  5
2CDD
331
2E98
  5
2E9B
331
2ECF
  5
2ED2
331
2F16
  5
2F1A
331
2F94
  5
3007
331
3F22
  5
3F3C
331
2F55
  5
2F58
331
2EA0
  5
2EA3
331
2CE2
  5
2CE5
331
2CA3
  5
2CA6
331
1AF3
  5
1B02
331
2B5D
  5
2B66
331
2E61
  5
2E64
331
2ED7
  5
2EDA
331
2F1E
  5
2F21
331
40E1
  5
40F7
331
2F26
  5
2F29
331
2E69
  5
2E6C
331
2CAB
  5
2CAE
331
2F5D
  5
2F60
331
39B8
  5
39BA
331
3B84
  5
3B86
331
3B45
  5
3B47
331
2F65
  5
2F68
331
2EE7
  5
2EF4
331
3A07
  5
3A0B
331
3B4D
  5
3B4F
331
3A0F
  5
3A13
331
36F9
  5
36FC
331
39C8
  5
39CA
331
3B8C
  5
3B8E
331
3B94
  5
3B96
331
3B55
  5
3B57
331
3729
  5
39A5
331
3A17
  5
3A27
331
3B5D
  5
3B5F
331
2000
  5
2799
331
1C32
  5
1E04
331
1B03
  5
1B13
331
2E71
  5
2E74
331
2CB3
  5
2CB6
331
2C74
  5
2C77
331
1FB1
  5
1FF7
331
2B6D
  5
2B80
331
2CEA
  5
2CED
331
2F6D
  5
2F70
331
2EF7
  5
2EFA
331
2C7C
  5
2C7F
331
297E
  5
2B40
331
2CFA
  5
2CFD
331
2EB0
  5
2EB3
331
2F2E
  5
2F31
331
2F75
  5
2F78
331
2EFF
  5
2F02
331
2E81
  5
2E84
331
2CC3
  5
2CC6
331
2C84
  5
2C87
331
2B3E
  5
2B47
331
2EB8
  5
2EBB
331
2F36
  5
2F39
331
2F85
  5
2F88
331
2E89
  5
2E8C
331
2CCB
  5
2CCE
331
2C8C
  5
2C8F
331
2B46
  5
2B4F
331
2D0A
  5
2D0D
331
2EC0
  5
2EC3
331
2F07
  5
2F0A
331
2F3E
  5
2F41
331
39D0
  5
39D2
331
3B65
  5
3B67
331
40C2
  5
40CA
331
2F0F
  5
2F12
331
3A4F
  5
3A53
331
3B6D
  5
3B6F
331
3B2E
  5
3B30
331
3A57
  5
3A6C
331
40CA
  5
40E1
331
3433
  5
1E3E
331
39A9
  5
39AB
331
39F0
  5
39F4
331
3B75
  5
3B77
331
3B36
  5
3B38
331
39B1
  5
39B3
331
39F8
  5
39FC
331
3B7D
  5
3B7F
331
3B3E
  5
3B40
331
3A6F
  5
3A79
331
2CD3
  5
2CD6
331
2B4E
  5
2B57
331
1FE9
  5
26FF
331
2E91
  5
2E94
331
2EC8
  5
2ECB
331
2F95
  5
3176
331
2F4E
  5
2F51
331
2E5A
  5
2E5D
331
2C9C
  5
2C9F
331
1C23
  5
1C30
331
1A85
  5
1A86
331
27A8
  5
2B3E
331
2B56
  5
2B5F
331
2CDB
  5
2CDE
331
2E99
  5
2E9C
331
2ED0
  5
2ED3
331
3F23
  5
3F96
331
2F56
  5
2F59
331
2EA1
  5
2EAC
331
2CE3
  5
2CE6
331
2CA4
  5
2CA7
331
2C6D
  5
2C70
331
28E7
  5
2B3F
331
2B5E
  5
2B67
331
2E62
  5
2E65
331
2ED8
  5
2EE3
331
2F1F
  5
2F22
331
2F27
  5
2F2A
331
2E6A
  5
2E6D
331
2CAC
  5
2CAF
331
2F5E
  5
2F61
331
349B
  5
34D4
331
39B9
  5
39BB
331
3A00
  5
3A05
331
3B85
  5
3B87
331
3A08
  5
3A0C
331
2F66
  5
2F69
331
39C1
  5
39C3
331
3B46
  5
3B48
331
3B4E
  5
3B50
331
3A10
  5
3A14
331
36FA
  5
36FD
331
39C9
  5
39CB
331
3B8D
  5
3B8F
331
3B95
  5
3B97
331
3B56
  5
3B58
331
3A18
  5
3A51
331
3A9F
  5
3B2E
331
3B5E
  5
3B60
331
2001
  5
279A
331
C56
  5
C56
331
1C33
  5
1E0E
331
2E72
  5
2E75
331
2CB4
  5
2CB7
331
2C75
  5
2C78
331
2B6E
  5
2B81
331
1E03
  5
1E27
331
2977
  5
2B41
331
2CEB
  5
2CEE
331
2F6E
  5
2F71
331
2EF8
  5
2EFB
331
2E7A
  5
2E7D
331
2C7D
  5
2C80
331
16EE
  5
16EE
331
2870
  5
1E11
331
2CFB
  5
2CFE
331
2EB1
  5
2EB4
331
2F2F
  5
2F32
331
2F76
  5
2F79
331
2F00
  5
2F03
331
2CC4
  5
2CC7
331
2C85
  5
2C88
331
2BD6
  5
1FE9
331
2B3F
  5
2B48
331
2E82
  5
2E85
331
2EB9
  5
2EBC
331
2F37
  5
2F3A
331
416A
  5
4172
331
2F86
  5
2F91
331
2F08
  5
2F0B
331
2E8A
  5
2E8D
331
2CCC
  5
2CCF
331
2C8D
  5
2C90
331
2B47
  5
2B50
331
2D0B
  5
2E57
331
2EC1
  5
2EC4
331
2F3F
  5
2F42
331
316D
  5
32C5
331
34B3
  5
34DF
331
39D1
  5
39D3
331
3F14
  5
3F18
331
39E9
  5
39EB
331
3A50
  5
3A54
331
3B66
  5
3B68
331
3B6E
  5
3B70
331
3B2F
  5
3B31
331
4182
  5
4181
331
3F1C
  5
3F22
331
39AA
  5
39AC
331
39F1
  5
39F5
331
3A58
  5
3A6D
331
3B76
  5
3B78
331
3B37
  5
3B39
331
39B2
  5
39B4
331
39F9
  5
39FD
331
3B7E
  5
3B80
331
3B3F
  5
3B41
331
1AD5
  5
1AD7
331
1B7C
  5
1B8A
331
2CD4
  5
2CD7
331
2C95
  5
2C98
331
2B4F
  5
2B58
331
1FEA
  5
277D
331
1C0C
  5
1C1B
331
1AE5
  5
1AED
331
2C06
  5
2C09
331
2E92
  5
2E95
331
2EC9
  5
2ECC
331
2F10
  5
2F13
331
2F4F
  5
2F52
331
2E5B
  5
2E5E
331
2C9D
  5
2CA0
331
1C24
  5
1C31
331
1AED
  5
1AF3
331
2B57
  5
2B60
331
2CDC
  5
2CDF
331
2E9A
  5
2E9D
331
2ED1
  5
2ED4
331
2F18
  5
2F1B
331
3BF5
  5
3BF7
331
3F24
  5
3FB0
331
2F20
  5
2F23
331
2CE4
  5
2CE7
331
2CA5
  5
2CA8
331
2C6E
  5
2C71
331
2B5F
  5
2B68
331
2E63
  5
2E66
331
2F57
  5
2F5A
331
2E6B
  5
2E6E
331
2CAD
  5
2CB0
331
2EE1
  5
2EE4
331
2F5F
  5
2F62
331
331D
  5
342F
331
34EB
  5
352C
331
39BA
  5
39BC
331
3A01
  5
3A06
331
3B86
  5
3B88
331
3A09
  5
3A0D
331
3D55
  5
3E0F
331
3FAC
  5
40AD
331
2F67
  5
2F6A
331
352B
  5
352D
331
39C2
  5
39C4
331
3B47
  5
3B49
331
3B4F
  5
3B51
331
3A11
  5
3A15
331
36FB
  5
36FE
331
39CA
  5
39CC
331
3B8E
  5
3B90
331
3B96
  5
3B98
331
3A19
  5
3A52
331
3B57
  5
3B59
331
3B5F
  5
3B61
331
1F93
  5
1FD1
331
2002
  5
279B
331
2E73
  5
2E77
331
2CB5
  5
2CB8
331
2C76
  5
2C79
331
2B6F
  5
2B82
331
1B1D
  5
1B2E
331
2841
  5
1E10
331
2CEC
  5
2CEF
331
2EAA
  5
2EAD
331
2F28
  5
2F2B
331
2F6F
  5
2F72
331
2EF9
  5
2EFC
331
2E7B
  5
2E7E
331
2C7E
  5
2C81
331
1B2D
  5
1B30
331
2CFC
  5
2CFF
331
2EB2
  5
2EB5
331
2F30
  5
2F33
331
40AC
  5
40C2
331
2F77
  5
2F82
331
2F01
  5
2F04
331
2E83
  5
2E86
331
2CC5
  5
2CC8
331
2C86
  5
2C89
331
2B40
  5
2B49
331
1B4D
  5
1B66
331
2EBA
  5
2EBD
331
2F38
  5
2F3B
331
3F0D
  5
3F12
331
40BC
  5
40D4
331
2F09
  5
2F0C
331
2E8B
  5
2E8E
331
2CCD
  5
2CD0
331
2C8E
  5
2C92
331
2D0C
  5
2E58
331
2EC2
  5
2EC5
331
2F40
  5
2F43
331
37DB
  5
3401
331
39D2
  5
39D4
331
3F15
  5
3F19
331
2F8F
  5
2F92
331
342D
  5
3495
331
39EA
  5
39EC
331
3A51
  5
3A55
331
3B67
  5
3B69
331
3B6F
  5
3B71
331
3B30
  5
3B32
331
3A59
  5
39F0
331
3435
  5
1E98
331
3F1D
  5
3F23
331
321E
  5
331F
331
39AB
  5
39AD
331
39F2
  5
39F6
331
3B77
  5
3B79
331
3B38
  5
3B3A
331
3495
  5
34BF
331
34D4
  5
34AD
331
39B3
  5
39B5
331
39FA
  5
39FE
331
3B7F
  5
3B81
  0
XRECORD
  5
4548
102
{ACAD_REACTORS
330
4547
102
}
330
4547
100
AcDbXrecord
280
     1
102
SHADEPLOT
 70
     0
  0
XRECORD
  5
454A
102
{ACAD_REACTORS
330
4549
102
}
330
4549
100
AcDbXrecord
280
     1
102
SHADEPLOT
 70
     0
  0
LAYOUT
  5
22
102
{ACAD_XDICTIONARY
360
4543
102
}
102
{ACAD_REACTORS
330
1A
102
}
330
1A
100
AcDbPlotSettings
  1

  2
RICOH IPSiO CX7200 RPCS
  4
A3
  6
AM_VIEW1
 40
5.873749732971191
 41
5.873747825622558
 42
5.873748779296875
 43
5.873748779296875
 44
296.9259948730469
 45
419.9466552734374
 46
2.589999999999999
 47
4.099999999999999
 48
10.00000000000003
 49
0.0
140
410.0
141
280.0
142
1.0
143
1.0
 70
 11956
 72
     1
 73
     1
 74
     4
  7
takachi-2.ctb
 75
    16
147
1.0
148
-10.00000000000003
149
0.0
100
AcDbLayout
  1
Model
 70
     1
 71
     0
 10
0.0
 20
0.0
 11
12.0
 21
9.0
 12
0.0
 22
0.0
 32
0.0
 14
0.0
 24
0.0
 34
0.0
 15
0.0
 25
0.0
 35
0.0
146
0.0
 13
0.0
 23
0.0
 33
0.0
 16
1.0
 26
0.0
 36
0.0
 17
0.0
 27
1.0
 37
0.0
 76
     0
330
1F
331
4379
  0
LAYOUT
  5
1E
102
{ACAD_XDICTIONARY
360
4541
102
}
102
{ACAD_REACTORS
330
1A
102
}
330
1A
100
AcDbPlotSettings
  1

  2
none_device
  4
Letter_(8.50_x_11.00_Inches)
  6

 40
6.349999904632568
 41
6.349999904632568
 42
6.350006103515625
 43
6.350006103515625
 44
215.8999938964844
 45
279.3999938964844
 46
0.0
 47
0.0
 48
0.0
 49
0.0
140
0.0
141
0.0
142
1.0
143
1.0
 70
   688
 72
     0
 73
     1
 74
     5
  7
takachi-2.ctb
 75
    16
147
1.0
148
0.0
149
0.0
100
AcDbLayout
  1
レイアウト1
 70
     1
 71
     1
 10
-0.2500002402958907
 20
-0.2499999962453767
 11
10.74999951940821
 21
8.249999763458731
 12
0.0
 22
0.0
 32
0.0
 14
1.000000000000000E+20
 24
1.000000000000000E+20
 34
1.000000000000000E+20
 15
-1.000000000000000E+20
 25
-1.000000000000000E+20
 35
-1.000000000000000E+20
146
0.0
 13
0.0
 23
0.0
 33
0.0
 16
1.0
 26
0.0
 36
0.0
 17
0.0
 27
1.0
 37
0.0
 76
     0
330
1B
331
182
  0
LAYOUT
  5
26
102
{ACAD_XDICTIONARY
360
4545
102
}
102
{ACAD_REACTORS
330
1A
102
}
330
1A
100
AcDbPlotSettings
  1

  2
none_device
  4
Letter_(8.50_x_11.00_Inches)
  6

 40
6.349999904632568
 41
6.349999904632568
 42
6.350006103515625
 43
6.350006103515625
 44
215.8999938964844
 45
279.3999938964844
 46
0.0
 47
0.0
 48
0.0
 49
0.0
140
0.0
141
0.0
142
1.0
143
1.0
 70
   688
 72
     0
 73
     1
 74
     5
  7
takachi-2.ctb
 75
    16
147
1.0
148
0.0
149
0.0
100
AcDbLayout
  1
レイアウト2
 70
     1
 71
     2
 10
-0.2500002402958907
 20
-0.2499999962453767
 11
10.74999951940821
 21
8.249999763458731
 12
0.0
 22
0.0
 32
0.0
 14
1.000000000000000E+20
 24
1.000000000000000E+20
 34
1.000000000000000E+20
 15
-1.000000000000000E+20
 25
-1.000000000000000E+20
 35
-1.000000000000000E+20
146
0.0
 13
0.0
 23
0.0
 33
0.0
 16
1.0
 26
0.0
 36
0.0
 17
0.0
 27
1.0
 37
0.0
 76
     0
330
23
331
186
  0
MATERIAL
  5
4383
102
{ACAD_XDICTIONARY
360
4384
102
}
102
{ACAD_REACTORS
330
C8
102
}
330
C8
100
AcDbMaterial
  1
ByBlock
 72
     0
 43
0.0008202099737533
 43
0.0
 43
0.0
 43
0.0
 43
0.0
 43
0.0008202099737533
 43
0.0
 43
0.0
 43
0.0
 43
0.0
 43
1.0
 43
0.0
 43
0.0
 43
0.0
 43
0.0
 43
1.0
 77
     0
 47
0.0008202099737533
 47
0.0
 47
0.0
 47
0.0
 47
0.0
 47
0.0008202099737533
 47
0.0
 47
0.0
 47
0.0
 47
0.0
 47
1.0
 47
0.0
 47
0.0
 47
0.0
 47
0.0
 47
1.0
171
     0
 49
0.0008202099737533
 49
0.0
 49
0.0
 49
0.0
 49
0.0
 49
0.0008202099737533
 49
0.0
 49
0.0
 49
0.0
 49
0.0
 49
1.0
 49
0.0
 49
0.0
 49
0.0
 49
0.0
 49
1.0
175
     0
142
0.0008202099737533
142
0.0
142
0.0
142
0.0
142
0.0
142
0.0008202099737533
142
0.0
142
0.0
142
0.0
142
0.0
142
1.0
142
0.0
142
0.0
142
0.0
142
0.0
142
1.0
179
     0
144
0.0008202099737533
144
0.0
144
0.0
144
0.0
144
0.0
144
0.0008202099737533
144
0.0
144
0.0
144
0.0
144
0.0
144
1.0
144
0.0
144
0.0
144
0.0
144
0.0
144
1.0
147
0.0008202099737533
147
0.0
147
0.0
147
0.0
147
0.0
147
0.0008202099737533
147
0.0
147
0.0
147
0.0
147
0.0
147
1.0
147
0.0
147
0.0
147
0.0
147
0.0
147
1.0
  0
MATERIAL
  5
437B
102
{ACAD_XDICTIONARY
360
437C
102
}
102
{ACAD_REACTORS
330
C8
102
}
330
C8
100
AcDbMaterial
  1
ByLayer
 72
     0
 43
0.0008202099737533
 43
0.0
 43
0.0
 43
0.0
 43
0.0
 43
0.0008202099737533
 43
0.0
 43
0.0
 43
0.0
 43
0.0
 43
1.0
 43
0.0
 43
0.0
 43
0.0
 43
0.0
 43
1.0
 77
     0
 47
0.0008202099737533
 47
0.0
 47
0.0
 47
0.0
 47
0.0
 47
0.0008202099737533
 47
0.0
 47
0.0
 47
0.0
 47
0.0
 47
1.0
 47
0.0
 47
0.0
 47
0.0
 47
0.0
 47
1.0
171
     0
 49
0.0008202099737533
 49
0.0
 49
0.0
 49
0.0
 49
0.0
 49
0.0008202099737533
 49
0.0
 49
0.0
 49
0.0
 49
0.0
 49
1.0
 49
0.0
 49
0.0
 49
0.0
 49
0.0
 49
1.0
175
     0
142
0.0008202099737533
142
0.0
142
0.0
142
0.0
142
0.0
142
0.0008202099737533
142
0.0
142
0.0
142
0.0
142
0.0
142
1.0
142
0.0
142
0.0
142
0.0
142
0.0
142
1.0
179
     0
144
0.0008202099737533
144
0.0
144
0.0
144
0.0
144
0.0
144
0.0008202099737533
144
0.0
144
0.0
144
0.0
144
0.0
144
1.0
144
0.0
144
0.0
144
0.0
144
0.0
144
1.0
147
0.0008202099737533
147
0.0
147
0.0
147
0.0
147
0.0
147
0.0008202099737533
147
0.0
147
0.0
147
0.0
147
0.0
147
1.0
147
0.0
147
0.0
147
0.0
147
0.0
147
1.0
  0
MATERIAL
  5
438B
102
{ACAD_XDICTIONARY
360
438C
102
}
102
{ACAD_REACTORS
330
C8
102
}
330
C8
100
AcDbMaterial
  1
Global
 72
     0
 43
0.0008202099737533
 43
0.0
 43
0.0
 43
0.0
 43
0.0
 43
0.0008202099737533
 43
0.0
 43
0.0
 43
0.0
 43
0.0
 43
1.0
 43
0.0
 43
0.0
 43
0.0
 43
0.0
 43
1.0
 77
     0
 47
0.0008202099737533
 47
0.0
 47
0.0
 47
0.0
 47
0.0
 47
0.0008202099737533
 47
0.0
 47
0.0
 47
0.0
 47
0.0
 47
1.0
 47
0.0
 47
0.0
 47
0.0
 47
0.0
 47
1.0
171
     0
 49
0.0008202099737533
 49
0.0
 49
0.0
 49
0.0
 49
0.0
 49
0.0008202099737533
 49
0.0
 49
0.0
 49
0.0
 49
0.0
 49
1.0
 49
0.0
 49
0.0
 49
0.0
 49
0.0
 49
1.0
175
     0
142
0.0008202099737533
142
0.0
142
0.0
142
0.0
142
0.0
142
0.0008202099737533
142
0.0
142
0.0
142
0.0
142
0.0
142
1.0
142
0.0
142
0.0
142
0.0
142
0.0
142
1.0
179
     0
144
0.0008202099737533
144
0.0
144
0.0
144
0.0
144
0.0
144
0.0008202099737533
144
0.0
144
0.0
144
0.0
144
0.0
144
1.0
144
0.0
144
0.0
144
0.0
144
0.0
144
1.0
147
0.0008202099737533
147
0.0
147
0.0
147
0.0
147
0.0
147
0.0008202099737533
147
0.0
147
0.0
147
0.0
147
0.0
147
1.0
147
0.0
147
0.0
147
0.0
147
0.0
147
1.0
  0
MLEADERSTYLE
  5
43B7
102
{ACAD_REACTORS
330
43B6
102
}
330
43B6
100
AcDbMLeaderStyle
170
     2
171
     1
172
     0
 90
        2
 40
0.0
 41
0.0
173
     1
 91
-1056964608
340
14
 92
       -2
290
     1
 42
2.0
291
     1
 43
0.36
  3
Standard
 44
4.0
300

342
11
174
     1
178
     6
175
     1
176
     0
 93
-1056964608
 45
4.0
292
     0
297
     0
 46
4.0
 94
-1056964608
 47
1.0
 49
1.0
140
1.0
293
     1
141
0.0
294
     1
177
     0
142
1.0
295
     0
296
     0
143
0.125
1001
ACAD_MLEADERVER
1070
     2
  0
MLINESTYLE
  5
18
102
{ACAD_REACTORS
330
17
102
}
330
17
100
AcDbMlineStyle
  2
STANDARD
 70
     0
  3

 62
   256
 51
90.0
 52
90.0
 71
     2
 49
0.5
 62
   256
  6
BYLAYER
 49
-0.5
 62
   256
  6
BYLAYER
  0
ACDBPLACEHOLDER
  5
F
102
{ACAD_REACTORS
330
E
102
}
330
E
  0
SCALE
  5
43A5
102
{ACAD_REACTORS
330
43A4
102
}
330
43A4
100
AcDbScale
 70
     0
300
1:1
140
1.0
141
1.0
290
     1
  0
SCALE
  5
43A6
102
{ACAD_REACTORS
330
43A4
102
}
330
43A4
100
AcDbScale
 70
     0
300
1:2
140
1.0
141
2.0
290
     0
  0
SCALE
  5
43A7
102
{ACAD_REACTORS
330
43A4
102
}
330
43A4
100
AcDbScale
 70
     0
300
1:4
140
1.0
141
4.0
290
     0
  0
SCALE
  5
43A8
102
{ACAD_REACTORS
330
43A4
102
}
330
43A4
100
AcDbScale
 70
     0
300
1:5
140
1.0
141
5.0
290
     0
  0
SCALE
  5
43A9
102
{ACAD_REACTORS
330
43A4
102
}
330
43A4
100
AcDbScale
 70
     0
300
1:8
140
1.0
141
8.0
290
     0
  0
SCALE
  5
43AA
102
{ACAD_REACTORS
330
43A4
102
}
330
43A4
100
AcDbScale
 70
     0
300
1:10
140
1.0
141
10.0
290
     0
  0
SCALE
  5
43AB
102
{ACAD_REACTORS
330
43A4
102
}
330
43A4
100
AcDbScale
 70
     0
300
1:16
140
1.0
141
16.0
290
     0
  0
SCALE
  5
43AC
102
{ACAD_REACTORS
330
43A4
102
}
330
43A4
100
AcDbScale
 70
     0
300
1:20
140
1.0
141
20.0
290
     0
  0
SCALE
  5
43AD
102
{ACAD_REACTORS
330
43A4
102
}
330
43A4
100
AcDbScale
 70
     0
300
1:30
140
1.0
141
30.0
290
     0
  0
SCALE
  5
43AE
102
{ACAD_REACTORS
330
43A4
102
}
330
43A4
100
AcDbScale
 70
     0
300
1:40
140
1.0
141
40.0
290
     0
  0
SCALE
  5
43AF
102
{ACAD_REACTORS
330
43A4
102
}
330
43A4
100
AcDbScale
 70
     0
300
1:50
140
1.0
141
50.0
290
     0
  0
SCALE
  5
43B0
102
{ACAD_REACTORS
330
43A4
102
}
330
43A4
100
AcDbScale
 70
     0
300
1:100
140
1.0
141
100.0
290
     0
  0
SCALE
  5
43B1
102
{ACAD_REACTORS
330
43A4
102
}
330
43A4
100
AcDbScale
 70
     0
300
2:1
140
2.0
141
1.0
290
     0
  0
SCALE
  5
43B2
102
{ACAD_REACTORS
330
43A4
102
}
330
43A4
100
AcDbScale
 70
     0
300
4:1
140
4.0
141
1.0
290
     0
  0
SCALE
  5
43B3
102
{ACAD_REACTORS
330
43A4
102
}
330
43A4
100
AcDbScale
 70
     0
300
8:1
140
8.0
141
1.0
290
     0
  0
SCALE
  5
43B4
102
{ACAD_REACTORS
330
43A4
102
}
330
43A4
100
AcDbScale
 70
     0
300
10:1
140
10.0
141
1.0
290
     0
  0
SCALE
  5
43B5
102
{ACAD_REACTORS
330
43A4
102
}
330
43A4
100
AcDbScale
 70
     0
300
100:1
140
100.0
141
1.0
290
     0
  0
TABLESTYLE
  5
BD7
102
{ACAD_XDICTIONARY
360
4423
102
}
102
{ACAD_REACTORS
330
BD6
102
}
330
BD6
100
AcDbTableStyle
  3
Standard
 70
     0
 71
     0
 40
1.5
 41
1.5
280
     0
281
     0
  7
STANDARD
140
4.5
170
     2
 62
     0
 63
     7
283
     0
274
    -2
284
     1
 64
     0
275
    -2
285
     1
 65
     0
276
    -2
286
     1
 66
     0
277
    -2
287
     1
 67
     0
278
    -2
288
     1
 68
     0
279
    -2
289
     1
 69
     0
  7
STANDARD
140
6.0
170
     5
 62
     0
 63
     7
283
     0
274
    -2
284
     1
 64
     0
275
    -2
285
     1
 65
     0
276
    -2
286
     1
 66
     0
277
    -2
287
     1
 67
     0
278
    -2
288
     1
 68
     0
279
    -2
289
     1
 69
     0
  7
STANDARD
140
4.5
170
     5
 62
     0
 63
     7
283
     0
274
    -2
284
     1
 64
     0
275
    -2
285
     1
 65
     0
276
    -2
286
     1
 66
     0
277
    -2
287
     1
 67
     0
278
    -2
288
     1
 68
     0
279
    -2
289
     1
 69
     0
  0
VISUALSTYLE
  5
4399
102
{ACAD_REACTORS
330
4393
102
}
330
4393
100
AcDbVisualStyle
  2
2dWireframe
 70
     4
 71
     0
 72
     2
 73
     0
 90
        0
 40
-0.6
 41
-30.0
 62
     5
 63
     7
 74
     1
 91
        4
 64
     7
 65
   257
 75
     1
175
     1
 42
1.0
 92
        0
 66
   257
 43
1.0
 76
     1
 77
     6
 78
     2
 67
     7
 79
     5
170
     0
171
     0
290
     0
174
     0
 93
        1
 44
0.0
173
     0
291
     0
 45
0.0
1001
ACAD
1000
AcDbSavedByObjectVersion
1070
     0
  0
VISUALSTYLE
  5
439B
102
{ACAD_REACTORS
330
4393
102
}
330
4393
100
AcDbVisualStyle
  2
3D Hidden
 70
     6
 71
     1
 72
     2
 73
     2
 90
        0
 40
-0.6
 41
-30.0
 62
     5
 63
     7
 74
     2
 91
        2
 64
     7
 65
   257
 75
     2
175
     1
 42
40.0
 92
        0
 66
   257
 43
1.0
 76
     1
 77
     6
 78
     2
 67
     7
 79
     3
170
     0
171
     0
290
     0
174
     0
 93
        1
 44
0.0
173
     0
291
     0
 45
0.0
1001
ACAD
1000
AcDbSavedByObjectVersion
1070
     0
  0
VISUALSTYLE
  5
439A
102
{ACAD_REACTORS
330
4393
102
}
330
4393
100
AcDbVisualStyle
  2
3dWireframe
 70
     5
 71
     0
 72
     2
 73
     0
 90
        0
 40
-0.6
 41
-30.0
 62
     5
 63
     7
 74
     1
 91
        4
 64
     7
 65
   257
 75
     1
175
     1
 42
1.0
 92
        0
 66
   257
 43
1.0
 76
     1
 77
     6
 78
     2
 67
     7
 79
     5
170
     0
171
     0
290
     0
174
     0
 93
        1
 44
0.0
173
     0
291
     0
 45
0.0
1001
ACAD
1000
AcDbSavedByObjectVersion
1070
     0
  0
VISUALSTYLE
  5
4398
102
{ACAD_REACTORS
330
4393
102
}
330
4393
100
AcDbVisualStyle
  2
Basic
 70
     7
 71
     1
 72
     0
 73
     1
 90
        0
 40
-0.6
 41
-30.0
 62
     5
 63
     7
 74
     0
 91
        4
 64
     7
 65
   257
 75
     1
175
     1
 42
1.0
 92
        8
 66
     7
 43
1.0
 76
     1
 77
     6
 78
     2
 67
     7
 79
     5
170
     0
171
     0
290
     0
174
     0
 93
        1
 44
0.0
173
     0
291
     1
 45
0.0
1001
ACAD
1000
AcDbSavedByObjectVersion
1070
     0
  0
VISUALSTYLE
  5
439F
102
{ACAD_REACTORS
330
4393
102
}
330
4393
100
AcDbVisualStyle
  2
Brighten
 70
    12
 71
     2
 72
     2
 73
     0
 90
        0
 40
-0.6
 41
-30.0
 62
     5
 63
     7
 74
     1
 91
        4
 64
     7
 65
   257
 75
     1
175
     1
 42
1.0
 92
        8
 66
     7
 43
1.0
 76
     1
 77
     6
 78
     2
 67
     7
 79
     5
170
     0
171
     0
290
     0
174
     0
 93
        1
 44
50.0
173
     0
291
     1
 45
0.0
1001
ACAD
1000
AcDbSavedByObjectVersion
1070
     0
  0
VISUALSTYLE
  5
43A3
102
{ACAD_REACTORS
330
4393
102
}
330
4393
100
AcDbVisualStyle
  2
ColorChange
 70
    16
 71
     2
 72
     2
 73
     3
 90
        0
 40
-0.6
 41
-30.0
 62
     5
 63
     8
 74
     1
 91
        4
 64
     7
 65
   257
 75
     1
175
     1
 42
1.0
 92
        8
 66
     8
 43
1.0
 76
     1
 77
     6
 78
     2
 67
     7
 79
     5
170
     0
171
     0
290
     0
174
     0
 93
        1
 44
0.0
173
     0
291
     1
 45
0.0
1001
ACAD
1000
AcDbSavedByObjectVersion
1070
     0
  0
VISUALSTYLE
  5
439C
102
{ACAD_REACTORS
330
4393
102
}
330
4393
100
AcDbVisualStyle
  2
Conceptual
 70
     9
 71
     3
 72
     2
 73
     0
 90
        0
 40
-0.6
 41
-30.0
 62
     5
 63
     7
 74
     2
 91
        2
 64
     7
 65
   257
 75
     1
175
     1
 42
40.0
 92
        8
 66
     7
 43
1.0
 76
     1
 77
     6
 78
     2
 67
     7
 79
     3
170
     0
171
     0
290
     0
174
     0
 93
        1
 44
0.0
173
     0
291
     0
 45
0.0
1001
ACAD
1000
AcDbSavedByObjectVersion
1070
     0
  0
VISUALSTYLE
  5
439E
102
{ACAD_REACTORS
330
4393
102
}
330
4393
100
AcDbVisualStyle
  2
Dim
 70
    11
 71
     2
 72
     2
 73
     0
 90
        0
 40
-0.6
 41
-30.0
 62
     5
 63
     7
 74
     1
 91
        4
 64
     7
 65
   257
 75
     1
175
     1
 42
1.0
 92
        8
 66
     7
 43
1.0
 76
     1
 77
     6
 78
     2
 67
     7
 79
     5
170
     0
171
     0
290
     0
174
     0
 93
        1
 44
-50.0
173
     0
291
     1
 45
0.0
1001
ACAD
1000
AcDbSavedByObjectVersion
1070
     0
  0
VISUALSTYLE
  5
43A2
102
{ACAD_REACTORS
330
4393
102
}
330
4393
100
AcDbVisualStyle
  2
Facepattern
 70
    15
 71
     2
 72
     2
 73
     0
 90
        0
 40
-0.6
 41
-30.0
 62
     5
 63
     7
 74
     1
 91
        4
 64
     7
 65
   257
 75
     1
175
     1
 42
1.0
 92
        8
 66
     7
 43
1.0
 76
     1
 77
     6
 78
     2
 67
     7
 79
     5
170
     0
171
     0
290
     0
174
     0
 93
        1
 44
0.0
173
     0
291
     1
 45
0.0
1001
ACAD
1000
AcDbSavedByObjectVersion
1070
     0
  0
VISUALSTYLE
  5
4394
102
{ACAD_REACTORS
330
4393
102
}
330
4393
100
AcDbVisualStyle
  2
Flat
 70
     0
 71
     2
 72
     1
 73
     1
 90
        2
 40
-0.6
 41
30.0
 62
     5
 63
     7
 74
     0
 91
        4
 64
     7
 65
   257
 75
     1
175
     1
 42
1.0
 92
        8
 66
     7
 43
1.0
 76
     1
 77
     6
 78
     2
 67
     7
 79
     5
170
     0
171
     0
290
     0
174
     0
 93
       13
 44
0.0
173
     0
291
     1
 45
0.0
1001
ACAD
1000
AcDbSavedByObjectVersion
1070
     0
  0
VISUALSTYLE
  5
4395
102
{ACAD_REACTORS
330
4393
102
}
330
4393
100
AcDbVisualStyle
  2
FlatWithEdges
 70
     1
 71
     2
 72
     1
 73
     1
 90
        2
 40
-0.6
 41
30.0
 62
     5
 63
     7
 74
     1
 91
        4
 64
     7
 65
   257
 75
     1
175
     1
 42
1.0
 92
        0
 66
   257
 43
1.0
 76
     1
 77
     6
 78
     2
 67
     7
 79
     5
170
     0
171
     0
290
     0
174
     0
 93
       13
 44
0.0
173
     0
291
     1
 45
0.0
1001
ACAD
1000
AcDbSavedByObjectVersion
1070
     0
  0
VISUALSTYLE
  5
4396
102
{ACAD_REACTORS
330
4393
102
}
330
4393
100
AcDbVisualStyle
  2
Gouraud
 70
     2
 71
     2
 72
     2
 73
     1
 90
        2
 40
-0.6
 41
30.0
 62
     5
 63
     7
 74
     0
 91
        4
 64
     7
 65
   257
 75
     1
175
     1
 42
1.0
 92
        0
 66
     7
 43
1.0
 76
     1
 77
     6
 78
     2
 67
     7
 79
     5
170
     0
171
     0
290
     0
174
     0
 93
       13
 44
0.0
173
     0
291
     1
 45
0.0
1001
ACAD
1000
AcDbSavedByObjectVersion
1070
     0
  0
VISUALSTYLE
  5
4397
102
{ACAD_REACTORS
330
4393
102
}
330
4393
100
AcDbVisualStyle
  2
GouraudWithEdges
 70
     3
 71
     2
 72
     2
 73
     1
 90
        2
 40
-0.6
 41
30.0
 62
     5
 63
     7
 74
     1
 91
        4
 64
     7
 65
   257
 75
     1
175
     1
 42
1.0
 92
        0
 66
   257
 43
1.0
 76
     1
 77
     6
 78
     2
 67
     7
 79
     5
170
     0
171
     0
290
     0
174
     0
 93
       13
 44
0.0
173
     0
291
     1
 45
0.0
1001
ACAD
1000
AcDbSavedByObjectVersion
1070
     0
  0
VISUALSTYLE
  5
43A1
102
{ACAD_REACTORS
330
4393
102
}
330
4393
100
AcDbVisualStyle
  2
Linepattern
 70
    14
 71
     2
 72
     2
 73
     0
 90
        0
 40
-0.6
 41
-30.0
 62
     5
 63
     7
 74
     1
 91
        4
 64
     7
 65
   257
 75
     7
175
     7
 42
1.0
 92
        8
 66
     7
 43
1.0
 76
     1
 77
     6
 78
     2
 67
     7
 79
     5
170
     0
171
     0
290
     0
174
     0
 93
        1
 44
0.0
173
     0
291
     1
 45
0.0
1001
ACAD
1000
AcDbSavedByObjectVersion
1070
     0
  0
VISUALSTYLE
  5
439D
102
{ACAD_REACTORS
330
4393
102
}
330
4393
100
AcDbVisualStyle
  2
Realistic
 70
     8
 71
     2
 72
     2
 73
     0
 90
        0
 40
-0.6
 41
-30.0
 62
     5
 63
     7
 74
     1
 91
        0
 64
     7
 65
   257
 75
     1
175
     1
 42
1.0
 92
        8
 66
     8
 43
1.0
 76
     1
 77
     6
 78
     2
 67
     7
 79
     5
170
     0
171
     0
290
     0
174
     0
 93
       13
 44
0.0
173
     0
291
     0
 45
0.0
1001
ACAD
1000
AcDbSavedByObjectVersion
1070
     0
  0
VISUALSTYLE
  5
43A0
102
{ACAD_REACTORS
330
4393
102
}
330
4393
100
AcDbVisualStyle
  2
Thicken
 70
    13
 71
     2
 72
     2
 73
     0
 90
        0
 40
-0.6
 41
-30.0
 62
     5
 63
     7
 74
     1
 91
        4
 64
     7
 65
   257
 75
     1
175
     1
 42
1.0
 92
       12
 66
     7
 43
1.0
 76
     1
 77
     6
 78
     2
 67
     7
 79
     5
170
     0
171
     0
290
     0
174
     0
 93
        1
 44
0.0
173
     0
291
     1
 45
0.0
1001
ACAD
1000
AcDbSavedByObjectVersion
1070
     0
  0
DICTIONARYVAR
  5
443E
102
{ACAD_REACTORS
330
9E
102
}
330
9E
100
DictionaryVariables
280
     0
  1
1:1
  0
DICTIONARYVAR
  5
443D
102
{ACAD_REACTORS
330
9E
102
}
330
9E
100
DictionaryVariables
280
     0
  1
STANDARD
  0
DICTIONARYVAR
  5
C25
102
{ACAD_REACTORS
330
9E
102
}
330
9E
100
DictionaryVariables
280
     0
  1
STANDARD
  0
DICTIONARYVAR
  5
A0
102
{ACAD_REACTORS
330
9E
102
}
330
9E
100
DictionaryVariables
280
     0
  1
1
  0
DICTIONARYVAR
  5
9F
102
{ACAD_REACTORS
330
9E
102
}
330
9E
100
DictionaryVariables
280
     0
  1
0
  0
DICTIONARYVAR
  5
453E
102
{ACAD_REACTORS
330
9E
102
}
330
9E
100
DictionaryVariables
280
     0
  1
127
  0
DICTIONARY
  5
9A7
102
{ACAD_REACTORS
330
63
102
}
330
63
100
AcDbDictionary
281
     1
  0
DICTIONARY
  5
69
102
{ACAD_REACTORS
330
63
102
}
330
63
100
AcDbDictionary
281
     1
  0
XRECORD
  5
BE7
102
{ACAD_REACTORS
330
63
102
}
330
63
100
AcDbXrecord
280
     1
 90
-1023410169
  0
XRECORD
  5
4377
102
{ACAD_REACTORS
330
4375
102
}
330
4375
100
AcDbXrecord
280
     1
330
C54
330
C56
330
0
330
0
330
433A
330
433B
330
0
330
0
330
4343
330
4344
330
434C
330
434D
  0
DICTIONARY
  5
4543
330
22
100
AcDbDictionary
280
     1
281
     1
  3
ACAD_XREC_ROUNDTRIP
360
4544
  0
DICTIONARY
  5
4541
330
1E
100
AcDbDictionary
280
     1
281
     1
  3
ACAD_XREC_ROUNDTRIP
360
4542
  0
DICTIONARY
  5
4545
330
26
100
AcDbDictionary
280
     1
281
     1
  3
ACAD_XREC_ROUNDTRIP
360
4546
  0
DICTIONARY
  5
4384
330
4383
100
AcDbDictionary
280
     1
281
     1
  3
ACAD_XREC_ROUNDTRIP
360
454D
  3
BUMPTILE
360
4386
  3
DIFFUSETILE
360
4385
  3
OPACITYTILE
360
4389
  3
REFLECTIONTILE
360
4388
  3
REFRACTIONTILE
360
438A
  3
SPECULARTILE
360
4387
  0
DICTIONARY
  5
437C
330
437B
100
AcDbDictionary
280
     1
281
     1
  3
ACAD_XREC_ROUNDTRIP
360
454C
  3
BUMPTILE
360
437E
  3
DIFFUSETILE
360
437D
  3
OPACITYTILE
360
4381
  3
REFLECTIONTILE
360
4380
  3
REFRACTIONTILE
360
4382
  3
SPECULARTILE
360
437F
  0
DICTIONARY
  5
438C
330
438B
100
AcDbDictionary
280
     1
281
     1
  3
ACAD_XREC_ROUNDTRIP
360
454E
  3
BUMPTILE
360
438E
  3
DIFFUSETILE
360
438D
  3
OPACITYTILE
360
4391
  3
REFLECTIONTILE
360
4390
  3
REFRACTIONTILE
360
4392
  3
SPECULARTILE
360
438F
  0
DICTIONARY
  5
4423
330
BD7
100
AcDbDictionary
280
     1
281
     1
  3
ACAD_ROUNDTRIP_2008_TABLESTYLE_CELLSTYLEMAP
360
453F
  3
ACAD_XREC_ROUNDTRIP
360
454B
  0
XRECORD
  5
4544
102
{ACAD_REACTORS
330
4543
102
}
330
4543
100
AcDbXrecord
280
     1
102
SHADEPLOT
 70
     0
102
SHADEPLOTRESLEVEL
 70
     2
102
SHADEPLOTCUSTOMDPI
 70
   300
  0
XRECORD
  5
4542
102
{ACAD_REACTORS
330
4541
102
}
330
4541
100
AcDbXrecord
280
     1
102
SHADEPLOT
 70
     1
102
SHADEPLOTRESLEVEL
 70
     2
102
SHADEPLOTCUSTOMDPI
 70
   300
  0
XRECORD
  5
4546
102
{ACAD_REACTORS
330
4545
102
}
330
4545
100
AcDbXrecord
280
     1
102
SHADEPLOT
 70
     1
102
SHADEPLOTRESLEVEL
 70
     2
102
SHADEPLOTCUSTOMDPI
 70
   300
  0
XRECORD
  5
454D
102
{ACAD_REACTORS
330
4384
102
}
330
4384
100
AcDbXrecord
280
     1
102
MATERIAL
148
0.0
149
0.0
149
0.0
 93
        0
 94
      127
282
     0
 72
     0
 77
     0
171
     0
175
     0
179
     0
273
     0
  0
XRECORD
  5
4386
102
{ACAD_REACTORS
330
4384
102
}
330
4384
100
AcDbXrecord
280
     1
270
     1
271
     1
  0
XRECORD
  5
4385
102
{ACAD_REACTORS
330
4384
102
}
330
4384
100
AcDbXrecord
280
     1
270
     1
271
     1
  0
XRECORD
  5
4389
102
{ACAD_REACTORS
330
4384
102
}
330
4384
100
AcDbXrecord
280
     1
270
     1
271
     1
  0
XRECORD
  5
4388
102
{ACAD_REACTORS
330
4384
102
}
330
4384
100
AcDbXrecord
280
     1
270
     1
271
     1
  0
XRECORD
  5
438A
102
{ACAD_REACTORS
330
4384
102
}
330
4384
100
AcDbXrecord
280
     1
270
     1
271
     1
  0
XRECORD
  5
4387
102
{ACAD_REACTORS
330
4384
102
}
330
4384
100
AcDbXrecord
280
     1
270
     1
271
     1
  0
XRECORD
  5
454C
102
{ACAD_REACTORS
330
437C
102
}
330
437C
100
AcDbXrecord
280
     1
102
MATERIAL
148
0.0
149
0.0
149
0.0
 93
        0
 94
      127
282
     0
 72
     0
 77
     0
171
     0
175
     0
179
     0
273
     0
  0
XRECORD
  5
437E
102
{ACAD_REACTORS
330
437C
102
}
330
437C
100
AcDbXrecord
280
     1
270
     1
271
     1
  0
XRECORD
  5
437D
102
{ACAD_REACTORS
330
437C
102
}
330
437C
100
AcDbXrecord
280
     1
270
     1
271
     1
  0
XRECORD
  5
4381
102
{ACAD_REACTORS
330
437C
102
}
330
437C
100
AcDbXrecord
280
     1
270
     1
271
     1
  0
XRECORD
  5
4380
102
{ACAD_REACTORS
330
437C
102
}
330
437C
100
AcDbXrecord
280
     1
270
     1
271
     1
  0
XRECORD
  5
4382
102
{ACAD_REACTORS
330
437C
102
}
330
437C
100
AcDbXrecord
280
     1
270
     1
271
     1
  0
XRECORD
  5
437F
102
{ACAD_REACTORS
330
437C
102
}
330
437C
100
AcDbXrecord
280
     1
270
     1
271
     1
  0
XRECORD
  5
454E
102
{ACAD_REACTORS
330
438C
102
}
330
438C
100
AcDbXrecord
280
     1
102
MATERIAL
148
0.0
149
0.0
149
0.0
 93
        0
 94
      127
282
     0
 72
     0
 77
     0
171
     0
175
     0
179
     0
273
     0
  0
XRECORD
  5
438E
102
{ACAD_REACTORS
330
438C
102
}
330
438C
100
AcDbXrecord
280
     1
270
     1
271
     1
  0
XRECORD
  5
438D
102
{ACAD_REACTORS
330
438C
102
}
330
438C
100
AcDbXrecord
280
     1
270
     1
271
     1
  0
XRECORD
  5
4391
102
{ACAD_REACTORS
330
438C
102
}
330
438C
100
AcDbXrecord
280
     1
270
     1
271
     1
  0
XRECORD
  5
4390
102
{ACAD_REACTORS
330
438C
102
}
330
438C
100
AcDbXrecord
280
     1
270
     1
271
     1
  0
XRECORD
  5
4392
102
{ACAD_REACTORS
330
438C
102
}
330
438C
100
AcDbXrecord
280
     1
270
     1
271
     1
  0
XRECORD
  5
438F
102
{ACAD_REACTORS
330
438C
102
}
330
438C
100
AcDbXrecord
280
     1
270
     1
271
     1
  0
CELLSTYLEMAP
  5
453F
102
{ACAD_REACTORS
330
4423
102
}
330
4423
100
AcDbCellStyleMap
 90
        3
300
CELLSTYLE
  1
TABLEFORMAT_BEGIN
 90
        5
170
     1
 91
        0
 92
    32768
 62
   257
 93
        1
300
CONTENTFORMAT
  1
CONTENTFORMAT_BEGIN
 90
        0
 91
        0
 92
        4
 93
        0
300

 40
0.0
140
1.0
 94
        5
 62
     0
340
11
144
6.0
309
CONTENTFORMAT_END
171
     1
301
MARGIN
  1
CELLMARGIN_BEGIN
 40
1.5
 40
1.5
 40
1.5
 40
1.5
 40
0.18
 40
0.18
309
CELLMARGIN_END
 94
        6
 95
        1
302
GRIDFORMAT
  1
GRIDFORMAT_BEGIN
 90
        0
 91
        1
 62
     0
 92
       -2
340
0
 93
        0
 40
0.045
309
GRIDFORMAT_END
 95
        2
302
GRIDFORMAT
  1
GRIDFORMAT_BEGIN
 90
        0
 91
        1
 62
     0
 92
       -2
340
0
 93
        0
 40
0.045
309
GRIDFORMAT_END
 95
        4
302
GRIDFORMAT
  1
GRIDFORMAT_BEGIN
 90
        0
 91
        1
 62
     0
 92
       -2
340
0
 93
        0
 40
0.045
309
GRIDFORMAT_END
 95
        8
302
GRIDFORMAT
  1
GRIDFORMAT_BEGIN
 90
        0
 91
        1
 62
     0
 92
       -2
340
0
 93
        0
 40
0.045
309
GRIDFORMAT_END
 95
       16
302
GRIDFORMAT
  1
GRIDFORMAT_BEGIN
 90
        0
 91
        1
 62
     0
 92
       -2
340
0
 93
        0
 40
0.045
309
GRIDFORMAT_END
 95
       32
302
GRIDFORMAT
  1
GRIDFORMAT_BEGIN
 90
        0
 91
        1
 62
     0
 92
       -2
340
0
 93
        0
 40
0.045
309
GRIDFORMAT_END
309
TABLEFORMAT_END
  1
CELLSTYLE_BEGIN
 90
        1
 91
        1
300
_TITLE
309
CELLSTYLE_END
300
CELLSTYLE
  1
TABLEFORMAT_BEGIN
 90
        5
170
     1
 91
        0
 92
        0
 62
   257
 93
        1
300
CONTENTFORMAT
  1
CONTENTFORMAT_BEGIN
 90
        0
 91
        0
 92
        4
 93
        0
300

 40
0.0
140
1.0
 94
        5
 62
     0
340
11
144
4.5
309
CONTENTFORMAT_END
171
     1
301
MARGIN
  1
CELLMARGIN_BEGIN
 40
1.5
 40
1.5
 40
1.5
 40
1.5
 40
0.18
 40
0.18
309
CELLMARGIN_END
 94
        6
 95
        1
302
GRIDFORMAT
  1
GRIDFORMAT_BEGIN
 90
        0
 91
        1
 62
     0
 92
       -2
340
0
 93
        0
 40
0.045
309
GRIDFORMAT_END
 95
        2
302
GRIDFORMAT
  1
GRIDFORMAT_BEGIN
 90
        0
 91
        1
 62
     0
 92
       -2
340
0
 93
        0
 40
0.045
309
GRIDFORMAT_END
 95
        4
302
GRIDFORMAT
  1
GRIDFORMAT_BEGIN
 90
        0
 91
        1
 62
     0
 92
       -2
340
0
 93
        0
 40
0.045
309
GRIDFORMAT_END
 95
        8
302
GRIDFORMAT
  1
GRIDFORMAT_BEGIN
 90
        0
 91
        1
 62
     0
 92
       -2
340
0
 93
        0
 40
0.045
309
GRIDFORMAT_END
 95
       16
302
GRIDFORMAT
  1
GRIDFORMAT_BEGIN
 90
        0
 91
        1
 62
     0
 92
       -2
340
0
 93
        0
 40
0.045
309
GRIDFORMAT_END
 95
       32
302
GRIDFORMAT
  1
GRIDFORMAT_BEGIN
 90
        0
 91
        1
 62
     0
 92
       -2
340
0
 93
        0
 40
0.045
309
GRIDFORMAT_END
309
TABLEFORMAT_END
  1
CELLSTYLE_BEGIN
 90
        2
 91
        1
300
_HEADER
309
CELLSTYLE_END
300
CELLSTYLE
  1
TABLEFORMAT_BEGIN
 90
        5
170
     1
 91
        0
 92
        0
 62
   257
 93
        1
300
CONTENTFORMAT
  1
CONTENTFORMAT_BEGIN
 90
        0
 91
        0
 92
        4
 93
        0
300

 40
0.0
140
1.0
 94
        2
 62
     0
340
11
144
4.5
309
CONTENTFORMAT_END
171
     1
301
MARGIN
  1
CELLMARGIN_BEGIN
 40
1.5
 40
1.5
 40
1.5
 40
1.5
 40
0.18
 40
0.18
309
CELLMARGIN_END
 94
        6
 95
        1
302
GRIDFORMAT
  1
GRIDFORMAT_BEGIN
 90
        0
 91
        1
 62
     0
 92
       -2
340
0
 93
        0
 40
0.045
309
GRIDFORMAT_END
 95
        2
302
GRIDFORMAT
  1
GRIDFORMAT_BEGIN
 90
        0
 91
        1
 62
     0
 92
       -2
340
0
 93
        0
 40
0.045
309
GRIDFORMAT_END
 95
        4
302
GRIDFORMAT
  1
GRIDFORMAT_BEGIN
 90
        0
 91
        1
 62
     0
 92
       -2
340
0
 93
        0
 40
0.045
309
GRIDFORMAT_END
 95
        8
302
GRIDFORMAT
  1
GRIDFORMAT_BEGIN
 90
        0
 91
        1
 62
     0
 92
       -2
340
0
 93
        0
 40
0.045
309
GRIDFORMAT_END
 95
       16
302
GRIDFORMAT
  1
GRIDFORMAT_BEGIN
 90
        0
 91
        1
 62
     0
 92
       -2
340
0
 93
        0
 40
0.045
309
GRIDFORMAT_END
 95
       32
302
GRIDFORMAT
  1
GRIDFORMAT_BEGIN
 90
        0
 91
        1
 62
     0
 92
       -2
340
0
 93
        0
 40
0.045
309
GRIDFORMAT_END
309
TABLEFORMAT_END
  1
CELLSTYLE_BEGIN
 90
        3
 91
        2
300
_DATA
309
CELLSTYLE_END
  0
XRECORD
  5
454B
102
{ACAD_REACTORS
330
4423
102
}
330
4423
100
AcDbXrecord
280
     1
102
ACAD_ROUNDTRIP_PRE2007_TABLESTYLE
 90
        4
 91
        0
  1

 92
        4
 93
        0
  2

 94
        4
 95
        0
  3

  0
ENDSEC
  0
EOF
