  0
SECTION
  2
HEADER
  9
$ACADVER
  1
AC1015
  9
$ACADMAINTVER
 70
    20
  9
$DWGCODEPAGE
  3
ANSI_932
  9
$INSBASE
 10
0.0
 20
0.0
 30
0.0
  9
$EXTMIN
 10
0.0
 20
-0.0000000000002132
 30
0.0
  9
$EXTMAX
 10
1612.0
 20
1120.0
 30
0.0
  9
$LIMMIN
 10
0.0
 20
0.0
  9
$LIMMAX
 10
1612.0
 20
1120.0
  9
$ORTHOMODE
 70
     0
  9
$REGENMODE
 70
     1
  9
$FILLMODE
 70
     1
  9
$QTEXTMODE
 70
     0
  9
$MIRRTEXT
 70
     1
  9
$LTSCALE
 40
4.0
  9
$ATTMODE
 70
     1
  9
$TEXTSIZE
 40
2.5
  9
$TRACEWID
 40
0.05
  9
$TEXTSTYLE
  7
takachi1
  9
$CLAYER
  8
0
  9
$CELTYPE
  6
ByLayer
  9
$CECOLOR
 62
   256
  9
$CELTSCALE
 40
1.0
  9
$DISPSILH
 70
     0
  9
$DIMSCALE
 40
5.0
  9
$DIMASZ
 40
2.5
  9
$DIMEXO
 40
1.0
  9
$DIMDLI
 40
10.0
  9
$DIMRND
 40
0.0
  9
$DIMDLE
 40
0.0
  9
$DIMEXE
 40
1.0
  9
$DIMTP
 40
0.1
  9
$DIMTM
 40
0.1
  9
$DIMTXT
 40
3.5
  9
$DIMCEN
 40
0.0
  9
$DIMTSZ
 40
0.0
  9
$DIMTOL
 70
     0
  9
$DIMLIM
 70
     0
  9
$DIMTIH
 70
     0
  9
$DIMTOH
 70
     0
  9
$DIMSE1
 70
     0
  9
$DIMSE2
 70
     0
  9
$DIMTAD
 70
     1
  9
$DIMZIN
 70
     8
  9
$DIMBLK
  1
Open30
  9
$DIMASO
 70
     1
  9
$DIMSHO
 70
     1
  9
$DIMPOST
  1

  9
$DIMAPOST
  1
"
  9
$DIMALT
 70
     0
  9
$DIMALTD
 70
     2
  9
$DIMALTF
 40
0.0393701
  9
$DIMLFAC
 40
1.0
  9
$DIMTOFL
 70
     1
  9
$DIMTVP
 40
0.0
  9
$DIMTIX
 70
     0
  9
$DIMSOXD
 70
     0
  9
$DIMSAH
 70
     0
  9
$DIMBLK1
  1

  9
$DIMBLK2
  1

  9
$DIMSTYLE
  2
AM_ISO
  9
$DIMCLRD
 70
     3
  9
$DIMCLRE
 70
     3
  9
$DIMCLRT
 70
     2
  9
$DIMTFAC
 40
0.71
  9
$DIMGAP
 40
1.5
  9
$DIMJUST
 70
     0
  9
$DIMSD1
 70
     0
  9
$DIMSD2
 70
     0
  9
$DIMTOLJ
 70
     0
  9
$DIMTZIN
 70
     8
  9
$DIMALTZ
 70
     0
  9
$DIMALTTZ
 70
     0
  9
$DIMUPT
 70
     0
  9
$DIMDEC
 70
     2
  9
$DIMTDEC
 70
     2
  9
$DIMALTU
 70
     2
  9
$DIMALTTD
 70
     2
  9
$DIMTXSTY
  7
STANDARD
  9
$DIMAUNIT
 70
     0
  9
$DIMADEC
 70
     0
  9
$DIMALTRND
 40
0.0
  9
$DIMAZIN
 70
     2
  9
$DIMDSEP
 70
    46
  9
$DIMATFIT
 70
     3
  9
$DIMFRAC
 70
     0
  9
$DIMLDRBLK
  1
Open30
  9
$DIMLUNIT
 70
     2
  9
$DIMLWD
 70
    -1
  9
$DIMLWE
 70
    -1
  9
$DIMTMOVE
 70
     0
  9
$LUNITS
 70
     2
  9
$LUPREC
 70
     2
  9
$SKETCHINC
 40
0.1
  9
$FILLETRAD
 40
0.8
  9
$AUNITS
 70
     0
  9
$AUPREC
 70
     0
  9
$MENU
  1
.
  9
$ELEVATION
 40
0.0
  9
$PELEVATION
 40
0.0
  9
$THICKNESS
 40
0.0
  9
$LIMCHECK
 70
     0
  9
$CHAMFERA
 40
10.0
  9
$CHAMFERB
 40
10.0
  9
$CHAMFERC
 40
1.0
  9
$CHAMFERD
 40
0.0
  9
$SKPOLY
 70
     0
  9
$TDCREATE
 40
2454770.465836227
  9
$TDUCREATE
 40
2454770.090836227
  9
$TDUPDATE
 40
2455068.666872107
  9
$TDUUPDATE
 40
2455068.291872107
  9
$TDINDWG
 40
0.1351052546
  9
$TDUSRTIMER
 40
0.1351052546
  9
$USRTIMER
 70
     1
  9
$ANGBASE
 50
0.0
  9
$ANGDIR
 70
     0
  9
$PDMODE
 70
     0
  9
$PDSIZE
 40
0.0
  9
$PLINEWID
 40
0.0
  9
$SPLFRAME
 70
     0
  9
$SPLINETYPE
 70
     6
  9
$SPLINESEGS
 70
     8
  9
$HANDSEED
  5
45D8
  9
$SURFTAB1
 70
     6
  9
$SURFTAB2
 70
     6
  9
$SURFTYPE
 70
     6
  9
$SURFU
 70
     6
  9
$SURFV
 70
     6
  9
$UCSBASE
  2

  9
$UCSNAME
  2

  9
$UCSORG
 10
0.0
 20
0.0
 30
0.0
  9
$UCSXDIR
 10
1.0
 20
0.0
 30
0.0
  9
$UCSYDIR
 10
0.0
 20
1.0
 30
0.0
  9
$UCSORTHOREF
  2

  9
$UCSORTHOVIEW
 70
     0
  9
$UCSORGTOP
 10
0.0
 20
0.0
 30
0.0
  9
$UCSORGBOTTOM
 10
0.0
 20
0.0
 30
0.0
  9
$UCSORGLEFT
 10
0.0
 20
0.0
 30
0.0
  9
$UCSORGRIGHT
 10
0.0
 20
0.0
 30
0.0
  9
$UCSORGFRONT
 10
0.0
 20
0.0
 30
0.0
  9
$UCSORGBACK
 10
0.0
 20
0.0
 30
0.0
  9
$PUCSBASE
  2

  9
$PUCSNAME
  2

  9
$PUCSORG
 10
0.0
 20
0.0
 30
0.0
  9
$PUCSXDIR
 10
1.0
 20
0.0
 30
0.0
  9
$PUCSYDIR
 10
0.0
 20
1.0
 30
0.0
  9
$PUCSORTHOREF
  2

  9
$PUCSORTHOVIEW
 70
     0
  9
$PUCSORGTOP
 10
0.0
 20
0.0
 30
0.0
  9
$PUCSORGBOTTOM
 10
0.0
 20
0.0
 30
0.0
  9
$PUCSORGLEFT
 10
0.0
 20
0.0
 30
0.0
  9
$PUCSORGRIGHT
 10
0.0
 20
0.0
 30
0.0
  9
$PUCSORGFRONT
 10
0.0
 20
0.0
 30
0.0
  9
$PUCSORGBACK
 10
0.0
 20
0.0
 30
0.0
  9
$USERI1
 70
     0
  9
$USERI2
 70
     0
  9
$USERI3
 70
     0
  9
$USERI4
 70
     0
  9
$USERI5
 70
     0
  9
$USERR1
 40
0.0
  9
$USERR2
 40
0.0
  9
$USERR3
 40
0.0
  9
$USERR4
 40
0.0
  9
$USERR5
 40
0.0
  9
$WORLDVIEW
 70
     1
  9
$SHADEDGE
 70
     3
  9
$SHADEDIF
 70
    70
  9
$TILEMODE
 70
     1
  9
$MAXACTVP
 70
    64
  9
$PINSBASE
 10
0.0
 20
0.0
 30
0.0
  9
$PLIMCHECK
 70
     0
  9
$PEXTMIN
 10
1.000000000000000E+20
 20
1.000000000000000E+20
 30
1.000000000000000E+20
  9
$PEXTMAX
 10
-1.000000000000000E+20
 20
-1.000000000000000E+20
 30
-1.000000000000000E+20
  9
$PLIMMIN
 10
-0.2500002402958907
 20
-0.2499999962453767
  9
$PLIMMAX
 10
10.74999951940821
 20
8.249999763458731
  9
$UNITMODE
 70
     0
  9
$VISRETAIN
 70
     1
  9
$PLINEGEN
 70
     0
  9
$PSLTSCALE
 70
     1
  9
$TREEDEPTH
 70
  3020
  9
$CMLSTYLE
  2
Standard
  9
$CMLJUST
 70
     0
  9
$CMLSCALE
 40
1.0
  9
$PROXYGRAPHICS
 70
     1
  9
$MEASUREMENT
 70
     1
  9
$CELWEIGHT
370
    -1
  9
$ENDCAPS
280
     0
  9
$JOINSTYLE
280
     0
  9
$LWDISPLAY
290
     0
  9
$INSUNITS
 70
     4
  9
$HYPERLINKBASE
  1

  9
$STYLESHEET
  1
takachi-2.ctb
  9
$XEDIT
290
     1
  9
$CEPSNTYPE
380
     0
  9
$PSTYLEMODE
290
     1
  9
$FINGERPRINTGUID
  2
{4C04C66C-6307-4C11-B2CD-108B7D68641F}
  9
$VERSIONGUID
  2
{8A7CDA89-B04C-47EB-A4C1-FE58BA8A4587}
  9
$EXTNAMES
290
     1
  9
$PSVPSCALE
 40
0.0
  9
$OLESTARTUP
290
     0
  0
ENDSEC
  0
SECTION
  2
CLASSES
  0
CLASS
  1
ACDBDICTIONARYWDFLT
  2
AcDbDictionaryWithDefault
  3
ObjectDBX Classes
 90
        0
280
     0
281
     0
  0
CLASS
  1
ACDBPLACEHOLDER
  2
AcDbPlaceHolder
  3
ObjectDBX Classes
 90
        0
280
     0
281
     0
  0
CLASS
  1
LAYOUT
  2
AcDbLayout
  3
ObjectDBX Classes
 90
        0
280
     0
281
     0
  0
CLASS
  1
ACME_DOCUMENT
  2
AcMeDbDoc
  3
AcMeServices
 90
     1024
280
     0
281
     0
  0
CLASS
  1
AMGSETTINGSOBJ
  2
AmgSettingsObj
  3
"AcadM|Product Description: AutoCAD Mechanical|Company: Autodesk, Inc."
 90
     1024
280
     0
281
     0
  0
CLASS
  1
ACMESCOPE
  2
AcMeScope
  3
AcMeServices
 90
     1024
280
     0
281
     0
  0
CLASS
  1
ACMECOMMANDHISTORY
  2
AcMeCommandHistory
  3
AcMeServices
 90
     1024
280
     0
281
     0
  0
CLASS
  1
ACIMSYSVARMAN
  2
AcImSysVarManager
  3
AcMeServices
 90
     1024
280
     0
281
     0
  0
CLASS
  1
ACIMREALSYSVAR
  2
AcImRealSysVar
  3
AcMeServices
 90
     1024
280
     0
281
     0
  0
CLASS
  1
ACIMINTSYSVAR
  2
AcImIntSysVar
  3
AcMeServices
 90
     1024
280
     0
281
     0
  0
CLASS
  1
ACMEDRAWINGMAN
  2
AcMeDrawingMan
  3
AcMeServices
 90
     1024
280
     0
281
     0
  0
CLASS
  1
ACMEVIEW
  2
AcMeView
  3
AcMeServices
 90
     1024
280
     0
281
     0
  0
CLASS
  1
ACDBENTITYCACHE
  2
AcMeEntityCache
  3
AcMeServices
 90
     1024
280
     0
281
     0
  0
CLASS
  1
GSMANAGER
  2
AcMeGSManager
  3
AcMeServices
 90
     1024
280
     0
281
     0
  0
CLASS
  1
AMDTINTERNALREACTOR
  2
AmdtInternalReactor
  3
AcMeServices
 90
     1024
280
     0
281
     0
  0
CLASS
  1
ACMESTATEMGR
  2
AcMeStateMgr
  3
AcMeServices
 90
     1024
280
     0
281
     0
  0
CLASS
  1
ACGREFMASTER
  2
AcGrefMaster
  3
AcAttribServices
 90
     1024
280
     0
281
     0
  0
CLASS
  1
ACME_DATABASE
  2
AcMeDbDatabase
  3
AcMeServices
 90
     1024
280
     0
281
     0
  0
CLASS
  1
ACRFINSADJUSTERMGR
  2
AcRfInsAdjusterMgr
  3
AcMeServices
 90
     1024
280
     0
281
     0
  0
CLASS
  1
ACGREFACADMASTER
  2
AcGrefacadMaster
  3
AcGrefServices
 90
     1024
280
     0
281
     0
  0
CLASS
  1
AMIMASTER
  2
AmiMaster
  3
AmiServices
 90
     1024
280
     0
281
     0
  0
CLASS
  1
ACMDATADICTIONARY
  2
AcmDataDictionary
  3
"AcmSymBB|Product Description: AutoCAD Mechanical|Company: Autodesk, Inc."
 90
     1024
280
     0
281
     0
  0
CLASS
  1
ACMDATAENTRYBLOCK
  2
AcmDataEntryBlock
  3
AcmSymBB|Product Description: AutoCAD Mechanical|Company: Autodesk, Inc.
 90
     1024
280
     0
281
     0
  0
CLASS
  1
ACIMSTRSYSVAR
  2
AcImStrSysVar
  3
AcMeServices
 90
     1024
280
     0
281
     0
  0
CLASS
  1
ACMSTANDARDANSI
  2
AcmStandardANSI
  3
"Amdt_StdImp|Product Description: AutoCAD Mechanical|Company: Autodesk, Inc."
 90
     1024
280
     0
281
     0
  0
CLASS
  1
AMGOBJPROPCFG
  2
AmgObjPropCfg
  3
"AmgLay|Product Description: AutoCAD Mechanical|Company: Autodesk, Inc."
 90
     1025
280
     0
281
     0
  0
CLASS
  1
ACMSURFSTANDARDANSI
  2
AcmSurfTextStdANSI
  3
"Amdt_StdImp|Product Description: AutoCAD Mechanical|Company: Autodesk, Inc."
 90
     1024
280
     0
281
     0
  0
CLASS
  1
ACMFCFSTANDARDANSI
  2
AcmFCFStdANSI
  3
"Amdt_StdImp|Product Description: AutoCAD Mechanical|Company: Autodesk, Inc."
 90
     1024
280
     0
281
     0
  0
CLASS
  1
ACMWELDSTANDARDANSI
  2
AcmWeldingStdANSI
  3
"Amdt_StdImp|Product Description: AutoCAD Mechanical|Company: Autodesk, Inc."
 90
     1024
280
     0
281
     0
  0
CLASS
  1
ACMIDSTANDARDANSI
  2
AcmIdStdANSI
  3
"Amdt_StdImp|Product Description: AutoCAD Mechanical|Company: Autodesk, Inc."
 90
     1024
280
     0
281
     0
  0
CLASS
  1
ACMDATUMSTANDARDANSI
  2
AcmDatumStdANSI
  3
"Amdt_StdImp|Product Description: AutoCAD Mechanical|Company: Autodesk, Inc."
 90
     1024
280
     0
281
     0
  0
CLASS
  1
ACMBOMSTANDARDANSI
  2
AcmBOMStdANSI
  3
"Amdt_StdImp|Product Description: AutoCAD Mechanical|Company: Autodesk, Inc."
 90
     1024
280
     0
281
     0
  0
CLASS
  1
ACMDETAILSTANDARDANSI
  2
AmdtDetailSymStdANSI
  3
"Amdt_StdImp|Product Description: AutoCAD Mechanical|Company: Autodesk, Inc."
 90
     1024
280
     0
281
     0
  0
CLASS
  1
ACMSECTIONSTANDARDANSI
  2
AmdtSectionSymStdANSI
  3
"Amdt_StdImp|Product Description: AutoCAD Mechanical|Company: Autodesk, Inc."
 90
     1024
280
     0
281
     0
  0
CLASS
  1
ACMCENTERLINESTANDARDANSI
  2
AmdtCenterLineStdANSI
  3
"Amdt_StdImp|Product Description: AutoCAD Mechanical|Company: Autodesk, Inc."
 90
     1024
280
     0
281
     0
  0
CLASS
  1
ACMNOTESTANDARDANSI
  2
AmdtNoteStdANSI
  3
"Amdt_StdImp|Product Description: AutoCAD Mechanical|Company: Autodesk, Inc."
 90
     1024
280
     0
281
     0
  0
CLASS
  1
ACAMGLAYSTD
  2
AcAmgLayStd
  3
"AmgLay|Product Description: AutoCAD Mechanical|Company: Autodesk, Inc."
 90
     1024
280
     0
281
     0
  0
CLASS
  1
ACAMGDIMSTD
  2
AcAmgDimStd
  3
"AmgDim|Product Description: AutoCAD Mechanical|Company: Autodesk, Inc."
 90
     1024
280
     0
281
     0
  0
CLASS
  1
ACAMGHOLECHARTSTDANSI
  2
AcAmgHoleChartStdANSI
  3
AmgDim|Product Description: AutoCAD Mechanical|Company: Autodesk, Inc.
 90
     1024
280
     0
281
     0
  0
CLASS
  1
ACAMGTITLESTD
  2
AcAmgTitleStd
  3
"AmgTitle|Product Description: AutoCAD Mechanical|Company: Autodesk, Inc."
 90
     4095
280
     0
281
     0
  0
CLASS
  1
LAYER_INDEX
  2
AcDbLayerIndex
  3
ObjectDBX Classes
 90
    32768
280
     0
281
     0
  0
CLASS
  1
IDBUFFER
  2
AcDbIdBuffer
  3
ObjectDBX Classes
 90
    32768
280
     0
281
     0
  0
CLASS
  1
DICTIONARYVAR
  2
AcDbDictionaryVar
  3
ObjectDBX Classes
 90
        0
280
     0
281
     0
  0
CLASS
  1
AM_DRAWING_MGR
  2
AcDmDwgMgr
  3
AcMechDwgViewMgmt
 90
     1024
280
     0
281
     0
  0
CLASS
  1
AM_DWG_DOCUMENT
  2
AcDmDwgDocument
  3
AcMechDwgViewMgmt
 90
     1024
280
     0
281
     0
  0
CLASS
  1
AM_DWG_SHEET
  2
AcDmSheet
  3
AcMechDwgViewMgmt
 90
     1024
280
     0
281
     0
  0
CLASS
  1
AM_VIEWDIMPARMAP
  2
AcDmViewDimParMap
  3
AcMechDwgViewMgmt
 90
     1024
280
     0
281
     0
  0
CLASS
  1
AM_DWGMGR_NAME
  2
AcDmDwgMgrName
  3
AcMechDwgViewMgmt
 90
     1024
280
     0
281
     0
  0
CLASS
  1
AMDTMENUSTATEMGR
  2
AmdtMenuStateMgr
  3
McadcomServices
 90
     1024
280
     0
281
     0
  0
CLASS
  1
AMDTMCOMMENUSTATE
  2
AmdtMcomMenuState
  3
McadcomServices
 90
     1024
280
     0
281
     0
  0
CLASS
  1
MAPIAMMOUDLE
  2
MApiAmModule
  3
MApiAmServices
 90
     1024
280
     0
281
     0
  0
CLASS
  1
AMDTADMENUSTATE
  2
AmdtAdMenuState
  3
DesignerServices
 90
     1024
280
     0
281
     0
  0
CLASS
  1
ADAPPL
  2
AcAdAppl
  3
DesignerServices
 90
     1024
280
     0
281
     0
  0
CLASS
  1
DEPMGR
  2
AcAdDepMgr
  3
DesignerServices
 90
     1024
280
     0
281
     0
  0
CLASS
  1
PARAMMGR
  2
AcAdParamMgr
  3
DesignerServices
 90
     1024
280
     0
281
     0
  0
CLASS
  1
PARAMSCOPE
  2
AcAdParamScope
  3
DesignerServices
 90
     1024
280
     0
281
     0
  0
CLASS
  1
NAMEDAPPL
  2
AcAdNamedAppl
  3
DesignerServices
 90
     1024
280
     0
281
     0
  0
CLASS
  1
AMDTDMMENUSTATE
  2
AmdtDmMenuState
  3
AcMechDwgViewMgmt
 90
     1024
280
     0
281
     0
  0
CLASS
  1
AMDTAMMENUSTATE
  2
AmdtAmMenuState
  3
DesignerAssemblies
 90
     1024
280
     0
281
     0
  0
CLASS
  1
ACAMPROJECT
  2
AcAmProject
  3
DesignerAssemblies
 90
     1024
280
     0
281
     0
  0
CLASS
  1
ACAMGRCOMPDEF
  2
AcAmGrCompDef
  3
DesignerAssemblies
 90
     1024
280
     0
281
     0
  0
CLASS
  1
ACCMCONTEXT
  2
AcCmContext
  3
DesignerAssemblies
 90
     1024
280
     0
281
     0
  0
CLASS
  1
ACAMCOMPDEF
  2
AcAmCompDef
  3
DesignerAssemblies
 90
     1024
280
     0
281
     0
  0
CLASS
  1
ACAMCOMPDEFMGR
  2
AcAmCompDefMgr
  3
DesignerAssemblies
 90
     1024
280
     0
281
     0
  0
CLASS
  1
AMCONTEXTMGR
  2
AcAmContextMgr
  3
DesignerAssemblies
 90
     1024
280
     0
281
     0
  0
CLASS
  1
ACAMCONTEXTMODELER
  2
AcAmContextModeler
  3
DesignerAssemblies
 90
     1024
280
     0
281
     0
  0
CLASS
  1
ACMTHREADLINESTANDARDANSI
  2
AmdtThreadLineStdANSI
  3
"Amdt_StdImp|Product Description: AutoCAD Mechanical|Company: Autodesk, Inc."
 90
     1024
280
     0
281
     0
  0
CLASS
  1
CATALOGSTATE
  2
AcAmCatalogState
  3
DesignerAssemblies
 90
     1024
280
     0
281
     0
  0
CLASS
  1
ACAMGRCOMPDEFSET
  2
AcAmGrCompDefSet
  3
DesignerAssemblies
 90
     1024
280
     0
281
     0
  0
CLASS
  1
AMDTBROWSERDBTAB
  2
AmdtBrowserDbTab
  3
McadcomServices
 90
     1024
280
     0
281
     0
  0
CLASS
  1
CBROWSERAPPOBJECT
  2
CBrowserAppObject
  3
McadcomServices
 90
     1024
280
     0
281
     0
  0
CLASS
  1
DM_PLACEHOLDER
  2
AcDmSelsetPlaceholder
  3
AcMechDwgViewMgmt
 90
     1024
280
     0
281
     0
  0
CLASS
  1
AMDTNOTETEMPLATEDB
  2
AmdtNoteTemplateDB
  3
AcmSymBB|Product Description: AutoCAD Mechanical|Company: Autodesk, Inc.
 90
     1024
280
     0
281
     0
  0
CLASS
  1
ACMSTANDARDISO
  2
AcmStandardISO
  3
"Amdt_StdImp|Product Description: AutoCAD Mechanical|Company: Autodesk, Inc."
 90
     1024
280
     0
281
     0
  0
CLASS
  1
AMDTEDGESTANDARDISO
  2
AmdtEdgeStdISO
  3
"Amdt_StdImp|Product Description: AutoCAD Mechanical|Company: Autodesk, Inc."
 90
     1024
280
     0
281
     0
  0
CLASS
  1
ACMSURFSTANDARDISO
  2
AcmSurfTextStdISO
  3
"Amdt_StdImp|Product Description: AutoCAD Mechanical|Company: Autodesk, Inc."
 90
     1024
280
     0
281
     0
  0
CLASS
  1
ACMFCFSTANDARDISO
  2
AcmFCFStdISO
  3
"Amdt_StdImp|Product Description: AutoCAD Mechanical|Company: Autodesk, Inc."
 90
     1024
280
     0
281
     0
  0
CLASS
  1
ACMWELDSTANDARDISO
  2
AcmWeldingStdISO
  3
"Amdt_StdImp|Product Description: AutoCAD Mechanical|Company: Autodesk, Inc."
 90
     1024
280
     0
281
     0
  0
CLASS
  1
ACMIDSTANDARDISO
  2
AcmIdStdISO
  3
"Amdt_StdImp|Product Description: AutoCAD Mechanical|Company: Autodesk, Inc."
 90
     1024
280
     0
281
     0
  0
CLASS
  1
ACMDATUMSTANDARDISO
  2
AcmDatumStdISO
  3
"Amdt_StdImp|Product Description: AutoCAD Mechanical|Company: Autodesk, Inc."
 90
     1024
280
     0
281
     0
  0
CLASS
  1
ACMBOMSTANDARDISO
  2
AcmBOMStdISO
  3
"Amdt_StdImp|Product Description: AutoCAD Mechanical|Company: Autodesk, Inc."
 90
     1024
280
     0
281
     0
  0
CLASS
  1
ACMDETAILSTANDARDISO
  2
AmdtDetailSymStdISO
  3
"Amdt_StdImp|Product Description: AutoCAD Mechanical|Company: Autodesk, Inc."
 90
     1024
280
     0
281
     0
  0
CLASS
  1
ACMSECTIONSTANDARDISO
  2
AmdtSectionSymStdISO
  3
"Amdt_StdImp|Product Description: AutoCAD Mechanical|Company: Autodesk, Inc."
 90
     1024
280
     0
281
     0
  0
CLASS
  1
ACMCENTERLINESTANDARDISO
  2
AmdtCenterLineStdISO
  3
"Amdt_StdImp|Product Description: AutoCAD Mechanical|Company: Autodesk, Inc."
 90
     1024
280
     0
281
     0
  0
CLASS
  1
ACMTHREADLINESTANDARDISO
  2
AmdtThreadLineStdISO
  3
"Amdt_StdImp|Product Description: AutoCAD Mechanical|Company: Autodesk, Inc."
 90
     1024
280
     0
281
     0
  0
CLASS
  1
ACMNOTESTANDARDISO
  2
AmdtNoteStdISO
  3
"Amdt_StdImp|Product Description: AutoCAD Mechanical|Company: Autodesk, Inc."
 90
     1024
280
     0
281
     0
  0
CLASS
  1
ACAMGHOLECHARTSTDISO
  2
AcAmgHoleChartStdISO
  3
AmgDim|Product Description: AutoCAD Mechanical|Company: Autodesk, Inc.
 90
     1024
280
     0
281
     0
  0
CLASS
  1
ACAMGFILTERDAT
  2
AcAmgFilterDat
  3
"AcadM|Product Description: AutoCAD Mechanical|Company: Autodesk, Inc."
 90
     1024
280
     0
281
     0
  0
CLASS
  1
ACMBOM
  2
AcmBom
  3
"AcmSymBB|Product Description: AutoCAD Mechanical|Company: Autodesk, Inc."
 90
     1024
280
     0
281
     0
  0
CLASS
  1
AMDTFORMULAUPDATEDISPATCHER
  2
AmdtFormulaUpdateDispatcher
  3
AcMeServices
 90
     1024
280
     0
281
     0
  0
CLASS
  1
ACMPARTLIST
  2
AcmPartList
  3
"AcmSymBB|Product Description: AutoCAD Mechanical|Company: Autodesk, Inc."
 90
     4095
280
     0
281
     1
  0
CLASS
  1
ACDBOPPOLYLINERES
  2
AcDbOpPolylineRes
  3
AcGrefServices
 90
    33792
280
     0
281
     0
  0
CLASS
  1
ACRFINSADJ
  2
AcRfInsAdjuster
  3
AcMeServices
 90
    33792
280
     0
281
     0
  0
CLASS
  1
TABLESTYLE
  2
AcDbTableStyle
  3
ObjectDBX Classes
 90
     4095
280
     0
281
     0
  0
CLASS
  1
VAACXREFPANELOBJECT
  2
VaAcXREFPanelObject
  3
VAAC_ADDIN
 90
    32768
280
     0
281
     0
  0
CLASS
  1
VAACIMAGEINVENTORY
  2
VaAcImageInventory
  3
VAAC_ADDIN
 90
    32768
280
     0
281
     0
  0
CLASS
  1
SORTENTSTABLE
  2
AcDbSortentsTable
  3
ObjectDBX Classes
 90
        0
280
     0
281
     0
  0
CLASS
  1
ACMDATAENTRYPART
  2
AcmDataEntryPart
  3
AcmSymBB|Product Description: AutoCAD Mechanical|Company: Autodesk, Inc.
 90
     1024
280
     0
281
     0
  0
CLASS
  1
ACMPARTREF
  2
AcmPartRef
  3
"AcmSymBB|Product Description: AutoCAD Mechanical|Company: Autodesk, Inc."
 90
     4095
280
     0
281
     1
  0
CLASS
  1
ACMBOMROW
  2
AcmBomRow
  3
"AcmSymBB|Product Description: AutoCAD Mechanical|Company: Autodesk, Inc."
 90
     1024
280
     0
281
     0
  0
CLASS
  1
ACMDATAENTRY
  2
AcmDataEntry
  3
AcmSymBB|Product Description: AutoCAD Mechanical|Company: Autodesk, Inc.
 90
     1024
280
     0
281
     0
  0
CLASS
  1
ACMBALLOON
  2
AcmBalloon
  3
"AcmSymBB|Product Description: AutoCAD Mechanical|Company: Autodesk, Inc."
 90
     4095
280
     0
281
     1
  0
CLASS
  1
MATERIAL
  2
AcDbMaterial
  3
ObjectDBX Classes
 90
     1153
280
     0
281
     0
  0
CLASS
  1
VISUALSTYLE
  2
AcDbVisualStyle
  3
ObjectDBX Classes
 90
     4095
280
     0
281
     0
  0
CLASS
  1
SCALE
  2
AcDbScale
  3
ObjectDBX Classes
 90
     1153
280
     0
281
     0
  0
CLASS
  1
MLEADERSTYLE
  2
AcDbMLeaderStyle
  3
ACDB_MLEADERSTYLE_CLASS
 90
     4095
280
     0
281
     0
  0
CLASS
  1
ACRFATTGENMGR
  2
AcRfAttGeneralMgr
  3
AcAttribServices
 90
     1024
280
     0
281
     0
  0
CLASS
  1
ACRFOBJATTMGR
  2
AcRfObjAttGroupMgr
  3
AcAttribServices
 90
     1024
280
     0
281
     0
  0
CLASS
  1
ACRFMCADAPIATTHOLDER
  2
AcRfMCADAPIAttHolder
  3
AcAttribServices
 90
     1024
280
     0
281
     0
  0
CLASS
  1
AMDTSYSATTR
  2
AmdtSystemAttribute
  3
AcAttribServices
 90
     1024
280
     0
281
     0
  0
CLASS
  1
ACMTAPERSTANDARDISO
  2
AcmTaperStdISO
  3
"Amdt_StdImp|Product Description: AutoCAD Mechanical|Company: Autodesk, Inc."
 90
     1024
280
     0
281
     0
  0
CLASS
  1
ACMANOOTATIONVIEWSTANDARDISO
  2
AmdtAnViewStdISO
  3
"Amdt_StdImp|Product Description: AutoCAD Mechanical|Company: Autodesk, Inc."
 90
     1024
280
     0
281
     0
  0
CLASS
  1
ACMTAPERSTANDARDANSI
  2
AcmTaperStdANSI
  3
"Amdt_StdImp|Product Description: AutoCAD Mechanical|Company: Autodesk, Inc."
 90
     1024
280
     0
281
     0
  0
CLASS
  1
ACMANOOTATIONVIEWSTANDARDANSI
  2
AmdtAnViewStdANSI
  3
"Amdt_StdImp|Product Description: AutoCAD Mechanical|Company: Autodesk, Inc."
 90
     1024
280
     0
281
     0
  0
CLASS
  1
EXACXREFPANELOBJECT
  2
ExAcXREFPanelObject
  3
EXAC_ESW
 90
     1025
280
     0
281
     0
  0
CLASS
  1
NPOCOLLECTION
  2
AcDbImpNonPersistentObjectsCollection
  3
ObjectDBX Classes
 90
     1153
280
     0
281
     0
  0
CLASS
  1
CELLSTYLEMAP
  2
AcDbCellStyleMap
  3
ObjectDBX Classes
 90
     1152
280
     0
281
     0
  0
ENDSEC
  0
SECTION
  2
TABLES
  0
TABLE
  2
VPORT
  5
8
102
{ACAD_XDICTIONARY
360
444F
102
}
330
0
100
AcDbSymbolTable
 70
     1
  0
VPORT
  5
43A5
330
8
100
AcDbSymbolTableRecord
100
AcDbViewportTableRecord
  2
*Active
 70
     0
 10
0.0
 20
0.0
 11
1.0
 21
1.0
 12
806.0000037532304
 22
560.0000026077032
 13
0.0
 23
0.0
 14
10.0
 24
10.0
 15
40.0
 25
40.0
 16
0.0
 26
0.0
 36
1.0
 17
0.0
 27
0.0
 37
0.0
 40
1127.6024514785
 41
1.766554433221099
 42
50.0
 43
0.0
 44
0.0
 50
0.0
 51
0.0
 71
    16
 72
   100
 73
     1
 74
     3
 75
     0
 76
     0
 77
     0
 78
     0
281
     0
 65
     1
110
0.0
120
0.0
130
0.0
111
1.0
121
0.0
131
0.0
112
0.0
122
1.0
132
0.0
 79
     0
146
0.0
  0
ENDTAB
  0
TABLE
  2
LTYPE
  5
5
330
0
100
AcDbSymbolTable
 70
    20
  0
LTYPE
  5
14
330
5
100
AcDbSymbolTableRecord
100
AcDbLinetypeTableRecord
  2
ByBlock
 70
     0
  3

 72
    65
 73
     0
 40
0.0
  0
LTYPE
  5
15
330
5
100
AcDbSymbolTableRecord
100
AcDbLinetypeTableRecord
  2
ByLayer
 70
     0
  3

 72
    65
 73
     0
 40
0.0
  0
LTYPE
  5
16
330
5
100
AcDbSymbolTableRecord
100
AcDbLinetypeTableRecord
  2
Continuous
 70
     0
  3
Solid line
 72
    65
 73
     0
 40
0.0
  0
LTYPE
  5
6C
330
5
100
AcDbSymbolTableRecord
100
AcDbLinetypeTableRecord
  2
AM_ISO02W050
 70
     0
  3
__ __ __ __ __ __ __ __ __ __ __ __ __ __ __
 72
    65
 73
     2
 40
7.5
 49
6.0
 74
     0
 49
-1.5
 74
     0
  0
LTYPE
  5
6D
330
5
100
AcDbSymbolTableRecord
100
AcDbLinetypeTableRecord
  2
AM_ISO08W050
 70
     0
  3
____ . ____ . ____ . ____ . ____ . ____ . ____
 72
    65
 73
     4
 40
18.0
 49
12.0
 74
     0
 49
-1.5
 74
     0
 49
3.0
 74
     0
 49
-1.5
 74
     0
  0
LTYPE
  5
6E
330
5
100
AcDbSymbolTableRecord
100
AcDbLinetypeTableRecord
  2
AM_ISO09W050
 70
     0
  3
_____ . . _____ . . _____ . . ____ .. ____
 72
    65
 73
     6
 40
22.5
 49
12.0
 74
     0
 49
-1.5
 74
     0
 49
3.0
 74
     0
 49
-1.5
 74
     0
 49
3.0
 74
     0
 49
-1.5
 74
     0
  0
LTYPE
  5
6F
330
5
100
AcDbSymbolTableRecord
100
AcDbLinetypeTableRecord
  2
Amconstr
 70
     0
  3
_______________________
 72
    65
 73
     2
 40
9999.0
 49
9999.0
 74
     0
 49
0.0
 74
     0
  0
LTYPE
  5
70
330
5
100
AcDbSymbolTableRecord
100
AcDbLinetypeTableRecord
  2
AM_ISO08W050x2
 70
     0
  3
__ . __ . __ . __ . __ . __
 72
    65
 73
     4
 40
9.0
 49
6.0
 74
     0
 49
-0.75
 74
     0
 49
1.5
 74
     0
 49
-0.75
 74
     0
  0
LTYPE
  5
71
330
5
100
AcDbSymbolTableRecord
100
AcDbLinetypeTableRecord
  2
AM_ISO02W050x2
 70
     0
  3
 _ _ _ _ _ _ _ _ _ _ _ _
 72
    65
 73
     2
 40
3.75
 49
3.0
 74
     0
 49
-0.75
 74
     0
  0
LTYPE
  5
74
330
5
100
AcDbSymbolTableRecord
100
AcDbLinetypeTableRecord
  2
Amzigzag
 70
     0
  3
/\/-/\/-/\/-/\/-/\/-/\/
 72
    65
 73
     2
 40
11.0001
 49
0.0001
 74
     4
 75
   135
340
73
 46
0.04
 50
0.0
 44
0.0
 45
0.0
 49
-11.0
 74
     0
  0
LTYPE
  5
75
330
5
100
AcDbSymbolTableRecord
100
AcDbLinetypeTableRecord
  2
HIDDEN
 70
     0
  3
Hidden __ __ __ __ __ __ __ __ __ __ __ __ __ _
 72
    65
 73
     2
 40
0.375
 49
0.25
 74
     0
 49
-0.125
 74
     0
  0
LTYPE
  5
76
330
5
100
AcDbSymbolTableRecord
100
AcDbLinetypeTableRecord
  2
CENTER
 70
     0
  3
Center ____ _ ____ _ ____ _ ____ _ ____ _ ____
 72
    65
 73
     4
 40
2.0
 49
1.25
 74
     0
 49
-0.25
 74
     0
 49
0.25
 74
     0
 49
-0.25
 74
     0
  0
LTYPE
  5
77
330
5
100
AcDbSymbolTableRecord
100
AcDbLinetypeTableRecord
  2
PHANTOM2
 70
     0
  3
Phantom (.5x) ___ _ _ ___ _ _ ___ _ _ ___ _ _
 72
    65
 73
     6
 40
1.25
 49
0.625
 74
     0
 49
-0.125
 74
     0
 49
0.125
 74
     0
 49
-0.125
 74
     0
 49
0.125
 74
     0
 49
-0.125
 74
     0
  0
LTYPE
  5
78
330
5
100
AcDbSymbolTableRecord
100
AcDbLinetypeTableRecord
  2
CENTER2
 70
     0
  3
Center (.5x) ___ _ ___ _ ___ _ ___ _ ___ _ ___
 72
    65
 73
     4
 40
1.125
 49
0.75
 74
     0
 49
-0.125
 74
     0
 49
0.125
 74
     0
 49
-0.125
 74
     0
  0
LTYPE
  5
79
330
5
100
AcDbSymbolTableRecord
100
AcDbLinetypeTableRecord
  2
HIDDEN2
 70
     0
  3
Hidden (.5x) _ _ _ _ _ _ _ _ _ _ _ _ _ _ _ _ _
 72
    65
 73
     2
 40
0.1875
 49
0.125
 74
     0
 49
-0.0625
 74
     0
  0
LTYPE
  5
7A
330
5
100
AcDbSymbolTableRecord
100
AcDbLinetypeTableRecord
  2
Amzigzag2
 70
     0
  3
/\/-/\/-/\/-/\/-/\/-/\/
 72
    65
 73
     2
 40
0.4401
 49
0.0001
 74
     4
 75
   135
340
73
 46
0.0016
 50
0.0
 44
0.0
 45
0.0
 49
-0.4400000000000001
 74
     0
  0
LTYPE
  5
87
330
5
100
AcDbSymbolTableRecord
100
AcDbLinetypeTableRecord
  2
ACANSTGB
 70
     0
  3
__ . . __ . .
 72
    65
 73
     6
 40
0.35433070866
 49
0.15748031496
 74
     0
 49
-0.03937007874
 74
     0
 49
0.03937007874
 74
     0
 49
-0.03937007874
 74
     0
 49
0.03937007874
 74
     0
 49
-0.03937007874
 74
     0
  0
LTYPE
  5
88
330
5
100
AcDbSymbolTableRecord
100
AcDbLinetypeTableRecord
  2
ACANSTGL
 70
     0
  3
_ _ _ _ _
 72
    65
 73
     2
 40
0.11811023622
 49
0.07874015748
 74
     0
 49
-0.03937007874
 74
     0
  0
LTYPE
  5
1DE
330
5
100
AcDbSymbolTableRecord
100
AcDbLinetypeTableRecord
  2
ACISOWELD
 70
     0
  3
_ _ _ _ _
 72
    65
 73
     2
 40
2.0
 49
2.0
 74
     0
 49
-1.0
 74
     0
  0
LTYPE
  5
1DF
330
5
100
AcDbSymbolTableRecord
100
AcDbLinetypeTableRecord
  2
ACISOTGB
 70
     0
  3
__ . . __ . .
 72
    65
 73
     6
 40
9.0
 49
4.0
 74
     0
 49
-1.0
 74
     0
 49
1.0
 74
     0
 49
-1.0
 74
     0
 49
1.0
 74
     0
 49
-1.0
 74
     0
  0
LTYPE
  5
1E0
330
5
100
AcDbSymbolTableRecord
100
AcDbLinetypeTableRecord
  2
ACISOTGL
 70
     0
  3
_ _ _ _ _
 72
    65
 73
     2
 40
3.0
 49
2.0
 74
     0
 49
-1.0
 74
     0
  0
LTYPE
  5
201
330
5
100
AcDbSymbolTableRecord
100
AcDbLinetypeTableRecord
  2
gen7a
 70
     0
  3
__ . __ . __
 72
    65
 73
     4
 40
6.875
 49
4.75
 74
     0
 49
-0.875
 74
     0
 49
0.375
 74
     0
 49
-0.875
 74
     0
  0
ENDTAB
  0
TABLE
  2
LAYER
  5
2
102
{ACAD_XDICTIONARY
360
2C1
102
}
330
0
100
AcDbSymbolTable
 70
    11
  0
LAYER
  5
10
102
{ACAD_XDICTIONARY
360
4438
102
}
330
2
100
AcDbSymbolTableRecord
100
AcDbLayerTableRecord
  2
0
 70
     0
 62
     7
  6
Continuous
370
    -3
390
F
  0
LAYER
  5
1F0
102
{ACAD_XDICTIONARY
360
443A
102
}
330
2
100
AcDbSymbolTableRecord
100
AcDbLayerTableRecord
  2
AM_5
 70
     0
 62
     3
  6
Continuous
370
    25
390
F
  0
LAYER
  5
204
330
2
100
AcDbSymbolTableRecord
100
AcDbLayerTableRecord
  2
Defpoints
 70
     0
 62
     7
  6
Continuous
290
     0
370
    -3
390
F
  0
LAYER
  5
23E
102
{ACAD_XDICTIONARY
360
443C
102
}
330
2
100
AcDbSymbolTableRecord
100
AcDbLayerTableRecord
  2
7A
 70
     0
 62
     4
  6
gen7a
370
    -3
390
F
  0
LAYER
  5
23F
102
{ACAD_XDICTIONARY
360
443E
102
}
330
2
100
AcDbSymbolTableRecord
100
AcDbLayerTableRecord
  2
RAHM2
 70
     0
 62
     1
  6
Continuous
370
    -3
390
F
  0
LAYER
  5
2AD
102
{ACAD_XDICTIONARY
360
4440
102
}
330
2
100
AcDbSymbolTableRecord
100
AcDbLayerTableRecord
  2
ｴｸｽﾃﾝｼｮﾝﾌﾚｰﾑ
 70
     0
 62
     7
  6
Continuous
370
    25
390
F
  0
LAYER
  5
3A72
102
{ACAD_XDICTIONARY
360
4442
102
}
330
2
100
AcDbSymbolTableRecord
100
AcDbLayerTableRecord
  2
AM_12
 70
     0
 62
     7
  6
Continuous
290
     0
370
    50
390
F
  0
LAYER
  5
3A73
102
{ACAD_XDICTIONARY
360
4444
102
}
330
2
100
AcDbSymbolTableRecord
100
AcDbLayerTableRecord
  2
AM_PAREF
 70
     0
 62
     4
  6
Continuous
290
     0
370
    25
390
F
  0
LAYER
  5
3BDA
102
{ACAD_XDICTIONARY
360
4446
102
}
330
2
100
AcDbSymbolTableRecord
100
AcDbLayerTableRecord
  2
AM_8
 70
     0
 62
     1
  6
Continuous
370
    25
390
F
  0
LAYER
  5
3BE4
102
{ACAD_XDICTIONARY
360
4448
102
}
330
2
100
AcDbSymbolTableRecord
100
AcDbLayerTableRecord
  2
ｶﾞｽｹｯﾄ
 70
     0
 62
     5
  6
Continuous
370
    25
390
F
1001
AcAecLayerStandard
1000

1000

  0
LAYER
  5
433B
102
{ACAD_XDICTIONARY
360
444A
102
}
330
2
100
AcDbSymbolTableRecord
100
AcDbLayerTableRecord
  2
AM_CL
 70
     0
 62
     1
  6
Amconstr
370
    25
390
F
  0
ENDTAB
  0
TABLE
  2
STYLE
  5
3
330
0
100
AcDbSymbolTable
 70
     7
  0
STYLE
  5
11
330
3
100
AcDbSymbolTableRecord
100
AcDbTextStyleTableRecord
  2
STANDARD
 70
     0
 40
0.0
 41
1.0
 50
0.0
 71
     0
 42
0.2
  3
ISOCP.SHX
  4
EXTFONT.SHX
  0
STYLE
  5
73
330
3
100
AcDbSymbolTableRecord
100
AcDbTextStyleTableRecord
  2

 70
     1
 40
0.0
 41
1.0
 50
0.0
 71
     0
 42
0.2
  3
ltypeshp.shx
  4

  0
STYLE
  5
7B
330
3
100
AcDbSymbolTableRecord
100
AcDbTextStyleTableRecord
  2
ACANSTS
 70
     0
 40
1.0
 41
1.0
 50
0.0
 71
     0
 42
0.2
  3
isoct.shx
  4
extfont.shx
  0
STYLE
  5
86
330
3
100
AcDbSymbolTableRecord
100
AcDbTextStyleTableRecord
  2
ACANSGDT
 70
     0
 40
0.0
 41
1.0
 50
0.0
 71
     0
 42
0.2
  3
amgdtans.shx
  4

  0
STYLE
  5
1D0
330
3
100
AcDbSymbolTableRecord
100
AcDbTextStyleTableRecord
  2
ACISOTS
 70
     0
 40
1.0
 41
1.0
 50
0.0
 71
     0
 42
0.2
  3
isocp.shx
  4
extfont.shx
  0
STYLE
  5
1DD
330
3
100
AcDbSymbolTableRecord
100
AcDbTextStyleTableRecord
  2
ACISOGDT
 70
     0
 40
0.0
 41
1.0
 50
0.0
 71
     0
 42
0.2
  3
amgdt.shx
  4

  0
STYLE
  5
94C
330
3
100
AcDbSymbolTableRecord
100
AcDbTextStyleTableRecord
  2
takachi1
 70
     0
 40
2.5
 41
1.0
 50
0.0
 71
     0
 42
2.5
  3
MS PGothic.ttf
  4

1001
ACAD
1000
MS PGothic
1071
    32818
  0
ENDTAB
  0
TABLE
  2
VIEW
  5
6
330
0
100
AcDbSymbolTable
 70
     6
  0
VIEW
  5
2A6
330
6
100
AcDbSymbolTableRecord
100
AcDbViewTableRecord
  2
AM_VIEW1
 70
     0
 40
560.0000000000001
 10
447.0370370370371
 20
840.0000000000002
 41
894.0740740740743
 11
0.0
 21
0.0
 31
1.0
 12
0.0
 22
0.0
 32
0.0
 42
50.0
 43
0.0
 44
0.0
 50
0.0
 71
    16
281
     0
 72
     0
  0
VIEW
  5
2A7
330
6
100
AcDbSymbolTableRecord
100
AcDbViewTableRecord
  2
AM_VIEW2
 70
     0
 40
560.0000000000001
 10
1164.962962962962
 20
840.0000000000002
 41
894.0740740740743
 11
0.0
 21
0.0
 31
1.0
 12
0.0
 22
0.0
 32
0.0
 42
50.0
 43
0.0
 44
0.0
 50
0.0
 71
    16
281
     0
 72
     0
  0
VIEW
  5
2A8
330
6
100
AcDbSymbolTableRecord
100
AcDbViewTableRecord
  2
AM_VIEW3
 70
     0
 40
560.0000000000001
 10
447.0370370370371
 20
280.0000000000001
 41
894.0740740740743
 11
0.0
 21
0.0
 31
1.0
 12
0.0
 22
0.0
 32
0.0
 42
50.0
 43
0.0
 44
0.0
 50
0.0
 71
    16
281
     0
 72
     0
  0
VIEW
  5
2A9
330
6
100
AcDbSymbolTableRecord
100
AcDbViewTableRecord
  2
AM_VIEW4
 70
     0
 40
560.0000000000001
 10
1164.962962962962
 20
280.0000000000001
 41
894.0740740740743
 11
0.0
 21
0.0
 31
1.0
 12
0.0
 22
0.0
 32
0.0
 42
50.0
 43
0.0
 44
0.0
 50
0.0
 71
    16
281
     0
 72
     0
  0
VIEW
  5
2AA
330
6
100
AcDbSymbolTableRecord
100
AcDbViewTableRecord
  2
AM_VIEW5
 70
     0
 40
560.0000000000002
 10
806.0
 20
560.0000000000001
 41
894.0740740740743
 11
0.0
 21
0.0
 31
1.0
 12
0.0
 22
0.0
 32
0.0
 42
50.0
 43
0.0
 44
0.0
 50
0.0
 71
    16
281
     0
 72
     0
  0
VIEW
  5
2AB
330
6
100
AcDbSymbolTableRecord
100
AcDbViewTableRecord
  2
AM_VIEW6
 70
     0
 40
1119.9888
 10
806.0
 20
560.0000000000001
 41
1788.130266666667
 11
0.0
 21
0.0
 31
1.0
 12
0.0
 22
0.0
 32
0.0
 42
50.0
 43
0.0
 44
0.0
 50
0.0
 71
    16
281
     0
 72
     0
  0
ENDTAB
  0
TABLE
  2
UCS
  5
7
330
0
100
AcDbSymbolTable
 70
     0
  0
ENDTAB
  0
TABLE
  2
APPID
  5
9
330
0
100
AcDbSymbolTable
 70
    36
  0
APPID
  5
12
330
9
100
AcDbSymbolTableRecord
100
AcDbRegAppTableRecord
  2
ACAD
 70
     0
  0
APPID
  5
4E
330
9
100
AcDbSymbolTableRecord
100
AcDbRegAppTableRecord
  2
MCAD_NO_VIS
 70
     0
  0
APPID
  5
4F
330
9
100
AcDbSymbolTableRecord
100
AcDbRegAppTableRecord
  2
ACAD_TEMP_GRAPHIC
 70
     0
  0
APPID
  5
60
330
9
100
AcDbSymbolTableRecord
100
AcDbRegAppTableRecord
  2
ACATTRIBSERVICES
 70
     0
  0
APPID
  5
F7
330
9
100
AcDbSymbolTableRecord
100
AcDbRegAppTableRecord
  2
AD_DRAW
 70
     0
  0
APPID
  5
115
330
9
100
AcDbSymbolTableRecord
100
AcDbRegAppTableRecord
  2
DESIGNERASSEMBLIES
 70
     0
  0
APPID
  5
11A
330
9
100
AcDbSymbolTableRecord
100
AcDbRegAppTableRecord
  2
ACADM_DIM_EDIT
 70
     0
  0
APPID
  5
11B
330
9
100
AcDbSymbolTableRecord
100
AcDbRegAppTableRecord
  2
AMDT_DM_ADJ
 70
     0
  0
APPID
  5
20C
330
9
100
AcDbSymbolTableRecord
100
AcDbRegAppTableRecord
  2
GENIUS_GENREC_14
 70
     0
  0
APPID
  5
20D
330
9
100
AcDbSymbolTableRecord
100
AcDbRegAppTableRecord
  2
GENIUS_GENODEF_13
 70
     0
  0
APPID
  5
20E
330
9
100
AcDbSymbolTableRecord
100
AcDbRegAppTableRecord
  2
GENIUS_GENOBJ-N-REC_13
 70
     0
  0
APPID
  5
20F
330
9
100
AcDbSymbolTableRecord
100
AcDbRegAppTableRecord
  2
GENIUS_GENCFG_13
 70
     0
  0
APPID
  5
210
330
9
100
AcDbSymbolTableRecord
100
AcDbRegAppTableRecord
  2
GENIUS_GENCFG0_13
 70
     0
  0
APPID
  5
211
330
9
100
AcDbSymbolTableRecord
100
AcDbRegAppTableRecord
  2
GENIUS_GENCFG1_13
 70
     0
  0
APPID
  5
212
330
9
100
AcDbSymbolTableRecord
100
AcDbRegAppTableRecord
  2
GENIUS_GENCFG2_13
 70
     0
  0
APPID
  5
213
330
9
100
AcDbSymbolTableRecord
100
AcDbRegAppTableRecord
  2
GENIUS_GENCFG3_13
 70
     0
  0
APPID
  5
214
330
9
100
AcDbSymbolTableRecord
100
AcDbRegAppTableRecord
  2
GENIUS_GENCFG4_13
 70
     0
  0
APPID
  5
215
330
9
100
AcDbSymbolTableRecord
100
AcDbRegAppTableRecord
  2
GENIUS_GEVCFG0_13
 70
     0
  0
APPID
  5
216
330
9
100
AcDbSymbolTableRecord
100
AcDbRegAppTableRecord
  2
GENIUS_GENOENT_13
 70
     0
  0
APPID
  5
217
330
9
100
AcDbSymbolTableRecord
100
AcDbRegAppTableRecord
  2
GENIUS_GENDIMSH_14
 70
     0
  0
APPID
  5
218
330
9
100
AcDbSymbolTableRecord
100
AcDbRegAppTableRecord
  2
GENIUS_GENOBJ-N-CRS_13
 70
     0
  0
APPID
  5
219
330
9
100
AcDbSymbolTableRecord
100
AcDbRegAppTableRecord
  2
GENIUS_GENOREF_13
 70
     0
  0
APPID
  5
21A
330
9
100
AcDbSymbolTableRecord
100
AcDbRegAppTableRecord
  2
GENIUS_GENOLIS_13
 70
     0
  0
APPID
  5
21B
330
9
100
AcDbSymbolTableRecord
100
AcDbRegAppTableRecord
  2
GENIUS_GENOBJ-N-TIT_13
 70
     0
  0
APPID
  5
21C
330
9
100
AcDbSymbolTableRecord
100
AcDbRegAppTableRecord
  2
GENIUS_GENTITLE_13
 70
     0
  0
APPID
  5
21D
330
9
100
AcDbSymbolTableRecord
100
AcDbRegAppTableRecord
  2
GENIUS_GENSCREG_15
 70
     0
  0
APPID
  5
21E
330
9
100
AcDbSymbolTableRecord
100
AcDbRegAppTableRecord
  2
GENIUS_GENOBJ-N-SDF_13
 70
     0
  0
APPID
  5
21F
330
9
100
AcDbSymbolTableRecord
100
AcDbRegAppTableRecord
  2
GENIUS_GENOBJ-N-CEN_13
 70
     0
  0
APPID
  5
220
330
9
100
AcDbSymbolTableRecord
100
AcDbRegAppTableRecord
  2
GENIUS_GENOBJ-N-HTC_13
 70
     0
  0
APPID
  5
221
330
9
100
AcDbSymbolTableRecord
100
AcDbRegAppTableRecord
  2
GENIUS_GENHATCH_13
 70
     0
  0
APPID
  5
222
330
9
100
AcDbSymbolTableRecord
100
AcDbRegAppTableRecord
  2
GENIUS_GENOBJ-N-ZOO_13
 70
     0
  0
APPID
  5
223
330
9
100
AcDbSymbolTableRecord
100
AcDbRegAppTableRecord
  2
GENIUS_GENZOO_17
 70
     0
  0
APPID
  5
2273
330
9
100
AcDbSymbolTableRecord
100
AcDbRegAppTableRecord
  2
GENIUS_GENOBJ-N-FIL_13
 70
     0
  0
APPID
  5
2287
330
9
100
AcDbSymbolTableRecord
100
AcDbRegAppTableRecord
  2
GENIUS_GENCEN_19
 70
     0
  0
APPID
  5
3BE5
330
9
100
AcDbSymbolTableRecord
100
AcDbRegAppTableRecord
  2
AcAecLayerStandard
 70
     0
  0
APPID
  5
43E4
330
9
100
AcDbSymbolTableRecord
100
AcDbRegAppTableRecord
  2
ACAD_MLEADERVER
 70
     0
  0
ENDTAB
  0
TABLE
  2
DIMSTYLE
  5
A
330
0
100
AcDbSymbolTable
 70
    15
100
AcDbDimStyleTable
 71
     2
340
1E7
340
8C
  0
DIMSTYLE
105
27
330
A
100
AcDbSymbolTableRecord
100
AcDbDimStyleTableRecord
  2
Standard
 70
     0
340
11
  0
DIMSTYLE
105
8C
330
A
100
AcDbSymbolTableRecord
100
AcDbDimStyleTableRecord
  2
AM_ANSI
 70
     0
  4
mm
 41
0.1
 42
0.05
 43
0.5
 44
0.1
 47
0.1
 48
0.1
 78
     7
 79
     2
140
0.12
141
0.0
146
0.71
147
0.06
176
   256
177
   256
178
     2
274
     4
284
     7
340
11
371
    -1
372
    -1
  0
DIMSTYLE
105
8D
330
A
100
AcDbSymbolTableRecord
100
AcDbDimStyleTableRecord
  2
AM_ANSI$3
 70
     0
  4
mm
 41
0.1
 42
0.05
 43
0.5
 44
0.1
 47
0.1
 48
0.1
 78
     7
 79
     2
140
0.12
141
0.0
146
0.71
147
0.06
176
   256
177
   256
178
     2
274
     4
284
     7
288
     1
289
     0
340
11
371
    -1
372
    -1
  0
DIMSTYLE
105
8E
330
A
100
AcDbSymbolTableRecord
100
AcDbDimStyleTableRecord
  2
AM_ANSI$4
 70
     0
  4
mm
 41
0.1
 42
0.05
 43
0.5
 44
0.1
 47
0.1
 48
0.1
 78
     7
 79
     2
140
0.12
141
0.0
146
0.71
147
0.06
176
   256
177
   256
178
     2
274
     4
284
     7
288
     1
289
     0
340
11
371
    -1
372
    -1
  0
DIMSTYLE
105
8F
330
A
100
AcDbSymbolTableRecord
100
AcDbDimStyleTableRecord
  2
AM_ANSI$7
 70
     0
  4
mm
 41
0.1
 42
0.05
 43
0.5
 44
0.1
 47
0.1
 48
0.1
 78
     7
 79
     2
140
0.24
141
0.0
146
0.71
147
0.06
176
   256
177
   256
178
     2
274
     4
284
     7
340
11
371
    -1
372
    -1
  0
DIMSTYLE
105
90
330
A
100
AcDbSymbolTableRecord
100
AcDbDimStyleTableRecord
  2
AM_ANSI$SF
 70
     0
  4
mm
 41
0.1
 42
0.05
 43
0.5
 44
0.1
 47
0.1
 48
0.1
 75
     1
 76
     1
 78
     7
 79
     2
140
0.12
141
0.0
146
0.71
147
0.06
176
   256
177
   256
178
     2
274
     4
284
     7
340
11
371
    -1
372
    -1
  0
DIMSTYLE
105
95
330
A
100
AcDbSymbolTableRecord
100
AcDbDimStyleTableRecord
  2
AM_ANSI$SH
 70
     0
  4
mm
 41
0.1
 42
0.05
 43
0.5
 44
0.1
 47
0.1
 48
0.1
 75
     1
 76
     1
 78
     7
 79
     2
140
0.12
141
0.0
146
0.71
147
0.06
173
     1
176
   256
177
   256
178
     2
274
     4
284
     7
340
11
343
91
371
    -1
372
    -1
  0
DIMSTYLE
105
1E7
330
A
100
AcDbSymbolTableRecord
100
AcDbDimStyleTableRecord
  2
AM_ISO
 70
     0
  4
"
 41
2.5
 42
1.0
 43
10.0
 44
1.0
 47
0.1
 48
0.1
 73
     0
 74
     0
 77
     1
 78
     8
 79
     2
140
3.5
141
0.0
143
0.0393701
146
0.71
147
1.5
172
     1
176
     3
177
     3
178
     2
271
     2
272
     2
283
     0
284
     8
340
11
341
1F8
342
1F8
371
    -1
372
    -1
  0
DIMSTYLE
105
1E8
330
A
100
AcDbSymbolTableRecord
100
AcDbDimStyleTableRecord
  2
AM_ISO$3
 70
     0
  4
"
 41
2.5
 42
1.0
 43
10.0
 44
1.0
 47
0.1
 48
0.1
 73
     0
 77
     1
 78
     8
 79
     2
140
3.5
141
0.0
143
0.0393701
146
0.71
147
1.5
176
     3
177
     3
178
     2
271
     2
272
     2
283
     0
284
     8
288
     1
289
     0
340
11
341
1F8
342
1F8
371
    -1
372
    -1
  0
DIMSTYLE
105
1E9
330
A
100
AcDbSymbolTableRecord
100
AcDbDimStyleTableRecord
  2
AM_ISO$4
 70
     0
  4
"
 41
2.5
 42
1.0
 43
10.0
 44
1.0
 47
0.1
 48
0.1
 73
     0
 77
     1
 78
     8
 79
     2
140
3.5
141
0.0
143
0.0393701
146
0.71
147
1.5
176
     3
177
     3
178
     2
271
     2
272
     2
283
     0
284
     8
288
     1
289
     0
340
11
341
1F8
342
1F8
371
    -1
372
    -1
  0
DIMSTYLE
105
1EA
330
A
100
AcDbSymbolTableRecord
100
AcDbDimStyleTableRecord
  2
AM_ISO$6
 70
     0
  4
"
 41
2.5
 42
1.0
 43
10.0
 44
1.0
 47
0.1
 48
0.1
 73
     0
 74
     0
 78
     8
 79
     2
140
3.5
141
0.0
143
0.0393701
146
0.71
147
1.5
172
     1
176
     3
177
     3
178
     2
271
     2
272
     2
283
     0
284
     8
340
11
341
1F8
342
1F8
371
    -1
372
    -1
  0
DIMSTYLE
105
1EB
330
A
100
AcDbSymbolTableRecord
100
AcDbDimStyleTableRecord
  2
AM_ISO$7
 70
     0
  4
"
 41
2.5
 42
1.0
 43
10.0
 44
1.0
 47
0.1
 48
0.1
 73
     0
 74
     0
 77
     1
 78
     8
 79
     2
140
5.0
141
0.0
143
0.0393701
146
0.71
147
1.5
172
     1
176
     3
177
     3
178
     2
271
     2
272
     2
283
     0
284
     8
340
11
341
1F8
342
1F8
371
    -1
372
    -1
  0
DIMSTYLE
105
1EC
330
A
100
AcDbSymbolTableRecord
100
AcDbDimStyleTableRecord
  2
AM_ISO$SF
 70
     0
  4
"
 41
2.5
 42
1.0
 43
10.0
 44
1.0
 47
0.1
 48
0.1
 73
     0
 74
     0
 75
     1
 76
     1
 77
     1
 78
     8
 79
     2
140
3.5
141
0.0
143
0.0393701
146
0.71
147
1.5
172
     1
176
   256
177
   256
178
     2
271
     2
272
     3
274
     4
283
     0
284
     8
340
11
371
    -1
372
    -1
  0
DIMSTYLE
105
1ED
330
A
100
AcDbSymbolTableRecord
100
AcDbDimStyleTableRecord
  2
AM_ISO$SH
 70
     0
  4
"
 41
2.5
 42
1.0
 43
10.0
 44
1.0
 47
0.1
 48
0.1
 73
     0
 74
     0
 75
     1
 76
     1
 77
     1
 78
     8
 79
     2
140
3.5
141
0.0
143
0.0393701
144
2.0
146
0.71
147
1.5
172
     1
173
     1
176
   256
177
   256
178
     2
271
     2
272
     3
274
     4
283
     0
284
     8
340
11
343
91
371
    -1
372
    -1
  0
DIMSTYLE
105
2334
102
{ACAD_REACTORS
330
4290
330
3D55
330
42CA
102
}
330
A
100
AcDbSymbolTableRecord
100
AcDbDimStyleTableRecord
  2
AM_ISO$0
 70
     0
  4
"
 41
2.5
 42
1.0
 43
10.0
 44
1.0
 47
0.1
 48
0.1
 73
     0
 74
     0
 77
     1
 78
     8
 79
     2
140
3.5
141
0.0
143
0.0393701
146
0.71
147
1.5
172
     1
176
     3
177
     3
178
     2
271
     2
272
     2
283
     0
284
     8
340
11
341
1F8
342
1F8
371
    -1
372
    -1
  0
ENDTAB
  0
TABLE
  2
BLOCK_RECORD
  5
1
330
0
100
AcDbSymbolTable
 70
    14
  0
BLOCK_RECORD
  5
1F
102
{ACAD_XDICTIONARY
360
99
102
}
330
1
100
AcDbSymbolTableRecord
100
AcDbBlockTableRecord
  2
*Model_Space
340
22
  0
BLOCK_RECORD
  5
23
330
1
100
AcDbSymbolTableRecord
100
AcDbBlockTableRecord
  2
*Paper_Space
340
26
  0
BLOCK_RECORD
  5
1B
330
1
100
AcDbSymbolTableRecord
100
AcDbBlockTableRecord
  2
*Paper_Space0
340
1E
  0
BLOCK_RECORD
  5
91
330
1
100
AcDbSymbolTableRecord
100
AcDbBlockTableRecord
  2
GENAXEH
340
0
  0
BLOCK_RECORD
  5
1F8
330
1
100
AcDbSymbolTableRecord
100
AcDbBlockTableRecord
  2
_Open30
340
0
102
{BLKREFS
331
431D
331
431E
331
4326
331
4327
331
432F
331
4330
102
}
  0
BLOCK_RECORD
  5
AE9
102
{ACAD_XDICTIONARY
360
AF1
102
}
330
1
100
AcDbSymbolTableRecord
100
AcDbBlockTableRecord
  2
TK-A3
340
0
102
{BLKREFS
331
C54
102
}
  0
BLOCK_RECORD
  5
AFC
102
{ACAD_XDICTIONARY
360
B55
102
}
330
1
100
AcDbSymbolTableRecord
100
AcDbBlockTableRecord
  2
TK-TITLE
340
0
102
{BLKREFS
331
C56
102
}
  0
BLOCK_RECORD
  5
3D56
330
1
100
AcDbSymbolTableRecord
100
AcDbBlockTableRecord
  2
*D6
340
0
  0
BLOCK_RECORD
  5
4291
330
1
100
AcDbSymbolTableRecord
100
AcDbBlockTableRecord
  2
*D7
340
0
  0
BLOCK_RECORD
  5
42CB
330
1
100
AcDbSymbolTableRecord
100
AcDbBlockTableRecord
  2
*D8
340
0
  0
BLOCK_RECORD
  5
4579
330
1
100
AcDbSymbolTableRecord
100
AcDbBlockTableRecord
  2
*S9
340
0
  0
BLOCK_RECORD
  5
4580
330
1
100
AcDbSymbolTableRecord
100
AcDbBlockTableRecord
  2
*S10
340
0
  0
BLOCK_RECORD
  5
4588
330
1
100
AcDbSymbolTableRecord
100
AcDbBlockTableRecord
  2
*S11
340
0
  0
BLOCK_RECORD
  5
458F
330
1
100
AcDbSymbolTableRecord
100
AcDbBlockTableRecord
  2
*S12
340
0
  0
BLOCK_RECORD
  5
4596
330
1
100
AcDbSymbolTableRecord
100
AcDbBlockTableRecord
  2
*S13
340
0
  0
ENDTAB
  0
ENDSEC
  0
SECTION
  2
BLOCKS
  0
BLOCK
  5
20
330
1F
100
AcDbEntity
  8
0
100
AcDbBlockBegin
  2
*Model_Space
 70
     0
 10
0.0
 20
0.0
 30
0.0
  3
*Model_Space
  1

  0
ENDBLK
  5
21
330
1F
100
AcDbEntity
  8
0
100
AcDbBlockEnd
  0
BLOCK
  5
24
330
23
100
AcDbEntity
 67
     1
  8
0
100
AcDbBlockBegin
  2
*Paper_Space
 70
     0
 10
0.0
 20
0.0
 30
0.0
  3
*Paper_Space
  1

  0
ENDBLK
  5
25
330
23
100
AcDbEntity
 67
     1
  8
0
100
AcDbBlockEnd
  0
BLOCK
  5
1C
330
1B
100
AcDbEntity
 67
     1
  8
0
100
AcDbBlockBegin
  2
*Paper_Space0
 70
     0
 10
0.0
 20
0.0
 30
0.0
  3
*Paper_Space0
  1

  0
VIEWPORT
  5
182
102
{ACAD_XDICTIONARY
360
45D0
102
}
330
1B
100
AcDbEntity
 67
     1
  8
0
100
AcDbViewport
 10
5.249999639556163
 20
3.999999883606677
 30
0.0
 40
14.57585398793907
 41
8.992999745766947
 68
     0
 69
     0
 12
5.249999639556163
 22
3.999999883606677
 13
0.0
 23
0.0
 14
10.0
 24
10.0
 15
10.0
 25
10.0
 16
0.0
 26
0.0
 36
1.0
 17
0.0
 27
0.0
 37
0.0
 42
50.0
 43
0.0
 44
0.0
 45
8.992999745766947
 50
0.0
 51
0.0
 72
   100
 90
    32800
  1

281
     0
 71
     1
 74
     0
110
0.0
120
0.0
130
0.0
111
1.0
121
0.0
131
0.0
112
0.0
122
1.0
132
0.0
 79
     0
146
0.0
  0
ENDBLK
  5
1D
330
1B
100
AcDbEntity
 67
     1
  8
0
100
AcDbBlockEnd
  0
BLOCK
  5
93
330
91
100
AcDbEntity
  8
0
100
AcDbBlockBegin
  2
GENAXEH
 70
     0
 10
0.0
 20
0.0
 30
0.0
  3
GENAXEH
  1

  0
LINE
  5
92
330
91
100
AcDbEntity
  8
0
100
AcDbLine
 10
-1.0
 20
0.0
 30
0.0
 11
1.0
 21
0.0
 31
0.0
  0
ENDBLK
  5
94
330
91
100
AcDbEntity
  8
0
100
AcDbBlockEnd
  0
BLOCK
  5
1F9
330
1F8
100
AcDbEntity
  8
0
100
AcDbBlockBegin
  2
_Open30
 70
     0
 10
0.0
 20
0.0
 30
0.0
  3
_Open30
  1

  0
LINE
  5
1FA
330
1F8
100
AcDbEntity
  8
0
  6
ByBlock
 62
     0
370
    -2
100
AcDbLine
 10
-1.0
 20
0.26794919
 30
0.0
 11
0.0
 21
0.0
 31
0.0
  0
LINE
  5
1FB
330
1F8
100
AcDbEntity
  8
0
  6
ByBlock
 62
     0
370
    -2
100
AcDbLine
 10
0.0
 20
0.0
 30
0.0
 11
-1.0
 21
-0.26794919
 31
0.0
  0
LINE
  5
1FC
330
1F8
100
AcDbEntity
  8
0
  6
ByBlock
 62
     0
370
    -2
100
AcDbLine
 10
0.0
 20
0.0
 30
0.0
 11
-1.0
 21
0.0
 31
0.0
  0
ENDBLK
  5
1FD
330
1F8
100
AcDbEntity
  8
0
100
AcDbBlockEnd
  0
BLOCK
  5
AF2
330
AE9
100
AcDbEntity
  8
0
100
AcDbBlockBegin
  2
TK-A3
 70
     0
 10
0.0
 20
0.0
 30
0.0
  3
TK-A3
  1

  0
LINE
  5
AEA
330
AE9
100
AcDbEntity
  8
0
100
AcDbLine
 10
359.0
 20
280.0
 30
0.0
 11
359.0
 21
275.0
 31
0.0
  0
MTEXT
  5
AEB
330
AE9
100
AcDbEntity
  8
0
100
AcDbMText
 10
402.3592953827349
 20
276.108542987227
 30
0.0
 40
2.5
 41
43.07840397728298
 71
     9
 72
     5
  1
(文書番号：TY-34)2008.02.08
 73
     1
 44
1.0
1001
ACAD
1000
MTEXTBEGIN
1070
    73
1070
     1
1070
    44
1040
1.0
1070
    74
1070
     0
1000
MTEXTEND
  0
LINE
  5
AEC
330
AE9
100
AcDbEntity
  8
0
100
AcDbLine
 10
359.0
 20
275.0
 30
0.0
 11
403.0
 21
275.0
 31
0.0
  0
TEXT
  5
AED
330
AE9
100
AcDbEntity
  8
0
 60
     1
100
AcDbText
 10
403.0
 20
0.0
 30
0.0
 40
2.5
  1
!GENTITLE-INSERT
100
AcDbText
  0
TEXT
  5
AEE
330
AE9
100
AcDbEntity
  8
0
 60
     1
100
AcDbText
 10
0.0
 20
0.0
 30
0.0
 40
2.5
  1
!GENTITLE-LL
100
AcDbText
  0
TEXT
  5
AEF
330
AE9
100
AcDbEntity
  8
0
 60
     1
100
AcDbText
 10
403.0
 20
280.0
 30
0.0
 40
2.5
  1
!GENTITLE-MAX
100
AcDbText
  0
LWPOLYLINE
  5
AF0
330
AE9
100
AcDbEntity
  8
0
100
AcDbPolyline
 90
        4
 70
     1
 43
0.0
 10
0.0
 20
0.0
 10
403.0
 20
0.0
 10
403.0
 20
280.0
 10
0.0
 20
280.0000000000001
1001
GENIUS_GENREC_14
1002
{
1000
PYDIR
1011
0.0000000000000178
1021
280.0
1031
0.0
1002
}
1002
{
1000
PXDIR
1011
403.0
1021
0.0
1031
0.0
1002
}
1002
{
1000
PORI
1011
0.0
1021
0.0
1031
0.0
1002
}
1002
{
1000
PINS
1011
0.0
1021
0.0
1031
0.0
1002
}
1002
{
1000
PINS2
1011
403.0
1021
280.0
1031
0.0
1002
}
1002
{
1000
C
1070
     1
1002
}
1001
GENIUS_GENODEF_13
1002
{
1000
HIER
1070
     0
1002
}
1002
{
1000
MANEDIT
1070
     0
1002
}
1002
{
1000
NOSEL
1070
     0
1002
}
1002
{
1000
BEHIND
1070
     0
1002
}
1002
{
1000
OTHER
1070
     0
1002
}
1002
{
1000
REACTOR
1002
}
1001
GENIUS_GENOBJ-N-REC_13
1002
{
1000
OWNER
1000
GEN
1002
}
  0
ENDBLK
  5
AF3
330
AE9
100
AcDbEntity
  8
0
100
AcDbBlockEnd
  0
BLOCK
  5
B56
330
AFC
100
AcDbEntity
  8
0
100
AcDbBlockBegin
  2
TK-TITLE
 70
     2
 10
0.0
 20
0.0
 30
0.0
  3
TK-TITLE
  1

  0
LINE
  5
AFD
330
AFC
100
AcDbEntity
  8
0
100
AcDbLine
 10
-167.0
 20
12.49999999999996
 30
0.0
 11
-193.0000000000001
 21
12.49999999999996
 31
0.0
  0
LINE
  5
AFE
330
AFC
100
AcDbEntity
  8
0
100
AcDbLine
 10
-167.0
 20
37.49999999999998
 30
0.0
 11
-193.0000000000001
 21
37.49999999999998
 31
0.0
  0
ATTDEF
  5
AFF
330
AFC
100
AcDbEntity
  8
0
100
AcDbText
 10
-180.2171951662138
 20
3.588342537610664
 30
0.0
 40
3.0
  1

 72
     1
 11
-180.2171951662138
 21
3.588342537610664
 31
0.0
100
AcDbAttributeDefinition
  3
日付
  2
GEN-TITLE-DAT
 70
     0
 74
     1
  0
MTEXT
  5
B00
330
AFC
100
AcDbEntity
  8
RAHM2
100
AcDbMText
 10
-191.8002551371315
 20
11.3010354072796
 30
0.0
 40
2.5
 41
60.0
 71
     1
 72
     5
  1
日付
 73
     1
 44
1.0
1001
ACAD
1000
MTEXTBEGIN
1070
    73
1070
     1
1070
    44
1040
1.0
1070
    74
1070
     0
1000
MTEXTEND
  0
ATTDEF
  5
B01
330
AFC
100
AcDbEntity
  8
0
100
AcDbText
 10
-177.824739614424
 20
28.29999999999998
 30
0.0
 40
3.0
  1

 72
     2
 11
-177.824739614424
 21
28.29999999999998
 31
0.0
100
AcDbAttributeDefinition
  3
尺度
  2
GEN-TITLE-SCA
 70
     0
 74
     1
  0
MTEXT
  5
B02
330
AFC
100
AcDbEntity
  8
RAHM2
100
AcDbMText
 10
-191.8002551371315
 20
36.30103540727966
 30
0.0
 40
2.5
 41
20.0
 71
     1
 72
     5
  1
尺度
 73
     1
 44
1.0
1001
ACAD
1000
MTEXTBEGIN
1070
    73
1070
     1
1070
    44
1040
1.0
1070
    74
1070
     0
1000
MTEXTEND
  0
MTEXT
  5
B03
330
AFC
100
AcDbEntity
  8
RAHM2
100
AcDbMText
 10
-191.8002551371315
 20
23.80103540727963
 30
0.0
 40
2.5
 41
20.0
 71
     1
 72
     5
  1
数量
 73
     1
 44
1.0
1001
ACAD
1000
MTEXTBEGIN
1070
    73
1070
     1
1070
    44
1040
1.0
1070
    74
1070
     0
1000
MTEXTEND
  0
ATTDEF
  5
B04
330
AFC
100
AcDbEntity
  8
0
100
AcDbText
 10
-175.6127409126095
 20
15.79999999999994
 30
0.0
 40
3.0
  1

 72
     2
 11
-175.6127409126095
 21
15.79999999999994
 31
0.0
100
AcDbAttributeDefinition
  3
数量
  2
GEN-TITLE-QTY
 70
     0
 74
     1
  0
LINE
  5
B05
330
AFC
100
AcDbEntity
  8
0
100
AcDbLine
 10
-193.0000000000001
 20
49.99999999999999
 30
0.0
 11
-193.0000000000001
 21
-0.0000000000000142
 31
0.0
  0
LINE
  5
B06
330
AFC
100
AcDbEntity
  8
7A
100
AcDbLine
 10
-184.7167418745796
 20
43.74999999999995
 30
0.0
 11
-170.9354334742943
 21
43.74999999999995
 31
0.0
1001
GENIUS_GENOREF_13
1005
B54
  0
LINE
  5
B07
330
AFC
100
AcDbEntity
  8
0
100
AcDbLine
 10
-179.7167418745796
 20
45.74999999999994
 30
0.0
 11
-171.7167418745796
 21
46.74999999999995
 31
0.0
  0
LINE
  5
B08
330
AFC
100
AcDbEntity
  8
0
100
AcDbLine
 10
-171.7167418745796
 20
40.74999999999994
 30
0.0
 11
-179.7167418745796
 21
41.74999999999995
 31
0.0
  0
LINE
  5
B09
330
AFC
100
AcDbEntity
  8
7A
100
AcDbLine
 10
-184.7167418745796
 20
43.74999999999995
 30
0.0
 11
-184.7167418745796
 21
47.32478664473144
 31
0.0
1001
GENIUS_GENOREF_13
1005
B54
  0
CIRCLE
  5
B0A
330
AFC
100
AcDbEntity
  8
0
100
AcDbCircle
 10
-184.7167418745796
 20
43.74999999999995
 30
0.0
 40
2.0
  0
CIRCLE
  5
B0B
330
AFC
100
AcDbEntity
  8
0
100
AcDbCircle
 10
-184.7167418745796
 20
43.74999999999995
 30
0.0
 40
3.0
  0
LINE
  5
B0C
330
AFC
100
AcDbEntity
  8
0
100
AcDbLine
 10
-179.7167418745796
 20
41.74999999999995
 30
0.0
 11
-179.7167418745796
 21
45.74999999999994
 31
0.0
  0
LINE
  5
B0D
330
AFC
100
AcDbEntity
  8
7A
100
AcDbLine
 10
-184.7167418745796
 20
43.74999999999995
 30
0.0
 11
-188.4397792458307
 21
43.74999999999995
 31
0.0
1001
GENIUS_GENOREF_13
1005
B54
  0
LINE
  5
B0E
330
AFC
100
AcDbEntity
  8
7A
100
AcDbLine
 10
-184.7167418745796
 20
43.74999999999995
 30
0.0
 11
-184.7167418745796
 21
40.03991724228473
 31
0.0
1001
GENIUS_GENOREF_13
1005
B54
  0
LINE
  5
B0F
330
AFC
100
AcDbEntity
  8
0
100
AcDbLine
 10
-171.7167418745796
 20
46.74999999999995
 30
0.0
 11
-171.7167418745796
 21
40.74999999999994
 31
0.0
  0
LINE
  5
B10
330
AFC
100
AcDbEntity
  8
0
100
AcDbLine
 10
-167.0
 20
24.99999999999997
 30
0.0
 11
-193.0000000000001
 21
24.99999999999997
 31
0.0
  0
LINE
  5
B11
330
AFC
100
AcDbEntity
  8
0
100
AcDbLine
 10
-167.0
 20
39.99999999999991
 30
0.0
 11
-96.0
 21
39.99999999999992
 31
0.0
  0
MTEXT
  5
B12
330
AFC
100
AcDbEntity
  8
RAHM2
100
AcDbMText
 10
-165.8002551371314
 20
38.80103540727956
 30
0.0
 40
2.5
 41
60.0
 71
     1
 72
     5
  1
表面処理
 73
     1
 44
1.0
1001
ACAD
1000
MTEXTBEGIN
1070
    73
1070
     1
1070
    44
1040
1.0
1070
    74
1070
     0
1000
MTEXTEND
  0
MTEXT
  5
B13
330
AFC
100
AcDbEntity
  8
RAHM2
100
AcDbMText
 10
-165.8002551371314
 20
48.80103540727955
 30
0.0
 40
2.5
 41
60.0
 71
     1
 72
     5
  1
材質
 73
     1
 44
1.0
1001
ACAD
1000
MTEXTBEGIN
1070
    73
1070
     1
1070
    44
1040
1.0
1070
    74
1070
     0
1000
MTEXTEND
  0
ATTDEF
  5
B14
330
AFC
100
AcDbEntity
  8
0
100
AcDbText
 10
-148.9618675835291
 20
33.29999999999991
 30
0.0
 40
3.0
  1

100
AcDbAttributeDefinition
  3
表面処理
  2
GEN-TITLE-MAT2
 70
     0
  0
ATTDEF
  5
B15
330
AFC
100
AcDbEntity
  8
0
100
AcDbText
 10
-148.9618675835291
 20
43.29999999999991
 30
0.0
 40
3.0
  1

100
AcDbAttributeDefinition
  3
材質
  2
GEN-TITLE-MAT1
 70
     0
  0
MTEXT
  5
B16
330
AFC
100
AcDbEntity
  8
0
100
AcDbMText
 10
-131.5000000000001
 20
24.99999999999992
 30
0.0
 40
3.5
 41
60.0
 71
     5
 72
     5
  1
\fＭＳ ゴシック|b0|i0|c128|p49;株式会社タカチ電機工業
 73
     1
 44
1.0
1001
ACAD
1000
MTEXTBEGIN
1070
    73
1070
     1
1070
    44
1040
1.0
1070
    74
1070
     0
1000
MTEXTEND
  0
LINE
  5
B17
330
AFC
100
AcDbEntity
  8
0
100
AcDbLine
 10
-167.0
 20
29.99999999999992
 30
0.0
 11
-96.0
 21
29.99999999999992
 31
0.0
  0
MTEXT
  5
B18
330
AFC
100
AcDbEntity
  8
RAHM2
100
AcDbMText
 10
-158.1250000000001
 20
18.80103540727956
 30
0.0
 40
2.5
 41
17.0
 71
     2
 72
     5
  1
承認
 73
     1
 44
1.0
1001
ACAD
1000
MTEXTBEGIN
1070
    73
1070
     1
1070
    44
1040
1.0
1070
    74
1070
     0
1000
MTEXTEND
  0
MTEXT
  5
B19
330
AFC
100
AcDbEntity
  8
RAHM2
100
AcDbMText
 10
-140.3750000000001
 20
18.80103540727958
 30
0.0
 40
2.5
 41
17.0
 71
     2
 72
     5
  1
承認
 73
     1
 44
1.0
1001
ACAD
1000
MTEXTBEGIN
1070
    73
1070
     1
1070
    44
1040
1.0
1070
    74
1070
     0
1000
MTEXTEND
  0
LINE
  5
B1A
330
AFC
100
AcDbEntity
  8
0
100
AcDbLine
 10
-149.2500000000001
 20
19.99999999999993
 30
0.0
 11
-149.2500000000001
 21
-0.0000000000000462
 31
0.0
  0
LINE
  5
B1B
330
AFC
100
AcDbEntity
  8
0
100
AcDbLine
 10
-167.0
 20
49.99999999999995
 30
0.0
 11
-167.0
 21
-0.0000000000000497
 31
0.0
  0
MTEXT
  5
B1C
330
AFC
100
AcDbEntity
  8
RAHM2
100
AcDbMText
 10
-122.6250000000001
 20
18.80103540727958
 30
0.0
 40
2.5
 41
17.0
 71
     2
 72
     5
  1
検図
 73
     1
 44
1.0
1001
ACAD
1000
MTEXTBEGIN
1070
    73
1070
     1
1070
    44
1040
1.0
1070
    74
1070
     0
1000
MTEXTEND
  0
LINE
  5
B1D
330
AFC
100
AcDbEntity
  8
0
100
AcDbLine
 10
-131.5000000000001
 20
19.99999999999993
 30
0.0
 11
-131.5000000000001
 21
-0.0000000000000533
 31
0.0
  0
LINE
  5
B1E
330
AFC
100
AcDbEntity
  8
0
100
AcDbLine
 10
-113.75
 20
19.99999999999993
 30
0.0
 11
-113.75
 21
-0.0000000000000533
 31
0.0
  0
LINE
  5
B1F
330
AFC
100
AcDbEntity
  8
0
100
AcDbLine
 10
-167.0
 20
19.99999999999993
 30
0.0
 11
-96.0
 21
19.99999999999993
 31
0.0
  0
MTEXT
  5
B20
330
AFC
100
AcDbEntity
  8
RAHM2
100
AcDbMText
 10
-104.875
 20
18.80103540727957
 30
0.0
 40
2.5
 41
17.0
 71
     2
 72
     5
  1
製図
 73
     1
 44
1.0
1001
ACAD
1000
MTEXTBEGIN
1070
    73
1070
     1
1070
    44
1040
1.0
1070
    74
1070
     0
1000
MTEXTEND
  0
MTEXT
  5
B21
330
AFC
100
AcDbEntity
  8
RAHM2
100
AcDbMText
 10
-16.85742592933491
 20
3.434762466565985
 30
0.0
 40
2.5
 41
7.936478436748416
 71
     5
 72
     5
  1
Rev.
 73
     1
 44
1.0
1001
ACAD
1000
MTEXTBEGIN
1070
    73
1070
     1
1070
    44
1040
1.0
1070
    74
1070
     0
1000
MTEXTEND
  0
LINE
  5
B22
330
AFC
100
AcDbEntity
  8
0
100
AcDbLine
 10
-21.17541926625711
 20
0.0
 30
0.0
 11
-21.17541926625734
 21
7.0
 31
0.0
  0
LINE
  5
B23
330
AFC
100
AcDbEntity
  8
RAHM2
100
AcDbLine
 10
-96.0
 20
29.99999999999992
 30
0.0
 11
0.0000000000001137
 21
30.00000000000003
 31
0.0
  0
LINE
  5
B24
330
AFC
100
AcDbEntity
  8
RAHM2
100
AcDbLine
 10
-96.0
 20
35.00000000000003
 30
0.0
 11
0.0000000000001137
 21
35.00000000000003
 31
0.0
  0
LINE
  5
B25
330
AFC
100
AcDbEntity
  8
RAHM2
100
AcDbLine
 10
-96.0
 20
39.99999999999993
 30
0.0
 11
0.0000000000001137
 21
40.00000000000002
 31
0.0
  0
LINE
  5
B26
330
AFC
100
AcDbEntity
  8
RAHM2
100
AcDbLine
 10
-96.0
 20
45.00000000000002
 30
0.0
 11
0.0000000000001137
 21
45.00000000000002
 31
0.0
  0
LINE
  5
B27
330
AFC
100
AcDbEntity
  8
0
100
AcDbLine
 10
-96.0
 20
7.0
 30
0.0
 11
0.0000000000001137
 21
7.0
 31
0.0
  0
LINE
  5
B28
330
AFC
100
AcDbEntity
  8
0
100
AcDbLine
 10
-96.0
 20
19.99999999999997
 30
0.0
 11
0.0000000000001137
 21
19.99999999999997
 31
0.0
  0
MTEXT
  5
B29
330
AFC
100
AcDbEntity
  8
RAHM2
100
AcDbMText
 10
-94.80025513713144
 20
5.801035407279627
 30
0.0
 40
2.5
 41
90.0
 71
     1
 72
     5
  1
図番
 73
     1
 44
1.0
1001
ACAD
1000
MTEXTBEGIN
1070
    73
1070
     1
1070
    44
1040
1.0
1070
    74
1070
     0
1000
MTEXTEND
  0
LINE
  5
B2A
330
AFC
100
AcDbEntity
  8
RAHM2
100
AcDbLine
 10
-88.57512886940355
 20
30.40000000000002
 30
0.0
 11
-91.0
 21
34.60000000000001
 31
0.0
  0
LINE
  5
B2B
330
AFC
100
AcDbEntity
  8
RAHM2
100
AcDbLine
 10
-91.0
 20
34.60000000000001
 30
0.0
 11
-93.42487113059645
 21
30.40000000000002
 31
0.0
  0
LINE
  5
B2C
330
AFC
100
AcDbEntity
  8
RAHM2
100
AcDbLine
 10
-86.0
 20
50.00000000000001
 30
0.0
 11
-86.0
 21
19.99999999999993
 31
0.0
  0
LINE
  5
B2D
330
AFC
100
AcDbEntity
  8
RAHM2
100
AcDbLine
 10
-93.42487113059645
 20
30.40000000000002
 30
0.0
 11
-88.57512886940355
 21
30.40000000000002
 31
0.0
  0
MTEXT
  5
B2E
330
AFC
100
AcDbEntity
  8
RAHM2
100
AcDbMText
 10
-91.0
 20
22.49999999999996
 30
0.0
 40
2.5
 41
10.0
 71
     5
 72
     5
  1
符号
 73
     1
 44
1.0
1001
ACAD
1000
MTEXTBEGIN
1070
    73
1070
     1
1070
    44
1040
1.0
1070
    74
1070
     0
1000
MTEXTEND
  0
MTEXT
  5
B2F
330
AFC
100
AcDbEntity
  8
RAHM2
100
AcDbMText
 10
-94.80025513713144
 20
18.8010354072796
 30
0.0
 40
2.5
 41
90.0
 71
     1
 72
     5
  1
品名
 73
     1
 44
1.0
1001
ACAD
1000
MTEXTBEGIN
1070
    73
1070
     1
1070
    44
1040
1.0
1070
    74
1070
     0
1000
MTEXTEND
  0
LINE
  5
B30
330
AFC
100
AcDbEntity
  8
RAHM2
100
AcDbLine
 10
-93.42487113059645
 20
45.40000000000001
 30
0.0
 11
-88.57512886940355
 21
45.40000000000001
 31
0.0
  0
LINE
  5
B31
330
AFC
100
AcDbEntity
  8
RAHM2
100
AcDbLine
 10
-88.57512886940355
 20
45.40000000000001
 30
0.0
 11
-91.0
 21
49.6
 31
0.0
  0
LINE
  5
B32
330
AFC
100
AcDbEntity
  8
RAHM2
100
AcDbLine
 10
-93.42487113059645
 20
40.40000000000001
 30
0.0
 11
-88.57512886940355
 21
40.40000000000001
 31
0.0
  0
LINE
  5
B33
330
AFC
100
AcDbEntity
  8
RAHM2
100
AcDbLine
 10
-88.57512886940355
 20
40.40000000000001
 30
0.0
 11
-91.0
 21
44.6
 31
0.0
  0
LINE
  5
B34
330
AFC
100
AcDbEntity
  8
RAHM2
100
AcDbLine
 10
-93.42487113059645
 20
35.40000000000002
 30
0.0
 11
-88.57512886940355
 21
35.40000000000002
 31
0.0
  0
LINE
  5
B35
330
AFC
100
AcDbEntity
  8
RAHM2
100
AcDbLine
 10
-88.57512886940355
 20
35.40000000000002
 30
0.0
 11
-91.0
 21
39.60000000000001
 31
0.0
  0
LINE
  5
B36
330
AFC
100
AcDbEntity
  8
RAHM2
100
AcDbLine
 10
-91.0
 20
39.60000000000001
 30
0.0
 11
-93.42487113059645
 21
35.40000000000002
 31
0.0
  0
LINE
  5
B37
330
AFC
100
AcDbEntity
  8
RAHM2
100
AcDbLine
 10
-91.0
 20
44.6
 30
0.0
 11
-93.42487113059645
 21
40.40000000000001
 31
0.0
  0
LINE
  5
B38
330
AFC
100
AcDbEntity
  8
RAHM2
100
AcDbLine
 10
-91.0
 20
49.6
 30
0.0
 11
-93.42487113059645
 21
45.40000000000001
 31
0.0
  0
LINE
  5
B39
330
AFC
100
AcDbEntity
  8
RAHM2
100
AcDbLine
 10
-31.82081941068907
 20
50.00000000000003
 30
0.0
 11
-31.82081941068918
 21
19.99999999999994
 31
0.0
  0
MTEXT
  5
B3A
330
AFC
100
AcDbEntity
  8
RAHM2
100
AcDbMText
 10
-59.0
 20
22.49999999999996
 30
0.0
 40
2.5
 41
45.0
 71
     5
 72
     5
  1
変更記事
 73
     1
 44
1.0
1001
ACAD
1000
MTEXTBEGIN
1070
    73
1070
     1
1070
    44
1040
1.0
1070
    74
1070
     0
1000
MTEXTEND
  0
LINE
  5
B3B
330
AFC
100
AcDbEntity
  8
RAHM2
100
AcDbLine
 10
-11.82081941068907
 20
50.00000000000003
 30
0.0
 11
-11.82081941068907
 21
19.99999999999994
 31
0.0
  0
MTEXT
  5
B3C
330
AFC
100
AcDbEntity
  8
RAHM2
100
AcDbMText
 10
-22.27910888308327
 20
32.50000000000003
 30
0.0
 40
2.5
 41
20.0
 71
     5
 72
     5
  1
・  ・   
 73
     1
 44
1.0
1001
ACAD
1000
MTEXTBEGIN
1070
    73
1070
     1
1070
    44
1040
1.0
1070
    74
1070
     0
1000
MTEXTEND
  0
MTEXT
  5
B3D
330
AFC
100
AcDbEntity
  8
RAHM2
100
AcDbMText
 10
-21.55893921569111
 20
22.49999999999997
 30
0.0
 40
2.5
 41
20.0
 71
     5
 72
     5
  1
年・月・日
 73
     1
 44
1.0
1001
ACAD
1000
MTEXTBEGIN
1070
    73
1070
     1
1070
    44
1040
1.0
1070
    74
1070
     0
1000
MTEXTEND
  0
MTEXT
  5
B3E
330
AFC
100
AcDbEntity
  8
RAHM2
100
AcDbMText
 10
-5.910409705344477
 20
22.49999999999997
 30
0.0
 40
2.5
 41
15.0
 71
     5
 72
     5
  1
担当
 73
     1
 44
1.0
1001
ACAD
1000
MTEXTBEGIN
1070
    73
1070
     1
1070
    44
1040
1.0
1070
    74
1070
     0
1000
MTEXTEND
  0
MTEXT
  5
B3F
330
AFC
100
AcDbEntity
  8
RAHM2
100
AcDbMText
 10
-22.27910888308327
 20
42.50000000000002
 30
0.0
 40
2.5
 41
20.0
 71
     5
 72
     5
  1
・  ・   
 73
     1
 44
1.0
1001
ACAD
1000
MTEXTBEGIN
1070
    73
1070
     1
1070
    44
1040
1.0
1070
    74
1070
     0
1000
MTEXTEND
  0
MTEXT
  5
B40
330
AFC
100
AcDbEntity
  8
RAHM2
100
AcDbMText
 10
-22.27910888308327
 20
37.50000000000003
 30
0.0
 40
2.5
 41
20.0
 71
     5
 72
     5
  1
・  ・   
 73
     1
 44
1.0
1001
ACAD
1000
MTEXTBEGIN
1070
    73
1070
     1
1070
    44
1040
1.0
1070
    74
1070
     0
1000
MTEXTEND
  0
MTEXT
  5
B41
330
AFC
100
AcDbEntity
  8
RAHM2
100
AcDbMText
 10
-22.27910888308327
 20
47.50000000000002
 30
0.0
 40
2.5
 41
20.0
 71
     5
 72
     5
  1
・  ・   
 73
     1
 44
1.0
1001
ACAD
1000
MTEXTBEGIN
1070
    73
1070
     1
1070
    44
1040
1.0
1070
    74
1070
     0
1000
MTEXTEND
  0
LINE
  5
B42
330
AFC
100
AcDbEntity
  8
RAHM2
100
AcDbLine
 10
-91.0
 20
29.60000000000001
 30
0.0
 11
-93.42487113059645
 21
25.40000000000002
 31
0.0
  0
LINE
  5
B43
330
AFC
100
AcDbEntity
  8
RAHM2
100
AcDbLine
 10
-88.57512886940355
 20
25.40000000000002
 30
0.0
 11
-91.0
 21
29.60000000000001
 31
0.0
  0
LINE
  5
B44
330
AFC
100
AcDbEntity
  8
RAHM2
100
AcDbLine
 10
-93.42487113059645
 20
25.40000000000002
 30
0.0
 11
-88.57512886940355
 21
25.40000000000002
 31
0.0
  0
LINE
  5
B45
330
AFC
100
AcDbEntity
  8
RAHM2
100
AcDbLine
 10
-96.0
 20
25.0
 30
0.0
 11
0.0000000000001137
 21
25.00000000000003
 31
0.0
  0
MTEXT
  5
B46
330
AFC
100
AcDbEntity
  8
RAHM2
100
AcDbMText
 10
-22.27910888308327
 20
27.50000000000003
 30
0.0
 40
2.5
 41
20.0
 71
     5
 72
     5
  1
・  ・   
 73
     1
 44
1.0
1001
ACAD
1000
MTEXTBEGIN
1070
    73
1070
     1
1070
    44
1040
1.0
1070
    74
1070
     0
1000
MTEXTEND
  0
TEXT
  5
B47
330
AFC
100
AcDbEntity
  8
RAHM2
100
AcDbText
 10
-91.81558635658019
 20
25.65000000000002
 30
0.0
 40
2.5
  1
1
 72
     1
 11
-91.19058635658019
 21
25.65000000000002
 31
0.0
100
AcDbText
 73
     1
  0
TEXT
  5
B48
330
AFC
100
AcDbEntity
  8
RAHM2
100
AcDbText
 10
-91.91833169291339
 20
30.65000000000002
 30
0.0
 40
2.5
  1
2
 72
     1
 11
-91.0
 21
30.65000000000002
 31
0.0
100
AcDbText
 73
     1
  0
TEXT
  5
B49
330
AFC
100
AcDbEntity
  8
RAHM2
100
AcDbText
 10
-91.92677669529663
 20
35.64999999999999
 30
0.0
 40
2.5
  1
3
 72
     1
 11
-91.0
 21
35.64999999999999
 31
0.0
100
AcDbText
 73
     1
  0
TEXT
  5
B4A
330
AFC
100
AcDbEntity
  8
RAHM2
100
AcDbText
 10
-92.0
 20
40.65000000000002
 30
0.0
 40
2.5
  1
4
 72
     1
 11
-91.0
 21
40.65000000000002
 31
0.0
100
AcDbText
 73
     1
  0
TEXT
  5
B4B
330
AFC
100
AcDbEntity
  8
RAHM2
100
AcDbText
 10
-91.92677669529663
 20
45.65000000000002
 30
0.0
 40
2.5
  1
5
 72
     1
 11
-91.0
 21
45.65000000000002
 31
0.0
100
AcDbText
 73
     1
  0
LINE
  5
B4C
330
AFC
100
AcDbEntity
  8
0
100
AcDbLine
 10
-193.0000000000001
 20
0.0
 30
0.0
 11
0.0
 21
0.0
 31
0.0
1001
GENIUS_GENREC_14
1002
{
1000
PYDIR
1011
-184.0
1021
50.0
1031
0.0
1002
}
1002
{
1000
PXDIR
1011
0.0
1021
0.0
1031
0.0
1002
}
1002
{
1000
PORI
1011
-184.0
1021
0.0
1031
0.0
1002
}
1002
{
1000
PINS
1011
-100.5
1021
25.0
1031
0.0
1002
}
1002
{
1000
HVAL
1000
50
1002
}
1002
{
1000
H
1070
     2
1002
}
1002
{
1000
WVAL
1000
167
1002
}
1002
{
1000
W
1070
     2
1002
}
1002
{
1000
C
1070
     4
1002
}
1001
GENIUS_GENODEF_13
1002
{
1000
HIER
1070
     0
1002
}
1002
{
1000
MANEDIT
1070
     0
1002
}
1002
{
1000
NOSEL
1070
     0
1002
}
1002
{
1000
BEHIND
1070
     0
1002
}
1002
{
1000
REACTOR
1002
}
1001
GENIUS_GENOBJ-N-REC_13
1002
{
1000
OWNER
1000
GEN
1002
}
  0
LINE
  5
B4D
330
AFC
100
AcDbEntity
  8
0
100
AcDbLine
 10
0.0
 20
50.0
 30
0.0
 11
-193.0000000000001
 21
50.00000000000002
 31
0.0
1001
GENIUS_GENREC_14
1002
{
1000
PYDIR
1011
-184.0
1021
50.0
1031
0.0
1002
}
1002
{
1000
PXDIR
1011
0.0
1021
0.0
1031
0.0
1002
}
1002
{
1000
PORI
1011
-184.0
1021
0.0
1031
0.0
1002
}
1002
{
1000
PINS
1011
-100.5
1021
25.0
1031
0.0
1002
}
1002
{
1000
HVAL
1000
50
1002
}
1002
{
1000
H
1070
     2
1002
}
1002
{
1000
WVAL
1000
167
1002
}
1002
{
1000
W
1070
     2
1002
}
1002
{
1000
C
1070
     4
1002
}
1001
GENIUS_GENODEF_13
1002
{
1000
HIER
1070
     0
1002
}
1002
{
1000
MANEDIT
1070
     0
1002
}
1002
{
1000
NOSEL
1070
     0
1002
}
1002
{
1000
BEHIND
1070
     0
1002
}
1002
{
1000
REACTOR
1002
}
1001
GENIUS_GENOBJ-N-REC_13
1002
{
1000
OWNER
1000
GEN
1002
}
  0
LINE
  5
B4E
330
AFC
100
AcDbEntity
  8
0
100
AcDbLine
 10
-96.0
 20
50.00000000000001
 30
0.0
 11
-96.0
 21
-0.0000000000000142
 31
0.0
1001
GENIUS_GENREC_14
1002
{
1000
PYDIR
1011
-96.0
1021
49.99999999999999
1031
0.0
1002
}
1002
{
1000
PXDIR
1011
88.0
1021
-0.0000000000000142
1031
0.0
1002
}
1002
{
1000
PORI
1011
-96.0
1021
-0.0000000000000142
1031
0.0
1002
}
1002
{
1000
PINS
1011
-12.5
1021
24.99999999999999
1031
0.0
1002
}
1002
{
1000
HVAL
1000
50
1002
}
1002
{
1000
H
1070
     2
1002
}
1002
{
1000
WVAL
1000
167
1002
}
1002
{
1000
W
1070
     2
1002
}
1002
{
1000
C
1070
     4
1002
}
1001
GENIUS_GENODEF_13
1002
{
1000
HIER
1070
     0
1002
}
1002
{
1000
MANEDIT
1070
     0
1002
}
1002
{
1000
NOSEL
1070
     0
1002
}
1002
{
1000
BEHIND
1070
     0
1002
}
1002
{
1000
REACTOR
1002
}
1001
GENIUS_GENOBJ-N-REC_13
1002
{
1000
OWNER
1000
GEN
1002
}
  0
ATTDEF
  5
B4F
330
AFC
100
AcDbEntity
  8
0
100
AcDbText
 10
-84.0
 20
1.999999999999957
 30
0.0
 40
3.0
  1

100
AcDbAttributeDefinition
  3
図番
  2
GEN-TITLE-NR1
 70
     0
  0
ATTDEF
  5
B50
330
AFC
100
AcDbEntity
  8
0
100
AcDbText
 10
-84.0
 20
9.149999999999948
 30
0.0
 40
2.5
  1

100
AcDbAttributeDefinition
  3
サブタイトル
  2
GEN-TITLE-DES2
 70
     0
  0
LINE
  5
B51
330
AFC
100
AcDbEntity
  8
0
100
AcDbLine
 10
0.0
 20
0.0
 30
0.0
 11
0.0
 21
50.0
 31
0.0
1001
GENIUS_GENREC_14
1002
{
1000
PYDIR
1011
-414.0
1021
291.0
1031
0.0
1002
}
1002
{
1000
PXDIR
1011
6.0
1021
-6.0
1031
0.0
1002
}
1002
{
1000
PORI
1011
-414.0
1021
-6.0
1031
0.0
1002
}
1002
{
1000
PINS
1011
-414.0
1021
-6.0
1031
0.0
1002
}
1002
{
1000
HVAL
1000
297
1002
}
1002
{
1000
H
1070
     2
1002
}
1002
{
1000
WVAL
1000
420
1002
}
1002
{
1000
W
1070
     2
1002
}
1002
{
1000
C
1070
     1
1002
}
1001
GENIUS_GENODEF_13
1002
{
1000
HIER
1070
     0
1002
}
1002
{
1000
MANEDIT
1070
     0
1002
}
1002
{
1000
NOSEL
1070
     0
1002
}
1002
{
1000
BEHIND
1070
     0
1002
}
1002
{
1000
OTHER
1070
     0
1002
}
1002
{
1000
REACTOR
1002
}
1001
GENIUS_GENOBJ-N-REC_13
1002
{
1000
OWNER
1000
GEN
1002
}
  0
ATTDEF
  5
B52
330
AFC
100
AcDbEntity
  8
0
100
AcDbText
 10
-84.14251901585329
 20
12.82790432564377
 30
0.0
 40
3.5
  1

100
AcDbAttributeDefinition
  3
品名
  2
GEN-TITLE-DES1
 70
     0
  0
ATTDEF
  5
B53
330
AFC
100
AcDbEntity
  8
0
100
AcDbText
 10
-8.002309189545826
 20
1.705189434395036
 30
0.0
 40
2.5
  1

100
AcDbAttributeDefinition
  3
Rev.
  2
GEN-TITLE-NR2
 70
     0
  0
POINT
  5
B54
330
AFC
100
AcDbEntity
  8
0
 60
     1
100
AcDbPoint
 10
-418.5355579819675
 20
-138.1104841268254
 30
0.0
1001
GENIUS_GENODEF_13
1002
{
1000
HIER
1070
    10
1002
}
1002
{
1000
MANEDIT
1070
     0
1002
}
1002
{
1000
NOSEL
1070
     0
1002
}
1002
{
1000
BEHIND
1070
     0
1002
}
1002
{
1000
REACTOR
1002
}
1001
GENIUS_GENOBJ-N-CRS_13
1002
{
1000
OWNER
1000
GEN
1002
}
1001
GENIUS_GENOENT_13
1002
{
1000
MYREF
1005
B54
1002
}
1002
{
1000
GRP
1005
0
1002
}
1001
GENIUS_GENOLIS_13
1002
{
1000
ENT
1005
B0E
1005
B0D
1005
B09
1005
B06
1002
}
  0
ENDBLK
  5
B57
330
AFC
100
AcDbEntity
  8
0
100
AcDbBlockEnd
  0
BLOCK
  5
3D8E
330
3D56
100
AcDbEntity
  8
0
100
AcDbBlockBegin
  2
*D6
 70
     1
 10
0.0
 20
0.0
 30
0.0
  3
*D6
  1

  0
LINE
  5
432C
330
3D56
100
AcDbEntity
  8
AM_5
 62
     3
100
AcDbLine
 10
863.8611254539151
 20
872.2974384811649
 30
0.0
 11
863.8611254539151
 21
920.7974394911653
 31
0.0
  0
LINE
  5
432D
330
3D56
100
AcDbEntity
  8
AM_5
 62
     3
100
AcDbLine
 10
918.8611254539152
 20
872.3331691146972
 30
0.0
 11
918.8611254539152
 21
920.7974394911653
 31
0.0
  0
LINE
  5
432E
330
3D56
100
AcDbEntity
  8
AM_5
 62
     3
100
AcDbLine
 10
873.8611254539151
 20
916.7974394911652
 30
0.0
 11
908.8611254539152
 21
916.7974394911652
 31
0.0
  0
INSERT
  5
432F
330
3D56
100
AcDbEntity
  8
AM_5
 62
     3
100
AcDbBlockReference
  2
_Open30
 10
863.8611254539151
 20
916.7974394911652
 30
0.0
 41
10.0
 42
10.0
 43
10.0
 50
180.0
  0
INSERT
  5
4330
330
3D56
100
AcDbEntity
  8
AM_5
 62
     3
100
AcDbBlockReference
  2
_Open30
 10
918.8611254539152
 20
916.7974394911652
 30
0.0
 41
10.0
 42
10.0
 43
10.0
  0
MTEXT
  5
4331
330
3D56
100
AcDbEntity
  8
AM_5
 62
     2
100
AcDbMText
 10
891.3611254539151
 20
929.7974394911653
 30
0.0
 40
14.0
 41
0.0
 71
     5
 72
     1
  1
55
 73
     1
 44
1.0
1001
ACAD
1000
MTEXTBEGIN
1070
    73
1070
     1
1070
    44
1040
1.0
1070
    74
1070
     0
1000
MTEXTEND
  0
POINT
  5
4332
330
3D56
100
AcDbEntity
  8
Defpoints
 62
     0
100
AcDbPoint
 10
863.8611254539151
 20
868.297438481165
 30
0.0
  0
POINT
  5
4333
330
3D56
100
AcDbEntity
  8
Defpoints
 62
     0
100
AcDbPoint
 10
918.8611254539152
 20
868.3331691146973
 30
0.0
  0
POINT
  5
4334
330
3D56
100
AcDbEntity
  8
Defpoints
 62
     0
100
AcDbPoint
 10
918.8611254539152
 20
916.7974394911652
 30
0.0
  0
ENDBLK
  5
3D8F
330
3D56
100
AcDbEntity
  8
0
100
AcDbBlockEnd
  0
BLOCK
  5
42A7
330
4291
100
AcDbEntity
  8
0
100
AcDbBlockBegin
  2
*D7
 70
     1
 10
0.0
 20
0.0
 30
0.0
  3
*D7
  1

  0
LINE
  5
431A
330
4291
100
AcDbEntity
  8
AM_5
 62
     3
100
AcDbLine
 10
349.0363463744534
 20
868.7974384811656
 30
0.0
 11
291.0363453644533
 21
868.7974384811656
 31
0.0
  0
LINE
  5
431B
330
4291
100
AcDbEntity
  8
AM_5
 62
     3
100
AcDbLine
 10
349.0363463744533
 20
268.7974384811654
 30
0.0
 11
291.0363453644531
 21
268.7974384811654
 31
0.0
  0
LINE
  5
431C
330
4291
100
AcDbEntity
  8
AM_5
 62
     3
100
AcDbLine
 10
295.0363453644533
 20
858.7974384811657
 30
0.0
 11
295.0363453644532
 21
278.7974384811654
 31
0.0
  0
INSERT
  5
431D
330
4291
100
AcDbEntity
  8
AM_5
 62
     3
100
AcDbBlockReference
  2
_Open30
 10
295.0363453644533
 20
868.7974384811656
 30
0.0
 41
10.0
 42
10.0
 43
10.0
 50
90.0
  0
INSERT
  5
431E
330
4291
100
AcDbEntity
  8
AM_5
 62
     3
100
AcDbBlockReference
  2
_Open30
 10
295.0363453644532
 20
268.7974384811654
 30
0.0
 41
10.0
 42
10.0
 43
10.0
 50
270.0
  0
MTEXT
  5
431F
330
4291
100
AcDbEntity
  8
AM_5
 62
     2
100
AcDbMText
 10
282.0363453644532
 20
568.7974384811655
 30
0.0
 40
14.0
 41
0.0
 71
     5
 72
     1
  1
600
 11
0.0000000000000001
 21
1.0
 31
0.0
 73
     1
 44
1.0
1001
ACAD
1000
MTEXTBEGIN
1070
    73
1070
     1
1070
    44
1040
1.0
1070
    74
1070
     0
1000
MTEXTEND
  0
POINT
  5
4320
330
4291
100
AcDbEntity
  8
Defpoints
 62
     0
100
AcDbPoint
 10
353.0363463744534
 20
868.7974384811656
 30
0.0
  0
POINT
  5
4321
330
4291
100
AcDbEntity
  8
Defpoints
 62
     0
100
AcDbPoint
 10
353.0363463744533
 20
268.7974384811654
 30
0.0
  0
POINT
  5
4322
330
4291
100
AcDbEntity
  8
Defpoints
 62
     0
100
AcDbPoint
 10
295.0363453644532
 20
268.7974384811654
 30
0.0
  0
ENDBLK
  5
42A8
330
4291
100
AcDbEntity
  8
0
100
AcDbBlockEnd
  0
BLOCK
  5
42E1
330
42CB
100
AcDbEntity
  8
0
100
AcDbBlockBegin
  2
*D8
 70
     1
 10
0.0
 20
0.0
 30
0.0
  3
*D8
  1

  0
LINE
  5
4323
330
42CB
100
AcDbEntity
  8
AM_5
 62
     3
100
AcDbLine
 10
343.0363463744534
 20
862.7974384811654
 30
0.0
 11
343.0363463744534
 21
920.7974394911653
 31
0.0
  0
LINE
  5
4324
330
42CB
100
AcDbEntity
  8
AM_5
 62
     3
100
AcDbLine
 10
643.0363463744535
 20
862.7974384811652
 30
0.0
 11
643.0363463744535
 21
920.7974394911653
 31
0.0
  0
LINE
  5
4325
330
42CB
100
AcDbEntity
  8
AM_5
 62
     3
100
AcDbLine
 10
353.0363463744534
 20
916.7974394911652
 30
0.0
 11
633.0363463744536
 21
916.7974394911652
 31
0.0
  0
INSERT
  5
4326
330
42CB
100
AcDbEntity
  8
AM_5
 62
     3
100
AcDbBlockReference
  2
_Open30
 10
343.0363463744534
 20
916.7974394911652
 30
0.0
 41
10.0
 42
10.0
 43
10.0
 50
180.0
  0
INSERT
  5
4327
330
42CB
100
AcDbEntity
  8
AM_5
 62
     3
100
AcDbBlockReference
  2
_Open30
 10
643.0363463744535
 20
916.7974394911652
 30
0.0
 41
10.0
 42
10.0
 43
10.0
  0
MTEXT
  5
4328
330
42CB
100
AcDbEntity
  8
AM_5
 62
     2
100
AcDbMText
 10
493.0363463744535
 20
929.7974394911653
 30
0.0
 40
14.0
 41
0.0
 71
     5
 72
     1
  1
300
 73
     1
 44
1.0
1001
ACAD
1000
MTEXTBEGIN
1070
    73
1070
     1
1070
    44
1040
1.0
1070
    74
1070
     0
1000
MTEXTEND
  0
POINT
  5
4329
330
42CB
100
AcDbEntity
  8
Defpoints
 62
     0
100
AcDbPoint
 10
343.0363463744534
 20
858.7974384811653
 30
0.0
  0
POINT
  5
432A
330
42CB
100
AcDbEntity
  8
Defpoints
 62
     0
100
AcDbPoint
 10
643.0363463744535
 20
858.7974384811653
 30
0.0
  0
POINT
  5
432B
330
42CB
100
AcDbEntity
  8
Defpoints
 62
     0
100
AcDbPoint
 10
643.0363463744535
 20
916.7974394911652
 30
0.0
  0
ENDBLK
  5
42E2
330
42CB
100
AcDbEntity
  8
0
100
AcDbBlockEnd
  0
BLOCK
  5
457D
330
4579
100
AcDbEntity
  8
0
100
AcDbBlockBegin
  2
*S9
 70
     1
 10
0.0
 20
0.0
 30
0.0
  3
*S9
  1

  0
CIRCLE
  5
457A
330
4579
100
AcDbEntity
  8
AM_12
 62
     4
100
AcDbCircle
 10
891.2298769234281
 20
282.0663648182612
 30
0.0
 40
7.0
  0
LINE
  5
457B
330
4579
100
AcDbEntity
  8
AM_12
 62
     4
100
AcDbLine
 10
884.2298769234281
 20
275.0663648182611
 30
0.0
 11
898.2298769234279
 21
289.0663648182611
 31
0.0
  0
LINE
  5
457C
330
4579
100
AcDbEntity
  8
AM_12
 62
     4
100
AcDbLine
 10
884.2298769234281
 20
289.0663648182611
 30
0.0
 11
898.2298769234279
 21
275.0663648182611
 31
0.0
  0
ENDBLK
  5
457E
330
4579
100
AcDbEntity
  8
0
100
AcDbBlockEnd
  0
BLOCK
  5
4585
330
4580
100
AcDbEntity
  8
0
100
AcDbBlockBegin
  2
*S10
 70
     1
 10
0.0
 20
0.0
 30
0.0
  3
*S10
  1

  0
LINE
  5
4581
330
4580
100
AcDbEntity
  8
AM_5
 62
     3
100
AcDbLine
 10
962.5865554277996
 20
368.433559540673
 30
0.0
 11
900.1469499368766
 21
292.85922397943
 31
0.0
  0
TRACE
  5
4582
330
4580
100
AcDbEntity
  8
AM_5
  6
Continuous
 62
     3
100
AcDbTrace
 10
898.7260430785395
 20
294.0331789075818
 30
0.0
 11
901.5678567952138
 21
291.6852690512781
 31
0.0
 12
891.2298769234281
 22
282.0663648182612
 32
0.0
 13
891.2298769234281
 23
282.0663648182612
 33
0.0
  0
MTEXT
  5
4583
330
4580
100
AcDbEntity
  8
AM_5
 62
     7
100
AcDbMText
 10
978.1914332013348
 20
387.3210630727185
 30
0.0
 40
14.0
 41
0.0
 71
     5
 72
     5
  1
1
  7
ACISOTS
 73
     1
 44
1.0
1001
ACAD
1000
MTEXTBEGIN
1070
    73
1070
     1
1070
    44
1040
1.0
1070
    74
1070
     0
1000
MTEXTEND
  0
CIRCLE
  5
4584
330
4580
100
AcDbEntity
  8
AM_5
 62
     3
100
AcDbCircle
 10
978.1914332013348
 20
387.3210630727185
 30
0.0
 40
24.5
  0
ENDBLK
  5
4586
330
4580
100
AcDbEntity
  8
0
100
AcDbBlockEnd
  0
BLOCK
  5
458C
330
4588
100
AcDbEntity
  8
0
100
AcDbBlockBegin
  2
*S11
 70
     1
 10
0.0
 20
0.0
 30
0.0
  3
*S11
  1

  0
CIRCLE
  5
4589
330
4588
100
AcDbEntity
  8
AM_12
 62
     4
100
AcDbCircle
 10
1595.590795614507
 20
1033.362713999453
 30
0.0
 40
7.0
  0
LINE
  5
458A
330
4588
100
AcDbEntity
  8
AM_12
 62
     4
100
AcDbLine
 10
1588.590795614507
 20
1026.362713999454
 30
0.0
 11
1602.590795614507
 21
1040.362713999454
 31
0.0
  0
LINE
  5
458B
330
4588
100
AcDbEntity
  8
AM_12
 62
     4
100
AcDbLine
 10
1588.590795614507
 20
1040.362713999454
 30
0.0
 11
1602.590795614507
 21
1026.362713999454
 31
0.0
  0
ENDBLK
  5
458D
330
4588
100
AcDbEntity
  8
0
100
AcDbBlockEnd
  0
BLOCK
  5
4593
330
458F
100
AcDbEntity
  8
0
100
AcDbBlockBegin
  2
*S12
 70
     1
 10
0.0
 20
0.0
 30
0.0
  3
*S12
  1

  0
CIRCLE
  5
4590
330
458F
100
AcDbEntity
  8
AM_12
 62
     4
100
AcDbCircle
 10
1595.62912786735
 20
1008.97801933715
 30
0.0
 40
7.0
  0
LINE
  5
4591
330
458F
100
AcDbEntity
  8
AM_12
 62
     4
100
AcDbLine
 10
1588.62912786735
 20
1001.97801933715
 30
0.0
 11
1602.62912786735
 21
1015.97801933715
 31
0.0
  0
LINE
  5
4592
330
458F
100
AcDbEntity
  8
AM_12
 62
     4
100
AcDbLine
 10
1588.62912786735
 20
1015.97801933715
 30
0.0
 11
1602.62912786735
 21
1001.97801933715
 31
0.0
  0
ENDBLK
  5
4594
330
458F
100
AcDbEntity
  8
0
100
AcDbBlockEnd
  0
BLOCK
  5
45C4
330
4596
100
AcDbEntity
  8
0
100
AcDbBlockBegin
  2
*S13
 70
     1
 10
0.0
 20
0.0
 30
0.0
  3
*S13
  1

  0
LINE
  5
4597
330
4596
100
AcDbEntity
  8
0
 62
     1
100
AcDbLine
 10
792.0
 20
1045.9
 30
0.0
 11
1612.0
 21
1045.9
 31
0.0
  0
LINE
  5
4598
330
4596
100
AcDbEntity
  8
0
 62
     1
100
AcDbLine
 10
792.0
 20
1021.2
 30
0.0
 11
1612.0
 21
1021.2
 31
0.0
  0
MTEXT
  5
4599
330
4596
100
AcDbEntity
  8
0
 62
     2
100
AcDbMText
 10
822.0
 20
1065.2
 30
0.0
 40
14.0
 41
52.8
 71
     2
 72
     5
  1
1
  7
ACISOTS
 73
     1
 44
1.0
1001
ACAD
1000
MTEXTBEGIN
1070
    73
1070
     1
1070
    44
1040
1.0
1070
    74
1070
     0
1000
MTEXTEND
  0
LINE
  5
459A
330
4596
100
AcDbEntity
  8
0
 62
     1
100
AcDbLine
 10
852.0
 20
1070.6
 30
0.0
 11
852.0
 21
1045.9
 31
0.0
  0
MTEXT
  5
459B
330
4596
100
AcDbEntity
  8
0
 62
     2
100
AcDbMText
 10
855.6
 20
1065.2
 30
0.0
 40
14.0
 41
232.8
 71
     1
 72
     5
  1
エクステンションフレーム
  7
ACISOTS
 73
     1
 44
1.0
1001
ACAD
1000
MTEXTBEGIN
1070
    73
1070
     1
1070
    44
1040
1.0
1070
    74
1070
     0
1000
MTEXTEND
  0
LINE
  5
459C
330
4596
100
AcDbEntity
  8
0
 62
     1
100
AcDbLine
 10
1092.0
 20
1070.6
 30
0.0
 11
1092.0
 21
1045.9
 31
0.0
  0
MTEXT
  5
459D
330
4596
100
AcDbEntity
  8
0
 62
     2
100
AcDbMText
 10
1122.0
 20
1065.2
 30
0.0
 40
14.0
 41
52.8
 71
     2
 72
     5
  1
1
  7
ACISOTS
 73
     1
 44
1.0
1001
ACAD
1000
MTEXTBEGIN
1070
    73
1070
     1
1070
    44
1040
1.0
1070
    74
1070
     0
1000
MTEXTEND
  0
LINE
  5
459E
330
4596
100
AcDbEntity
  8
0
 62
     1
100
AcDbLine
 10
1152.0
 20
1070.6
 30
0.0
 11
1152.0
 21
1045.9
 31
0.0
  0
MTEXT
  5
459F
330
4596
100
AcDbEntity
  8
0
 62
     2
100
AcDbMText
 10
1155.6
 20
1065.2
 30
0.0
 40
14.0
 41
272.8
 71
     1
 72
     5
  1
ポリカーボネートグラスファイバー
  7
ACISOTS
 73
     1
 44
1.0
1001
ACAD
1000
MTEXTBEGIN
1070
    73
1070
     1
1070
    44
1040
1.0
1070
    74
1070
     0
1000
MTEXTEND
  0
LINE
  5
45A0
330
4596
100
AcDbEntity
  8
0
 62
     1
100
AcDbLine
 10
1432.0
 20
1070.6
 30
0.0
 11
1432.0
 21
1045.9
 31
0.0
  0
MTEXT
  5
45A1
330
4596
100
AcDbEntity
  8
0
 62
     2
100
AcDbMText
 10
1435.6
 20
1065.2
 30
0.0
 40
14.0
 41
172.8
 71
     1
 72
     5
  1
ホワイトグレー
  7
ACISOTS
 73
     1
 44
1.0
1001
ACAD
1000
MTEXTBEGIN
1070
    73
1070
     1
1070
    44
1040
1.0
1070
    74
1070
     0
1000
MTEXTEND
  0
MTEXT
  5
45A2
330
4596
100
AcDbEntity
  8
0
 62
     2
100
AcDbMText
 10
822.0
 20
1040.5
 30
0.0
 40
14.0
 41
52.8
 71
     2
 72
     5
  1
2
  7
ACISOTS
 73
     1
 44
1.0
1001
ACAD
1000
MTEXTBEGIN
1070
    73
1070
     1
1070
    44
1040
1.0
1070
    74
1070
     0
1000
MTEXTEND
  0
LINE
  5
45A3
330
4596
100
AcDbEntity
  8
0
 62
     1
100
AcDbLine
 10
852.0
 20
1045.9
 30
0.0
 11
852.0
 21
1021.2
 31
0.0
  0
MTEXT
  5
45A4
330
4596
100
AcDbEntity
  8
0
 62
     2
100
AcDbMText
 10
855.6
 20
1040.5
 30
0.0
 40
14.0
 41
232.8
 71
     1
 72
     5
  1
フレームスクリュー(専用)
  7
ACISOTS
 73
     1
 44
1.0
1001
ACAD
1000
MTEXTBEGIN
1070
    73
1070
     1
1070
    44
1040
1.0
1070
    74
1070
     0
1000
MTEXTEND
  0
LINE
  5
45A5
330
4596
100
AcDbEntity
  8
0
 62
     1
100
AcDbLine
 10
1092.0
 20
1045.9
 30
0.0
 11
1092.0
 21
1021.2
 31
0.0
  0
MTEXT
  5
45A6
330
4596
100
AcDbEntity
  8
0
 62
     2
100
AcDbMText
 10
1122.0
 20
1040.5
 30
0.0
 40
14.0
 41
52.8
 71
     2
 72
     5
  1
6
  7
ACISOTS
 73
     1
 44
1.0
1001
ACAD
1000
MTEXTBEGIN
1070
    73
1070
     1
1070
    44
1040
1.0
1070
    74
1070
     0
1000
MTEXTEND
  0
LINE
  5
45A7
330
4596
100
AcDbEntity
  8
0
 62
     1
100
AcDbLine
 10
1152.0
 20
1045.9
 30
0.0
 11
1152.0
 21
1021.2
 31
0.0
  0
MTEXT
  5
45A8
330
4596
100
AcDbEntity
  8
0
 62
     2
100
AcDbMText
 10
1155.6
 20
1040.5
 30
0.0
 40
14.0
 41
272.8
 71
     1
 72
     5
  1
-
  7
ACISOTS
 73
     1
 44
1.0
1001
ACAD
1000
MTEXTBEGIN
1070
    73
1070
     1
1070
    44
1040
1.0
1070
    74
1070
     0
1000
MTEXTEND
  0
LINE
  5
45A9
330
4596
100
AcDbEntity
  8
0
 62
     1
100
AcDbLine
 10
1432.0
 20
1045.9
 30
0.0
 11
1432.0
 21
1021.2
 31
0.0
  0
MTEXT
  5
45AA
330
4596
100
AcDbEntity
  8
0
 62
     2
100
AcDbMText
 10
1435.6
 20
1040.5
 30
0.0
 40
14.0
 41
172.8
 71
     1
 72
     5
  1
ブラック
  7
ACISOTS
 73
     1
 44
1.0
1001
ACAD
1000
MTEXTBEGIN
1070
    73
1070
     1
1070
    44
1040
1.0
1070
    74
1070
     0
1000
MTEXTEND
  0
MTEXT
  5
45AB
330
4596
100
AcDbEntity
  8
0
 62
     2
100
AcDbMText
 10
822.0
 20
1015.8
 30
0.0
 40
14.0
 41
52.8
 71
     2
 72
     5
  1
3
  7
ACISOTS
 73
     1
 44
1.0
1001
ACAD
1000
MTEXTBEGIN
1070
    73
1070
     1
1070
    44
1040
1.0
1070
    74
1070
     0
1000
MTEXTEND
  0
LINE
  5
45AC
330
4596
100
AcDbEntity
  8
0
 62
     1
100
AcDbLine
 10
852.0
 20
1021.2
 30
0.0
 11
852.0
 21
996.4999999999999
 31
0.0
  0
MTEXT
  5
45AD
330
4596
100
AcDbEntity
  8
0
 62
     2
100
AcDbMText
 10
855.6
 20
1015.8
 30
0.0
 40
14.0
 41
232.8
 71
     1
 72
     5
  1
スクリューヘッド(専用)
  7
ACISOTS
 73
     1
 44
1.0
1001
ACAD
1000
MTEXTBEGIN
1070
    73
1070
     1
1070
    44
1040
1.0
1070
    74
1070
     0
1000
MTEXTEND
  0
LINE
  5
45AE
330
4596
100
AcDbEntity
  8
0
 62
     1
100
AcDbLine
 10
1092.0
 20
1021.2
 30
0.0
 11
1092.0
 21
996.4999999999999
 31
0.0
  0
MTEXT
  5
45AF
330
4596
100
AcDbEntity
  8
0
 62
     2
100
AcDbMText
 10
1122.0
 20
1015.8
 30
0.0
 40
14.0
 41
52.8
 71
     2
 72
     5
  1
1
  7
ACISOTS
 73
     1
 44
1.0
1001
ACAD
1000
MTEXTBEGIN
1070
    73
1070
     1
1070
    44
1040
1.0
1070
    74
1070
     0
1000
MTEXTEND
  0
LINE
  5
45B0
330
4596
100
AcDbEntity
  8
0
 62
     1
100
AcDbLine
 10
1152.0
 20
1021.2
 30
0.0
 11
1152.0
 21
996.4999999999999
 31
0.0
  0
MTEXT
  5
45B1
330
4596
100
AcDbEntity
  8
0
 62
     2
100
AcDbMText
 10
1155.6
 20
1015.8
 30
0.0
 40
14.0
 41
272.8
 71
     1
 72
     5
  1
-
  7
ACISOTS
 73
     1
 44
1.0
1001
ACAD
1000
MTEXTBEGIN
1070
    73
1070
     1
1070
    44
1040
1.0
1070
    74
1070
     0
1000
MTEXTEND
  0
LINE
  5
45B2
330
4596
100
AcDbEntity
  8
0
 62
     1
100
AcDbLine
 10
1432.0
 20
1021.2
 30
0.0
 11
1432.0
 21
996.4999999999999
 31
0.0
  0
MTEXT
  5
45B3
330
4596
100
AcDbEntity
  8
0
 62
     2
100
AcDbMText
 10
1435.6
 20
1015.8
 30
0.0
 40
14.0
 41
172.8
 71
     1
 72
     5
  1
ホワイトグレー
  7
ACISOTS
 73
     1
 44
1.0
1001
ACAD
1000
MTEXTBEGIN
1070
    73
1070
     1
1070
    44
1040
1.0
1070
    74
1070
     0
1000
MTEXTEND
  0
LINE
  5
45B4
330
4596
100
AcDbEntity
  8
0
 62
     1
100
AcDbLine
 10
792.0
 20
1070.6
 30
0.0
 11
1612.0
 21
1070.6
 31
0.0
  0
MTEXT
  5
45B5
330
4596
100
AcDbEntity
  8
0
 62
     2
100
AcDbMText
 10
822.0
 20
1089.9
 30
0.0
 40
14.0
 41
52.8
 71
     2
 72
     5
  1
照番
  7
ACISOTS
 73
     1
 44
1.0
1001
ACAD
1000
MTEXTBEGIN
1070
    73
1070
     1
1070
    44
1040
1.0
1070
    74
1070
     0
1000
MTEXTEND
  0
LINE
  5
45B6
330
4596
100
AcDbEntity
  8
0
 62
     1
100
AcDbLine
 10
852.0
 20
1095.3
 30
0.0
 11
852.0
 21
1070.6
 31
0.0
  0
MTEXT
  5
45B7
330
4596
100
AcDbEntity
  8
0
 62
     2
100
AcDbMText
 10
972.0
 20
1089.9
 30
0.0
 40
14.0
 41
232.8
 71
     2
 72
     5
  1
名称
  7
ACISOTS
 73
     1
 44
1.0
1001
ACAD
1000
MTEXTBEGIN
1070
    73
1070
     1
1070
    44
1040
1.0
1070
    74
1070
     0
1000
MTEXTEND
  0
LINE
  5
45B8
330
4596
100
AcDbEntity
  8
0
 62
     1
100
AcDbLine
 10
1092.0
 20
1095.3
 30
0.0
 11
1092.0
 21
1070.6
 31
0.0
  0
MTEXT
  5
45B9
330
4596
100
AcDbEntity
  8
0
 62
     2
100
AcDbMText
 10
1122.0
 20
1089.9
 30
0.0
 40
14.0
 41
52.8
 71
     2
 72
     5
  1
数量
  7
ACISOTS
 73
     1
 44
1.0
1001
ACAD
1000
MTEXTBEGIN
1070
    73
1070
     1
1070
    44
1040
1.0
1070
    74
1070
     0
1000
MTEXTEND
  0
LINE
  5
45BA
330
4596
100
AcDbEntity
  8
0
 62
     1
100
AcDbLine
 10
1152.0
 20
1095.3
 30
0.0
 11
1152.0
 21
1070.6
 31
0.0
  0
MTEXT
  5
45BB
330
4596
100
AcDbEntity
  8
0
 62
     2
100
AcDbMText
 10
1292.0
 20
1089.9
 30
0.0
 40
14.0
 41
272.8
 71
     2
 72
     5
  1
材質
  7
ACISOTS
 73
     1
 44
1.0
1001
ACAD
1000
MTEXTBEGIN
1070
    73
1070
     1
1070
    44
1040
1.0
1070
    74
1070
     0
1000
MTEXTEND
  0
LINE
  5
45BC
330
4596
100
AcDbEntity
  8
0
 62
     1
100
AcDbLine
 10
1432.0
 20
1095.3
 30
0.0
 11
1432.0
 21
1070.6
 31
0.0
  0
MTEXT
  5
45BD
330
4596
100
AcDbEntity
  8
0
 62
     2
100
AcDbMText
 10
1522.0
 20
1089.9
 30
0.0
 40
14.0
 41
172.8
 71
     2
 72
     5
  1
色・表面処理
  7
ACISOTS
 73
     1
 44
1.0
1001
ACAD
1000
MTEXTBEGIN
1070
    73
1070
     1
1070
    44
1040
1.0
1070
    74
1070
     0
1000
MTEXTEND
  0
MTEXT
  5
45BE
330
4596
100
AcDbEntity
  8
0
 62
     2
100
AcDbMText
 10
1202.0
 20
1107.65
 30
0.0
 40
14.0
 41
0.0
 71
     5
 72
     5
  1
構成内容
  7
ACISOTS
 73
     1
 44
1.0
1001
ACAD
1000
MTEXTBEGIN
1070
    73
1070
     1
1070
    44
1040
1.0
1070
    74
1070
     0
1000
MTEXTEND
  0
LINE
  5
45BF
330
4596
100
AcDbEntity
  8
0
 62
     1
100
AcDbLine
 10
792.0
 20
1095.3
 30
0.0
 11
1612.0
 21
1095.3
 31
0.0
  0
LINE
  5
45C0
330
4596
100
AcDbEntity
  8
0
 62
     7
100
AcDbLine
 10
792.0
 20
1120.0
 30
0.0
 11
1612.0
 21
1120.0
 31
0.0
  0
LINE
  5
45C1
330
4596
100
AcDbEntity
  8
0
 62
     7
100
AcDbLine
 10
1612.0
 20
1120.0
 30
0.0
 11
1612.0
 21
996.4999999999999
 31
0.0
  0
LINE
  5
45C2
330
4596
100
AcDbEntity
  8
0
 62
     7
100
AcDbLine
 10
1612.0
 20
996.4999999999999
 30
0.0
 11
792.0
 21
996.4999999999999
 31
0.0
  0
LINE
  5
45C3
330
4596
100
AcDbEntity
  8
0
 62
     7
100
AcDbLine
 10
792.0
 20
996.4999999999999
 30
0.0
 11
792.0
 21
1120.0
 31
0.0
  0
ENDBLK
  5
45C5
330
4596
100
AcDbEntity
  8
0
100
AcDbBlockEnd
  0
ENDSEC
  0
SECTION
  2
ENTITIES
  0
INSERT
  5
C54
330
1F
100
AcDbEntity
  8
0
370
     0
100
AcDbBlockReference
  2
TK-A3
 10
0.0
 20
0.0
 30
0.0
 41
4.0
 42
4.0
 43
4.0
1001
GENIUS_GENOREF_13
1005
C61
1001
GENIUS_GENODEF_13
1002
{
1000
HIER
1070
     0
1002
}
1002
{
1000
MANEDIT
1070
     0
1002
}
1002
{
1000
NOSEL
1070
     0
1002
}
1002
{
1000
BEHIND
1070
     0
1002
}
1002
{
1000
OTHER
1070
     0
1002
}
1002
{
1000
REACTOR
1002
}
1001
GENIUS_GENOBJ-N-SDF_13
1002
{
1000
OWNER
1000
GEN
1002
}
1001
GENIUS_GENSCREG_15
1040
4.0
1040
1.0
1011
0.0
1021
0.0
1031
0.0
1011
1612.0
1021
1120.0
1031
0.0
1070
     3
  0
INSERT
  5
C56
330
1F
100
AcDbEntity
  8
0
370
     0
100
AcDbBlockReference
 66
     1
  2
TK-TITLE
 10
1612.0
 20
0.0
 30
0.0
 41
4.0
 42
4.0
 43
4.0
1001
GENIUS_GENOREF_13
1005
C61
  0
ATTRIB
  5
4251
330
C56
100
AcDbEntity
  8
0
100
AcDbText
 10
851.6835815398689
 20
14.35337015044266
 30
0.0
 40
12.0
  1
2008/10/31
 72
     1
 11
891.1312193351445
 21
14.35337015044266
 31
0.0
100
AcDbAttribute
  2
GEN-TITLE-DAT
 70
     0
 74
     1
  0
ATTRIB
  5
4252
330
C56
100
AcDbEntity
  8
0
100
AcDbText
 10
883.3010415423037
 20
113.1999999999999
 30
0.0
 40
12.0
  1
1:4
 72
     2
 11
900.7010415423037
 21
113.1999999999999
 31
0.0
100
AcDbAttribute
  2
GEN-TITLE-SCA
 70
     0
 74
     1
  0
ATTRIB
  5
4253
330
C56
100
AcDbEntity
  8
0
100
AcDbText
 10
909.5490363495619
 20
63.19999999999976
 30
0.0
 40
12.0
  1

 72
     2
 11
909.5490363495619
 21
63.19999999999976
 31
0.0
100
AcDbAttribute
  2
GEN-TITLE-QTY
 70
     0
 74
     1
  0
ATTRIB
  5
4254
330
C56
100
AcDbEntity
  8
0
100
AcDbText
 10
1016.152529665883
 20
133.1999999999996
 30
0.0
 40
12.0
  1

100
AcDbAttribute
  2
GEN-TITLE-MAT2
 70
     0
  0
ATTRIB
  5
4255
330
C56
100
AcDbEntity
  8
0
100
AcDbText
 10
1016.152529665883
 20
173.1999999999996
 30
0.0
 40
12.0
  1

100
AcDbAttribute
  2
GEN-TITLE-MAT1
 70
     0
  0
ATTRIB
  5
4256
330
C56
100
AcDbEntity
  8
0
100
AcDbText
 10
1276.0
 20
7.999999999999829
 30
0.0
 40
12.0
  1

100
AcDbAttribute
  2
GEN-TITLE-NR1
 70
     0
  0
ATTRIB
  5
4257
330
C56
100
AcDbEntity
  8
0
100
AcDbText
 10
1276.0
 20
36.5999999999998
 30
0.0
 40
10.0
  1
OPCE型エクステンションフレーム
100
AcDbAttribute
  2
GEN-TITLE-DES2
 70
     0
  0
ATTRIB
  5
4258
330
C56
100
AcDbEntity
  8
0
100
AcDbText
 10
1275.429923936587
 20
51.31161730257509
 30
0.0
 40
14.0
  1
OPCE3060
100
AcDbAttribute
  2
GEN-TITLE-DES1
 70
     0
  0
ATTRIB
  5
4259
330
C56
100
AcDbEntity
  8
0
100
AcDbText
 10
1579.990763241817
 20
6.820757737580144
 30
0.0
 40
10.0
  1

100
AcDbAttribute
  2
GEN-TITLE-NR2
 70
     0
  0
SEQEND
  5
4250
330
C56
100
AcDbEntity
  8
0
370
     0
  0
POINT
  5
C61
330
1F
100
AcDbEntity
  8
0
 60
     1
100
AcDbPoint
 10
0.0
 20
0.0
 30
0.0
1001
GENIUS_GENOENT_13
1002
{
1000
MYREF
1005
C61
1002
}
1002
{
1000
GRP
1005
0
1002
}
1001
GENIUS_GENOBJ-N-TIT_13
1002
{
1000
OWNER
1000
GEN
1002
}
1001
GENIUS_GENODEF_13
1002
{
1000
HIER
1070
     1
1002
}
1002
{
1000
MANEDIT
1070
     0
1002
}
1002
{
1000
NOSEL
1070
     0
1002
}
1002
{
1000
BEHIND
1070
     0
1002
}
1002
{
1000
OTHER
1070
     0
1002
}
1002
{
1000
REACTOR
1002
}
1001
GENIUS_GENOLIS_13
1002
{
1000
ENT
1005
C56
1005
C54
1005
424F
1002
}
1001
GENIUS_GENTITLE_13
1002
{
1000
BORDER
1000
TK-A3
1002
}
1002
{
1000
TITLE
1000
TK-TITLE
1002
}
1002
{
1000
SCALE
1000
1:4
1002
}
1002
{
1000
TITLESTD
1000
ISO
1002
}
1002
{
1000
HRA
1005
C54
1002
}
1002
{
1000
HTIT
1005
C56
1002
}
1002
{
1000
GENIUSID
1005
C61
1002
}
1002
{
1000
INVTXTID
1005
0
1002
}
1002
{
1000
UNCHG
1002
{
1000
GEN-TITLE-SIZ
1000
GEN-TITLE-SCA
1002
}
1002
}
  0
LINE
  5
16EE
330
1F
100
AcDbEntity
  8
ｴｸｽﾃﾝｼｮﾝﾌﾚｰﾑ
100
AcDbLine
 10
608.4863463744536
 20
868.7974384811655
 30
0.0
 11
377.5863463744534
 21
868.7974384811655
 31
0.0
  0
LINE
  5
16FC
330
1F
100
AcDbEntity
  8
ｴｸｽﾃﾝｼｮﾝﾌﾚｰﾑ
100
AcDbLine
 10
608.0518763744535
 20
865.4129684811655
 30
0.0
 11
378.0208163744533
 21
865.4129684811655
 31
0.0
  0
LINE
  5
1708
330
1F
100
AcDbEntity
  8
ｴｸｽﾃﾝｼｮﾝﾌﾚｰﾑ
100
AcDbLine
 10
377.9858963744533
 20
864.2129684811653
 30
0.0
 11
608.0867963744536
 21
864.2129684811655
 31
0.0
  0
LINE
  5
170B
330
1F
100
AcDbEntity
  8
ｴｸｽﾃﾝｼｮﾝﾌﾚｰﾑ
100
AcDbLine
 10
607.7076563744535
 20
860.9187584811655
 30
0.0
 11
378.3650363744533
 21
860.9187584811653
 31
0.0
  0
LINE
  5
1A7A
330
1F
100
AcDbEntity
  8
ｴｸｽﾃﾝｼｮﾝﾌﾚｰﾑ
100
AcDbLine
 10
373.4863463744533
 20
868.7974384811655
 30
0.0
 11
371.5863463744534
 21
868.7974384811655
 31
0.0
  0
LINE
  5
1A7B
330
1F
100
AcDbEntity
  8
ｴｸｽﾃﾝｼｮﾝﾌﾚｰﾑ
100
AcDbLine
 10
367.4863463744533
 20
868.7974384811655
 30
0.0
 11
353.0363463744534
 21
868.7974384811655
 31
0.0
  0
LINE
  5
1A85
330
1F
100
AcDbEntity
  8
ｴｸｽﾃﾝｼｮﾝﾌﾚｰﾑ
100
AcDbLine
 10
374.0207913744793
 20
865.8129684811653
 30
0.0
 11
362.4433763744534
 21
865.8129684811653
 31
0.0
  0
LINE
  5
1AA7
330
1F
100
AcDbEntity
  8
ｴｸｽﾃﾝｼｮﾝﾌﾚｰﾑ
100
AcDbLine
 10
377.3866170589601
 20
855.7225584645998
 30
0.0
 11
375.3653666160279
 21
856.99224396144
 31
0.0
  0
LINE
  5
1AAF
330
1F
100
AcDbEntity
  8
ｴｸｽﾃﾝｼｮﾝﾌﾚｰﾑ
100
AcDbLine
 10
357.1823263744533
 20
848.4037784811654
 30
0.0
 11
363.4299963744534
 21
854.6514384811654
 31
0.0
  0
LINE
  5
1AB1
330
1F
100
AcDbEntity
  8
ｴｸｽﾃﾝｼｮﾝﾌﾚｰﾑ
100
AcDbLine
 10
378.0650363744533
 20
858.1629684811654
 30
0.0
 11
378.0650363744533
 21
860.6187584811653
 31
0.0
  0
LINE
  5
1ACA
330
1F
100
AcDbEntity
  8
ｴｸｽﾃﾝｼｮﾝﾌﾚｰﾑ
100
AcDbLine
 10
374.317699028337
 20
855.3629942116586
 30
0.0
 11
376.2984640231472
 21
854.0392679416417
 31
0.0
  0
LINE
  5
1AD5
330
1F
100
AcDbEntity
  8
ｴｸｽﾃﾝｼｮﾝﾌﾚｰﾑ
100
AcDbLine
 10
364.2258263744533
 20
855.8129684811653
 30
0.0
 11
371.5208063744533
 21
855.8129684811653
 31
0.0
  0
LINE
  5
1AD6
330
1F
100
AcDbEntity
  8
ｴｸｽﾃﾝｼｮﾝﾌﾚｰﾑ
100
AcDbLine
 10
365.2684863744533
 20
855.4129684811654
 30
0.0
 11
371.5208063744533
 21
855.4129684811654
 31
0.0
  0
LINE
  5
1AD7
330
1F
100
AcDbEntity
  8
ｴｸｽﾃﾝｼｮﾝﾌﾚｰﾑ
100
AcDbLine
 10
371.5208063744533
 20
854.2478684811655
 30
0.0
 11
365.2684863744533
 21
854.2478684811655
 31
0.0
  0
LINE
  5
1AE5
330
1F
100
AcDbEntity
  8
ｴｸｽﾃﾝｼｮﾝﾌﾚｰﾑ
100
AcDbLine
 10
364.2538563744533
 20
853.8275984811654
 30
0.0
 11
358.0061863744532
 21
847.5799284811653
 31
0.0
  0
LINE
  5
1AED
330
1F
100
AcDbEntity
  8
ｴｸｽﾃﾝｼｮﾝﾌﾚｰﾑ
100
AcDbLine
 10
375.5858963744533
 20
861.8129684811654
 30
0.0
 11
375.5858963744533
 21
858.3129684811654
 31
0.0
  0
LINE
  5
1AF1
330
1F
100
AcDbEntity
  8
ｴｸｽﾃﾝｼｮﾝﾌﾚｰﾑ
100
AcDbLine
 10
368.2292763744533
 20
851.8687584811655
 30
0.0
 11
371.7708063744533
 21
851.8687584811655
 31
0.0
  0
LINE
  5
1AF3
330
1F
100
AcDbEntity
  8
ｴｸｽﾃﾝｼｮﾝﾌﾚｰﾑ
100
AcDbLine
 10
360.1976466404327
 20
846.6189384811654
 30
0.0
 11
365.2148463744534
 21
851.6361484811653
 31
0.0
  0
LINE
  5
1B01
330
1F
100
AcDbEntity
  8
ｴｸｽﾃﾝｼｮﾝﾌﾚｰﾑ
100
AcDbLine
 10
374.4208263744533
 20
858.3129684811654
 30
0.0
 11
374.4208263744533
 21
861.8129684811654
 31
0.0
  0
LINE
  5
1B02
330
1F
100
AcDbEntity
  8
ｴｸｽﾃﾝｼｮﾝﾌﾚｰﾑ
100
AcDbLine
 10
374.0208063744533
 20
858.3129684811654
 30
0.0
 11
374.0208063744533
 21
861.8129684811654
 31
0.0
  0
LINE
  5
1B03
330
1F
100
AcDbEntity
  8
ｴｸｽﾃﾝｼｮﾝﾌﾚｰﾑ
100
AcDbLine
 10
370.0292863744532
 20
850.0687484811654
 30
0.0
 11
371.8652263744533
 21
850.0687484811654
 31
0.0
  0
LINE
  5
1B1A
330
1F
100
AcDbEntity
  8
ｴｸｽﾃﾝｼｮﾝﾌﾚｰﾑ
100
AcDbLine
 10
371.8652263744533
 20
850.0687484811654
 30
0.0
 11
372.4980563744533
 21
849.4359284811654
 31
0.0
  0
LINE
  5
1B1D
330
1F
100
AcDbEntity
  8
ｴｸｽﾃﾝｼｮﾝﾌﾚｰﾑ
100
AcDbLine
 10
367.1119886564778
 20
852.9860461991409
 30
0.0
 11
370.0292863744532
 21
850.0687484811654
 31
0.0
  0
LINE
  5
1B2D
330
1F
100
AcDbEntity
  8
ｴｸｽﾃﾝｼｮﾝﾌﾚｰﾑ
100
AcDbLine
 10
369.6696163744533
 20
846.6075084811654
 30
0.0
 11
365.2148463744534
 21
851.0622784811655
 31
0.0
  0
LINE
  5
1B4D
330
1F
100
AcDbEntity
  8
ｴｸｽﾃﾝｼｮﾝﾌﾚｰﾑ
100
AcDbLine
 10
372.4980563744533
 20
849.4359284811654
 30
0.0
 11
369.6696163744533
 21
846.6075084811654
 31
0.0
  0
LINE
  5
1B7C
330
1F
100
AcDbEntity
  8
ｴｸｽﾃﾝｼｮﾝﾌﾚｰﾑ
100
AcDbLine
 10
365.2148463744534
 20
851.0622784811655
 30
0.0
 11
365.2148463744534
 21
854.2468755417868
 31
0.0
  0
ARC
  5
1C0C
330
1F
100
AcDbEntity
  8
ｴｸｽﾃﾝｼｮﾝﾌﾚｰﾑ
100
AcDbCircle
 10
371.7708063744533
 20
858.1629684811654
 30
0.0
 40
6.294209999999999
100
AcDbArc
 50
338.2298552169081
 51
0.0
  0
ARC
  5
1C0D
330
1F
100
AcDbEntity
  8
ｴｸｽﾃﾝｼｮﾝﾌﾚｰﾑ
100
AcDbCircle
 10
371.7708063744533
 20
858.1629684811654
 30
0.0
 40
6.294209999999999
100
AcDbArc
 50
269.999989999999
 51
315.966937440745
  0
ARC
  5
1C22
330
1F
100
AcDbEntity
  8
ｴｸｽﾃﾝｼｮﾝﾌﾚｰﾑ
100
AcDbCircle
 10
371.5208063744533
 20
858.3129684811654
 30
0.0
 40
2.5
100
AcDbArc
 50
269.999989999999
 51
0.0
  0
ARC
  5
1C23
330
1F
100
AcDbEntity
  8
ｴｸｽﾃﾝｼｮﾝﾌﾚｰﾑ
100
AcDbCircle
 10
364.2258263744533
 20
856.8129684811653
 30
0.0
 40
1.0
100
AcDbArc
 50
170.6875499999997
 51
270.0
  0
ARC
  5
1C24
330
1F
100
AcDbEntity
  8
ｴｸｽﾃﾝｼｮﾝﾌﾚｰﾑ
100
AcDbCircle
 10
353.3708263744533
 20
858.5929684811654
 30
0.0
 40
10.0
100
AcDbArc
 50
350.6875599999983
 51
34.4338499999979
  0
ARC
  5
1C25
330
1F
100
AcDbEntity
  8
ｴｸｽﾃﾝｼｮﾝﾌﾚｰﾑ
100
AcDbCircle
 10
362.4433763744534
 20
864.8129684811653
 30
0.0
 40
1.0
100
AcDbArc
 50
89.99998999999897
 51
214.4338600000021
  0
ARC
  5
1C32
330
1F
100
AcDbEntity
  8
ｴｸｽﾃﾝｼｮﾝﾌﾚｰﾑ
100
AcDbCircle
 10
365.2684863744533
 20
852.8129684811654
 30
0.0
 40
1.43491
100
AcDbArc
 50
89.99998999999897
 51
135.0
  0
ARC
  5
1C33
330
1F
100
AcDbEntity
  8
ｴｸｽﾃﾝｼｮﾝﾌﾚｰﾑ
100
AcDbCircle
 10
371.5208063744533
 20
858.3129684811654
 30
0.0
 40
4.06509
100
AcDbArc
 50
269.999989999999
 51
0.0
  0
ARC
  5
1C35
330
1F
100
AcDbEntity
  8
ｴｸｽﾃﾝｼｮﾝﾌﾚｰﾑ
100
AcDbCircle
 10
378.0208163744533
 20
861.8129684811654
 30
0.0
 40
3.6
100
AcDbArc
 50
89.99998999999897
 51
179.999989999999
  0
ARC
  5
1C36
330
1F
100
AcDbEntity
  8
ｴｸｽﾃﾝｼｮﾝﾌﾚｰﾑ
100
AcDbCircle
 10
371.5208063744533
 20
858.3129684811654
 30
0.0
 40
2.9
100
AcDbArc
 50
269.999989999999
 51
0.0
  0
ARC
  5
1C37
330
1F
100
AcDbEntity
  8
ｴｸｽﾃﾝｼｮﾝﾌﾚｰﾑ
100
AcDbCircle
 10
365.2684863744533
 20
852.8129684811654
 30
0.0
 40
2.6
100
AcDbArc
 50
89.99998999999897
 51
135.0
  0
LINE
  5
1E03
330
1F
100
AcDbEntity
  8
ｴｸｽﾃﾝｼｮﾝﾌﾚｰﾑ
100
AcDbLine
 10
636.9370039299269
 20
1045.336424526176
 30
0.0
 11
642.5720770057218
 21
1045.336424526176
 31
0.0
  0
LINE
  5
1E60
330
1F
100
AcDbEntity
  8
ｴｸｽﾃﾝｼｮﾝﾌﾚｰﾑ
100
AcDbLine
 10
642.53634637219
 20
990.3364245261764
 30
0.0
 11
640.0798023491206
 21
990.3364245261764
 31
0.0
  0
LINE
  5
1E67
330
1F
100
AcDbEntity
  8
ｴｸｽﾃﾝｼｮﾝﾌﾚｰﾑ
100
AcDbLine
 10
642.53634637219
 20
991.8364245261765
 30
0.0
 11
643.0363463721901
 21
992.1364245261763
 31
0.0
  0
LINE
  5
1E6D
330
1F
100
AcDbEntity
  8
ｴｸｽﾃﾝｼｮﾝﾌﾚｰﾑ
100
AcDbLine
 10
349.3497506698196
 20
1047.736424526176
 30
0.0
 11
636.7229420768239
 21
1047.736424526176
 31
0.0
  0
LINE
  5
1EBE
330
1F
100
AcDbEntity
  8
ｴｸｽﾃﾝｼｮﾝﾌﾚｰﾑ
100
AcDbLine
 10
346.4208163744532
 20
986.3364245261763
 30
0.0
 11
639.6518763721901
 21
986.3364245261763
 31
0.0
  0
LINE
  5
1F54
330
1F
100
AcDbEntity
  8
ｴｸｽﾃﾝｼｮﾝﾌﾚｰﾑ
100
AcDbLine
 10
366.0363463744533
 20
564.5400834811654
 30
0.0
 11
366.0363463744533
 21
573.0548034811654
 31
0.0
  0
LINE
  5
1F6C
330
1F
100
AcDbEntity
  8
ｴｸｽﾃﾝｼｮﾝﾌﾚｰﾑ
100
AcDbLine
 10
363.5563463744532
 20
564.7389034811655
 30
0.0
 11
363.5563463744532
 21
572.8559734811654
 31
0.0
  0
LINE
  5
1F70
330
1F
100
AcDbEntity
  8
ｴｸｽﾃﾝｼｮﾝﾌﾚｰﾑ
100
AcDbLine
 10
362.3912463744532
 20
565.0972434811653
 30
0.0
 11
362.3912463744532
 21
572.4976434811654
 31
0.0
  0
LINE
  5
1F93
330
1F
100
AcDbEntity
  8
ｴｸｽﾃﾝｼｮﾝﾌﾚｰﾑ
100
AcDbLine
 10
360.9394663744531
 20
579.3943234811655
 30
0.0
 11
365.1576663744531
 21
575.1761234811655
 31
0.0
  0
LINE
  5
1F94
330
1F
100
AcDbEntity
  8
ｴｸｽﾃﾝｼｮﾝﾌﾚｰﾑ
100
AcDbLine
 10
351.2150263744534
 20
603.3974434811653
 30
0.0
 11
353.7667863744533
 21
603.3974434811653
 31
0.0
  0
ARC
  5
1F95
330
1F
100
AcDbEntity
  8
ｴｸｽﾃﾝｼｮﾝﾌﾚｰﾑ
100
AcDbCircle
 10
353.7667863744532
 20
597.1034434811654
 30
0.0
 40
6.293999999999999
100
AcDbArc
 50
68.01399601074812
 51
89.99999999999998
  0
LINE
  5
1FB1
330
1F
100
AcDbEntity
  8
ｴｸｽﾃﾝｼｮﾝﾌﾚｰﾑ
100
AcDbLine
 10
357.9049895510983
 20
601.6022318831732
 30
0.0
 11
356.5960586614974
 21
599.6073043111256
 31
0.0
  0
LINE
  5
1FCD
330
1F
100
AcDbEntity
  8
ｴｸｽﾃﾝｼｮﾝﾌﾚｰﾑ
100
AcDbLine
 10
356.2334245260896
 20
602.6962408352972
 30
0.0
 11
354.9641760170508
 21
600.752126276913
 31
0.0
  0
ARC
  5
1FD0
330
1F
100
AcDbEntity
  8
ｴｸｽﾃﾝｼｮﾝﾌﾚｰﾑ
100
AcDbCircle
 10
358.0667663744531
 20
603.6734334811654
 30
0.0
 40
2.077509999999999
100
AcDbArc
 50
265.5338253106227
 51
208.0581375509453
  0
ARC
  5
1FD5
330
1F
100
AcDbEntity
  8
ｴｸｽﾃﾝｼｮﾝﾌﾚｰﾑ
100
AcDbCircle
 10
353.7667863744532
 20
597.1034434811654
 30
0.0
 40
6.293999999999999
100
AcDbArc
 50
0.0
 51
45.5774679019036
  0
LINE
  5
1FE3
330
1F
100
AcDbEntity
  8
ｴｸｽﾃﾝｼｮﾝﾌﾚｰﾑ
100
AcDbLine
 10
353.5167763744533
 20
601.0185334811654
 30
0.0
 11
350.0208163744534
 21
601.0185334811654
 31
0.0
  0
ARC
  5
1FE4
330
1F
100
AcDbEntity
  8
ｴｸｽﾃﾝｼｮﾝﾌﾚｰﾑ
100
AcDbCircle
 10
353.5167763744532
 20
596.9534434811654
 30
0.0
 40
4.06509
100
AcDbArc
 50
0.0
 51
90.00001000000098
  0
LINE
  5
1FE5
330
1F
100
AcDbEntity
  8
ｴｸｽﾃﾝｼｮﾝﾌﾚｰﾑ
100
AcDbLine
 10
357.5818763744532
 20
580.0730834811654
 30
0.0
 11
357.5818763744532
 21
596.9534434811654
 31
0.0
  0
LINE
  5
1FE7
330
1F
100
AcDbEntity
  8
ｴｸｽﾃﾝｼｮﾝﾌﾚｰﾑ
100
AcDbLine
 10
350.0208163744534
 20
599.8534434811654
 30
0.0
 11
353.5167763744533
 21
599.8534434811654
 31
0.0
  0
ARC
  5
1FE8
330
1F
100
AcDbEntity
  8
ｴｸｽﾃﾝｼｮﾝﾌﾚｰﾑ
100
AcDbCircle
 10
353.5167763744532
 20
596.9534434811654
 30
0.0
 40
2.9
100
AcDbArc
 50
0.0
 51
90.00001000000098
  0
LINE
  5
1FE9
330
1F
100
AcDbEntity
  8
ｴｸｽﾃﾝｼｮﾝﾌﾚｰﾑ
100
AcDbLine
 10
356.4167763744533
 20
596.9534434811654
 30
0.0
 11
356.4167763744532
 21
579.5037034811654
 31
0.0
  0
LINE
  5
1FEA
330
1F
100
AcDbEntity
  8
ｴｸｽﾃﾝｼｮﾝﾌﾚｰﾑ
100
AcDbLine
 10
360.0607863744533
 20
597.1034434811654
 30
0.0
 11
360.0607863744532
 21
581.5156434811654
 31
0.0
  0
LINE
  5
1FEC
330
1F
100
AcDbEntity
  8
ｴｸｽﾃﾝｼｮﾝﾌﾚｰﾑ
100
AcDbLine
 10
346.0363463744535
 20
599.9530236750376
 30
0.0
 11
346.0363463744533
 21
577.6678534811654
 31
0.0
  0
ARC
  5
1FED
330
1F
100
AcDbEntity
  8
ｴｸｽﾃﾝｼｮﾝﾌﾚｰﾑ
100
AcDbCircle
 10
363.0363463744533
 20
573.0548034811654
 30
0.0
 40
3.0
100
AcDbArc
 50
0.0
 51
44.99999999999999
  0
ARC
  5
1FEE
330
1F
100
AcDbEntity
  8
ｴｸｽﾃﾝｼｮﾝﾌﾚｰﾑ
100
AcDbCircle
 10
363.0607863744532
 20
581.5156434811654
 30
0.0
 40
3.0
100
AcDbArc
 50
180.0
 51
225.0
  0
ARC
  5
1FFE
330
1F
100
AcDbEntity
  8
ｴｸｽﾃﾝｼｮﾝﾌﾚｰﾑ
100
AcDbCircle
 10
347.0363463744533
 20
577.6678534811654
 30
0.0
 40
1.0
100
AcDbArc
 50
180.0
 51
305.5311500000009
  0
ARC
  5
1FFF
330
1F
100
AcDbEntity
  8
ｴｸｽﾃﾝｼｮﾝﾌﾚｰﾑ
100
AcDbCircle
 10
353.3708263744531
 20
568.7974434811653
 30
0.0
 40
9.9
100
AcDbArc
 50
79.18131999999959
 51
125.5311500000009
  0
ARC
  5
2000
330
1F
100
AcDbEntity
  8
ｴｸｽﾃﾝｼｮﾝﾌﾚｰﾑ
100
AcDbCircle
 10
355.4167763744532
 20
579.5037034811654
 30
0.0
 40
1.0
100
AcDbArc
 50
259.1813199999996
 51
0.0
  0
LINE
  5
2001
330
1F
100
AcDbEntity
  8
ｴｸｽﾃﾝｼｮﾝﾌﾚｰﾑ
100
AcDbLine
 10
358.1676663744531
 20
578.6588734811654
 30
0.0
 11
363.2634463744532
 21
573.5630834811654
 31
0.0
  0
ARC
  5
2002
330
1F
100
AcDbEntity
  8
ｴｸｽﾃﾝｼｮﾝﾌﾚｰﾑ
100
AcDbCircle
 10
362.5563463744533
 20
572.8559734811654
 30
0.0
 40
1.0
100
AcDbArc
 50
0.0
 51
44.99999999999999
  0
ARC
  5
2003
330
1F
100
AcDbEntity
  8
ｴｸｽﾃﾝｼｮﾝﾌﾚｰﾑ
100
AcDbCircle
 10
359.5818763744532
 20
580.0730834811654
 30
0.0
 40
2.0
100
AcDbArc
 50
180.0
 51
225.0
  0
LINE
  5
2004
330
1F
100
AcDbEntity
  8
ｴｸｽﾃﾝｼｮﾝﾌﾚｰﾑ
100
AcDbLine
 10
357.0025563744532
 20
578.1762734811654
 30
0.0
 11
362.1862163744531
 21
572.9926134811655
 31
0.0
  0
ARC
  5
2005
330
1F
100
AcDbEntity
  8
ｴｸｽﾃﾝｼｮﾝﾌﾚｰﾑ
100
AcDbCircle
 10
361.6912463744533
 20
572.4976434811654
 30
0.0
 40
0.7
100
AcDbArc
 50
0.0
 51
44.99999999999999
  0
ARC
  5
2006
330
1F
100
AcDbEntity
  8
ｴｸｽﾃﾝｼｮﾝﾌﾚｰﾑ
100
AcDbCircle
 10
358.4167763744532
 20
579.5904834811655
 30
0.0
 40
2.0
100
AcDbArc
 50
180.0
 51
225.0
  0
LINE
  5
27A3
330
1F
100
AcDbEntity
  8
ｴｸｽﾃﾝｼｮﾝﾌﾚｰﾑ
100
AcDbLine
 10
367.1119886564778
 20
852.9860461991409
 30
0.0
 11
367.1114964889503
 21
854.2478684811655
 31
0.0
  0
CIRCLE
  5
27A8
330
1F
100
AcDbEntity
  8
ｴｸｽﾃﾝｼｮﾝﾌﾚｰﾑ
100
AcDbCircle
 10
378.3708163744533
 20
853.8929684811654
 30
0.0
 40
2.077509999999989
  0
ARC
  5
27DA
330
1F
100
AcDbEntity
  8
ｴｸｽﾃﾝｼｮﾝﾌﾚｰﾑ
100
AcDbCircle
 10
378.3650363744533
 20
860.6187584811653
 30
0.0
 40
0.3
100
AcDbArc
 50
89.99999999999998
 51
180.0
1001
GENIUS_GENODEF_13
1002
{
1000
HIER
1070
     0
1002
}
1002
{
1000
MANEDIT
1070
     0
1002
}
1002
{
1000
NOSEL
1070
     0
1002
}
1002
{
1000
BEHIND
1070
     0
1002
}
1002
{
1000
OTHER
1070
     0
1002
}
1002
{
1000
REACTOR
1002
}
1001
GENIUS_GENOBJ-N-FIL_13
1002
{
1000
OWNER
1000
GEN
1002
}
  0
ARC
  5
2806
330
1F
100
AcDbEntity
  8
ｴｸｽﾃﾝｼｮﾝﾌﾚｰﾑ
100
AcDbCircle
 10
377.9858963744533
 20
861.8129684811654
 30
0.0
 40
2.399999999999999
100
AcDbArc
 50
89.99999999999998
 51
180.0
1001
GENIUS_GENODEF_13
1002
{
1000
HIER
1070
     0
1002
}
1002
{
1000
MANEDIT
1070
     0
1002
}
1002
{
1000
NOSEL
1070
     0
1002
}
1002
{
1000
BEHIND
1070
     0
1002
}
1002
{
1000
OTHER
1070
     0
1002
}
1002
{
1000
REACTOR
1002
}
1001
GENIUS_GENOBJ-N-FIL_13
1002
{
1000
OWNER
1000
GEN
1002
}
  0
ARC
  5
2841
330
1F
100
AcDbEntity
  8
ｴｸｽﾃﾝｼｮﾝﾌﾚｰﾑ
100
AcDbCircle
 10
378.0208163744533
 20
861.8129684811654
 30
0.0
 40
4.000020000000096
100
AcDbArc
 50
143.1302742406287
 51
179.999989999999
  0
ARC
  5
2870
330
1F
100
AcDbEntity
  8
ｴｸｽﾃﾝｼｮﾝﾌﾚｰﾑ
100
AcDbCircle
 10
374.0207913744793
 20
864.8129684811653
 30
0.0
 40
1.0
100
AcDbArc
 50
323.1302742406261
 51
89.99999999999673
1001
GENIUS_GENOBJ-N-FIL_13
1002
{
1000
OWNER
1000
GEN
1002
}
1001
GENIUS_GENODEF_13
1002
{
1000
HIER
1070
     0
1002
}
1002
{
1000
MANEDIT
1070
     0
1002
}
1002
{
1000
NOSEL
1070
     0
1002
}
1002
{
1000
BEHIND
1070
     0
1002
}
1002
{
1000
OTHER
1070
     0
1002
}
1002
{
1000
REACTOR
1002
}
  0
ARC
  5
28A3
330
1F
100
AcDbEntity
  8
ｴｸｽﾃﾝｼｮﾝﾌﾚｰﾑ
100
AcDbCircle
 10
353.0363463744534
 20
858.7974384811653
 30
0.0
 40
10.0
100
AcDbArc
 50
89.99999999999998
 51
180.0
1001
GENIUS_GENOBJ-N-FIL_13
1002
{
1000
OWNER
1000
GEN
1002
}
1001
GENIUS_GENODEF_13
1002
{
1000
HIER
1070
     0
1002
}
1002
{
1000
MANEDIT
1070
     0
1002
}
1002
{
1000
NOSEL
1070
     0
1002
}
1002
{
1000
BEHIND
1070
     0
1002
}
1002
{
1000
OTHER
1070
     0
1002
}
1002
{
1000
REACTOR
1002
}
  0
LINE
  5
28AD
330
1F
100
AcDbEntity
  8
ｴｸｽﾃﾝｼｮﾝﾌﾚｰﾑ
100
AcDbLine
 10
633.0363463744533
 20
868.2974384811656
 30
0.0
 11
353.0363463744534
 21
868.2974384811656
 31
0.0
  0
ARC
  5
28B3
330
1F
100
AcDbEntity
  8
ｴｸｽﾃﾝｼｮﾝﾌﾚｰﾑ
100
AcDbCircle
 10
353.0363463744534
 20
858.7974384811653
 30
0.0
 40
9.5
100
AcDbArc
 50
89.99999999999998
 51
180.0
1001
GENIUS_GENOBJ-N-FIL_13
1002
{
1000
OWNER
1000
GEN
1002
}
1001
GENIUS_GENODEF_13
1002
{
1000
HIER
1070
     0
1002
}
1002
{
1000
MANEDIT
1070
     0
1002
}
1002
{
1000
NOSEL
1070
     0
1002
}
1002
{
1000
BEHIND
1070
     0
1002
}
1002
{
1000
OTHER
1070
     0
1002
}
1002
{
1000
REACTOR
1002
}
  0
LINE
  5
28E7
330
1F
100
AcDbEntity
  8
ｴｸｽﾃﾝｼｮﾝﾌﾚｰﾑ
100
AcDbLine
 10
377.2863463744534
 20
868.4974384811653
 30
0.0
 11
373.7863463744534
 21
868.4974384811653
 31
0.0
  0
ARC
  5
2977
330
1F
100
AcDbEntity
  8
ｴｸｽﾃﾝｼｮﾝﾌﾚｰﾑ
100
AcDbCircle
 10
377.5863463744532
 20
868.4974384811654
 30
0.0
 40
0.3
100
AcDbArc
 50
89.9999999999788
 51
180.0000000000227
1001
GENIUS_GENOBJ-N-FIL_13
1002
{
1000
OWNER
1000
GEN
1002
}
1001
GENIUS_GENODEF_13
1002
{
1000
HIER
1070
     0
1002
}
1002
{
1000
MANEDIT
1070
     0
1002
}
1002
{
1000
NOSEL
1070
     0
1002
}
1002
{
1000
BEHIND
1070
     0
1002
}
1002
{
1000
OTHER
1070
     0
1002
}
1002
{
1000
REACTOR
1002
}
  0
ARC
  5
2979
330
1F
100
AcDbEntity
  8
ｴｸｽﾃﾝｼｮﾝﾌﾚｰﾑ
100
AcDbCircle
 10
373.4863463744535
 20
868.4974384811654
 30
0.0
 40
0.3
100
AcDbArc
 50
359.9999999999675
 51
90.00000000001138
1001
GENIUS_GENOBJ-N-FIL_13
1002
{
1000
OWNER
1000
GEN
1002
}
1001
GENIUS_GENODEF_13
1002
{
1000
HIER
1070
     0
1002
}
1002
{
1000
MANEDIT
1070
     0
1002
}
1002
{
1000
NOSEL
1070
     0
1002
}
1002
{
1000
BEHIND
1070
     0
1002
}
1002
{
1000
OTHER
1070
     0
1002
}
1002
{
1000
REACTOR
1002
}
  0
ARC
  5
297B
330
1F
100
AcDbEntity
  8
ｴｸｽﾃﾝｼｮﾝﾌﾚｰﾑ
100
AcDbCircle
 10
371.5863463744534
 20
868.4974384811654
 30
0.0
 40
0.3
100
AcDbArc
 50
89.99999999998859
 51
180.0000000000227
1001
GENIUS_GENOBJ-N-FIL_13
1002
{
1000
OWNER
1000
GEN
1002
}
1001
GENIUS_GENODEF_13
1002
{
1000
HIER
1070
     0
1002
}
1002
{
1000
MANEDIT
1070
     0
1002
}
1002
{
1000
NOSEL
1070
     0
1002
}
1002
{
1000
BEHIND
1070
     0
1002
}
1002
{
1000
OTHER
1070
     0
1002
}
1002
{
1000
REACTOR
1002
}
  0
ARC
  5
297D
330
1F
100
AcDbEntity
  8
ｴｸｽﾃﾝｼｮﾝﾌﾚｰﾑ
100
AcDbCircle
 10
367.4863463744534
 20
868.4974384811654
 30
0.0
 40
0.3
100
AcDbArc
 50
359.9999999999675
 51
90.00000000001138
1001
GENIUS_GENOBJ-N-FIL_13
1002
{
1000
OWNER
1000
GEN
1002
}
1001
GENIUS_GENODEF_13
1002
{
1000
HIER
1070
     0
1002
}
1002
{
1000
MANEDIT
1070
     0
1002
}
1002
{
1000
NOSEL
1070
     0
1002
}
1002
{
1000
BEHIND
1070
     0
1002
}
1002
{
1000
OTHER
1070
     0
1002
}
1002
{
1000
REACTOR
1002
}
  0
LINE
  5
297E
330
1F
100
AcDbEntity
  8
ｴｸｽﾃﾝｼｮﾝﾌﾚｰﾑ
100
AcDbLine
 10
371.2863463744534
 20
868.4974384811653
 30
0.0
 11
367.7863463744534
 21
868.4974384811653
 31
0.0
  0
LINE
  5
2B3C
330
1F
100
AcDbEntity
  8
ｴｸｽﾃﾝｼｮﾝﾌﾚｰﾑ
100
AcDbLine
 10
343.0363463744534
 20
602.3474384811653
 30
0.0
 11
343.0363463744534
 21
834.2474384811653
 31
0.0
  0
LINE
  5
2B3D
330
1F
100
AcDbEntity
  8
ｴｸｽﾃﾝｼｮﾝﾌﾚｰﾑ
100
AcDbLine
 10
343.5363463744533
 20
278.7974384811655
 30
0.0
 11
343.5363463744534
 21
858.7974384811653
 31
0.0
  0
LINE
  5
2B3E
330
1F
100
AcDbEntity
  8
ｴｸｽﾃﾝｼｮﾝﾌﾚｰﾑ
100
AcDbLine
 10
346.4208163744534
 20
603.4534434811654
 30
0.0
 11
346.4208163744534
 21
833.8129684811654
 31
0.0
  0
LINE
  5
2B3F
330
1F
100
AcDbEntity
  8
ｴｸｽﾃﾝｼｮﾝﾌﾚｰﾑ
100
AcDbLine
 10
347.6208163744535
 20
833.8478884811655
 30
0.0
 11
347.6208163744534
 21
603.4185334811654
 31
0.0
  0
LINE
  5
2B40
330
1F
100
AcDbEntity
  8
ｴｸｽﾃﾝｼｮﾝﾌﾚｰﾑ
100
AcDbLine
 10
350.9150263744533
 20
603.6974434811654
 30
0.0
 11
350.9150263744534
 21
833.4687484811656
 31
0.0
  0
LINE
  5
2B41
330
1F
100
AcDbEntity
  8
ｴｸｽﾃﾝｼｮﾝﾌﾚｰﾑ
100
AcDbLine
 10
343.0363463744534
 20
838.3474384811654
 30
0.0
 11
343.0363463744534
 21
840.2474384811654
 31
0.0
  0
LINE
  5
2B42
330
1F
100
AcDbEntity
  8
ｴｸｽﾃﾝｼｮﾝﾌﾚｰﾑ
100
AcDbLine
 10
343.0363463744534
 20
844.3474384811654
 30
0.0
 11
343.0363463744534
 21
858.7974384811653
 31
0.0
  0
LINE
  5
2B43
330
1F
100
AcDbEntity
  8
ｴｸｽﾃﾝｼｮﾝﾌﾚｰﾑ
100
AcDbLine
 10
346.0208163744534
 20
837.8129934811394
 30
0.0
 11
346.0208163744534
 21
849.3904084811655
 31
0.0
  0
LINE
  5
2B44
330
1F
100
AcDbEntity
  8
ｴｸｽﾃﾝｼｮﾝﾌﾚｰﾑ
100
AcDbLine
 10
356.1112263910191
 20
834.4471677966586
 30
0.0
 11
354.8415408941788
 21
836.468418239591
 31
0.0
  0
LINE
  5
2B45
330
1F
100
AcDbEntity
  8
ｴｸｽﾃﾝｼｮﾝﾌﾚｰﾑ
100
AcDbLine
 10
353.6708163744535
 20
833.7687484811654
 30
0.0
 11
351.2150263744535
 21
833.7687484811654
 31
0.0
  0
ARC
  5
2B46
330
1F
100
AcDbEntity
  8
ｴｸｽﾃﾝｼｮﾝﾌﾚｰﾑ
100
AcDbCircle
 10
351.2150263744535
 20
833.4687484811656
 30
0.0
 40
0.3
100
AcDbArc
 50
89.99999999999998
 51
180.0
1001
GENIUS_GENODEF_13
1002
{
1000
HIER
1070
     0
1002
}
1002
{
1000
MANEDIT
1070
     0
1002
}
1002
{
1000
NOSEL
1070
     0
1002
}
1002
{
1000
BEHIND
1070
     0
1002
}
1002
{
1000
OTHER
1070
     0
1002
}
1002
{
1000
REACTOR
1002
}
1001
GENIUS_GENOBJ-N-FIL_13
1002
{
1000
OWNER
1000
GEN
1002
}
  0
LINE
  5
2B47
330
1F
100
AcDbEntity
  8
ｴｸｽﾃﾝｼｮﾝﾌﾚｰﾑ
100
AcDbLine
 10
356.4707906439601
 20
837.5160858272817
 30
0.0
 11
357.7945169139771
 21
835.5353208324716
 31
0.0
  0
LINE
  5
2B48
330
1F
100
AcDbEntity
  8
ｴｸｽﾃﾝｼｮﾝﾌﾚｰﾑ
100
AcDbLine
 10
356.0208163744534
 20
847.6079584811655
 30
0.0
 11
356.0208163744534
 21
840.3129784811655
 31
0.0
  0
LINE
  5
2B49
330
1F
100
AcDbEntity
  8
ｴｸｽﾃﾝｼｮﾝﾌﾚｰﾑ
100
AcDbLine
 10
356.4208163744535
 20
846.5652984811654
 30
0.0
 11
356.4208163744535
 21
840.3129784811655
 31
0.0
  0
LINE
  5
2B4A
330
1F
100
AcDbEntity
  8
ｴｸｽﾃﾝｼｮﾝﾌﾚｰﾑ
100
AcDbLine
 10
357.5859163744534
 20
840.3129784811655
 30
0.0
 11
357.5859163744534
 21
846.5652984811654
 31
0.0
  0
LINE
  5
2B4B
330
1F
100
AcDbEntity
  8
ｴｸｽﾃﾝｼｮﾝﾌﾚｰﾑ
100
AcDbLine
 10
350.0208163744534
 20
836.2478884811654
 30
0.0
 11
353.5208163744534
 21
836.2478884811654
 31
0.0
  0
ARC
  5
2B4C
330
1F
100
AcDbEntity
  8
ｴｸｽﾃﾝｼｮﾝﾌﾚｰﾑ
100
AcDbCircle
 10
350.0208163744534
 20
833.8478884811655
 30
0.0
 40
2.399999999999999
100
AcDbArc
 50
89.99999999999998
 51
180.0
1001
GENIUS_GENODEF_13
1002
{
1000
HIER
1070
     0
1002
}
1002
{
1000
MANEDIT
1070
     0
1002
}
1002
{
1000
NOSEL
1070
     0
1002
}
1002
{
1000
BEHIND
1070
     0
1002
}
1002
{
1000
OTHER
1070
     0
1002
}
1002
{
1000
REACTOR
1002
}
1001
GENIUS_GENOBJ-N-FIL_13
1002
{
1000
OWNER
1000
GEN
1002
}
  0
LINE
  5
2B4D
330
1F
100
AcDbEntity
  8
ｴｸｽﾃﾝｼｮﾝﾌﾚｰﾑ
100
AcDbLine
 10
359.9650263744534
 20
843.6045084811654
 30
0.0
 11
359.9650263744534
 21
840.0629784811654
 31
0.0
  0
LINE
  5
2B4E
330
1F
100
AcDbEntity
  8
ｴｸｽﾃﾝｼｮﾝﾌﾚｰﾑ
100
AcDbLine
 10
353.5208163744534
 20
837.4129584811655
 30
0.0
 11
350.0208163744534
 21
837.4129584811655
 31
0.0
  0
LINE
  5
2B4F
330
1F
100
AcDbEntity
  8
ｴｸｽﾃﾝｼｮﾝﾌﾚｰﾑ
100
AcDbLine
 10
353.5208163744534
 20
837.8129784811655
 30
0.0
 11
350.0208163744534
 21
837.8129784811655
 31
0.0
  0
LINE
  5
2B50
330
1F
100
AcDbEntity
  8
ｴｸｽﾃﾝｼｮﾝﾌﾚｰﾑ
100
AcDbLine
 10
361.7650363744534
 20
841.8044984811654
 30
0.0
 11
361.7650363744534
 21
839.9685584811656
 31
0.0
  0
LINE
  5
2B51
330
1F
100
AcDbEntity
  8
ｴｸｽﾃﾝｼｮﾝﾌﾚｰﾑ
100
AcDbLine
 10
361.7650363744534
 20
839.9685584811656
 30
0.0
 11
362.3978563744535
 21
839.3357284811655
 31
0.0
  0
LINE
  5
2B52
330
1F
100
AcDbEntity
  8
ｴｸｽﾃﾝｼｮﾝﾌﾚｰﾑ
100
AcDbLine
 10
358.8477386564779
 20
844.7217961991411
 30
0.0
 11
361.7650363744534
 21
841.8044984811654
 31
0.0
  0
LINE
  5
2B53
330
1F
100
AcDbEntity
  8
ｴｸｽﾃﾝｼｮﾝﾌﾚｰﾑ
100
AcDbLine
 10
365.2262763744534
 20
842.1641684811655
 30
0.0
 11
360.7715063744535
 21
846.6189384811654
 31
0.0
  0
LINE
  5
2B54
330
1F
100
AcDbEntity
  8
ｴｸｽﾃﾝｼｮﾝﾌﾚｰﾑ
100
AcDbLine
 10
362.3978563744535
 20
839.3357284811655
 30
0.0
 11
365.2262763744534
 21
842.1641684811655
 31
0.0
  0
LINE
  5
2B55
330
1F
100
AcDbEntity
  8
ｴｸｽﾃﾝｼｮﾝﾌﾚｰﾑ
100
AcDbLine
 10
358.8477386564779
 20
844.7217961991411
 30
0.0
 11
357.5859163744534
 21
844.7222883666684
 31
0.0
  0
LINE
  5
2B56
330
1F
100
AcDbEntity
  8
ｴｸｽﾃﾝｼｮﾝﾌﾚｰﾑ
100
AcDbLine
 10
360.7715063744535
 20
846.6189384811654
 30
0.0
 11
357.5869093138321
 21
846.6189384811654
 31
0.0
  0
ARC
  5
2B57
330
1F
100
AcDbEntity
  8
ｴｸｽﾃﾝｼｮﾝﾌﾚｰﾑ
100
AcDbCircle
 10
353.6708163744535
 20
840.0629784811654
 30
0.0
 40
6.294209999999999
100
AcDbArc
 50
270.0
 51
291.7701447830904
  0
ARC
  5
2B58
330
1F
100
AcDbEntity
  8
ｴｸｽﾃﾝｼｮﾝﾌﾚｰﾑ
100
AcDbCircle
 10
353.6708163744535
 20
840.0629784811654
 30
0.0
 40
6.294209999999999
100
AcDbArc
 50
314.0330625592539
 51
0.0000100000009937
  0
ARC
  5
2B59
330
1F
100
AcDbEntity
  8
ｴｸｽﾃﾝｼｮﾝﾌﾚｰﾑ
100
AcDbCircle
 10
353.5208163744534
 20
840.3129784811655
 30
0.0
 40
2.5
100
AcDbArc
 50
270.0
 51
0.0000100000009937
  0
ARC
  5
2B5A
330
1F
100
AcDbEntity
  8
ｴｸｽﾃﾝｼｮﾝﾌﾚｰﾑ
100
AcDbCircle
 10
355.0208163744534
 20
847.6079584811655
 30
0.0
 40
1.0
100
AcDbArc
 50
0.0
 51
99.3124500000003
  0
ARC
  5
2B5B
330
1F
100
AcDbEntity
  8
ｴｸｽﾃﾝｼｮﾝﾌﾚｰﾑ
100
AcDbCircle
 10
353.2408163744534
 20
858.4629584811656
 30
0.0
 40
10.0
100
AcDbArc
 50
235.5661500000021
 51
279.31244
  0
ARC
  5
2B5C
330
1F
100
AcDbEntity
  8
ｴｸｽﾃﾝｼｮﾝﾌﾚｰﾑ
100
AcDbCircle
 10
347.0208163744534
 20
849.3904084811655
 30
0.0
 40
1.0
100
AcDbArc
 50
55.56613999999926
 51
180.0000100000009
  0
ARC
  5
2B5D
330
1F
100
AcDbEntity
  8
ｴｸｽﾃﾝｼｮﾝﾌﾚｰﾑ
100
AcDbCircle
 10
359.0208163744534
 20
846.5652984811654
 30
0.0
 40
1.43491
100
AcDbArc
 50
135.0
 51
180.0000100000009
  0
ARC
  5
2B5E
330
1F
100
AcDbEntity
  8
ｴｸｽﾃﾝｼｮﾝﾌﾚｰﾑ
100
AcDbCircle
 10
353.5208163744534
 20
840.3129784811655
 30
0.0
 40
4.06509
100
AcDbArc
 50
270.0
 51
0.0000100000009937
  0
ARC
  5
2B5F
330
1F
100
AcDbEntity
  8
ｴｸｽﾃﾝｼｮﾝﾌﾚｰﾑ
100
AcDbCircle
 10
350.0208163744534
 20
833.8129684811654
 30
0.0
 40
3.6
100
AcDbArc
 50
90.00000999999937
 51
180.0000100000009
  0
ARC
  5
2B60
330
1F
100
AcDbEntity
  8
ｴｸｽﾃﾝｼｮﾝﾌﾚｰﾑ
100
AcDbCircle
 10
350.0208163744534
 20
833.8129684811654
 30
0.0
 40
4.000020000000096
100
AcDbArc
 50
90.00000999999937
 51
126.8697257593716
  0
ARC
  5
2B61
330
1F
100
AcDbEntity
  8
ｴｸｽﾃﾝｼｮﾝﾌﾚｰﾑ
100
AcDbCircle
 10
347.0208163744534
 20
837.8129934811395
 30
0.0
 40
1.0
100
AcDbArc
 50
180.0000000000032
 51
306.8697257593748
1001
GENIUS_GENOBJ-N-FIL_13
1002
{
1000
OWNER
1000
GEN
1002
}
1001
GENIUS_GENODEF_13
1002
{
1000
HIER
1070
     0
1002
}
1002
{
1000
MANEDIT
1070
     0
1002
}
1002
{
1000
NOSEL
1070
     0
1002
}
1002
{
1000
BEHIND
1070
     0
1002
}
1002
{
1000
OTHER
1070
     0
1002
}
1002
{
1000
REACTOR
1002
}
  0
ARC
  5
2B62
330
1F
100
AcDbEntity
  8
ｴｸｽﾃﾝｼｮﾝﾌﾚｰﾑ
100
AcDbCircle
 10
353.5208163744534
 20
840.3129784811655
 30
0.0
 40
2.9
100
AcDbArc
 50
270.0
 51
0.0000100000009937
  0
ARC
  5
2B63
330
1F
100
AcDbEntity
  8
ｴｸｽﾃﾝｼｮﾝﾌﾚｰﾑ
100
AcDbCircle
 10
359.0208163744534
 20
846.5652984811654
 30
0.0
 40
2.6
100
AcDbArc
 50
135.0
 51
180.0000100000009
  0
CIRCLE
  5
2B6C
330
1F
100
AcDbEntity
  8
ｴｸｽﾃﾝｼｮﾝﾌﾚｰﾑ
100
AcDbCircle
 10
357.9408163744535
 20
833.4629684811655
 30
0.0
 40
2.077509999999989
  0
LINE
  5
2B6D
330
1F
100
AcDbEntity
  8
ｴｸｽﾃﾝｼｮﾝﾌﾚｰﾑ
100
AcDbLine
 10
343.3363463744535
 20
834.5474384811653
 30
0.0
 11
343.3363463744535
 21
838.0474384811654
 31
0.0
  0
LINE
  5
2B6E
330
1F
100
AcDbEntity
  8
ｴｸｽﾃﾝｼｮﾝﾌﾚｰﾑ
100
AcDbLine
 10
343.3363463744535
 20
840.5474384811654
 30
0.0
 11
343.3363463744535
 21
844.0474384811654
 31
0.0
  0
ARC
  5
2B6F
330
1F
100
AcDbEntity
  8
ｴｸｽﾃﾝｼｮﾝﾌﾚｰﾑ
100
AcDbCircle
 10
343.3363463744532
 20
834.2474384811655
 30
0.0
 40
0.3
100
AcDbArc
 50
89.9999999999788
 51
180.0000000000227
1001
GENIUS_GENOBJ-N-FIL_13
1002
{
1000
OWNER
1000
GEN
1002
}
1001
GENIUS_GENODEF_13
1002
{
1000
HIER
1070
     0
1002
}
1002
{
1000
MANEDIT
1070
     0
1002
}
1002
{
1000
NOSEL
1070
     0
1002
}
1002
{
1000
BEHIND
1070
     0
1002
}
1002
{
1000
OTHER
1070
     0
1002
}
1002
{
1000
REACTOR
1002
}
  0
ARC
  5
2B70
330
1F
100
AcDbEntity
  8
ｴｸｽﾃﾝｼｮﾝﾌﾚｰﾑ
100
AcDbCircle
 10
343.3363463744532
 20
838.3474384811654
 30
0.0
 40
0.3
100
AcDbArc
 50
179.9999999999902
 51
270.0000000000326
1001
GENIUS_GENOBJ-N-FIL_13
1002
{
1000
OWNER
1000
GEN
1002
}
1001
GENIUS_GENODEF_13
1002
{
1000
HIER
1070
     0
1002
}
1002
{
1000
MANEDIT
1070
     0
1002
}
1002
{
1000
NOSEL
1070
     0
1002
}
1002
{
1000
BEHIND
1070
     0
1002
}
1002
{
1000
OTHER
1070
     0
1002
}
1002
{
1000
REACTOR
1002
}
  0
ARC
  5
2B71
330
1F
100
AcDbEntity
  8
ｴｸｽﾃﾝｼｮﾝﾌﾚｰﾑ
100
AcDbCircle
 10
343.3363463744532
 20
840.2474384811654
 30
0.0
 40
0.3
100
AcDbArc
 50
89.9999999999788
 51
180.0000000000097
1001
GENIUS_GENOBJ-N-FIL_13
1002
{
1000
OWNER
1000
GEN
1002
}
1001
GENIUS_GENODEF_13
1002
{
1000
HIER
1070
     0
1002
}
1002
{
1000
MANEDIT
1070
     0
1002
}
1002
{
1000
NOSEL
1070
     0
1002
}
1002
{
1000
BEHIND
1070
     0
1002
}
1002
{
1000
OTHER
1070
     0
1002
}
1002
{
1000
REACTOR
1002
}
  0
ARC
  5
2B72
330
1F
100
AcDbEntity
  8
ｴｸｽﾃﾝｼｮﾝﾌﾚｰﾑ
100
AcDbCircle
 10
343.3363463744532
 20
844.3474384811652
 30
0.0
 40
0.3
100
AcDbArc
 50
179.9999999999902
 51
270.0000000000326
1001
GENIUS_GENOBJ-N-FIL_13
1002
{
1000
OWNER
1000
GEN
1002
}
1001
GENIUS_GENODEF_13
1002
{
1000
HIER
1070
     0
1002
}
1002
{
1000
MANEDIT
1070
     0
1002
}
1002
{
1000
NOSEL
1070
     0
1002
}
1002
{
1000
BEHIND
1070
     0
1002
}
1002
{
1000
OTHER
1070
     0
1002
}
1002
{
1000
REACTOR
1002
}
  0
ARC
  5
2BD1
330
1F
100
AcDbEntity
  8
ｴｸｽﾃﾝｼｮﾝﾌﾚｰﾑ
100
AcDbCircle
 10
350.0208163744533
 20
603.4534434811654
 30
0.0
 40
3.6
100
AcDbArc
 50
180.0
 51
270.0
1001
GENIUS_GENOBJ-N-FIL_13
1002
{
1000
OWNER
1000
GEN
1002
}
1001
GENIUS_GENODEF_13
1002
{
1000
HIER
1070
     0
1002
}
1002
{
1000
MANEDIT
1070
     0
1002
}
1002
{
1000
NOSEL
1070
     0
1002
}
1002
{
1000
BEHIND
1070
     0
1002
}
1002
{
1000
OTHER
1070
     0
1002
}
1002
{
1000
REACTOR
1002
}
  0
ARC
  5
2BD3
330
1F
100
AcDbEntity
  8
ｴｸｽﾃﾝｼｮﾝﾌﾚｰﾑ
100
AcDbCircle
 10
350.0208163744533
 20
603.4185334811654
 30
0.0
 40
2.399999999999999
100
AcDbArc
 50
180.0
 51
270.0
1001
GENIUS_GENODEF_13
1002
{
1000
HIER
1070
     0
1002
}
1002
{
1000
MANEDIT
1070
     0
1002
}
1002
{
1000
NOSEL
1070
     0
1002
}
1002
{
1000
BEHIND
1070
     0
1002
}
1002
{
1000
OTHER
1070
     0
1002
}
1002
{
1000
REACTOR
1002
}
1001
GENIUS_GENOBJ-N-FIL_13
1002
{
1000
OWNER
1000
GEN
1002
}
  0
ARC
  5
2BD6
330
1F
100
AcDbEntity
  8
ｴｸｽﾃﾝｼｮﾝﾌﾚｰﾑ
100
AcDbCircle
 10
351.2150263744532
 20
603.6974434811654
 30
0.0
 40
0.3
100
AcDbArc
 50
180.0
 51
270.0
1001
GENIUS_GENODEF_13
1002
{
1000
HIER
1070
     0
1002
}
1002
{
1000
MANEDIT
1070
     0
1002
}
1002
{
1000
NOSEL
1070
     0
1002
}
1002
{
1000
BEHIND
1070
     0
1002
}
1002
{
1000
OTHER
1070
     0
1002
}
1002
{
1000
REACTOR
1002
}
1001
GENIUS_GENOBJ-N-FIL_13
1002
{
1000
OWNER
1000
GEN
1002
}
  0
ARC
  5
2BD9
330
1F
100
AcDbEntity
  8
ｴｸｽﾃﾝｼｮﾝﾌﾚｰﾑ
100
AcDbCircle
 10
347.0363463744534
 20
599.9530236750375
 30
0.0
 40
1.0
100
AcDbArc
 50
49.54897568188311
 51
179.9999999999935
1001
GENIUS_GENODEF_13
1002
{
1000
HIER
1070
     0
1002
}
1002
{
1000
MANEDIT
1070
     0
1002
}
1002
{
1000
NOSEL
1070
     0
1002
}
1002
{
1000
BEHIND
1070
     0
1002
}
1002
{
1000
OTHER
1070
     0
1002
}
1002
{
1000
REACTOR
1002
}
1001
GENIUS_GENOBJ-N-FIL_13
1002
{
1000
OWNER
1000
GEN
1002
}
  0
LINE
  5
2C03
330
1F
100
AcDbEntity
  8
ｴｸｽﾃﾝｼｮﾝﾌﾚｰﾑ
100
AcDbLine
 10
343.0363463744533
 20
545.3474384811653
 30
0.0
 11
343.0363463744534
 21
592.2474384811653
 31
0.0
  0
LINE
  5
2C04
330
1F
100
AcDbEntity
  8
ｴｸｽﾃﾝｼｮﾝﾌﾚｰﾑ
100
AcDbLine
 10
343.0363463744534
 20
596.3474384811653
 30
0.0
 11
343.0363463744534
 21
598.2474384811653
 31
0.0
  0
LINE
  5
2C06
330
1F
100
AcDbEntity
  8
ｴｸｽﾃﾝｼｮﾝﾌﾚｰﾑ
100
AcDbLine
 10
343.3363463744535
 20
592.5474384811654
 30
0.0
 11
343.3363463744535
 21
596.0474384811654
 31
0.0
  0
LINE
  5
2C07
330
1F
100
AcDbEntity
  8
ｴｸｽﾃﾝｼｮﾝﾌﾚｰﾑ
100
AcDbLine
 10
343.3363463744535
 20
598.5474384811653
 30
0.0
 11
343.3363463744535
 21
602.0474384811653
 31
0.0
  0
ARC
  5
2C08
330
1F
100
AcDbEntity
  8
ｴｸｽﾃﾝｼｮﾝﾌﾚｰﾑ
100
AcDbCircle
 10
343.3363463744531
 20
592.2474384811654
 30
0.0
 40
0.3
100
AcDbArc
 50
89.9999999999788
 51
180.0000000000227
1001
GENIUS_GENOBJ-N-FIL_13
1002
{
1000
OWNER
1000
GEN
1002
}
1001
GENIUS_GENODEF_13
1002
{
1000
HIER
1070
     0
1002
}
1002
{
1000
MANEDIT
1070
     0
1002
}
1002
{
1000
NOSEL
1070
     0
1002
}
1002
{
1000
BEHIND
1070
     0
1002
}
1002
{
1000
OTHER
1070
     0
1002
}
1002
{
1000
REACTOR
1002
}
  0
ARC
  5
2C09
330
1F
100
AcDbEntity
  8
ｴｸｽﾃﾝｼｮﾝﾌﾚｰﾑ
100
AcDbCircle
 10
343.3363463744531
 20
596.3474384811653
 30
0.0
 40
0.3
100
AcDbArc
 50
179.9999999999902
 51
270.0000000000326
1001
GENIUS_GENOBJ-N-FIL_13
1002
{
1000
OWNER
1000
GEN
1002
}
1001
GENIUS_GENODEF_13
1002
{
1000
HIER
1070
     0
1002
}
1002
{
1000
MANEDIT
1070
     0
1002
}
1002
{
1000
NOSEL
1070
     0
1002
}
1002
{
1000
BEHIND
1070
     0
1002
}
1002
{
1000
OTHER
1070
     0
1002
}
1002
{
1000
REACTOR
1002
}
  0
ARC
  5
2C0A
330
1F
100
AcDbEntity
  8
ｴｸｽﾃﾝｼｮﾝﾌﾚｰﾑ
100
AcDbCircle
 10
343.3363463744531
 20
598.2474384811654
 30
0.0
 40
0.3
100
AcDbArc
 50
89.9999999999788
 51
180.0000000000097
1001
GENIUS_GENOBJ-N-FIL_13
1002
{
1000
OWNER
1000
GEN
1002
}
1001
GENIUS_GENODEF_13
1002
{
1000
HIER
1070
     0
1002
}
1002
{
1000
MANEDIT
1070
     0
1002
}
1002
{
1000
NOSEL
1070
     0
1002
}
1002
{
1000
BEHIND
1070
     0
1002
}
1002
{
1000
OTHER
1070
     0
1002
}
1002
{
1000
REACTOR
1002
}
  0
ARC
  5
2C0B
330
1F
100
AcDbEntity
  8
ｴｸｽﾃﾝｼｮﾝﾌﾚｰﾑ
100
AcDbCircle
 10
343.3363463744531
 20
602.3474384811653
 30
0.0
 40
0.3
100
AcDbArc
 50
179.9999999999902
 51
270.0000000000326
1001
GENIUS_GENOBJ-N-FIL_13
1002
{
1000
OWNER
1000
GEN
1002
}
1001
GENIUS_GENODEF_13
1002
{
1000
HIER
1070
     0
1002
}
1002
{
1000
MANEDIT
1070
     0
1002
}
1002
{
1000
NOSEL
1070
     0
1002
}
1002
{
1000
BEHIND
1070
     0
1002
}
1002
{
1000
OTHER
1070
     0
1002
}
1002
{
1000
REACTOR
1002
}
  0
LINE
  5
2C6D
330
1F
100
AcDbEntity
  8
ｴｸｽﾃﾝｼｮﾝﾌﾚｰﾑ
100
AcDbLine
 10
608.4863463744536
 20
268.7974384811653
 30
0.0
 11
377.5863463744534
 21
268.7974384811655
 31
0.0
  0
LINE
  5
2C6E
330
1F
100
AcDbEntity
  8
ｴｸｽﾃﾝｼｮﾝﾌﾚｰﾑ
100
AcDbLine
 10
633.0363463744533
 20
269.2974384811653
 30
0.0
 11
353.0363463744533
 21
269.2974384811655
 31
0.0
  0
LINE
  5
2C6F
330
1F
100
AcDbEntity
  8
ｴｸｽﾃﾝｼｮﾝﾌﾚｰﾑ
100
AcDbLine
 10
608.0518763744535
 20
272.1819084811652
 30
0.0
 11
378.0208163744532
 21
272.1819084811655
 31
0.0
  0
LINE
  5
2C70
330
1F
100
AcDbEntity
  8
ｴｸｽﾃﾝｼｮﾝﾌﾚｰﾑ
100
AcDbLine
 10
377.9858963744532
 20
273.3819084811657
 30
0.0
 11
608.0867963744536
 21
273.3819084811651
 31
0.0
  0
LINE
  5
2C71
330
1F
100
AcDbEntity
  8
ｴｸｽﾃﾝｼｮﾝﾌﾚｰﾑ
100
AcDbLine
 10
607.7076563744535
 20
276.6761184811653
 30
0.0
 11
378.3650363744532
 21
276.6761184811656
 31
0.0
  0
LINE
  5
2C72
330
1F
100
AcDbEntity
  8
ｴｸｽﾃﾝｼｮﾝﾌﾚｰﾑ
100
AcDbLine
 10
373.4863463744532
 20
268.7974384811655
 30
0.0
 11
371.5863463744534
 21
268.7974384811655
 31
0.0
  0
LINE
  5
2C73
330
1F
100
AcDbEntity
  8
ｴｸｽﾃﾝｼｮﾝﾌﾚｰﾑ
100
AcDbLine
 10
367.4863463744532
 20
268.7974384811655
 30
0.0
 11
353.0363463744533
 21
268.7974384811655
 31
0.0
  0
LINE
  5
2C74
330
1F
100
AcDbEntity
  8
ｴｸｽﾃﾝｼｮﾝﾌﾚｰﾑ
100
AcDbLine
 10
374.0207913744793
 20
271.7819084811656
 30
0.0
 11
362.4433763744532
 21
271.7819084811656
 31
0.0
  0
LINE
  5
2C75
330
1F
100
AcDbEntity
  8
ｴｸｽﾃﾝｼｮﾝﾌﾚｰﾑ
100
AcDbLine
 10
377.3866170589601
 20
281.8723184977314
 30
0.0
 11
375.3653666160278
 21
280.6026330008908
 31
0.0
  0
LINE
  5
2C76
330
1F
100
AcDbEntity
  8
ｴｸｽﾃﾝｼｮﾝﾌﾚｰﾑ
100
AcDbLine
 10
357.1823263744532
 20
289.1910984811657
 30
0.0
 11
363.4299963744533
 21
282.9434384811657
 31
0.0
  0
LINE
  5
2C77
330
1F
100
AcDbEntity
  8
ｴｸｽﾃﾝｼｮﾝﾌﾚｰﾑ
100
AcDbLine
 10
378.0650363744531
 20
279.4319084811655
 30
0.0
 11
378.0650363744531
 21
276.9761184811655
 31
0.0
  0
ARC
  5
2C78
330
1F
100
AcDbEntity
  8
ｴｸｽﾃﾝｼｮﾝﾌﾚｰﾑ
100
AcDbCircle
 10
378.3650363744532
 20
276.9761184811654
 30
0.0
 40
0.3
100
AcDbArc
 50
180.0
 51
270.0
1001
GENIUS_GENODEF_13
1002
{
1000
HIER
1070
     0
1002
}
1002
{
1000
MANEDIT
1070
     0
1002
}
1002
{
1000
NOSEL
1070
     0
1002
}
1002
{
1000
BEHIND
1070
     0
1002
}
1002
{
1000
OTHER
1070
     0
1002
}
1002
{
1000
REACTOR
1002
}
1001
GENIUS_GENOBJ-N-FIL_13
1002
{
1000
OWNER
1000
GEN
1002
}
  0
LINE
  5
2C79
330
1F
100
AcDbEntity
  8
ｴｸｽﾃﾝｼｮﾝﾌﾚｰﾑ
100
AcDbLine
 10
374.3176990283369
 20
282.2318827506722
 30
0.0
 11
376.2984640231471
 21
283.5556090206892
 31
0.0
  0
LINE
  5
2C7A
330
1F
100
AcDbEntity
  8
ｴｸｽﾃﾝｼｮﾝﾌﾚｰﾑ
100
AcDbLine
 10
364.2258263744531
 20
281.7819084811656
 30
0.0
 11
371.5208063744532
 21
281.7819084811656
 31
0.0
  0
LINE
  5
2C7B
330
1F
100
AcDbEntity
  8
ｴｸｽﾃﾝｼｮﾝﾌﾚｰﾑ
100
AcDbLine
 10
365.2684863744531
 20
282.1819084811655
 30
0.0
 11
371.5208063744532
 21
282.1819084811655
 31
0.0
  0
LINE
  5
2C7C
330
1F
100
AcDbEntity
  8
ｴｸｽﾃﾝｼｮﾝﾌﾚｰﾑ
100
AcDbLine
 10
371.5208063744532
 20
283.3470084811656
 30
0.0
 11
365.2684863744531
 21
283.3470084811656
 31
0.0
  0
LINE
  5
2C7D
330
1F
100
AcDbEntity
  8
ｴｸｽﾃﾝｼｮﾝﾌﾚｰﾑ
100
AcDbLine
 10
364.2538563744532
 20
283.7672784811657
 30
0.0
 11
358.0061863744532
 21
290.0149484811655
 31
0.0
  0
LINE
  5
2C7E
330
1F
100
AcDbEntity
  8
ｴｸｽﾃﾝｼｮﾝﾌﾚｰﾑ
100
AcDbLine
 10
375.5858963744532
 20
275.7819084811656
 30
0.0
 11
375.5858963744532
 21
279.2819084811656
 31
0.0
  0
ARC
  5
2C7F
330
1F
100
AcDbEntity
  8
ｴｸｽﾃﾝｼｮﾝﾌﾚｰﾑ
100
AcDbCircle
 10
377.9858963744532
 20
275.7819084811655
 30
0.0
 40
2.399999999999999
100
AcDbArc
 50
180.0
 51
270.0
1001
GENIUS_GENODEF_13
1002
{
1000
HIER
1070
     0
1002
}
1002
{
1000
MANEDIT
1070
     0
1002
}
1002
{
1000
NOSEL
1070
     0
1002
}
1002
{
1000
BEHIND
1070
     0
1002
}
1002
{
1000
OTHER
1070
     0
1002
}
1002
{
1000
REACTOR
1002
}
1001
GENIUS_GENOBJ-N-FIL_13
1002
{
1000
OWNER
1000
GEN
1002
}
  0
LINE
  5
2C80
330
1F
100
AcDbEntity
  8
ｴｸｽﾃﾝｼｮﾝﾌﾚｰﾑ
100
AcDbLine
 10
368.2292763744532
 20
285.7261184811655
 30
0.0
 11
371.7708063744532
 21
285.7261184811655
 31
0.0
  0
LINE
  5
2C81
330
1F
100
AcDbEntity
  8
ｴｸｽﾃﾝｼｮﾝﾌﾚｰﾑ
100
AcDbLine
 10
360.1976466404326
 20
290.9759384811655
 30
0.0
 11
365.2148463744532
 21
285.9587284811655
 31
0.0
  0
LINE
  5
2C82
330
1F
100
AcDbEntity
  8
ｴｸｽﾃﾝｼｮﾝﾌﾚｰﾑ
100
AcDbLine
 10
374.4208263744532
 20
279.2819084811656
 30
0.0
 11
374.4208263744532
 21
275.7819084811656
 31
0.0
  0
LINE
  5
2C83
330
1F
100
AcDbEntity
  8
ｴｸｽﾃﾝｼｮﾝﾌﾚｰﾑ
100
AcDbLine
 10
374.0208063744532
 20
279.2819084811656
 30
0.0
 11
374.0208063744532
 21
275.7819084811656
 31
0.0
  0
LINE
  5
2C84
330
1F
100
AcDbEntity
  8
ｴｸｽﾃﾝｼｮﾝﾌﾚｰﾑ
100
AcDbLine
 10
370.0292863744532
 20
287.5261284811654
 30
0.0
 11
371.8652263744532
 21
287.5261284811654
 31
0.0
  0
LINE
  5
2C85
330
1F
100
AcDbEntity
  8
ｴｸｽﾃﾝｼｮﾝﾌﾚｰﾑ
100
AcDbLine
 10
371.8652263744532
 20
287.5261284811654
 30
0.0
 11
372.4980563744532
 21
288.1589484811657
 31
0.0
  0
LINE
  5
2C86
330
1F
100
AcDbEntity
  8
ｴｸｽﾃﾝｼｮﾝﾌﾚｰﾑ
100
AcDbLine
 10
367.1119886564777
 20
284.6088307631901
 30
0.0
 11
370.0292863744532
 21
287.5261284811654
 31
0.0
  0
LINE
  5
2C87
330
1F
100
AcDbEntity
  8
ｴｸｽﾃﾝｼｮﾝﾌﾚｰﾑ
100
AcDbLine
 10
369.6696163744532
 20
290.9873684811655
 30
0.0
 11
365.2148463744532
 21
286.5325984811657
 31
0.0
  0
LINE
  5
2C88
330
1F
100
AcDbEntity
  8
ｴｸｽﾃﾝｼｮﾝﾌﾚｰﾑ
100
AcDbLine
 10
372.4980563744532
 20
288.1589484811657
 30
0.0
 11
369.6696163744532
 21
290.9873684811655
 31
0.0
  0
LINE
  5
2C89
330
1F
100
AcDbEntity
  8
ｴｸｽﾃﾝｼｮﾝﾌﾚｰﾑ
100
AcDbLine
 10
367.1119886564777
 20
284.6088307631901
 30
0.0
 11
367.1114964889501
 21
283.3470084811656
 31
0.0
  0
LINE
  5
2C8A
330
1F
100
AcDbEntity
  8
ｴｸｽﾃﾝｼｮﾝﾌﾚｰﾑ
100
AcDbLine
 10
365.2148463744532
 20
286.5325984811657
 30
0.0
 11
365.2148463744532
 21
283.3480014205443
 31
0.0
  0
ARC
  5
2C8B
330
1F
100
AcDbEntity
  8
ｴｸｽﾃﾝｼｮﾝﾌﾚｰﾑ
100
AcDbCircle
 10
353.0363463744533
 20
278.7974384811654
 30
0.0
 40
10.0
100
AcDbArc
 50
180.0
 51
270.0
1001
GENIUS_GENOBJ-N-FIL_13
1002
{
1000
OWNER
1000
GEN
1002
}
1001
GENIUS_GENODEF_13
1002
{
1000
HIER
1070
     0
1002
}
1002
{
1000
MANEDIT
1070
     0
1002
}
1002
{
1000
NOSEL
1070
     0
1002
}
1002
{
1000
BEHIND
1070
     0
1002
}
1002
{
1000
OTHER
1070
     0
1002
}
1002
{
1000
REACTOR
1002
}
  0
ARC
  5
2C8C
330
1F
100
AcDbEntity
  8
ｴｸｽﾃﾝｼｮﾝﾌﾚｰﾑ
100
AcDbCircle
 10
353.0363463744533
 20
278.7974384811654
 30
0.0
 40
9.5
100
AcDbArc
 50
180.0
 51
270.0
1001
GENIUS_GENOBJ-N-FIL_13
1002
{
1000
OWNER
1000
GEN
1002
}
1001
GENIUS_GENODEF_13
1002
{
1000
HIER
1070
     0
1002
}
1002
{
1000
MANEDIT
1070
     0
1002
}
1002
{
1000
NOSEL
1070
     0
1002
}
1002
{
1000
BEHIND
1070
     0
1002
}
1002
{
1000
OTHER
1070
     0
1002
}
1002
{
1000
REACTOR
1002
}
  0
ARC
  5
2C8D
330
1F
100
AcDbEntity
  8
ｴｸｽﾃﾝｼｮﾝﾌﾚｰﾑ
100
AcDbCircle
 10
371.7708063744532
 20
279.4319084811653
 30
0.0
 40
6.294209999999999
100
AcDbArc
 50
0.0
 51
21.77014478309192
  0
ARC
  5
2C8E
330
1F
100
AcDbEntity
  8
ｴｸｽﾃﾝｼｮﾝﾌﾚｰﾑ
100
AcDbCircle
 10
371.7708063744532
 20
279.4319084811653
 30
0.0
 40
6.294209999999999
100
AcDbArc
 50
44.03306255925501
 51
90.00001000000098
  0
ARC
  5
2C90
330
1F
100
AcDbEntity
  8
ｴｸｽﾃﾝｼｮﾝﾌﾚｰﾑ
100
AcDbCircle
 10
371.5208063744532
 20
279.2819084811655
 30
0.0
 40
2.5
100
AcDbArc
 50
0.0
 51
90.00001000000098
  0
ARC
  5
2C91
330
1F
100
AcDbEntity
  8
ｴｸｽﾃﾝｼｮﾝﾌﾚｰﾑ
100
AcDbCircle
 10
364.2258263744531
 20
280.7819084811655
 30
0.0
 40
1.0
100
AcDbArc
 50
89.99999999999998
 51
189.3124500000003
  0
ARC
  5
2C92
330
1F
100
AcDbEntity
  8
ｴｸｽﾃﾝｼｮﾝﾌﾚｰﾑ
100
AcDbCircle
 10
353.3708263744531
 20
279.0019084811655
 30
0.0
 40
10.0
100
AcDbArc
 50
325.5661500000021
 51
9.312440000001689
  0
ARC
  5
2C93
330
1F
100
AcDbEntity
  8
ｴｸｽﾃﾝｼｮﾝﾌﾚｰﾑ
100
AcDbCircle
 10
362.4433763744532
 20
272.7819084811655
 30
0.0
 40
1.0
100
AcDbArc
 50
145.5661399999979
 51
270.000010000001
  0
ARC
  5
2C95
330
1F
100
AcDbEntity
  8
ｴｸｽﾃﾝｼｮﾝﾌﾚｰﾑ
100
AcDbCircle
 10
365.2684863744531
 20
284.7819084811655
 30
0.0
 40
1.43491
100
AcDbArc
 50
225.0
 51
270.000010000001
  0
ARC
  5
2C96
330
1F
100
AcDbEntity
  8
ｴｸｽﾃﾝｼｮﾝﾌﾚｰﾑ
100
AcDbCircle
 10
371.5208063744532
 20
279.2819084811655
 30
0.0
 40
4.06509
100
AcDbArc
 50
0.0
 51
90.00001000000098
  0
ARC
  5
2C97
330
1F
100
AcDbEntity
  8
ｴｸｽﾃﾝｼｮﾝﾌﾚｰﾑ
100
AcDbCircle
 10
378.0208163744532
 20
275.7819084811655
 30
0.0
 40
3.6
100
AcDbArc
 50
180.0000099999977
 51
270.000010000001
  0
ARC
  5
2C98
330
1F
100
AcDbEntity
  8
ｴｸｽﾃﾝｼｮﾝﾌﾚｰﾑ
100
AcDbCircle
 10
378.0208163744532
 20
275.7819084811655
 30
0.0
 40
4.000020000000096
100
AcDbArc
 50
180.0000099999977
 51
216.8697257593713
  0
ARC
  5
2C99
330
1F
100
AcDbEntity
  8
ｴｸｽﾃﾝｼｮﾝﾌﾚｰﾑ
100
AcDbCircle
 10
374.0207913744791
 20
272.7819084811655
 30
0.0
 40
1.0
100
AcDbArc
 50
270.0000000000033
 51
36.86972575937386
1001
GENIUS_GENOBJ-N-FIL_13
1002
{
1000
OWNER
1000
GEN
1002
}
1001
GENIUS_GENODEF_13
1002
{
1000
HIER
1070
     0
1002
}
1002
{
1000
MANEDIT
1070
     0
1002
}
1002
{
1000
NOSEL
1070
     0
1002
}
1002
{
1000
BEHIND
1070
     0
1002
}
1002
{
1000
OTHER
1070
     0
1002
}
1002
{
1000
REACTOR
1002
}
  0
ARC
  5
2C9A
330
1F
100
AcDbEntity
  8
ｴｸｽﾃﾝｼｮﾝﾌﾚｰﾑ
100
AcDbCircle
 10
371.5208063744532
 20
279.2819084811655
 30
0.0
 40
2.9
100
AcDbArc
 50
0.0
 51
90.00001000000098
  0
ARC
  5
2C9B
330
1F
100
AcDbEntity
  8
ｴｸｽﾃﾝｼｮﾝﾌﾚｰﾑ
100
AcDbCircle
 10
365.2684863744531
 20
284.7819084811655
 30
0.0
 40
2.6
100
AcDbArc
 50
225.0
 51
270.000010000001
  0
LINE
  5
2C9C
330
1F
100
AcDbEntity
  8
ｴｸｽﾃﾝｼｮﾝﾌﾚｰﾑ
100
AcDbLine
 10
360.9394663744531
 20
558.2005534811652
 30
0.0
 11
365.1576663744531
 21
562.4187534811652
 31
0.0
  0
LINE
  5
2C9D
330
1F
100
AcDbEntity
  8
ｴｸｽﾃﾝｼｮﾝﾌﾚｰﾑ
100
AcDbLine
 10
351.2150263744532
 20
534.1974334811653
 30
0.0
 11
353.7667863744532
 21
534.1974334811653
 31
0.0
  0
ARC
  5
2C9E
330
1F
100
AcDbEntity
  8
ｴｸｽﾃﾝｼｮﾝﾌﾚｰﾑ
100
AcDbCircle
 10
351.2150263744532
 20
533.8974334811654
 30
0.0
 40
0.3
100
AcDbArc
 50
89.99999999999998
 51
180.0
1001
GENIUS_GENODEF_13
1002
{
1000
HIER
1070
     0
1002
}
1002
{
1000
MANEDIT
1070
     0
1002
}
1002
{
1000
NOSEL
1070
     0
1002
}
1002
{
1000
BEHIND
1070
     0
1002
}
1002
{
1000
OTHER
1070
     0
1002
}
1002
{
1000
REACTOR
1002
}
1001
GENIUS_GENOBJ-N-FIL_13
1002
{
1000
OWNER
1000
GEN
1002
}
  0
ARC
  5
2C9F
330
1F
100
AcDbEntity
  8
ｴｸｽﾃﾝｼｮﾝﾌﾚｰﾑ
100
AcDbCircle
 10
353.7667863744532
 20
540.4914334811653
 30
0.0
 40
6.293999999999999
100
AcDbArc
 50
270.0
 51
291.9860039892519
  0
LINE
  5
2CA0
330
1F
100
AcDbEntity
  8
ｴｸｽﾃﾝｼｮﾝﾌﾚｰﾑ
100
AcDbLine
 10
357.9049895510982
 20
535.9926450791574
 30
0.0
 11
356.5960586614973
 21
537.9875726512051
 31
0.0
  0
LINE
  5
2CA1
330
1F
100
AcDbEntity
  8
ｴｸｽﾃﾝｼｮﾝﾌﾚｰﾑ
100
AcDbLine
 10
356.2334245260895
 20
534.8986361270334
 30
0.0
 11
354.9641760170507
 21
536.8427506854177
 31
0.0
  0
ARC
  5
2CA2
330
1F
100
AcDbEntity
  8
ｴｸｽﾃﾝｼｮﾝﾌﾚｰﾑ
100
AcDbCircle
 10
358.0667663744531
 20
533.9214434811652
 30
0.0
 40
2.077509999999999
100
AcDbArc
 50
151.9418624490547
 51
94.46617468937727
  0
ARC
  5
2CA3
330
1F
100
AcDbEntity
  8
ｴｸｽﾃﾝｼｮﾝﾌﾚｰﾑ
100
AcDbCircle
 10
353.7667863744532
 20
540.4914334811653
 30
0.0
 40
6.293999999999999
100
AcDbArc
 50
314.4225320980964
 51
0.0
  0
LINE
  5
2CA4
330
1F
100
AcDbEntity
  8
ｴｸｽﾃﾝｼｮﾝﾌﾚｰﾑ
100
AcDbLine
 10
353.5167763744532
 20
536.5763434811652
 30
0.0
 11
350.0208163744533
 21
536.5763434811652
 31
0.0
  0
ARC
  5
2CA5
330
1F
100
AcDbEntity
  8
ｴｸｽﾃﾝｼｮﾝﾌﾚｰﾑ
100
AcDbCircle
 10
350.0208163744533
 20
534.1763434811652
 30
0.0
 40
2.399999999999999
100
AcDbArc
 50
89.99999999999998
 51
180.0
1001
GENIUS_GENODEF_13
1002
{
1000
HIER
1070
     0
1002
}
1002
{
1000
MANEDIT
1070
     0
1002
}
1002
{
1000
NOSEL
1070
     0
1002
}
1002
{
1000
BEHIND
1070
     0
1002
}
1002
{
1000
OTHER
1070
     0
1002
}
1002
{
1000
REACTOR
1002
}
1001
GENIUS_GENOBJ-N-FIL_13
1002
{
1000
OWNER
1000
GEN
1002
}
  0
ARC
  5
2CA6
330
1F
100
AcDbEntity
  8
ｴｸｽﾃﾝｼｮﾝﾌﾚｰﾑ
100
AcDbCircle
 10
353.5167763744532
 20
540.6414334811653
 30
0.0
 40
4.06509
100
AcDbArc
 50
269.999989999999
 51
0.0
  0
LINE
  5
2CA7
330
1F
100
AcDbEntity
  8
ｴｸｽﾃﾝｼｮﾝﾌﾚｰﾑ
100
AcDbLine
 10
357.5818763744532
 20
557.5217934811653
 30
0.0
 11
357.5818763744532
 21
540.6414334811653
 31
0.0
  0
LINE
  5
2CA8
330
1F
100
AcDbEntity
  8
ｴｸｽﾃﾝｼｮﾝﾌﾚｰﾑ
100
AcDbLine
 10
350.0208163744533
 20
537.7414334811653
 30
0.0
 11
353.5167763744532
 21
537.7414334811653
 31
0.0
  0
ARC
  5
2CA9
330
1F
100
AcDbEntity
  8
ｴｸｽﾃﾝｼｮﾝﾌﾚｰﾑ
100
AcDbCircle
 10
350.0208163744533
 20
534.1414334811653
 30
0.0
 40
3.6
100
AcDbArc
 50
89.99999999999998
 51
180.0
1001
GENIUS_GENOBJ-N-FIL_13
1002
{
1000
OWNER
1000
GEN
1002
}
1001
GENIUS_GENODEF_13
1002
{
1000
HIER
1070
     0
1002
}
1002
{
1000
MANEDIT
1070
     0
1002
}
1002
{
1000
NOSEL
1070
     0
1002
}
1002
{
1000
BEHIND
1070
     0
1002
}
1002
{
1000
OTHER
1070
     0
1002
}
1002
{
1000
REACTOR
1002
}
  0
ARC
  5
2CAA
330
1F
100
AcDbEntity
  8
ｴｸｽﾃﾝｼｮﾝﾌﾚｰﾑ
100
AcDbCircle
 10
347.0363463744534
 20
537.6418532872931
 30
0.0
 40
1.0
100
AcDbArc
 50
180.0000000000065
 51
310.4510243181168
1001
GENIUS_GENODEF_13
1002
{
1000
HIER
1070
     0
1002
}
1002
{
1000
MANEDIT
1070
     0
1002
}
1002
{
1000
NOSEL
1070
     0
1002
}
1002
{
1000
BEHIND
1070
     0
1002
}
1002
{
1000
OTHER
1070
     0
1002
}
1002
{
1000
REACTOR
1002
}
1001
GENIUS_GENOBJ-N-FIL_13
1002
{
1000
OWNER
1000
GEN
1002
}
  0
ARC
  5
2CAB
330
1F
100
AcDbEntity
  8
ｴｸｽﾃﾝｼｮﾝﾌﾚｰﾑ
100
AcDbCircle
 10
353.5167763744532
 20
540.6414334811653
 30
0.0
 40
2.9
100
AcDbArc
 50
269.999989999999
 51
0.0
  0
LINE
  5
2CAC
330
1F
100
AcDbEntity
  8
ｴｸｽﾃﾝｼｮﾝﾌﾚｰﾑ
100
AcDbLine
 10
356.4167763744532
 20
540.6414334811653
 30
0.0
 11
356.4167763744532
 21
558.0911734811653
 31
0.0
  0
LINE
  5
2CAD
330
1F
100
AcDbEntity
  8
ｴｸｽﾃﾝｼｮﾝﾌﾚｰﾑ
100
AcDbLine
 10
360.0607863744532
 20
540.4914334811653
 30
0.0
 11
360.0607863744532
 21
556.0792334811654
 31
0.0
  0
LINE
  5
2CAE
330
1F
100
AcDbEntity
  8
ｴｸｽﾃﾝｼｮﾝﾌﾚｰﾑ
100
AcDbLine
 10
346.0363463744534
 20
537.641853287293
 30
0.0
 11
346.0363463744533
 21
559.9270234811653
 31
0.0
  0
ARC
  5
2CAF
330
1F
100
AcDbEntity
  8
ｴｸｽﾃﾝｼｮﾝﾌﾚｰﾑ
100
AcDbCircle
 10
363.0363463744533
 20
564.5400734811653
 30
0.0
 40
3.0
100
AcDbArc
 50
315.0
 51
0.0
  0
ARC
  5
2CB0
330
1F
100
AcDbEntity
  8
ｴｸｽﾃﾝｼｮﾝﾌﾚｰﾑ
100
AcDbCircle
 10
363.0607863744532
 20
556.0792334811654
 30
0.0
 40
3.0
100
AcDbArc
 50
135.0
 51
180.0
  0
ARC
  5
2CB1
330
1F
100
AcDbEntity
  8
ｴｸｽﾃﾝｼｮﾝﾌﾚｰﾑ
100
AcDbCircle
 10
347.0363463744533
 20
559.9270234811653
 30
0.0
 40
1.0
100
AcDbArc
 50
54.46884999999907
 51
180.0
  0
ARC
  5
2CB2
330
1F
100
AcDbEntity
  8
ｴｸｽﾃﾝｼｮﾝﾌﾚｰﾑ
100
AcDbCircle
 10
353.3708263744531
 20
568.7974334811654
 30
0.0
 40
9.9
100
AcDbArc
 50
234.4688499999991
 51
280.8186800000004
  0
ARC
  5
2CB3
330
1F
100
AcDbEntity
  8
ｴｸｽﾃﾝｼｮﾝﾌﾚｰﾑ
100
AcDbCircle
 10
355.4167763744532
 20
558.0911734811653
 30
0.0
 40
1.0
100
AcDbArc
 50
0.0
 51
100.8186800000004
  0
LINE
  5
2CB4
330
1F
100
AcDbEntity
  8
ｴｸｽﾃﾝｼｮﾝﾌﾚｰﾑ
100
AcDbLine
 10
358.1676663744531
 20
558.9360034811654
 30
0.0
 11
363.2634463744532
 21
564.0317934811653
 31
0.0
  0
ARC
  5
2CB5
330
1F
100
AcDbEntity
  8
ｴｸｽﾃﾝｼｮﾝﾌﾚｰﾑ
100
AcDbCircle
 10
362.5563463744533
 20
564.7389034811652
 30
0.0
 40
1.0
100
AcDbArc
 50
315.0
 51
0.0
  0
ARC
  5
2CB6
330
1F
100
AcDbEntity
  8
ｴｸｽﾃﾝｼｮﾝﾌﾚｰﾑ
100
AcDbCircle
 10
359.5818763744532
 20
557.5217934811653
 30
0.0
 40
2.0
100
AcDbArc
 50
135.0
 51
180.0
  0
LINE
  5
2CB7
330
1F
100
AcDbEntity
  8
ｴｸｽﾃﾝｼｮﾝﾌﾚｰﾑ
100
AcDbLine
 10
357.0025563744532
 20
559.4186034811652
 30
0.0
 11
362.1862163744531
 21
564.6022634811653
 31
0.0
  0
ARC
  5
2CB8
330
1F
100
AcDbEntity
  8
ｴｸｽﾃﾝｼｮﾝﾌﾚｰﾑ
100
AcDbCircle
 10
361.6912463744533
 20
565.0972334811653
 30
0.0
 40
0.7
100
AcDbArc
 50
315.0
 51
0.0
  0
ARC
  5
2CB9
330
1F
100
AcDbEntity
  8
ｴｸｽﾃﾝｼｮﾝﾌﾚｰﾑ
100
AcDbCircle
 10
358.4167763744532
 20
558.0043934811652
 30
0.0
 40
2.0
100
AcDbArc
 50
135.0
 51
180.0
  0
CIRCLE
  5
2CC2
330
1F
100
AcDbEntity
  8
ｴｸｽﾃﾝｼｮﾝﾌﾚｰﾑ
100
AcDbCircle
 10
378.3708163744532
 20
283.7019084811653
 30
0.0
 40
2.077509999999989
  0
LINE
  5
2CC3
330
1F
100
AcDbEntity
  8
ｴｸｽﾃﾝｼｮﾝﾌﾚｰﾑ
100
AcDbLine
 10
377.2863463744533
 20
269.0974384811657
 30
0.0
 11
373.7863463744533
 21
269.0974384811657
 31
0.0
  0
LINE
  5
2CC4
330
1F
100
AcDbEntity
  8
ｴｸｽﾃﾝｼｮﾝﾌﾚｰﾑ
100
AcDbLine
 10
371.2863463744533
 20
269.0974384811657
 30
0.0
 11
367.7863463744533
 21
269.0974384811657
 31
0.0
  0
ARC
  5
2CC5
330
1F
100
AcDbEntity
  8
ｴｸｽﾃﾝｼｮﾝﾌﾚｰﾑ
100
AcDbCircle
 10
377.5863463744531
 20
269.0974384811653
 30
0.0
 40
0.3
100
AcDbArc
 50
179.9999999999772
 51
270.0000000000212
1001
GENIUS_GENOBJ-N-FIL_13
1002
{
1000
OWNER
1000
GEN
1002
}
1001
GENIUS_GENODEF_13
1002
{
1000
HIER
1070
     0
1002
}
1002
{
1000
MANEDIT
1070
     0
1002
}
1002
{
1000
NOSEL
1070
     0
1002
}
1002
{
1000
BEHIND
1070
     0
1002
}
1002
{
1000
OTHER
1070
     0
1002
}
1002
{
1000
REACTOR
1002
}
  0
ARC
  5
2CC6
330
1F
100
AcDbEntity
  8
ｴｸｽﾃﾝｼｮﾝﾌﾚｰﾑ
100
AcDbCircle
 10
373.4863463744533
 20
269.0974384811653
 30
0.0
 40
0.3
100
AcDbArc
 50
269.9999999999886
 51
0.0000000000325562
1001
GENIUS_GENOBJ-N-FIL_13
1002
{
1000
OWNER
1000
GEN
1002
}
1001
GENIUS_GENODEF_13
1002
{
1000
HIER
1070
     0
1002
}
1002
{
1000
MANEDIT
1070
     0
1002
}
1002
{
1000
NOSEL
1070
     0
1002
}
1002
{
1000
BEHIND
1070
     0
1002
}
1002
{
1000
OTHER
1070
     0
1002
}
1002
{
1000
REACTOR
1002
}
  0
ARC
  5
2CC7
330
1F
100
AcDbEntity
  8
ｴｸｽﾃﾝｼｮﾝﾌﾚｰﾑ
100
AcDbCircle
 10
371.5863463744532
 20
269.0974384811653
 30
0.0
 40
0.3
100
AcDbArc
 50
179.9999999999772
 51
270.0000000000114
1001
GENIUS_GENOBJ-N-FIL_13
1002
{
1000
OWNER
1000
GEN
1002
}
1001
GENIUS_GENODEF_13
1002
{
1000
HIER
1070
     0
1002
}
1002
{
1000
MANEDIT
1070
     0
1002
}
1002
{
1000
NOSEL
1070
     0
1002
}
1002
{
1000
BEHIND
1070
     0
1002
}
1002
{
1000
OTHER
1070
     0
1002
}
1002
{
1000
REACTOR
1002
}
  0
ARC
  5
2CC8
330
1F
100
AcDbEntity
  8
ｴｸｽﾃﾝｼｮﾝﾌﾚｰﾑ
100
AcDbCircle
 10
367.4863463744533
 20
269.0974384811653
 30
0.0
 40
0.3
100
AcDbArc
 50
269.9999999999886
 51
0.0000000000325562
1001
GENIUS_GENOBJ-N-FIL_13
1002
{
1000
OWNER
1000
GEN
1002
}
1001
GENIUS_GENODEF_13
1002
{
1000
HIER
1070
     0
1002
}
1002
{
1000
MANEDIT
1070
     0
1002
}
1002
{
1000
NOSEL
1070
     0
1002
}
1002
{
1000
BEHIND
1070
     0
1002
}
1002
{
1000
OTHER
1070
     0
1002
}
1002
{
1000
REACTOR
1002
}
  0
LINE
  5
2CC9
330
1F
100
AcDbEntity
  8
ｴｸｽﾃﾝｼｮﾝﾌﾚｰﾑ
100
AcDbLine
 10
343.0363463744533
 20
535.2474384811654
 30
0.0
 11
343.0363463744533
 21
303.3474384811657
 31
0.0
  0
LINE
  5
2CCA
330
1F
100
AcDbEntity
  8
ｴｸｽﾃﾝｼｮﾝﾌﾚｰﾑ
100
AcDbLine
 10
346.4208163744534
 20
534.1414334811653
 30
0.0
 11
346.4208163744534
 21
303.7819084811654
 31
0.0
  0
LINE
  5
2CCB
330
1F
100
AcDbEntity
  8
ｴｸｽﾃﾝｼｮﾝﾌﾚｰﾑ
100
AcDbLine
 10
347.6208163744534
 20
303.7469884811656
 30
0.0
 11
347.6208163744533
 21
534.1763434811652
 31
0.0
  0
LINE
  5
2CCC
330
1F
100
AcDbEntity
  8
ｴｸｽﾃﾝｼｮﾝﾌﾚｰﾑ
100
AcDbLine
 10
350.9150263744532
 20
533.8974334811654
 30
0.0
 11
350.9150263744533
 21
304.1261284811653
 31
0.0
  0
LINE
  5
2CCD
330
1F
100
AcDbEntity
  8
ｴｸｽﾃﾝｼｮﾝﾌﾚｰﾑ
100
AcDbLine
 10
343.0363463744533
 20
299.2474384811655
 30
0.0
 11
343.0363463744533
 21
297.3474384811657
 31
0.0
  0
LINE
  5
2CCE
330
1F
100
AcDbEntity
  8
ｴｸｽﾃﾝｼｮﾝﾌﾚｰﾑ
100
AcDbLine
 10
343.0363463744533
 20
293.2474384811655
 30
0.0
 11
343.0363463744533
 21
278.7974384811655
 31
0.0
  0
LINE
  5
2CCF
330
1F
100
AcDbEntity
  8
ｴｸｽﾃﾝｼｮﾝﾌﾚｰﾑ
100
AcDbLine
 10
346.0208163744533
 20
299.7818834811915
 30
0.0
 11
346.0208163744533
 21
288.2044684811656
 31
0.0
  0
LINE
  5
2CD0
330
1F
100
AcDbEntity
  8
ｴｸｽﾃﾝｼｮﾝﾌﾚｰﾑ
100
AcDbLine
 10
356.1112263910191
 20
303.1477091656723
 30
0.0
 11
354.8415408941787
 21
301.1264587227401
 31
0.0
  0
LINE
  5
2CD1
330
1F
100
AcDbEntity
  8
ｴｸｽﾃﾝｼｮﾝﾌﾚｰﾑ
100
AcDbLine
 10
353.6708163744533
 20
303.8261284811654
 30
0.0
 11
351.2150263744534
 21
303.8261284811654
 31
0.0
  0
ARC
  5
2CD2
330
1F
100
AcDbEntity
  8
ｴｸｽﾃﾝｼｮﾝﾌﾚｰﾑ
100
AcDbCircle
 10
351.2150263744534
 20
304.1261284811652
 30
0.0
 40
0.3
100
AcDbArc
 50
180.0
 51
270.0
1001
GENIUS_GENODEF_13
1002
{
1000
HIER
1070
     0
1002
}
1002
{
1000
MANEDIT
1070
     0
1002
}
1002
{
1000
NOSEL
1070
     0
1002
}
1002
{
1000
BEHIND
1070
     0
1002
}
1002
{
1000
OTHER
1070
     0
1002
}
1002
{
1000
REACTOR
1002
}
1001
GENIUS_GENOBJ-N-FIL_13
1002
{
1000
OWNER
1000
GEN
1002
}
  0
LINE
  5
2CD3
330
1F
100
AcDbEntity
  8
ｴｸｽﾃﾝｼｮﾝﾌﾚｰﾑ
100
AcDbLine
 10
356.47079064396
 20
300.0787911350492
 30
0.0
 11
357.794516913977
 21
302.0595561298592
 31
0.0
  0
LINE
  5
2CD4
330
1F
100
AcDbEntity
  8
ｴｸｽﾃﾝｼｮﾝﾌﾚｰﾑ
100
AcDbLine
 10
356.0208163744533
 20
289.9869184811655
 30
0.0
 11
356.0208163744533
 21
297.2818984811654
 31
0.0
  0
LINE
  5
2CD5
330
1F
100
AcDbEntity
  8
ｴｸｽﾃﾝｼｮﾝﾌﾚｰﾑ
100
AcDbLine
 10
356.4208163744534
 20
291.0295784811653
 30
0.0
 11
356.4208163744534
 21
297.2818984811654
 31
0.0
  0
LINE
  5
2CD6
330
1F
100
AcDbEntity
  8
ｴｸｽﾃﾝｼｮﾝﾌﾚｰﾑ
100
AcDbLine
 10
357.5859163744533
 20
297.2818984811654
 30
0.0
 11
357.5859163744533
 21
291.0295784811653
 31
0.0
  0
LINE
  5
2CD7
330
1F
100
AcDbEntity
  8
ｴｸｽﾃﾝｼｮﾝﾌﾚｰﾑ
100
AcDbLine
 10
350.0208163744533
 20
301.3469884811655
 30
0.0
 11
353.5208163744532
 21
301.3469884811655
 31
0.0
  0
ARC
  5
2CD8
330
1F
100
AcDbEntity
  8
ｴｸｽﾃﾝｼｮﾝﾌﾚｰﾑ
100
AcDbCircle
 10
350.0208163744533
 20
303.7469884811654
 30
0.0
 40
2.399999999999999
100
AcDbArc
 50
180.0
 51
270.0
1001
GENIUS_GENODEF_13
1002
{
1000
HIER
1070
     0
1002
}
1002
{
1000
MANEDIT
1070
     0
1002
}
1002
{
1000
NOSEL
1070
     0
1002
}
1002
{
1000
BEHIND
1070
     0
1002
}
1002
{
1000
OTHER
1070
     0
1002
}
1002
{
1000
REACTOR
1002
}
1001
GENIUS_GENOBJ-N-FIL_13
1002
{
1000
OWNER
1000
GEN
1002
}
  0
LINE
  5
2CD9
330
1F
100
AcDbEntity
  8
ｴｸｽﾃﾝｼｮﾝﾌﾚｰﾑ
100
AcDbLine
 10
359.9650263744532
 20
293.9903684811654
 30
0.0
 11
359.9650263744532
 21
297.5318984811654
 31
0.0
  0
LINE
  5
2CDA
330
1F
100
AcDbEntity
  8
ｴｸｽﾃﾝｼｮﾝﾌﾚｰﾑ
100
AcDbLine
 10
353.5208163744532
 20
300.1819184811655
 30
0.0
 11
350.0208163744533
 21
300.1819184811655
 31
0.0
  0
LINE
  5
2CDB
330
1F
100
AcDbEntity
  8
ｴｸｽﾃﾝｼｮﾝﾌﾚｰﾑ
100
AcDbLine
 10
353.5208163744532
 20
299.7818984811654
 30
0.0
 11
350.0208163744533
 21
299.7818984811654
 31
0.0
  0
LINE
  5
2CDC
330
1F
100
AcDbEntity
  8
ｴｸｽﾃﾝｼｮﾝﾌﾚｰﾑ
100
AcDbLine
 10
361.7650363744533
 20
295.7903784811654
 30
0.0
 11
361.7650363744533
 21
297.6263184811655
 31
0.0
  0
LINE
  5
2CDD
330
1F
100
AcDbEntity
  8
ｴｸｽﾃﾝｼｮﾝﾌﾚｰﾑ
100
AcDbLine
 10
361.7650363744533
 20
297.6263184811655
 30
0.0
 11
362.3978563744533
 21
298.2591484811655
 31
0.0
  0
LINE
  5
2CDE
330
1F
100
AcDbEntity
  8
ｴｸｽﾃﾝｼｮﾝﾌﾚｰﾑ
100
AcDbLine
 10
358.8477386564778
 20
292.87308076319
 30
0.0
 11
361.7650363744533
 21
295.7903784811654
 31
0.0
  0
LINE
  5
2CDF
330
1F
100
AcDbEntity
  8
ｴｸｽﾃﾝｼｮﾝﾌﾚｰﾑ
100
AcDbLine
 10
365.2262763744533
 20
295.4307084811656
 30
0.0
 11
360.7715063744533
 21
290.9759384811655
 31
0.0
  0
LINE
  5
2CE0
330
1F
100
AcDbEntity
  8
ｴｸｽﾃﾝｼｮﾝﾌﾚｰﾑ
100
AcDbLine
 10
362.3978563744533
 20
298.2591484811655
 30
0.0
 11
365.2262763744533
 21
295.4307084811656
 31
0.0
  0
LINE
  5
2CE1
330
1F
100
AcDbEntity
  8
ｴｸｽﾃﾝｼｮﾝﾌﾚｰﾑ
100
AcDbLine
 10
358.8477386564778
 20
292.87308076319
 30
0.0
 11
357.5859163744533
 21
292.8725885956623
 31
0.0
  0
LINE
  5
2CE2
330
1F
100
AcDbEntity
  8
ｴｸｽﾃﾝｼｮﾝﾌﾚｰﾑ
100
AcDbLine
 10
360.7715063744533
 20
290.9759384811655
 30
0.0
 11
357.5869093138319
 21
290.9759384811655
 31
0.0
  0
ARC
  5
2CE3
330
1F
100
AcDbEntity
  8
ｴｸｽﾃﾝｼｮﾝﾌﾚｰﾑ
100
AcDbCircle
 10
353.6708163744533
 20
297.5318984811653
 30
0.0
 40
6.294209999999999
100
AcDbArc
 50
68.22985521690956
 51
89.99999999999998
  0
ARC
  5
2CE4
330
1F
100
AcDbEntity
  8
ｴｸｽﾃﾝｼｮﾝﾌﾚｰﾑ
100
AcDbCircle
 10
353.6708163744533
 20
297.5318984811653
 30
0.0
 40
6.294209999999999
100
AcDbArc
 50
359.999989999999
 51
45.96693744074608
  0
ARC
  5
2CE5
330
1F
100
AcDbEntity
  8
ｴｸｽﾃﾝｼｮﾝﾌﾚｰﾑ
100
AcDbCircle
 10
353.5208163744532
 20
297.2818984811653
 30
0.0
 40
2.5
100
AcDbArc
 50
359.999989999999
 51
89.99999999999998
  0
ARC
  5
2CE6
330
1F
100
AcDbEntity
  8
ｴｸｽﾃﾝｼｮﾝﾌﾚｰﾑ
100
AcDbCircle
 10
355.0208163744533
 20
289.9869184811654
 30
0.0
 40
1.0
100
AcDbArc
 50
260.6875499999997
 51
0.0
  0
ARC
  5
2CE7
330
1F
100
AcDbEntity
  8
ｴｸｽﾃﾝｼｮﾝﾌﾚｰﾑ
100
AcDbCircle
 10
353.2408163744533
 20
279.1319184811654
 30
0.0
 40
10.0
100
AcDbArc
 50
80.68755999999988
 51
124.4338499999979
  0
ARC
  5
2CE8
330
1F
100
AcDbEntity
  8
ｴｸｽﾃﾝｼｮﾝﾌﾚｰﾑ
100
AcDbCircle
 10
347.0208163744533
 20
288.2044684811654
 30
0.0
 40
1.0
100
AcDbArc
 50
179.999989999999
 51
304.4338600000007
  0
ARC
  5
2CE9
330
1F
100
AcDbEntity
  8
ｴｸｽﾃﾝｼｮﾝﾌﾚｰﾑ
100
AcDbCircle
 10
359.0208163744533
 20
291.0295784811652
 30
0.0
 40
1.43491
100
AcDbArc
 50
179.999989999999
 51
225.0
  0
ARC
  5
2CEA
330
1F
100
AcDbEntity
  8
ｴｸｽﾃﾝｼｮﾝﾌﾚｰﾑ
100
AcDbCircle
 10
353.5208163744532
 20
297.2818984811653
 30
0.0
 40
4.06509
100
AcDbArc
 50
359.999989999999
 51
89.99999999999998
  0
ARC
  5
2CEB
330
1F
100
AcDbEntity
  8
ｴｸｽﾃﾝｼｮﾝﾌﾚｰﾑ
100
AcDbCircle
 10
350.0208163744533
 20
303.7819084811653
 30
0.0
 40
3.6
100
AcDbArc
 50
179.999989999999
 51
269.9999900000006
  0
ARC
  5
2CEC
330
1F
100
AcDbEntity
  8
ｴｸｽﾃﾝｼｮﾝﾌﾚｰﾑ
100
AcDbCircle
 10
350.0208163744533
 20
303.7819084811653
 30
0.0
 40
4.000020000000096
100
AcDbArc
 50
233.1302742406284
 51
269.9999900000006
  0
ARC
  5
2CED
330
1F
100
AcDbEntity
  8
ｴｸｽﾃﾝｼｮﾝﾌﾚｰﾑ
100
AcDbCircle
 10
347.0208163744533
 20
299.7818834811914
 30
0.0
 40
1.0
100
AcDbArc
 50
53.13027424062513
 51
179.9999999999967
1001
GENIUS_GENOBJ-N-FIL_13
1002
{
1000
OWNER
1000
GEN
1002
}
1001
GENIUS_GENODEF_13
1002
{
1000
HIER
1070
     0
1002
}
1002
{
1000
MANEDIT
1070
     0
1002
}
1002
{
1000
NOSEL
1070
     0
1002
}
1002
{
1000
BEHIND
1070
     0
1002
}
1002
{
1000
OTHER
1070
     0
1002
}
1002
{
1000
REACTOR
1002
}
  0
ARC
  5
2CEE
330
1F
100
AcDbEntity
  8
ｴｸｽﾃﾝｼｮﾝﾌﾚｰﾑ
100
AcDbCircle
 10
353.5208163744532
 20
297.2818984811653
 30
0.0
 40
2.9
100
AcDbArc
 50
359.999989999999
 51
89.99999999999998
  0
ARC
  5
2CEF
330
1F
100
AcDbEntity
  8
ｴｸｽﾃﾝｼｮﾝﾌﾚｰﾑ
100
AcDbCircle
 10
359.0208163744533
 20
291.0295784811652
 30
0.0
 40
2.6
100
AcDbArc
 50
179.999989999999
 51
225.0
  0
CIRCLE
  5
2CF8
330
1F
100
AcDbEntity
  8
ｴｸｽﾃﾝｼｮﾝﾌﾚｰﾑ
100
AcDbCircle
 10
357.9408163744533
 20
304.1319084811654
 30
0.0
 40
2.077509999999989
  0
LINE
  5
2CF9
330
1F
100
AcDbEntity
  8
ｴｸｽﾃﾝｼｮﾝﾌﾚｰﾑ
100
AcDbLine
 10
343.3363463744533
 20
303.0474384811655
 30
0.0
 11
343.3363463744533
 21
299.5474384811655
 31
0.0
  0
LINE
  5
2CFA
330
1F
100
AcDbEntity
  8
ｴｸｽﾃﾝｼｮﾝﾌﾚｰﾑ
100
AcDbLine
 10
343.3363463744533
 20
297.0474384811655
 30
0.0
 11
343.3363463744533
 21
293.5474384811655
 31
0.0
  0
ARC
  5
2CFB
330
1F
100
AcDbEntity
  8
ｴｸｽﾃﾝｼｮﾝﾌﾚｰﾑ
100
AcDbCircle
 10
343.3363463744531
 20
303.3474384811654
 30
0.0
 40
0.3
100
AcDbArc
 50
179.9999999999772
 51
270.0000000000212
1001
GENIUS_GENOBJ-N-FIL_13
1002
{
1000
OWNER
1000
GEN
1002
}
1001
GENIUS_GENODEF_13
1002
{
1000
HIER
1070
     0
1002
}
1002
{
1000
MANEDIT
1070
     0
1002
}
1002
{
1000
NOSEL
1070
     0
1002
}
1002
{
1000
BEHIND
1070
     0
1002
}
1002
{
1000
OTHER
1070
     0
1002
}
1002
{
1000
REACTOR
1002
}
  0
ARC
  5
2CFC
330
1F
100
AcDbEntity
  8
ｴｸｽﾃﾝｼｮﾝﾌﾚｰﾑ
100
AcDbCircle
 10
343.3363463744531
 20
299.2474384811654
 30
0.0
 40
0.3
100
AcDbArc
 50
89.99999999996742
 51
180.0000000000097
1001
GENIUS_GENOBJ-N-FIL_13
1002
{
1000
OWNER
1000
GEN
1002
}
1001
GENIUS_GENODEF_13
1002
{
1000
HIER
1070
     0
1002
}
1002
{
1000
MANEDIT
1070
     0
1002
}
1002
{
1000
NOSEL
1070
     0
1002
}
1002
{
1000
BEHIND
1070
     0
1002
}
1002
{
1000
OTHER
1070
     0
1002
}
1002
{
1000
REACTOR
1002
}
  0
ARC
  5
2CFD
330
1F
100
AcDbEntity
  8
ｴｸｽﾃﾝｼｮﾝﾌﾚｰﾑ
100
AcDbCircle
 10
343.3363463744531
 20
297.3474384811654
 30
0.0
 40
0.3
100
AcDbArc
 50
179.9999999999902
 51
270.0000000000212
1001
GENIUS_GENOBJ-N-FIL_13
1002
{
1000
OWNER
1000
GEN
1002
}
1001
GENIUS_GENODEF_13
1002
{
1000
HIER
1070
     0
1002
}
1002
{
1000
MANEDIT
1070
     0
1002
}
1002
{
1000
NOSEL
1070
     0
1002
}
1002
{
1000
BEHIND
1070
     0
1002
}
1002
{
1000
OTHER
1070
     0
1002
}
1002
{
1000
REACTOR
1002
}
  0
ARC
  5
2CFE
330
1F
100
AcDbEntity
  8
ｴｸｽﾃﾝｼｮﾝﾌﾚｰﾑ
100
AcDbCircle
 10
343.3363463744531
 20
293.2474384811655
 30
0.0
 40
0.3
100
AcDbArc
 50
89.99999999996742
 51
180.0000000000097
1001
GENIUS_GENOBJ-N-FIL_13
1002
{
1000
OWNER
1000
GEN
1002
}
1001
GENIUS_GENODEF_13
1002
{
1000
HIER
1070
     0
1002
}
1002
{
1000
MANEDIT
1070
     0
1002
}
1002
{
1000
NOSEL
1070
     0
1002
}
1002
{
1000
BEHIND
1070
     0
1002
}
1002
{
1000
OTHER
1070
     0
1002
}
1002
{
1000
REACTOR
1002
}
  0
LINE
  5
2D07
330
1F
100
AcDbEntity
  8
ｴｸｽﾃﾝｼｮﾝﾌﾚｰﾑ
100
AcDbLine
 10
343.0363463744533
 20
541.2474384811654
 30
0.0
 11
343.0363463744533
 21
539.3474384811654
 31
0.0
  0
LINE
  5
2D08
330
1F
100
AcDbEntity
  8
ｴｸｽﾃﾝｼｮﾝﾌﾚｰﾑ
100
AcDbLine
 10
343.3363463744533
 20
545.0474384811654
 30
0.0
 11
343.3363463744533
 21
541.5474384811654
 31
0.0
  0
LINE
  5
2D09
330
1F
100
AcDbEntity
  8
ｴｸｽﾃﾝｼｮﾝﾌﾚｰﾑ
100
AcDbLine
 10
343.3363463744533
 20
539.0474384811653
 30
0.0
 11
343.3363463744533
 21
535.5474384811653
 31
0.0
  0
ARC
  5
2D0A
330
1F
100
AcDbEntity
  8
ｴｸｽﾃﾝｼｮﾝﾌﾚｰﾑ
100
AcDbCircle
 10
343.3363463744531
 20
545.3474384811653
 30
0.0
 40
0.3
100
AcDbArc
 50
179.9999999999772
 51
270.0000000000212
1001
GENIUS_GENOBJ-N-FIL_13
1002
{
1000
OWNER
1000
GEN
1002
}
1001
GENIUS_GENODEF_13
1002
{
1000
HIER
1070
     0
1002
}
1002
{
1000
MANEDIT
1070
     0
1002
}
1002
{
1000
NOSEL
1070
     0
1002
}
1002
{
1000
BEHIND
1070
     0
1002
}
1002
{
1000
OTHER
1070
     0
1002
}
1002
{
1000
REACTOR
1002
}
  0
ARC
  5
2D0B
330
1F
100
AcDbEntity
  8
ｴｸｽﾃﾝｼｮﾝﾌﾚｰﾑ
100
AcDbCircle
 10
343.3363463744531
 20
541.2474384811654
 30
0.0
 40
0.3
100
AcDbArc
 50
89.99999999996742
 51
180.0000000000097
1001
GENIUS_GENOBJ-N-FIL_13
1002
{
1000
OWNER
1000
GEN
1002
}
1001
GENIUS_GENODEF_13
1002
{
1000
HIER
1070
     0
1002
}
1002
{
1000
MANEDIT
1070
     0
1002
}
1002
{
1000
NOSEL
1070
     0
1002
}
1002
{
1000
BEHIND
1070
     0
1002
}
1002
{
1000
OTHER
1070
     0
1002
}
1002
{
1000
REACTOR
1002
}
  0
ARC
  5
2D0C
330
1F
100
AcDbEntity
  8
ｴｸｽﾃﾝｼｮﾝﾌﾚｰﾑ
100
AcDbCircle
 10
343.3363463744531
 20
539.3474384811653
 30
0.0
 40
0.3
100
AcDbArc
 50
179.9999999999902
 51
270.0000000000212
1001
GENIUS_GENOBJ-N-FIL_13
1002
{
1000
OWNER
1000
GEN
1002
}
1001
GENIUS_GENODEF_13
1002
{
1000
HIER
1070
     0
1002
}
1002
{
1000
MANEDIT
1070
     0
1002
}
1002
{
1000
NOSEL
1070
     0
1002
}
1002
{
1000
BEHIND
1070
     0
1002
}
1002
{
1000
OTHER
1070
     0
1002
}
1002
{
1000
REACTOR
1002
}
  0
ARC
  5
2D0D
330
1F
100
AcDbEntity
  8
ｴｸｽﾃﾝｼｮﾝﾌﾚｰﾑ
100
AcDbCircle
 10
343.3363463744531
 20
535.2474384811654
 30
0.0
 40
0.3
100
AcDbArc
 50
89.99999999996742
 51
180.0000000000097
1001
GENIUS_GENOBJ-N-FIL_13
1002
{
1000
OWNER
1000
GEN
1002
}
1001
GENIUS_GENODEF_13
1002
{
1000
HIER
1070
     0
1002
}
1002
{
1000
MANEDIT
1070
     0
1002
}
1002
{
1000
NOSEL
1070
     0
1002
}
1002
{
1000
BEHIND
1070
     0
1002
}
1002
{
1000
OTHER
1070
     0
1002
}
1002
{
1000
REACTOR
1002
}
  0
LINE
  5
2E57
330
1F
100
AcDbEntity
  8
ｴｸｽﾃﾝｼｮﾝﾌﾚｰﾑ
100
AcDbLine
 10
612.5863463744535
 20
868.7974384811655
 30
0.0
 11
614.4863463744534
 21
868.7974384811655
 31
0.0
  0
LINE
  5
2E58
330
1F
100
AcDbEntity
  8
ｴｸｽﾃﾝｼｮﾝﾌﾚｰﾑ
100
AcDbLine
 10
618.5863463744535
 20
868.7974384811655
 30
0.0
 11
633.0363463744533
 21
868.7974384811655
 31
0.0
  0
LINE
  5
2E59
330
1F
100
AcDbEntity
  8
ｴｸｽﾃﾝｼｮﾝﾌﾚｰﾑ
100
AcDbLine
 10
612.0519013744273
 20
865.8129684811653
 30
0.0
 11
623.6293163744535
 21
865.8129684811653
 31
0.0
  0
LINE
  5
2E5A
330
1F
100
AcDbEntity
  8
ｴｸｽﾃﾝｼｮﾝﾌﾚｰﾑ
100
AcDbLine
 10
608.6860756899469
 20
855.7225584645998
 30
0.0
 11
610.7073261328789
 21
856.99224396144
 31
0.0
  0
LINE
  5
2E5B
330
1F
100
AcDbEntity
  8
ｴｸｽﾃﾝｼｮﾝﾌﾚｰﾑ
100
AcDbLine
 10
628.8903663744536
 20
848.4037784811654
 30
0.0
 11
622.6426963744533
 21
854.6514384811654
 31
0.0
  0
LINE
  5
2E5C
330
1F
100
AcDbEntity
  8
ｴｸｽﾃﾝｼｮﾝﾌﾚｰﾑ
100
AcDbLine
 10
608.0076563744537
 20
858.1629684811654
 30
0.0
 11
608.0076563744537
 21
860.6187584811653
 31
0.0
  0
ARC
  5
2E5D
330
1F
100
AcDbEntity
  8
ｴｸｽﾃﾝｼｮﾝﾌﾚｰﾑ
100
AcDbCircle
 10
607.7076563744535
 20
860.6187584811653
 30
0.0
 40
0.3
100
AcDbArc
 50
0.0
 51
89.99999999999998
1001
GENIUS_GENODEF_13
1002
{
1000
HIER
1070
     0
1002
}
1002
{
1000
MANEDIT
1070
     0
1002
}
1002
{
1000
NOSEL
1070
     0
1002
}
1002
{
1000
BEHIND
1070
     0
1002
}
1002
{
1000
OTHER
1070
     0
1002
}
1002
{
1000
REACTOR
1002
}
1001
GENIUS_GENOBJ-N-FIL_13
1002
{
1000
OWNER
1000
GEN
1002
}
  0
LINE
  5
2E5E
330
1F
100
AcDbEntity
  8
ｴｸｽﾃﾝｼｮﾝﾌﾚｰﾑ
100
AcDbLine
 10
611.7549937205699
 20
855.3629942116586
 30
0.0
 11
609.7742287257597
 21
854.0392679416417
 31
0.0
  0
LINE
  5
2E5F
330
1F
100
AcDbEntity
  8
ｴｸｽﾃﾝｼｮﾝﾌﾚｰﾑ
100
AcDbLine
 10
621.8468663744536
 20
855.8129684811653
 30
0.0
 11
614.5518863744537
 21
855.8129684811653
 31
0.0
  0
LINE
  5
2E60
330
1F
100
AcDbEntity
  8
ｴｸｽﾃﾝｼｮﾝﾌﾚｰﾑ
100
AcDbLine
 10
620.8042063744537
 20
855.4129684811654
 30
0.0
 11
614.5518863744537
 21
855.4129684811654
 31
0.0
  0
LINE
  5
2E61
330
1F
100
AcDbEntity
  8
ｴｸｽﾃﾝｼｮﾝﾌﾚｰﾑ
100
AcDbLine
 10
614.5518863744537
 20
854.2478684811655
 30
0.0
 11
620.8042063744537
 21
854.2478684811655
 31
0.0
  0
LINE
  5
2E62
330
1F
100
AcDbEntity
  8
ｴｸｽﾃﾝｼｮﾝﾌﾚｰﾑ
100
AcDbLine
 10
621.8188363744534
 20
853.8275984811654
 30
0.0
 11
628.0665063744536
 21
847.5799284811653
 31
0.0
  0
LINE
  5
2E63
330
1F
100
AcDbEntity
  8
ｴｸｽﾃﾝｼｮﾝﾌﾚｰﾑ
100
AcDbLine
 10
610.4867963744537
 20
861.8129684811654
 30
0.0
 11
610.4867963744537
 21
858.3129684811654
 31
0.0
  0
ARC
  5
2E64
330
1F
100
AcDbEntity
  8
ｴｸｽﾃﾝｼｮﾝﾌﾚｰﾑ
100
AcDbCircle
 10
608.0867963744536
 20
861.8129684811652
 30
0.0
 40
2.399999999999999
100
AcDbArc
 50
0.0
 51
89.99999999999998
1001
GENIUS_GENODEF_13
1002
{
1000
HIER
1070
     0
1002
}
1002
{
1000
MANEDIT
1070
     0
1002
}
1002
{
1000
NOSEL
1070
     0
1002
}
1002
{
1000
BEHIND
1070
     0
1002
}
1002
{
1000
OTHER
1070
     0
1002
}
1002
{
1000
REACTOR
1002
}
1001
GENIUS_GENOBJ-N-FIL_13
1002
{
1000
OWNER
1000
GEN
1002
}
  0
LINE
  5
2E65
330
1F
100
AcDbEntity
  8
ｴｸｽﾃﾝｼｮﾝﾌﾚｰﾑ
100
AcDbLine
 10
617.8434163744537
 20
851.8687584811655
 30
0.0
 11
614.3018863744536
 21
851.8687584811655
 31
0.0
  0
LINE
  5
2E66
330
1F
100
AcDbEntity
  8
ｴｸｽﾃﾝｼｮﾝﾌﾚｰﾑ
100
AcDbLine
 10
625.8750461084741
 20
846.6189384811654
 30
0.0
 11
620.8578463744534
 21
851.6361484811653
 31
0.0
  0
LINE
  5
2E67
330
1F
100
AcDbEntity
  8
ｴｸｽﾃﾝｼｮﾝﾌﾚｰﾑ
100
AcDbLine
 10
611.6518663744536
 20
858.3129684811654
 30
0.0
 11
611.6518663744536
 21
861.8129684811654
 31
0.0
  0
LINE
  5
2E68
330
1F
100
AcDbEntity
  8
ｴｸｽﾃﾝｼｮﾝﾌﾚｰﾑ
100
AcDbLine
 10
612.0518863744536
 20
858.3129684811654
 30
0.0
 11
612.0518863744536
 21
861.8129684811654
 31
0.0
  0
LINE
  5
2E69
330
1F
100
AcDbEntity
  8
ｴｸｽﾃﾝｼｮﾝﾌﾚｰﾑ
100
AcDbLine
 10
616.0434063744538
 20
850.0687484811654
 30
0.0
 11
614.2074663744535
 21
850.0687484811654
 31
0.0
  0
LINE
  5
2E6A
330
1F
100
AcDbEntity
  8
ｴｸｽﾃﾝｼｮﾝﾌﾚｰﾑ
100
AcDbLine
 10
614.2074663744535
 20
850.0687484811654
 30
0.0
 11
613.5746363744535
 21
849.4359284811654
 31
0.0
  0
LINE
  5
2E6B
330
1F
100
AcDbEntity
  8
ｴｸｽﾃﾝｼｮﾝﾌﾚｰﾑ
100
AcDbLine
 10
618.9607040924291
 20
852.9860461991409
 30
0.0
 11
616.0434063744538
 21
850.0687484811654
 31
0.0
  0
LINE
  5
2E6C
330
1F
100
AcDbEntity
  8
ｴｸｽﾃﾝｼｮﾝﾌﾚｰﾑ
100
AcDbLine
 10
616.4030763744535
 20
846.6075084811654
 30
0.0
 11
620.8578463744534
 21
851.0622784811655
 31
0.0
  0
LINE
  5
2E6D
330
1F
100
AcDbEntity
  8
ｴｸｽﾃﾝｼｮﾝﾌﾚｰﾑ
100
AcDbLine
 10
613.5746363744535
 20
849.4359284811654
 30
0.0
 11
616.4030763744535
 21
846.6075084811654
 31
0.0
  0
LINE
  5
2E6E
330
1F
100
AcDbEntity
  8
ｴｸｽﾃﾝｼｮﾝﾌﾚｰﾑ
100
AcDbLine
 10
618.9607040924291
 20
852.9860461991409
 30
0.0
 11
618.9611962599565
 21
854.2478684811655
 31
0.0
  0
LINE
  5
2E6F
330
1F
100
AcDbEntity
  8
ｴｸｽﾃﾝｼｮﾝﾌﾚｰﾑ
100
AcDbLine
 10
620.8578463744534
 20
851.0622784811655
 30
0.0
 11
620.8578463744534
 21
854.2468755417868
 31
0.0
  0
ARC
  5
2E70
330
1F
100
AcDbEntity
  8
ｴｸｽﾃﾝｼｮﾝﾌﾚｰﾑ
100
AcDbCircle
 10
633.0363463744536
 20
858.7974384811653
 30
0.0
 40
10.0
100
AcDbArc
 50
0.0
 51
89.99999999999998
1001
GENIUS_GENOBJ-N-FIL_13
1002
{
1000
OWNER
1000
GEN
1002
}
1001
GENIUS_GENODEF_13
1002
{
1000
HIER
1070
     0
1002
}
1002
{
1000
MANEDIT
1070
     0
1002
}
1002
{
1000
NOSEL
1070
     0
1002
}
1002
{
1000
BEHIND
1070
     0
1002
}
1002
{
1000
OTHER
1070
     0
1002
}
1002
{
1000
REACTOR
1002
}
  0
ARC
  5
2E71
330
1F
100
AcDbEntity
  8
ｴｸｽﾃﾝｼｮﾝﾌﾚｰﾑ
100
AcDbCircle
 10
633.0363463744536
 20
858.7974384811653
 30
0.0
 40
9.5
100
AcDbArc
 50
0.0
 51
89.99999999999998
1001
GENIUS_GENOBJ-N-FIL_13
1002
{
1000
OWNER
1000
GEN
1002
}
1001
GENIUS_GENODEF_13
1002
{
1000
HIER
1070
     0
1002
}
1002
{
1000
MANEDIT
1070
     0
1002
}
1002
{
1000
NOSEL
1070
     0
1002
}
1002
{
1000
BEHIND
1070
     0
1002
}
1002
{
1000
OTHER
1070
     0
1002
}
1002
{
1000
REACTOR
1002
}
  0
ARC
  5
2E72
330
1F
100
AcDbEntity
  8
ｴｸｽﾃﾝｼｮﾝﾌﾚｰﾑ
100
AcDbCircle
 10
614.3018863744536
 20
858.1629684811654
 30
0.0
 40
6.294209999999999
100
AcDbArc
 50
180.0
 51
201.7701447830919
  0
ARC
  5
2E73
330
1F
100
AcDbEntity
  8
ｴｸｽﾃﾝｼｮﾝﾌﾚｰﾑ
100
AcDbCircle
 10
614.3018863744536
 20
858.1629684811654
 30
0.0
 40
6.294209999999999
100
AcDbArc
 50
224.033062559255
 51
270.000010000001
  0
ARC
  5
2E75
330
1F
100
AcDbEntity
  8
ｴｸｽﾃﾝｼｮﾝﾌﾚｰﾑ
100
AcDbCircle
 10
614.5518863744537
 20
858.3129684811652
 30
0.0
 40
2.5
100
AcDbArc
 50
180.0
 51
270.000010000001
  0
ARC
  5
2E76
330
1F
100
AcDbEntity
  8
ｴｸｽﾃﾝｼｮﾝﾌﾚｰﾑ
100
AcDbCircle
 10
621.8468663744536
 20
856.8129684811653
 30
0.0
 40
1.0
100
AcDbArc
 50
270.0
 51
9.312450000000279
  0
ARC
  5
2E77
330
1F
100
AcDbEntity
  8
ｴｸｽﾃﾝｼｮﾝﾌﾚｰﾑ
100
AcDbCircle
 10
632.7018663744536
 20
858.5929684811654
 30
0.0
 40
10.0
100
AcDbArc
 50
145.5661500000021
 51
189.3124400000017
  0
ARC
  5
2E78
330
1F
100
AcDbEntity
  8
ｴｸｽﾃﾝｼｮﾝﾌﾚｰﾑ
100
AcDbCircle
 10
623.6293163744535
 20
864.8129684811653
 30
0.0
 40
1.0
100
AcDbArc
 50
325.5661399999979
 51
90.00001000000098
  0
ARC
  5
2E7A
330
1F
100
AcDbEntity
  8
ｴｸｽﾃﾝｼｮﾝﾌﾚｰﾑ
100
AcDbCircle
 10
620.8042063744537
 20
852.8129684811652
 30
0.0
 40
1.43491
100
AcDbArc
 50
44.99999999999999
 51
90.00001000000098
  0
ARC
  5
2E7B
330
1F
100
AcDbEntity
  8
ｴｸｽﾃﾝｼｮﾝﾌﾚｰﾑ
100
AcDbCircle
 10
614.5518863744537
 20
858.3129684811652
 30
0.0
 40
4.06509
100
AcDbArc
 50
180.0
 51
270.000010000001
  0
ARC
  5
2E7C
330
1F
100
AcDbEntity
  8
ｴｸｽﾃﾝｼｮﾝﾌﾚｰﾑ
100
AcDbCircle
 10
608.0518763744537
 20
861.8129684811652
 30
0.0
 40
3.6
100
AcDbArc
 50
0.0000100000009937
 51
90.00001000000098
  0
ARC
  5
2E7D
330
1F
100
AcDbEntity
  8
ｴｸｽﾃﾝｼｮﾝﾌﾚｰﾑ
100
AcDbCircle
 10
608.0518763744537
 20
861.8129684811652
 30
0.0
 40
4.000020000000096
100
AcDbArc
 50
0.0000100000009937
 51
36.86972575937126
  0
ARC
  5
2E7E
330
1F
100
AcDbEntity
  8
ｴｸｽﾃﾝｼｮﾝﾌﾚｰﾑ
100
AcDbCircle
 10
612.0519013744276
 20
864.8129684811653
 30
0.0
 40
1.0
100
AcDbArc
 50
90.00000000000323
 51
216.8697257593739
1001
GENIUS_GENOBJ-N-FIL_13
1002
{
1000
OWNER
1000
GEN
1002
}
1001
GENIUS_GENODEF_13
1002
{
1000
HIER
1070
     0
1002
}
1002
{
1000
MANEDIT
1070
     0
1002
}
1002
{
1000
NOSEL
1070
     0
1002
}
1002
{
1000
BEHIND
1070
     0
1002
}
1002
{
1000
OTHER
1070
     0
1002
}
1002
{
1000
REACTOR
1002
}
  0
ARC
  5
2E7F
330
1F
100
AcDbEntity
  8
ｴｸｽﾃﾝｼｮﾝﾌﾚｰﾑ
100
AcDbCircle
 10
614.5518863744537
 20
858.3129684811652
 30
0.0
 40
2.9
100
AcDbArc
 50
180.0
 51
270.000010000001
  0
ARC
  5
2E80
330
1F
100
AcDbEntity
  8
ｴｸｽﾃﾝｼｮﾝﾌﾚｰﾑ
100
AcDbCircle
 10
620.8042063744537
 20
852.8129684811652
 30
0.0
 40
2.6
100
AcDbArc
 50
44.99999999999999
 51
90.00001000000098
  0
LINE
  5
2E81
330
1F
100
AcDbEntity
  8
ｴｸｽﾃﾝｼｮﾝﾌﾚｰﾑ
100
AcDbLine
 10
620.0363463744533
 20
564.5400834811654
 30
0.0
 11
620.0363463744533
 21
573.0548034811654
 31
0.0
  0
LINE
  5
2E82
330
1F
100
AcDbEntity
  8
ｴｸｽﾃﾝｼｮﾝﾌﾚｰﾑ
100
AcDbLine
 10
622.5163463744534
 20
564.7389034811655
 30
0.0
 11
622.5163463744534
 21
572.8559734811654
 31
0.0
  0
LINE
  5
2E83
330
1F
100
AcDbEntity
  8
ｴｸｽﾃﾝｼｮﾝﾌﾚｰﾑ
100
AcDbLine
 10
623.6814463744535
 20
565.0972434811653
 30
0.0
 11
623.6814463744535
 21
572.4976434811654
 31
0.0
  0
LINE
  5
2E84
330
1F
100
AcDbEntity
  8
ｴｸｽﾃﾝｼｮﾝﾌﾚｰﾑ
100
AcDbLine
 10
625.1332263744534
 20
579.3943234811655
 30
0.0
 11
620.9150263744536
 21
575.1761234811655
 31
0.0
  0
LINE
  5
2E85
330
1F
100
AcDbEntity
  8
ｴｸｽﾃﾝｼｮﾝﾌﾚｰﾑ
100
AcDbLine
 10
634.8576663744534
 20
603.3974434811653
 30
0.0
 11
632.3059063744535
 21
603.3974434811653
 31
0.0
  0
ARC
  5
2E86
330
1F
100
AcDbEntity
  8
ｴｸｽﾃﾝｼｮﾝﾌﾚｰﾑ
100
AcDbCircle
 10
634.8576663744536
 20
603.6974434811652
 30
0.0
 40
0.3
100
AcDbArc
 50
270.0
 51
0.0
1001
GENIUS_GENODEF_13
1002
{
1000
HIER
1070
     0
1002
}
1002
{
1000
MANEDIT
1070
     0
1002
}
1002
{
1000
NOSEL
1070
     0
1002
}
1002
{
1000
BEHIND
1070
     0
1002
}
1002
{
1000
OTHER
1070
     0
1002
}
1002
{
1000
REACTOR
1002
}
1001
GENIUS_GENOBJ-N-FIL_13
1002
{
1000
OWNER
1000
GEN
1002
}
  0
ARC
  5
2E87
330
1F
100
AcDbEntity
  8
ｴｸｽﾃﾝｼｮﾝﾌﾚｰﾑ
100
AcDbCircle
 10
632.3059063744535
 20
597.1034434811652
 30
0.0
 40
6.293999999999999
100
AcDbArc
 50
89.99999999999998
 51
111.9860039892518
  0
LINE
  5
2E88
330
1F
100
AcDbEntity
  8
ｴｸｽﾃﾝｼｮﾝﾌﾚｰﾑ
100
AcDbLine
 10
628.1677031978086
 20
601.6022318831732
 30
0.0
 11
629.4766340874093
 21
599.6073043111256
 31
0.0
  0
LINE
  5
2E89
330
1F
100
AcDbEntity
  8
ｴｸｽﾃﾝｼｮﾝﾌﾚｰﾑ
100
AcDbLine
 10
629.8392682228173
 20
602.6962408352972
 30
0.0
 11
631.1085167318561
 21
600.752126276913
 31
0.0
  0
ARC
  5
2E8A
330
1F
100
AcDbEntity
  8
ｴｸｽﾃﾝｼｮﾝﾌﾚｰﾑ
100
AcDbCircle
 10
628.0059263744537
 20
603.6734334811654
 30
0.0
 40
2.077509999999999
100
AcDbArc
 50
331.9418624490547
 51
274.4661746893773
  0
ARC
  5
2E8B
330
1F
100
AcDbEntity
  8
ｴｸｽﾃﾝｼｮﾝﾌﾚｰﾑ
100
AcDbCircle
 10
632.3059063744535
 20
597.1034434811652
 30
0.0
 40
6.293999999999999
100
AcDbArc
 50
134.4225320980964
 51
180.0
  0
LINE
  5
2E8C
330
1F
100
AcDbEntity
  8
ｴｸｽﾃﾝｼｮﾝﾌﾚｰﾑ
100
AcDbLine
 10
632.5559163744535
 20
601.0185334811654
 30
0.0
 11
636.0518763744535
 21
601.0185334811654
 31
0.0
  0
ARC
  5
2E8D
330
1F
100
AcDbEntity
  8
ｴｸｽﾃﾝｼｮﾝﾌﾚｰﾑ
100
AcDbCircle
 10
636.0518763744535
 20
603.4185334811653
 30
0.0
 40
2.399999999999999
100
AcDbArc
 50
270.0
 51
0.0
1001
GENIUS_GENODEF_13
1002
{
1000
HIER
1070
     0
1002
}
1002
{
1000
MANEDIT
1070
     0
1002
}
1002
{
1000
NOSEL
1070
     0
1002
}
1002
{
1000
BEHIND
1070
     0
1002
}
1002
{
1000
OTHER
1070
     0
1002
}
1002
{
1000
REACTOR
1002
}
1001
GENIUS_GENOBJ-N-FIL_13
1002
{
1000
OWNER
1000
GEN
1002
}
  0
ARC
  5
2E8E
330
1F
100
AcDbEntity
  8
ｴｸｽﾃﾝｼｮﾝﾌﾚｰﾑ
100
AcDbCircle
 10
632.5559163744535
 20
596.9534434811653
 30
0.0
 40
4.06509
100
AcDbArc
 50
89.99998999999897
 51
180.0
  0
LINE
  5
2E8F
330
1F
100
AcDbEntity
  8
ｴｸｽﾃﾝｼｮﾝﾌﾚｰﾑ
100
AcDbLine
 10
628.4908163744534
 20
580.0730834811654
 30
0.0
 11
628.4908163744534
 21
596.9534434811654
 31
0.0
  0
LINE
  5
2E90
330
1F
100
AcDbEntity
  8
ｴｸｽﾃﾝｼｮﾝﾌﾚｰﾑ
100
AcDbLine
 10
636.0518763744535
 20
599.8534434811654
 30
0.0
 11
632.5559163744535
 21
599.8534434811654
 31
0.0
  0
ARC
  5
2E91
330
1F
100
AcDbEntity
  8
ｴｸｽﾃﾝｼｮﾝﾌﾚｰﾑ
100
AcDbCircle
 10
636.0518763744535
 20
603.4534434811653
 30
0.0
 40
3.6
100
AcDbArc
 50
270.0
 51
0.0
1001
GENIUS_GENOBJ-N-FIL_13
1002
{
1000
OWNER
1000
GEN
1002
}
1001
GENIUS_GENODEF_13
1002
{
1000
HIER
1070
     0
1002
}
1002
{
1000
MANEDIT
1070
     0
1002
}
1002
{
1000
NOSEL
1070
     0
1002
}
1002
{
1000
BEHIND
1070
     0
1002
}
1002
{
1000
OTHER
1070
     0
1002
}
1002
{
1000
REACTOR
1002
}
  0
ARC
  5
2E92
330
1F
100
AcDbEntity
  8
ｴｸｽﾃﾝｼｮﾝﾌﾚｰﾑ
100
AcDbCircle
 10
639.0363463744534
 20
599.9530236750374
 30
0.0
 40
1.0
100
AcDbArc
 50
0.0000000000065011
 51
130.4510243181168
1001
GENIUS_GENODEF_13
1002
{
1000
HIER
1070
     0
1002
}
1002
{
1000
MANEDIT
1070
     0
1002
}
1002
{
1000
NOSEL
1070
     0
1002
}
1002
{
1000
BEHIND
1070
     0
1002
}
1002
{
1000
OTHER
1070
     0
1002
}
1002
{
1000
REACTOR
1002
}
1001
GENIUS_GENOBJ-N-FIL_13
1002
{
1000
OWNER
1000
GEN
1002
}
  0
ARC
  5
2E93
330
1F
100
AcDbEntity
  8
ｴｸｽﾃﾝｼｮﾝﾌﾚｰﾑ
100
AcDbCircle
 10
632.5559163744535
 20
596.9534434811653
 30
0.0
 40
2.9
100
AcDbArc
 50
89.99998999999897
 51
180.0
  0
LINE
  5
2E94
330
1F
100
AcDbEntity
  8
ｴｸｽﾃﾝｼｮﾝﾌﾚｰﾑ
100
AcDbLine
 10
629.6559163744537
 20
596.9534434811654
 30
0.0
 11
629.6559163744534
 21
579.5037034811654
 31
0.0
  0
LINE
  5
2E95
330
1F
100
AcDbEntity
  8
ｴｸｽﾃﾝｼｮﾝﾌﾚｰﾑ
100
AcDbLine
 10
626.0119063744537
 20
597.1034434811654
 30
0.0
 11
626.0119063744534
 21
581.5156434811654
 31
0.0
  0
LINE
  5
2E96
330
1F
100
AcDbEntity
  8
ｴｸｽﾃﾝｼｮﾝﾌﾚｰﾑ
100
AcDbLine
 10
640.0363463744533
 20
599.9530236750375
 30
0.0
 11
640.0363463744533
 21
577.6678534811654
 31
0.0
  0
ARC
  5
2E97
330
1F
100
AcDbEntity
  8
ｴｸｽﾃﾝｼｮﾝﾌﾚｰﾑ
100
AcDbCircle
 10
623.0363463744536
 20
573.0548034811653
 30
0.0
 40
3.0
100
AcDbArc
 50
135.0
 51
180.0
  0
ARC
  5
2E98
330
1F
100
AcDbEntity
  8
ｴｸｽﾃﾝｼｮﾝﾌﾚｰﾑ
100
AcDbCircle
 10
623.0119063744536
 20
581.5156434811653
 30
0.0
 40
3.0
100
AcDbArc
 50
315.0
 51
0.0
  0
ARC
  5
2E99
330
1F
100
AcDbEntity
  8
ｴｸｽﾃﾝｼｮﾝﾌﾚｰﾑ
100
AcDbCircle
 10
639.0363463744535
 20
577.6678534811654
 30
0.0
 40
1.0
100
AcDbArc
 50
234.4688499999991
 51
0.0
  0
ARC
  5
2E9A
330
1F
100
AcDbEntity
  8
ｴｸｽﾃﾝｼｮﾝﾌﾚｰﾑ
100
AcDbCircle
 10
632.7018663744536
 20
568.7974434811652
 30
0.0
 40
9.9
100
AcDbArc
 50
54.46884999999907
 51
100.8186800000004
  0
ARC
  5
2E9B
330
1F
100
AcDbEntity
  8
ｴｸｽﾃﾝｼｮﾝﾌﾚｰﾑ
100
AcDbCircle
 10
630.6559163744537
 20
579.5037034811652
 30
0.0
 40
1.0
100
AcDbArc
 50
180.0
 51
280.8186800000004
  0
LINE
  5
2E9C
330
1F
100
AcDbEntity
  8
ｴｸｽﾃﾝｼｮﾝﾌﾚｰﾑ
100
AcDbLine
 10
627.9050263744534
 20
578.6588734811654
 30
0.0
 11
622.8092463744533
 21
573.5630834811654
 31
0.0
  0
ARC
  5
2E9D
330
1F
100
AcDbEntity
  8
ｴｸｽﾃﾝｼｮﾝﾌﾚｰﾑ
100
AcDbCircle
 10
623.5163463744536
 20
572.8559734811653
 30
0.0
 40
1.0
100
AcDbArc
 50
135.0
 51
180.0
  0
ARC
  5
2E9E
330
1F
100
AcDbEntity
  8
ｴｸｽﾃﾝｼｮﾝﾌﾚｰﾑ
100
AcDbCircle
 10
626.4908163744537
 20
580.0730834811653
 30
0.0
 40
2.0
100
AcDbArc
 50
315.0
 51
0.0
  0
LINE
  5
2E9F
330
1F
100
AcDbEntity
  8
ｴｸｽﾃﾝｼｮﾝﾌﾚｰﾑ
100
AcDbLine
 10
629.0701363744533
 20
578.1762734811654
 30
0.0
 11
623.8864763744536
 21
572.9926134811655
 31
0.0
  0
ARC
  5
2EA0
330
1F
100
AcDbEntity
  8
ｴｸｽﾃﾝｼｮﾝﾌﾚｰﾑ
100
AcDbCircle
 10
624.3814463744536
 20
572.4976434811654
 30
0.0
 40
0.7
100
AcDbArc
 50
135.0
 51
180.0
  0
ARC
  5
2EA1
330
1F
100
AcDbEntity
  8
ｴｸｽﾃﾝｼｮﾝﾌﾚｰﾑ
100
AcDbCircle
 10
627.6559163744536
 20
579.5904834811653
 30
0.0
 40
2.0
100
AcDbArc
 50
315.0
 51
0.0
  0
CIRCLE
  5
2EAA
330
1F
100
AcDbEntity
  8
ｴｸｽﾃﾝｼｮﾝﾌﾚｰﾑ
100
AcDbCircle
 10
607.7018763744535
 20
853.8929684811654
 30
0.0
 40
2.077509999999989
  0
LINE
  5
2EAB
330
1F
100
AcDbEntity
  8
ｴｸｽﾃﾝｼｮﾝﾌﾚｰﾑ
100
AcDbLine
 10
608.7863463744533
 20
868.4974384811653
 30
0.0
 11
612.2863463744534
 21
868.4974384811653
 31
0.0
  0
LINE
  5
2EAC
330
1F
100
AcDbEntity
  8
ｴｸｽﾃﾝｼｮﾝﾌﾚｰﾑ
100
AcDbLine
 10
614.7863463744534
 20
868.4974384811653
 30
0.0
 11
618.2863463744533
 21
868.4974384811653
 31
0.0
  0
ARC
  5
2EAD
330
1F
100
AcDbEntity
  8
ｴｸｽﾃﾝｼｮﾝﾌﾚｰﾑ
100
AcDbCircle
 10
608.4863463744536
 20
868.4974384811654
 30
0.0
 40
0.3
100
AcDbArc
 50
359.9999999999772
 51
90.00000000002115
1001
GENIUS_GENOBJ-N-FIL_13
1002
{
1000
OWNER
1000
GEN
1002
}
1001
GENIUS_GENODEF_13
1002
{
1000
HIER
1070
     0
1002
}
1002
{
1000
MANEDIT
1070
     0
1002
}
1002
{
1000
NOSEL
1070
     0
1002
}
1002
{
1000
BEHIND
1070
     0
1002
}
1002
{
1000
OTHER
1070
     0
1002
}
1002
{
1000
REACTOR
1002
}
  0
ARC
  5
2EAE
330
1F
100
AcDbEntity
  8
ｴｸｽﾃﾝｼｮﾝﾌﾚｰﾑ
100
AcDbCircle
 10
612.5863463744535
 20
868.4974384811654
 30
0.0
 40
0.3
100
AcDbArc
 50
89.99999999998859
 51
180.0000000000325
1001
GENIUS_GENOBJ-N-FIL_13
1002
{
1000
OWNER
1000
GEN
1002
}
1001
GENIUS_GENODEF_13
1002
{
1000
HIER
1070
     0
1002
}
1002
{
1000
MANEDIT
1070
     0
1002
}
1002
{
1000
NOSEL
1070
     0
1002
}
1002
{
1000
BEHIND
1070
     0
1002
}
1002
{
1000
OTHER
1070
     0
1002
}
1002
{
1000
REACTOR
1002
}
  0
ARC
  5
2EAF
330
1F
100
AcDbEntity
  8
ｴｸｽﾃﾝｼｮﾝﾌﾚｰﾑ
100
AcDbCircle
 10
614.4863463744536
 20
868.4974384811654
 30
0.0
 40
0.3
100
AcDbArc
 50
359.9999999999772
 51
90.00000000001138
1001
GENIUS_GENOBJ-N-FIL_13
1002
{
1000
OWNER
1000
GEN
1002
}
1001
GENIUS_GENODEF_13
1002
{
1000
HIER
1070
     0
1002
}
1002
{
1000
MANEDIT
1070
     0
1002
}
1002
{
1000
NOSEL
1070
     0
1002
}
1002
{
1000
BEHIND
1070
     0
1002
}
1002
{
1000
OTHER
1070
     0
1002
}
1002
{
1000
REACTOR
1002
}
  0
ARC
  5
2EB0
330
1F
100
AcDbEntity
  8
ｴｸｽﾃﾝｼｮﾝﾌﾚｰﾑ
100
AcDbCircle
 10
618.5863463744535
 20
868.4974384811654
 30
0.0
 40
0.3
100
AcDbArc
 50
89.99999999998859
 51
180.0000000000325
1001
GENIUS_GENOBJ-N-FIL_13
1002
{
1000
OWNER
1000
GEN
1002
}
1001
GENIUS_GENODEF_13
1002
{
1000
HIER
1070
     0
1002
}
1002
{
1000
MANEDIT
1070
     0
1002
}
1002
{
1000
NOSEL
1070
     0
1002
}
1002
{
1000
BEHIND
1070
     0
1002
}
1002
{
1000
OTHER
1070
     0
1002
}
1002
{
1000
REACTOR
1002
}
  0
LINE
  5
2EB1
330
1F
100
AcDbEntity
  8
ｴｸｽﾃﾝｼｮﾝﾌﾚｰﾑ
100
AcDbLine
 10
643.0363463744534
 20
602.3474384811652
 30
0.0
 11
643.0363463744534
 21
834.2474384811653
 31
0.0
  0
LINE
  5
2EB2
330
1F
100
AcDbEntity
  8
ｴｸｽﾃﾝｼｮﾝﾌﾚｰﾑ
100
AcDbLine
 10
642.5363463744534
 20
278.7974384811653
 30
0.0
 11
642.5363463744534
 21
858.7974384811653
 31
0.0
  0
LINE
  5
2EB3
330
1F
100
AcDbEntity
  8
ｴｸｽﾃﾝｼｮﾝﾌﾚｰﾑ
100
AcDbLine
 10
639.6518763744534
 20
603.4534434811653
 30
0.0
 11
639.6518763744534
 21
833.8129684811654
 31
0.0
  0
LINE
  5
2EB4
330
1F
100
AcDbEntity
  8
ｴｸｽﾃﾝｼｮﾝﾌﾚｰﾑ
100
AcDbLine
 10
638.4518763744534
 20
833.8478884811655
 30
0.0
 11
638.4518763744535
 21
603.4185334811654
 31
0.0
  0
LINE
  5
2EB5
330
1F
100
AcDbEntity
  8
ｴｸｽﾃﾝｼｮﾝﾌﾚｰﾑ
100
AcDbLine
 10
635.1576663744536
 20
603.6974434811654
 30
0.0
 11
635.1576663744536
 21
833.4687484811656
 31
0.0
  0
LINE
  5
2EB6
330
1F
100
AcDbEntity
  8
ｴｸｽﾃﾝｼｮﾝﾌﾚｰﾑ
100
AcDbLine
 10
643.0363463744534
 20
838.3474384811654
 30
0.0
 11
643.0363463744534
 21
840.2474384811652
 31
0.0
  0
LINE
  5
2EB7
330
1F
100
AcDbEntity
  8
ｴｸｽﾃﾝｼｮﾝﾌﾚｰﾑ
100
AcDbLine
 10
643.0363463744534
 20
844.3474384811652
 30
0.0
 11
643.0363463744534
 21
858.7974384811653
 31
0.0
  0
LINE
  5
2EB8
330
1F
100
AcDbEntity
  8
ｴｸｽﾃﾝｼｮﾝﾌﾚｰﾑ
100
AcDbLine
 10
640.0518763744535
 20
837.8129934811394
 30
0.0
 11
640.0518763744535
 21
849.3904084811655
 31
0.0
  0
LINE
  5
2EB9
330
1F
100
AcDbEntity
  8
ｴｸｽﾃﾝｼｮﾝﾌﾚｰﾑ
100
AcDbLine
 10
629.9614663578877
 20
834.4471677966586
 30
0.0
 11
631.231151854728
 21
836.468418239591
 31
0.0
  0
LINE
  5
2EBA
330
1F
100
AcDbEntity
  8
ｴｸｽﾃﾝｼｮﾝﾌﾚｰﾑ
100
AcDbLine
 10
632.4018763744533
 20
833.7687484811654
 30
0.0
 11
634.8576663744534
 21
833.7687484811654
 31
0.0
  0
ARC
  5
2EBB
330
1F
100
AcDbEntity
  8
ｴｸｽﾃﾝｼｮﾝﾌﾚｰﾑ
100
AcDbCircle
 10
634.8576663744534
 20
833.4687484811654
 30
0.0
 40
0.3
100
AcDbArc
 50
0.0
 51
89.99999999999998
1001
GENIUS_GENODEF_13
1002
{
1000
HIER
1070
     0
1002
}
1002
{
1000
MANEDIT
1070
     0
1002
}
1002
{
1000
NOSEL
1070
     0
1002
}
1002
{
1000
BEHIND
1070
     0
1002
}
1002
{
1000
OTHER
1070
     0
1002
}
1002
{
1000
REACTOR
1002
}
1001
GENIUS_GENOBJ-N-FIL_13
1002
{
1000
OWNER
1000
GEN
1002
}
  0
LINE
  5
2EBC
330
1F
100
AcDbEntity
  8
ｴｸｽﾃﾝｼｮﾝﾌﾚｰﾑ
100
AcDbLine
 10
629.6019021049469
 20
837.5160858272817
 30
0.0
 11
628.2781758349297
 21
835.5353208324716
 31
0.0
  0
LINE
  5
2EBD
330
1F
100
AcDbEntity
  8
ｴｸｽﾃﾝｼｮﾝﾌﾚｰﾑ
100
AcDbLine
 10
630.0518763744535
 20
847.6079584811655
 30
0.0
 11
630.0518763744535
 21
840.3129784811655
 31
0.0
  0
LINE
  5
2EBE
330
1F
100
AcDbEntity
  8
ｴｸｽﾃﾝｼｮﾝﾌﾚｰﾑ
100
AcDbLine
 10
629.6518763744534
 20
846.5652984811654
 30
0.0
 11
629.6518763744534
 21
840.3129784811655
 31
0.0
  0
LINE
  5
2EBF
330
1F
100
AcDbEntity
  8
ｴｸｽﾃﾝｼｮﾝﾌﾚｰﾑ
100
AcDbLine
 10
628.4867763744535
 20
840.3129784811655
 30
0.0
 11
628.4867763744535
 21
846.5652984811654
 31
0.0
  0
LINE
  5
2EC0
330
1F
100
AcDbEntity
  8
ｴｸｽﾃﾝｼｮﾝﾌﾚｰﾑ
100
AcDbLine
 10
636.0518763744535
 20
836.2478884811654
 30
0.0
 11
632.5518763744534
 21
836.2478884811654
 31
0.0
  0
ARC
  5
2EC1
330
1F
100
AcDbEntity
  8
ｴｸｽﾃﾝｼｮﾝﾌﾚｰﾑ
100
AcDbCircle
 10
636.0518763744535
 20
833.8478884811655
 30
0.0
 40
2.399999999999999
100
AcDbArc
 50
0.0
 51
89.99999999999998
1001
GENIUS_GENODEF_13
1002
{
1000
HIER
1070
     0
1002
}
1002
{
1000
MANEDIT
1070
     0
1002
}
1002
{
1000
NOSEL
1070
     0
1002
}
1002
{
1000
BEHIND
1070
     0
1002
}
1002
{
1000
OTHER
1070
     0
1002
}
1002
{
1000
REACTOR
1002
}
1001
GENIUS_GENOBJ-N-FIL_13
1002
{
1000
OWNER
1000
GEN
1002
}
  0
LINE
  5
2EC2
330
1F
100
AcDbEntity
  8
ｴｸｽﾃﾝｼｮﾝﾌﾚｰﾑ
100
AcDbLine
 10
626.1076663744534
 20
843.6045084811654
 30
0.0
 11
626.1076663744534
 21
840.0629784811654
 31
0.0
  0
LINE
  5
2EC3
330
1F
100
AcDbEntity
  8
ｴｸｽﾃﾝｼｮﾝﾌﾚｰﾑ
100
AcDbLine
 10
632.5518763744534
 20
837.4129584811655
 30
0.0
 11
636.0518763744535
 21
837.4129584811655
 31
0.0
  0
LINE
  5
2EC4
330
1F
100
AcDbEntity
  8
ｴｸｽﾃﾝｼｮﾝﾌﾚｰﾑ
100
AcDbLine
 10
632.5518763744534
 20
837.8129784811655
 30
0.0
 11
636.0518763744535
 21
837.8129784811655
 31
0.0
  0
LINE
  5
2EC5
330
1F
100
AcDbEntity
  8
ｴｸｽﾃﾝｼｮﾝﾌﾚｰﾑ
100
AcDbLine
 10
624.3076563744534
 20
841.8044984811654
 30
0.0
 11
624.3076563744534
 21
839.9685584811656
 31
0.0
  0
LINE
  5
2EC6
330
1F
100
AcDbEntity
  8
ｴｸｽﾃﾝｼｮﾝﾌﾚｰﾑ
100
AcDbLine
 10
624.3076563744534
 20
839.9685584811656
 30
0.0
 11
623.6748363744534
 21
839.3357284811655
 31
0.0
  0
LINE
  5
2EC7
330
1F
100
AcDbEntity
  8
ｴｸｽﾃﾝｼｮﾝﾌﾚｰﾑ
100
AcDbLine
 10
627.224954092429
 20
844.7217961991411
 30
0.0
 11
624.3076563744534
 21
841.8044984811654
 31
0.0
  0
LINE
  5
2EC8
330
1F
100
AcDbEntity
  8
ｴｸｽﾃﾝｼｮﾝﾌﾚｰﾑ
100
AcDbLine
 10
620.8464163744533
 20
842.1641684811655
 30
0.0
 11
625.3011863744534
 21
846.6189384811654
 31
0.0
  0
LINE
  5
2EC9
330
1F
100
AcDbEntity
  8
ｴｸｽﾃﾝｼｮﾝﾌﾚｰﾑ
100
AcDbLine
 10
623.6748363744534
 20
839.3357284811655
 30
0.0
 11
620.8464163744533
 21
842.1641684811655
 31
0.0
  0
LINE
  5
2ECA
330
1F
100
AcDbEntity
  8
ｴｸｽﾃﾝｼｮﾝﾌﾚｰﾑ
100
AcDbLine
 10
627.224954092429
 20
844.7217961991411
 30
0.0
 11
628.4867763744535
 21
844.7222883666684
 31
0.0
  0
LINE
  5
2ECB
330
1F
100
AcDbEntity
  8
ｴｸｽﾃﾝｼｮﾝﾌﾚｰﾑ
100
AcDbLine
 10
625.3011863744534
 20
846.6189384811654
 30
0.0
 11
628.4857834350748
 21
846.6189384811654
 31
0.0
  0
ARC
  5
2ECC
330
1F
100
AcDbEntity
  8
ｴｸｽﾃﾝｼｮﾝﾌﾚｰﾑ
100
AcDbCircle
 10
632.4018763744533
 20
840.0629784811654
 30
0.0
 40
6.294209999999999
100
AcDbArc
 50
248.2298552169096
 51
270.0
  0
ARC
  5
2ECD
330
1F
100
AcDbEntity
  8
ｴｸｽﾃﾝｼｮﾝﾌﾚｰﾑ
100
AcDbCircle
 10
632.4018763744533
 20
840.0629784811654
 30
0.0
 40
6.294209999999999
100
AcDbArc
 50
179.999989999999
 51
225.9669374407461
  0
ARC
  5
2ECE
330
1F
100
AcDbEntity
  8
ｴｸｽﾃﾝｼｮﾝﾌﾚｰﾑ
100
AcDbCircle
 10
632.5518763744534
 20
840.3129784811653
 30
0.0
 40
2.5
100
AcDbArc
 50
179.999989999999
 51
270.0
  0
ARC
  5
2ECF
330
1F
100
AcDbEntity
  8
ｴｸｽﾃﾝｼｮﾝﾌﾚｰﾑ
100
AcDbCircle
 10
631.0518763744535
 20
847.6079584811655
 30
0.0
 40
1.0
100
AcDbArc
 50
80.68754999999969
 51
180.0
  0
ARC
  5
2ED0
330
1F
100
AcDbEntity
  8
ｴｸｽﾃﾝｼｮﾝﾌﾚｰﾑ
100
AcDbCircle
 10
632.8318763744534
 20
858.4629584811654
 30
0.0
 40
10.0
100
AcDbArc
 50
260.6875599999999
 51
304.4338499999979
  0
ARC
  5
2ED1
330
1F
100
AcDbEntity
  8
ｴｸｽﾃﾝｼｮﾝﾌﾚｰﾑ
100
AcDbCircle
 10
639.0518763744535
 20
849.3904084811655
 30
0.0
 40
1.0
100
AcDbArc
 50
359.999989999999
 51
124.4338600000007
  0
ARC
  5
2ED2
330
1F
100
AcDbEntity
  8
ｴｸｽﾃﾝｼｮﾝﾌﾚｰﾑ
100
AcDbCircle
 10
627.0518763744535
 20
846.5652984811654
 30
0.0
 40
1.43491
100
AcDbArc
 50
359.999989999999
 51
44.99999999999999
  0
ARC
  5
2ED3
330
1F
100
AcDbEntity
  8
ｴｸｽﾃﾝｼｮﾝﾌﾚｰﾑ
100
AcDbCircle
 10
632.5518763744534
 20
840.3129784811653
 30
0.0
 40
4.06509
100
AcDbArc
 50
179.999989999999
 51
270.0
  0
ARC
  5
2ED4
330
1F
100
AcDbEntity
  8
ｴｸｽﾃﾝｼｮﾝﾌﾚｰﾑ
100
AcDbCircle
 10
636.0518763744535
 20
833.8129684811654
 30
0.0
 40
3.6
100
AcDbArc
 50
359.999989999999
 51
89.99999000000061
  0
ARC
  5
2ED5
330
1F
100
AcDbEntity
  8
ｴｸｽﾃﾝｼｮﾝﾌﾚｰﾑ
100
AcDbCircle
 10
636.0518763744535
 20
833.8129684811654
 30
0.0
 40
4.000020000000096
100
AcDbArc
 50
53.13027424062838
 51
89.99999000000061
  0
ARC
  5
2ED6
330
1F
100
AcDbEntity
  8
ｴｸｽﾃﾝｼｮﾝﾌﾚｰﾑ
100
AcDbCircle
 10
639.0518763744535
 20
837.8129934811394
 30
0.0
 40
1.0
100
AcDbArc
 50
233.1302742406252
 51
359.9999999999968
1001
GENIUS_GENOBJ-N-FIL_13
1002
{
1000
OWNER
1000
GEN
1002
}
1001
GENIUS_GENODEF_13
1002
{
1000
HIER
1070
     0
1002
}
1002
{
1000
MANEDIT
1070
     0
1002
}
1002
{
1000
NOSEL
1070
     0
1002
}
1002
{
1000
BEHIND
1070
     0
1002
}
1002
{
1000
OTHER
1070
     0
1002
}
1002
{
1000
REACTOR
1002
}
  0
ARC
  5
2ED7
330
1F
100
AcDbEntity
  8
ｴｸｽﾃﾝｼｮﾝﾌﾚｰﾑ
100
AcDbCircle
 10
632.5518763744534
 20
840.3129784811653
 30
0.0
 40
2.9
100
AcDbArc
 50
179.999989999999
 51
270.0
  0
ARC
  5
2ED8
330
1F
100
AcDbEntity
  8
ｴｸｽﾃﾝｼｮﾝﾌﾚｰﾑ
100
AcDbCircle
 10
627.0518763744535
 20
846.5652984811654
 30
0.0
 40
2.6
100
AcDbArc
 50
359.999989999999
 51
44.99999999999999
  0
CIRCLE
  5
2EE1
330
1F
100
AcDbEntity
  8
ｴｸｽﾃﾝｼｮﾝﾌﾚｰﾑ
100
AcDbCircle
 10
628.1318763744534
 20
833.4629684811655
 30
0.0
 40
2.077509999999989
  0
LINE
  5
2EE2
330
1F
100
AcDbEntity
  8
ｴｸｽﾃﾝｼｮﾝﾌﾚｰﾑ
100
AcDbLine
 10
642.7363463744534
 20
834.5474384811652
 30
0.0
 11
642.7363463744534
 21
838.0474384811652
 31
0.0
  0
LINE
  5
2EE3
330
1F
100
AcDbEntity
  8
ｴｸｽﾃﾝｼｮﾝﾌﾚｰﾑ
100
AcDbLine
 10
642.7363463744534
 20
840.5474384811652
 30
0.0
 11
642.7363463744534
 21
844.0474384811652
 31
0.0
  0
ARC
  5
2EE4
330
1F
100
AcDbEntity
  8
ｴｸｽﾃﾝｼｮﾝﾌﾚｰﾑ
100
AcDbCircle
 10
642.7363463744536
 20
834.2474384811653
 30
0.0
 40
0.3
100
AcDbArc
 50
359.9999999999772
 51
90.00000000002115
1001
GENIUS_GENOBJ-N-FIL_13
1002
{
1000
OWNER
1000
GEN
1002
}
1001
GENIUS_GENODEF_13
1002
{
1000
HIER
1070
     0
1002
}
1002
{
1000
MANEDIT
1070
     0
1002
}
1002
{
1000
NOSEL
1070
     0
1002
}
1002
{
1000
BEHIND
1070
     0
1002
}
1002
{
1000
OTHER
1070
     0
1002
}
1002
{
1000
REACTOR
1002
}
  0
ARC
  5
2EE5
330
1F
100
AcDbEntity
  8
ｴｸｽﾃﾝｼｮﾝﾌﾚｰﾑ
100
AcDbCircle
 10
642.7363463744536
 20
838.3474384811652
 30
0.0
 40
0.3
100
AcDbArc
 50
269.9999999999674
 51
0.0000000000097579
1001
GENIUS_GENOBJ-N-FIL_13
1002
{
1000
OWNER
1000
GEN
1002
}
1001
GENIUS_GENODEF_13
1002
{
1000
HIER
1070
     0
1002
}
1002
{
1000
MANEDIT
1070
     0
1002
}
1002
{
1000
NOSEL
1070
     0
1002
}
1002
{
1000
BEHIND
1070
     0
1002
}
1002
{
1000
OTHER
1070
     0
1002
}
1002
{
1000
REACTOR
1002
}
  0
ARC
  5
2EE6
330
1F
100
AcDbEntity
  8
ｴｸｽﾃﾝｼｮﾝﾌﾚｰﾑ
100
AcDbCircle
 10
642.7363463744536
 20
840.2474384811652
 30
0.0
 40
0.3
100
AcDbArc
 50
359.9999999999902
 51
90.00000000002115
1001
GENIUS_GENOBJ-N-FIL_13
1002
{
1000
OWNER
1000
GEN
1002
}
1001
GENIUS_GENODEF_13
1002
{
1000
HIER
1070
     0
1002
}
1002
{
1000
MANEDIT
1070
     0
1002
}
1002
{
1000
NOSEL
1070
     0
1002
}
1002
{
1000
BEHIND
1070
     0
1002
}
1002
{
1000
OTHER
1070
     0
1002
}
1002
{
1000
REACTOR
1002
}
  0
ARC
  5
2EE7
330
1F
100
AcDbEntity
  8
ｴｸｽﾃﾝｼｮﾝﾌﾚｰﾑ
100
AcDbCircle
 10
642.7363463744536
 20
844.3474384811652
 30
0.0
 40
0.3
100
AcDbArc
 50
269.9999999999674
 51
0.0000000000097579
1001
GENIUS_GENOBJ-N-FIL_13
1002
{
1000
OWNER
1000
GEN
1002
}
1001
GENIUS_GENODEF_13
1002
{
1000
HIER
1070
     0
1002
}
1002
{
1000
MANEDIT
1070
     0
1002
}
1002
{
1000
NOSEL
1070
     0
1002
}
1002
{
1000
BEHIND
1070
     0
1002
}
1002
{
1000
OTHER
1070
     0
1002
}
1002
{
1000
REACTOR
1002
}
  0
LINE
  5
2EF2
330
1F
100
AcDbEntity
  8
ｴｸｽﾃﾝｼｮﾝﾌﾚｰﾑ
100
AcDbLine
 10
643.0363463744534
 20
545.3474384811652
 30
0.0
 11
643.0363463744534
 21
592.2474384811652
 31
0.0
  0
LINE
  5
2EF3
330
1F
100
AcDbEntity
  8
ｴｸｽﾃﾝｼｮﾝﾌﾚｰﾑ
100
AcDbLine
 10
643.0363463744534
 20
596.3474384811652
 30
0.0
 11
643.0363463744534
 21
598.2474384811652
 31
0.0
  0
LINE
  5
2EF4
330
1F
100
AcDbEntity
  8
ｴｸｽﾃﾝｼｮﾝﾌﾚｰﾑ
100
AcDbLine
 10
642.7363463744534
 20
592.5474384811653
 30
0.0
 11
642.7363463744534
 21
596.0474384811653
 31
0.0
  0
LINE
  5
2EF5
330
1F
100
AcDbEntity
  8
ｴｸｽﾃﾝｼｮﾝﾌﾚｰﾑ
100
AcDbLine
 10
642.7363463744534
 20
598.5474384811652
 30
0.0
 11
642.7363463744534
 21
602.0474384811652
 31
0.0
  0
ARC
  5
2EF6
330
1F
100
AcDbEntity
  8
ｴｸｽﾃﾝｼｮﾝﾌﾚｰﾑ
100
AcDbCircle
 10
642.7363463744536
 20
592.2474384811653
 30
0.0
 40
0.3
100
AcDbArc
 50
359.9999999999772
 51
90.00000000002115
1001
GENIUS_GENOBJ-N-FIL_13
1002
{
1000
OWNER
1000
GEN
1002
}
1001
GENIUS_GENODEF_13
1002
{
1000
HIER
1070
     0
1002
}
1002
{
1000
MANEDIT
1070
     0
1002
}
1002
{
1000
NOSEL
1070
     0
1002
}
1002
{
1000
BEHIND
1070
     0
1002
}
1002
{
1000
OTHER
1070
     0
1002
}
1002
{
1000
REACTOR
1002
}
  0
ARC
  5
2EF7
330
1F
100
AcDbEntity
  8
ｴｸｽﾃﾝｼｮﾝﾌﾚｰﾑ
100
AcDbCircle
 10
642.7363463744536
 20
596.3474384811652
 30
0.0
 40
0.3
100
AcDbArc
 50
269.9999999999674
 51
0.0000000000097579
1001
GENIUS_GENOBJ-N-FIL_13
1002
{
1000
OWNER
1000
GEN
1002
}
1001
GENIUS_GENODEF_13
1002
{
1000
HIER
1070
     0
1002
}
1002
{
1000
MANEDIT
1070
     0
1002
}
1002
{
1000
NOSEL
1070
     0
1002
}
1002
{
1000
BEHIND
1070
     0
1002
}
1002
{
1000
OTHER
1070
     0
1002
}
1002
{
1000
REACTOR
1002
}
  0
ARC
  5
2EF8
330
1F
100
AcDbEntity
  8
ｴｸｽﾃﾝｼｮﾝﾌﾚｰﾑ
100
AcDbCircle
 10
642.7363463744536
 20
598.2474384811653
 30
0.0
 40
0.3
100
AcDbArc
 50
359.9999999999902
 51
90.00000000002115
1001
GENIUS_GENOBJ-N-FIL_13
1002
{
1000
OWNER
1000
GEN
1002
}
1001
GENIUS_GENODEF_13
1002
{
1000
HIER
1070
     0
1002
}
1002
{
1000
MANEDIT
1070
     0
1002
}
1002
{
1000
NOSEL
1070
     0
1002
}
1002
{
1000
BEHIND
1070
     0
1002
}
1002
{
1000
OTHER
1070
     0
1002
}
1002
{
1000
REACTOR
1002
}
  0
ARC
  5
2EF9
330
1F
100
AcDbEntity
  8
ｴｸｽﾃﾝｼｮﾝﾌﾚｰﾑ
100
AcDbCircle
 10
642.7363463744536
 20
602.3474384811652
 30
0.0
 40
0.3
100
AcDbArc
 50
269.9999999999674
 51
0.0000000000097579
1001
GENIUS_GENOBJ-N-FIL_13
1002
{
1000
OWNER
1000
GEN
1002
}
1001
GENIUS_GENODEF_13
1002
{
1000
HIER
1070
     0
1002
}
1002
{
1000
MANEDIT
1070
     0
1002
}
1002
{
1000
NOSEL
1070
     0
1002
}
1002
{
1000
BEHIND
1070
     0
1002
}
1002
{
1000
OTHER
1070
     0
1002
}
1002
{
1000
REACTOR
1002
}
  0
LINE
  5
2EFA
330
1F
100
AcDbEntity
  8
ｴｸｽﾃﾝｼｮﾝﾌﾚｰﾑ
100
AcDbLine
 10
612.5863463744535
 20
268.7974384811653
 30
0.0
 11
614.4863463744532
 21
268.7974384811653
 31
0.0
  0
LINE
  5
2EFB
330
1F
100
AcDbEntity
  8
ｴｸｽﾃﾝｼｮﾝﾌﾚｰﾑ
100
AcDbLine
 10
618.5863463744535
 20
268.7974384811653
 30
0.0
 11
633.0363463744533
 21
268.7974384811653
 31
0.0
  0
LINE
  5
2EFC
330
1F
100
AcDbEntity
  8
ｴｸｽﾃﾝｼｮﾝﾌﾚｰﾑ
100
AcDbLine
 10
612.0519013744273
 20
271.7819084811654
 30
0.0
 11
623.6293163744535
 21
271.7819084811654
 31
0.0
  0
LINE
  5
2EFD
330
1F
100
AcDbEntity
  8
ｴｸｽﾃﾝｼｮﾝﾌﾚｰﾑ
100
AcDbLine
 10
608.6860756899466
 20
281.8723184977312
 30
0.0
 11
610.7073261328787
 21
280.6026330008906
 31
0.0
  0
LINE
  5
2EFE
330
1F
100
AcDbEntity
  8
ｴｸｽﾃﾝｼｮﾝﾌﾚｰﾑ
100
AcDbLine
 10
628.8903663744536
 20
289.1910984811655
 30
0.0
 11
622.6426963744533
 21
282.9434384811655
 31
0.0
  0
LINE
  5
2EFF
330
1F
100
AcDbEntity
  8
ｴｸｽﾃﾝｼｮﾝﾌﾚｰﾑ
100
AcDbLine
 10
608.0076563744535
 20
279.4319084811653
 30
0.0
 11
608.0076563744535
 21
276.9761184811653
 31
0.0
  0
ARC
  5
2F00
330
1F
100
AcDbEntity
  8
ｴｸｽﾃﾝｼｮﾝﾌﾚｰﾑ
100
AcDbCircle
 10
607.7076563744533
 20
276.9761184811653
 30
0.0
 40
0.3
100
AcDbArc
 50
270.0
 51
0.0
1001
GENIUS_GENODEF_13
1002
{
1000
HIER
1070
     0
1002
}
1002
{
1000
MANEDIT
1070
     0
1002
}
1002
{
1000
NOSEL
1070
     0
1002
}
1002
{
1000
BEHIND
1070
     0
1002
}
1002
{
1000
OTHER
1070
     0
1002
}
1002
{
1000
REACTOR
1002
}
1001
GENIUS_GENOBJ-N-FIL_13
1002
{
1000
OWNER
1000
GEN
1002
}
  0
LINE
  5
2F01
330
1F
100
AcDbEntity
  8
ｴｸｽﾃﾝｼｮﾝﾌﾚｰﾑ
100
AcDbLine
 10
611.7549937205699
 20
282.231882750672
 30
0.0
 11
609.7742287257597
 21
283.5556090206889
 31
0.0
  0
LINE
  5
2F02
330
1F
100
AcDbEntity
  8
ｴｸｽﾃﾝｼｮﾝﾌﾚｰﾑ
100
AcDbLine
 10
621.8468663744533
 20
281.7819084811654
 30
0.0
 11
614.5518863744534
 21
281.7819084811654
 31
0.0
  0
LINE
  5
2F03
330
1F
100
AcDbEntity
  8
ｴｸｽﾃﾝｼｮﾝﾌﾚｰﾑ
100
AcDbLine
 10
620.8042063744535
 20
282.1819084811652
 30
0.0
 11
614.5518863744534
 21
282.1819084811652
 31
0.0
  0
LINE
  5
2F04
330
1F
100
AcDbEntity
  8
ｴｸｽﾃﾝｼｮﾝﾌﾚｰﾑ
100
AcDbLine
 10
614.5518863744534
 20
283.3470084811654
 30
0.0
 11
620.8042063744535
 21
283.3470084811654
 31
0.0
  0
LINE
  5
2F05
330
1F
100
AcDbEntity
  8
ｴｸｽﾃﾝｼｮﾝﾌﾚｰﾑ
100
AcDbLine
 10
621.8188363744534
 20
283.7672784811655
 30
0.0
 11
628.0665063744536
 21
290.0149484811652
 31
0.0
  0
LINE
  5
2F06
330
1F
100
AcDbEntity
  8
ｴｸｽﾃﾝｼｮﾝﾌﾚｰﾑ
100
AcDbLine
 10
610.4867963744534
 20
275.7819084811654
 30
0.0
 11
610.4867963744534
 21
279.2819084811654
 31
0.0
  0
ARC
  5
2F07
330
1F
100
AcDbEntity
  8
ｴｸｽﾃﾝｼｮﾝﾌﾚｰﾑ
100
AcDbCircle
 10
608.0867963744533
 20
275.7819084811654
 30
0.0
 40
2.399999999999999
100
AcDbArc
 50
270.0
 51
0.0
1001
GENIUS_GENODEF_13
1002
{
1000
HIER
1070
     0
1002
}
1002
{
1000
MANEDIT
1070
     0
1002
}
1002
{
1000
NOSEL
1070
     0
1002
}
1002
{
1000
BEHIND
1070
     0
1002
}
1002
{
1000
OTHER
1070
     0
1002
}
1002
{
1000
REACTOR
1002
}
1001
GENIUS_GENOBJ-N-FIL_13
1002
{
1000
OWNER
1000
GEN
1002
}
  0
LINE
  5
2F08
330
1F
100
AcDbEntity
  8
ｴｸｽﾃﾝｼｮﾝﾌﾚｰﾑ
100
AcDbLine
 10
617.8434163744534
 20
285.7261184811653
 30
0.0
 11
614.3018863744535
 21
285.7261184811653
 31
0.0
  0
LINE
  5
2F09
330
1F
100
AcDbEntity
  8
ｴｸｽﾃﾝｼｮﾝﾌﾚｰﾑ
100
AcDbLine
 10
625.8750461084741
 20
290.9759384811652
 30
0.0
 11
620.8578463744534
 21
285.9587284811653
 31
0.0
  0
LINE
  5
2F0A
330
1F
100
AcDbEntity
  8
ｴｸｽﾃﾝｼｮﾝﾌﾚｰﾑ
100
AcDbLine
 10
611.6518663744535
 20
279.2819084811654
 30
0.0
 11
611.6518663744535
 21
275.7819084811654
 31
0.0
  0
LINE
  5
2F0B
330
1F
100
AcDbEntity
  8
ｴｸｽﾃﾝｼｮﾝﾌﾚｰﾑ
100
AcDbLine
 10
612.0518863744535
 20
279.2819084811654
 30
0.0
 11
612.0518863744535
 21
275.7819084811654
 31
0.0
  0
LINE
  5
2F0C
330
1F
100
AcDbEntity
  8
ｴｸｽﾃﾝｼｮﾝﾌﾚｰﾑ
100
AcDbLine
 10
616.0434063744535
 20
287.5261284811652
 30
0.0
 11
614.2074663744534
 21
287.5261284811652
 31
0.0
  0
LINE
  5
2F0D
330
1F
100
AcDbEntity
  8
ｴｸｽﾃﾝｼｮﾝﾌﾚｰﾑ
100
AcDbLine
 10
614.2074663744534
 20
287.5261284811652
 30
0.0
 11
613.5746363744533
 21
288.1589484811655
 31
0.0
  0
LINE
  5
2F0E
330
1F
100
AcDbEntity
  8
ｴｸｽﾃﾝｼｮﾝﾌﾚｰﾑ
100
AcDbLine
 10
618.9607040924288
 20
284.6088307631898
 30
0.0
 11
616.0434063744535
 21
287.5261284811652
 31
0.0
  0
LINE
  5
2F0F
330
1F
100
AcDbEntity
  8
ｴｸｽﾃﾝｼｮﾝﾌﾚｰﾑ
100
AcDbLine
 10
616.4030763744535
 20
290.9873684811653
 30
0.0
 11
620.8578463744534
 21
286.5325984811654
 31
0.0
  0
LINE
  5
2F10
330
1F
100
AcDbEntity
  8
ｴｸｽﾃﾝｼｮﾝﾌﾚｰﾑ
100
AcDbLine
 10
613.5746363744533
 20
288.1589484811655
 30
0.0
 11
616.4030763744535
 21
290.9873684811653
 31
0.0
  0
LINE
  5
2F11
330
1F
100
AcDbEntity
  8
ｴｸｽﾃﾝｼｮﾝﾌﾚｰﾑ
100
AcDbLine
 10
618.9607040924288
 20
284.6088307631898
 30
0.0
 11
618.9611962599565
 21
283.3470084811654
 31
0.0
  0
LINE
  5
2F12
330
1F
100
AcDbEntity
  8
ｴｸｽﾃﾝｼｮﾝﾌﾚｰﾑ
100
AcDbLine
 10
620.8578463744534
 20
286.5325984811654
 30
0.0
 11
620.8578463744534
 21
283.3480014205441
 31
0.0
  0
ARC
  5
2F13
330
1F
100
AcDbEntity
  8
ｴｸｽﾃﾝｼｮﾝﾌﾚｰﾑ
100
AcDbCircle
 10
633.0363463744533
 20
278.7974384811653
 30
0.0
 40
10.0
100
AcDbArc
 50
270.0
 51
0.0
1001
GENIUS_GENOBJ-N-FIL_13
1002
{
1000
OWNER
1000
GEN
1002
}
1001
GENIUS_GENODEF_13
1002
{
1000
HIER
1070
     0
1002
}
1002
{
1000
MANEDIT
1070
     0
1002
}
1002
{
1000
NOSEL
1070
     0
1002
}
1002
{
1000
BEHIND
1070
     0
1002
}
1002
{
1000
OTHER
1070
     0
1002
}
1002
{
1000
REACTOR
1002
}
  0
ARC
  5
2F14
330
1F
100
AcDbEntity
  8
ｴｸｽﾃﾝｼｮﾝﾌﾚｰﾑ
100
AcDbCircle
 10
633.0363463744533
 20
278.7974384811653
 30
0.0
 40
9.5
100
AcDbArc
 50
270.0
 51
0.0
1001
GENIUS_GENOBJ-N-FIL_13
1002
{
1000
OWNER
1000
GEN
1002
}
1001
GENIUS_GENODEF_13
1002
{
1000
HIER
1070
     0
1002
}
1002
{
1000
MANEDIT
1070
     0
1002
}
1002
{
1000
NOSEL
1070
     0
1002
}
1002
{
1000
BEHIND
1070
     0
1002
}
1002
{
1000
OTHER
1070
     0
1002
}
1002
{
1000
REACTOR
1002
}
  0
ARC
  5
2F15
330
1F
100
AcDbEntity
  8
ｴｸｽﾃﾝｼｮﾝﾌﾚｰﾑ
100
AcDbCircle
 10
614.3018863744535
 20
279.4319084811653
 30
0.0
 40
6.294209999999999
100
AcDbArc
 50
158.2298552169081
 51
180.0
  0
ARC
  5
2F16
330
1F
100
AcDbEntity
  8
ｴｸｽﾃﾝｼｮﾝﾌﾚｰﾑ
100
AcDbCircle
 10
614.3018863744535
 20
279.4319084811653
 30
0.0
 40
6.294209999999999
100
AcDbArc
 50
89.99998999999897
 51
135.9669374407449
  0
ARC
  5
2F18
330
1F
100
AcDbEntity
  8
ｴｸｽﾃﾝｼｮﾝﾌﾚｰﾑ
100
AcDbCircle
 10
614.5518863744534
 20
279.2819084811654
 30
0.0
 40
2.5
100
AcDbArc
 50
89.99998999999897
 51
180.0
  0
ARC
  5
2F19
330
1F
100
AcDbEntity
  8
ｴｸｽﾃﾝｼｮﾝﾌﾚｰﾑ
100
AcDbCircle
 10
621.8468663744533
 20
280.7819084811654
 30
0.0
 40
1.0
100
AcDbArc
 50
350.6875499999997
 51
89.99999999999998
  0
ARC
  5
2F1A
330
1F
100
AcDbEntity
  8
ｴｸｽﾃﾝｼｮﾝﾌﾚｰﾑ
100
AcDbCircle
 10
632.7018663744533
 20
279.0019084811654
 30
0.0
 40
10.0
100
AcDbArc
 50
170.6875599999983
 51
214.4338499999979
  0
ARC
  5
2F1B
330
1F
100
AcDbEntity
  8
ｴｸｽﾃﾝｼｮﾝﾌﾚｰﾑ
100
AcDbCircle
 10
623.6293163744533
 20
272.7819084811654
 30
0.0
 40
1.0
100
AcDbArc
 50
269.999989999999
 51
34.43386000000206
  0
ARC
  5
2F1D
330
1F
100
AcDbEntity
  8
ｴｸｽﾃﾝｼｮﾝﾌﾚｰﾑ
100
AcDbCircle
 10
620.8042063744535
 20
284.7819084811654
 30
0.0
 40
1.43491
100
AcDbArc
 50
269.999989999999
 51
315.0
  0
ARC
  5
2F1E
330
1F
100
AcDbEntity
  8
ｴｸｽﾃﾝｼｮﾝﾌﾚｰﾑ
100
AcDbCircle
 10
614.5518863744534
 20
279.2819084811654
 30
0.0
 40
4.06509
100
AcDbArc
 50
89.99998999999897
 51
180.0
  0
ARC
  5
2F1F
330
1F
100
AcDbEntity
  8
ｴｸｽﾃﾝｼｮﾝﾌﾚｰﾑ
100
AcDbCircle
 10
608.0518763744535
 20
275.7819084811654
 30
0.0
 40
3.6
100
AcDbArc
 50
269.999989999999
 51
359.9999900000022
  0
ARC
  5
2F20
330
1F
100
AcDbEntity
  8
ｴｸｽﾃﾝｼｮﾝﾌﾚｰﾑ
100
AcDbCircle
 10
608.0518763744535
 20
275.7819084811654
 30
0.0
 40
4.000020000000096
100
AcDbArc
 50
323.1302742406287
 51
359.9999900000022
  0
ARC
  5
2F21
330
1F
100
AcDbEntity
  8
ｴｸｽﾃﾝｼｮﾝﾌﾚｰﾑ
100
AcDbCircle
 10
612.0519013744273
 20
272.7819084811654
 30
0.0
 40
1.0
100
AcDbArc
 50
143.1302742406261
 51
269.9999999999968
1001
GENIUS_GENOBJ-N-FIL_13
1002
{
1000
OWNER
1000
GEN
1002
}
1001
GENIUS_GENODEF_13
1002
{
1000
HIER
1070
     0
1002
}
1002
{
1000
MANEDIT
1070
     0
1002
}
1002
{
1000
NOSEL
1070
     0
1002
}
1002
{
1000
BEHIND
1070
     0
1002
}
1002
{
1000
OTHER
1070
     0
1002
}
1002
{
1000
REACTOR
1002
}
  0
ARC
  5
2F22
330
1F
100
AcDbEntity
  8
ｴｸｽﾃﾝｼｮﾝﾌﾚｰﾑ
100
AcDbCircle
 10
614.5518863744534
 20
279.2819084811654
 30
0.0
 40
2.9
100
AcDbArc
 50
89.99998999999897
 51
180.0
  0
ARC
  5
2F23
330
1F
100
AcDbEntity
  8
ｴｸｽﾃﾝｼｮﾝﾌﾚｰﾑ
100
AcDbCircle
 10
620.8042063744535
 20
284.7819084811654
 30
0.0
 40
2.6
100
AcDbArc
 50
269.999989999999
 51
315.0
  0
LINE
  5
2F24
330
1F
100
AcDbEntity
  8
ｴｸｽﾃﾝｼｮﾝﾌﾚｰﾑ
100
AcDbLine
 10
625.1332263744534
 20
558.2005534811652
 30
0.0
 11
620.9150263744536
 21
562.4187534811652
 31
0.0
  0
LINE
  5
2F25
330
1F
100
AcDbEntity
  8
ｴｸｽﾃﾝｼｮﾝﾌﾚｰﾑ
100
AcDbLine
 10
634.8576663744534
 20
534.1974334811653
 30
0.0
 11
632.3059063744535
 21
534.1974334811653
 31
0.0
  0
ARC
  5
2F26
330
1F
100
AcDbEntity
  8
ｴｸｽﾃﾝｼｮﾝﾌﾚｰﾑ
100
AcDbCircle
 10
634.8576663744536
 20
533.8974334811653
 30
0.0
 40
0.3
100
AcDbArc
 50
0.0
 51
89.99999999999998
1001
GENIUS_GENODEF_13
1002
{
1000
HIER
1070
     0
1002
}
1002
{
1000
MANEDIT
1070
     0
1002
}
1002
{
1000
NOSEL
1070
     0
1002
}
1002
{
1000
BEHIND
1070
     0
1002
}
1002
{
1000
OTHER
1070
     0
1002
}
1002
{
1000
REACTOR
1002
}
1001
GENIUS_GENOBJ-N-FIL_13
1002
{
1000
OWNER
1000
GEN
1002
}
  0
ARC
  5
2F27
330
1F
100
AcDbEntity
  8
ｴｸｽﾃﾝｼｮﾝﾌﾚｰﾑ
100
AcDbCircle
 10
632.3059063744535
 20
540.4914334811652
 30
0.0
 40
6.293999999999999
100
AcDbArc
 50
248.0139960107481
 51
270.0
  0
LINE
  5
2F28
330
1F
100
AcDbEntity
  8
ｴｸｽﾃﾝｼｮﾝﾌﾚｰﾑ
100
AcDbLine
 10
628.1677031978083
 20
535.9926450791574
 30
0.0
 11
629.4766340874093
 21
537.9875726512051
 31
0.0
  0
LINE
  5
2F29
330
1F
100
AcDbEntity
  8
ｴｸｽﾃﾝｼｮﾝﾌﾚｰﾑ
100
AcDbLine
 10
629.8392682228173
 20
534.8986361270334
 30
0.0
 11
631.1085167318561
 21
536.8427506854177
 31
0.0
  0
ARC
  5
2F2A
330
1F
100
AcDbEntity
  8
ｴｸｽﾃﾝｼｮﾝﾌﾚｰﾑ
100
AcDbCircle
 10
628.0059263744537
 20
533.9214434811651
 30
0.0
 40
2.077509999999999
100
AcDbArc
 50
85.53382531062272
 51
28.05813755094529
  0
ARC
  5
2F2B
330
1F
100
AcDbEntity
  8
ｴｸｽﾃﾝｼｮﾝﾌﾚｰﾑ
100
AcDbCircle
 10
632.3059063744535
 20
540.4914334811652
 30
0.0
 40
6.293999999999999
100
AcDbArc
 50
180.0
 51
225.5774679019036
  0
LINE
  5
2F2C
330
1F
100
AcDbEntity
  8
ｴｸｽﾃﾝｼｮﾝﾌﾚｰﾑ
100
AcDbLine
 10
632.5559163744533
 20
536.5763434811652
 30
0.0
 11
636.0518763744535
 21
536.5763434811652
 31
0.0
  0
ARC
  5
2F2D
330
1F
100
AcDbEntity
  8
ｴｸｽﾃﾝｼｮﾝﾌﾚｰﾑ
100
AcDbCircle
 10
636.0518763744535
 20
534.1763434811651
 30
0.0
 40
2.399999999999999
100
AcDbArc
 50
0.0
 51
89.99999999999998
1001
GENIUS_GENODEF_13
1002
{
1000
HIER
1070
     0
1002
}
1002
{
1000
MANEDIT
1070
     0
1002
}
1002
{
1000
NOSEL
1070
     0
1002
}
1002
{
1000
BEHIND
1070
     0
1002
}
1002
{
1000
OTHER
1070
     0
1002
}
1002
{
1000
REACTOR
1002
}
1001
GENIUS_GENOBJ-N-FIL_13
1002
{
1000
OWNER
1000
GEN
1002
}
  0
ARC
  5
2F2E
330
1F
100
AcDbEntity
  8
ｴｸｽﾃﾝｼｮﾝﾌﾚｰﾑ
100
AcDbCircle
 10
632.5559163744535
 20
540.6414334811652
 30
0.0
 40
4.06509
100
AcDbArc
 50
180.0
 51
270.000010000001
  0
LINE
  5
2F2F
330
1F
100
AcDbEntity
  8
ｴｸｽﾃﾝｼｮﾝﾌﾚｰﾑ
100
AcDbLine
 10
628.4908163744534
 20
557.5217934811653
 30
0.0
 11
628.4908163744534
 21
540.6414334811653
 31
0.0
  0
LINE
  5
2F30
330
1F
100
AcDbEntity
  8
ｴｸｽﾃﾝｼｮﾝﾌﾚｰﾑ
100
AcDbLine
 10
636.0518763744535
 20
537.7414334811653
 30
0.0
 11
632.5559163744533
 21
537.7414334811653
 31
0.0
  0
ARC
  5
2F31
330
1F
100
AcDbEntity
  8
ｴｸｽﾃﾝｼｮﾝﾌﾚｰﾑ
100
AcDbCircle
 10
636.0518763744535
 20
534.1414334811652
 30
0.0
 40
3.6
100
AcDbArc
 50
0.0
 51
89.99999999999998
1001
GENIUS_GENOBJ-N-FIL_13
1002
{
1000
OWNER
1000
GEN
1002
}
1001
GENIUS_GENODEF_13
1002
{
1000
HIER
1070
     0
1002
}
1002
{
1000
MANEDIT
1070
     0
1002
}
1002
{
1000
NOSEL
1070
     0
1002
}
1002
{
1000
BEHIND
1070
     0
1002
}
1002
{
1000
OTHER
1070
     0
1002
}
1002
{
1000
REACTOR
1002
}
  0
ARC
  5
2F32
330
1F
100
AcDbEntity
  8
ｴｸｽﾃﾝｼｮﾝﾌﾚｰﾑ
100
AcDbCircle
 10
639.0363463744534
 20
537.641853287293
 30
0.0
 40
1.0
100
AcDbArc
 50
229.5489756818831
 51
359.9999999999935
1001
GENIUS_GENODEF_13
1002
{
1000
HIER
1070
     0
1002
}
1002
{
1000
MANEDIT
1070
     0
1002
}
1002
{
1000
NOSEL
1070
     0
1002
}
1002
{
1000
BEHIND
1070
     0
1002
}
1002
{
1000
OTHER
1070
     0
1002
}
1002
{
1000
REACTOR
1002
}
1001
GENIUS_GENOBJ-N-FIL_13
1002
{
1000
OWNER
1000
GEN
1002
}
  0
ARC
  5
2F33
330
1F
100
AcDbEntity
  8
ｴｸｽﾃﾝｼｮﾝﾌﾚｰﾑ
100
AcDbCircle
 10
632.5559163744535
 20
540.6414334811652
 30
0.0
 40
2.9
100
AcDbArc
 50
180.0
 51
270.000010000001
  0
LINE
  5
2F34
330
1F
100
AcDbEntity
  8
ｴｸｽﾃﾝｼｮﾝﾌﾚｰﾑ
100
AcDbLine
 10
629.6559163744534
 20
540.6414334811653
 30
0.0
 11
629.6559163744534
 21
558.0911734811653
 31
0.0
  0
LINE
  5
2F35
330
1F
100
AcDbEntity
  8
ｴｸｽﾃﾝｼｮﾝﾌﾚｰﾑ
100
AcDbLine
 10
626.0119063744534
 20
540.4914334811653
 30
0.0
 11
626.0119063744534
 21
556.0792334811654
 31
0.0
  0
LINE
  5
2F36
330
1F
100
AcDbEntity
  8
ｴｸｽﾃﾝｼｮﾝﾌﾚｰﾑ
100
AcDbLine
 10
640.0363463744533
 20
537.6418532872929
 30
0.0
 11
640.0363463744533
 21
559.9270234811651
 31
0.0
  0
ARC
  5
2F37
330
1F
100
AcDbEntity
  8
ｴｸｽﾃﾝｼｮﾝﾌﾚｰﾑ
100
AcDbCircle
 10
623.0363463744536
 20
564.5400734811651
 30
0.0
 40
3.0
100
AcDbArc
 50
180.0
 51
225.0
  0
ARC
  5
2F38
330
1F
100
AcDbEntity
  8
ｴｸｽﾃﾝｼｮﾝﾌﾚｰﾑ
100
AcDbCircle
 10
623.0119063744536
 20
556.0792334811652
 30
0.0
 40
3.0
100
AcDbArc
 50
0.0
 51
44.99999999999999
  0
ARC
  5
2F39
330
1F
100
AcDbEntity
  8
ｴｸｽﾃﾝｼｮﾝﾌﾚｰﾑ
100
AcDbCircle
 10
639.0363463744535
 20
559.9270234811651
 30
0.0
 40
1.0
100
AcDbArc
 50
0.0
 51
125.5311500000009
  0
ARC
  5
2F3A
330
1F
100
AcDbEntity
  8
ｴｸｽﾃﾝｼｮﾝﾌﾚｰﾑ
100
AcDbCircle
 10
632.7018663744536
 20
568.7974334811652
 30
0.0
 40
9.9
100
AcDbArc
 50
259.1813199999996
 51
305.5311500000009
  0
ARC
  5
2F3B
330
1F
100
AcDbEntity
  8
ｴｸｽﾃﾝｼｮﾝﾌﾚｰﾑ
100
AcDbCircle
 10
630.6559163744537
 20
558.0911734811652
 30
0.0
 40
1.0
100
AcDbArc
 50
79.18131999999959
 51
180.0
  0
LINE
  5
2F3C
330
1F
100
AcDbEntity
  8
ｴｸｽﾃﾝｼｮﾝﾌﾚｰﾑ
100
AcDbLine
 10
627.9050263744534
 20
558.9360034811654
 30
0.0
 11
622.8092463744533
 21
564.0317934811653
 31
0.0
  0
ARC
  5
2F3D
330
1F
100
AcDbEntity
  8
ｴｸｽﾃﾝｼｮﾝﾌﾚｰﾑ
100
AcDbCircle
 10
623.5163463744536
 20
564.7389034811651
 30
0.0
 40
1.0
100
AcDbArc
 50
180.0
 51
225.0
  0
ARC
  5
2F3E
330
1F
100
AcDbEntity
  8
ｴｸｽﾃﾝｼｮﾝﾌﾚｰﾑ
100
AcDbCircle
 10
626.4908163744537
 20
557.5217934811652
 30
0.0
 40
2.0
100
AcDbArc
 50
0.0
 51
44.99999999999999
  0
LINE
  5
2F3F
330
1F
100
AcDbEntity
  8
ｴｸｽﾃﾝｼｮﾝﾌﾚｰﾑ
100
AcDbLine
 10
629.0701363744533
 20
559.4186034811652
 30
0.0
 11
623.8864763744536
 21
564.6022634811653
 31
0.0
  0
ARC
  5
2F40
330
1F
100
AcDbEntity
  8
ｴｸｽﾃﾝｼｮﾝﾌﾚｰﾑ
100
AcDbCircle
 10
624.3814463744536
 20
565.0972334811651
 30
0.0
 40
0.7
100
AcDbArc
 50
180.0
 51
225.0
  0
ARC
  5
2F41
330
1F
100
AcDbEntity
  8
ｴｸｽﾃﾝｼｮﾝﾌﾚｰﾑ
100
AcDbCircle
 10
627.6559163744536
 20
558.0043934811651
 30
0.0
 40
2.0
100
AcDbArc
 50
0.0
 51
44.99999999999999
  0
CIRCLE
  5
2F4A
330
1F
100
AcDbEntity
  8
ｴｸｽﾃﾝｼｮﾝﾌﾚｰﾑ
100
AcDbCircle
 10
607.7018763744534
 20
283.7019084811652
 30
0.0
 40
2.077509999999989
  0
LINE
  5
2F4B
330
1F
100
AcDbEntity
  8
ｴｸｽﾃﾝｼｮﾝﾌﾚｰﾑ
100
AcDbLine
 10
608.7863463744533
 20
269.0974384811655
 30
0.0
 11
612.2863463744534
 21
269.0974384811655
 31
0.0
  0
LINE
  5
2F4C
330
1F
100
AcDbEntity
  8
ｴｸｽﾃﾝｼｮﾝﾌﾚｰﾑ
100
AcDbLine
 10
614.7863463744534
 20
269.0974384811655
 30
0.0
 11
618.2863463744533
 21
269.0974384811655
 31
0.0
  0
ARC
  5
2F4D
330
1F
100
AcDbEntity
  8
ｴｸｽﾃﾝｼｮﾝﾌﾚｰﾑ
100
AcDbCircle
 10
608.4863463744534
 20
269.0974384811652
 30
0.0
 40
0.3
100
AcDbArc
 50
269.9999999999789
 51
0.0000000000227855
1001
GENIUS_GENOBJ-N-FIL_13
1002
{
1000
OWNER
1000
GEN
1002
}
1001
GENIUS_GENODEF_13
1002
{
1000
HIER
1070
     0
1002
}
1002
{
1000
MANEDIT
1070
     0
1002
}
1002
{
1000
NOSEL
1070
     0
1002
}
1002
{
1000
BEHIND
1070
     0
1002
}
1002
{
1000
OTHER
1070
     0
1002
}
1002
{
1000
REACTOR
1002
}
  0
ARC
  5
2F4E
330
1F
100
AcDbEntity
  8
ｴｸｽﾃﾝｼｮﾝﾌﾚｰﾑ
100
AcDbCircle
 10
612.5863463744533
 20
269.0974384811652
 30
0.0
 40
0.3
100
AcDbArc
 50
179.9999999999674
 51
270.0000000000114
1001
GENIUS_GENOBJ-N-FIL_13
1002
{
1000
OWNER
1000
GEN
1002
}
1001
GENIUS_GENODEF_13
1002
{
1000
HIER
1070
     0
1002
}
1002
{
1000
MANEDIT
1070
     0
1002
}
1002
{
1000
NOSEL
1070
     0
1002
}
1002
{
1000
BEHIND
1070
     0
1002
}
1002
{
1000
OTHER
1070
     0
1002
}
1002
{
1000
REACTOR
1002
}
  0
ARC
  5
2F4F
330
1F
100
AcDbEntity
  8
ｴｸｽﾃﾝｼｮﾝﾌﾚｰﾑ
100
AcDbCircle
 10
614.4863463744534
 20
269.0974384811652
 30
0.0
 40
0.3
100
AcDbArc
 50
269.9999999999886
 51
0.0000000000227855
1001
GENIUS_GENOBJ-N-FIL_13
1002
{
1000
OWNER
1000
GEN
1002
}
1001
GENIUS_GENODEF_13
1002
{
1000
HIER
1070
     0
1002
}
1002
{
1000
MANEDIT
1070
     0
1002
}
1002
{
1000
NOSEL
1070
     0
1002
}
1002
{
1000
BEHIND
1070
     0
1002
}
1002
{
1000
OTHER
1070
     0
1002
}
1002
{
1000
REACTOR
1002
}
  0
ARC
  5
2F50
330
1F
100
AcDbEntity
  8
ｴｸｽﾃﾝｼｮﾝﾌﾚｰﾑ
100
AcDbCircle
 10
618.5863463744533
 20
269.0974384811652
 30
0.0
 40
0.3
100
AcDbArc
 50
179.9999999999674
 51
270.0000000000114
1001
GENIUS_GENOBJ-N-FIL_13
1002
{
1000
OWNER
1000
GEN
1002
}
1001
GENIUS_GENODEF_13
1002
{
1000
HIER
1070
     0
1002
}
1002
{
1000
MANEDIT
1070
     0
1002
}
1002
{
1000
NOSEL
1070
     0
1002
}
1002
{
1000
BEHIND
1070
     0
1002
}
1002
{
1000
OTHER
1070
     0
1002
}
1002
{
1000
REACTOR
1002
}
  0
LINE
  5
2F51
330
1F
100
AcDbEntity
  8
ｴｸｽﾃﾝｼｮﾝﾌﾚｰﾑ
100
AcDbLine
 10
643.0363463744534
 20
535.2474384811653
 30
0.0
 11
643.0363463744534
 21
303.3474384811654
 31
0.0
  0
LINE
  5
2F52
330
1F
100
AcDbEntity
  8
ｴｸｽﾃﾝｼｮﾝﾌﾚｰﾑ
100
AcDbLine
 10
639.6518763744534
 20
534.1414334811652
 30
0.0
 11
639.6518763744534
 21
303.7819084811652
 31
0.0
  0
LINE
  5
2F53
330
1F
100
AcDbEntity
  8
ｴｸｽﾃﾝｼｮﾝﾌﾚｰﾑ
100
AcDbLine
 10
638.4518763744531
 20
303.7469884811653
 30
0.0
 11
638.4518763744534
 21
534.1763434811652
 31
0.0
  0
LINE
  5
2F54
330
1F
100
AcDbEntity
  8
ｴｸｽﾃﾝｼｮﾝﾌﾚｰﾑ
100
AcDbLine
 10
635.1576663744536
 20
533.8974334811654
 30
0.0
 11
635.1576663744533
 21
304.1261284811651
 31
0.0
  0
LINE
  5
2F55
330
1F
100
AcDbEntity
  8
ｴｸｽﾃﾝｼｮﾝﾌﾚｰﾑ
100
AcDbLine
 10
643.0363463744534
 20
299.2474384811653
 30
0.0
 11
643.0363463744534
 21
297.3474384811654
 31
0.0
  0
LINE
  5
2F56
330
1F
100
AcDbEntity
  8
ｴｸｽﾃﾝｼｮﾝﾌﾚｰﾑ
100
AcDbLine
 10
643.0363463744534
 20
293.2474384811653
 30
0.0
 11
643.0363463744534
 21
278.7974384811653
 31
0.0
  0
LINE
  5
2F57
330
1F
100
AcDbEntity
  8
ｴｸｽﾃﾝｼｮﾝﾌﾚｰﾑ
100
AcDbLine
 10
640.0518763744535
 20
299.7818834811912
 30
0.0
 11
640.0518763744535
 21
288.2044684811654
 31
0.0
  0
LINE
  5
2F58
330
1F
100
AcDbEntity
  8
ｴｸｽﾃﾝｼｮﾝﾌﾚｰﾑ
100
AcDbLine
 10
629.9614663578877
 20
303.1477091656721
 30
0.0
 11
631.231151854728
 21
301.1264587227399
 31
0.0
  0
LINE
  5
2F59
330
1F
100
AcDbEntity
  8
ｴｸｽﾃﾝｼｮﾝﾌﾚｰﾑ
100
AcDbLine
 10
632.4018763744533
 20
303.8261284811651
 30
0.0
 11
634.8576663744534
 21
303.8261284811651
 31
0.0
  0
ARC
  5
2F5A
330
1F
100
AcDbEntity
  8
ｴｸｽﾃﾝｼｮﾝﾌﾚｰﾑ
100
AcDbCircle
 10
634.8576663744531
 20
304.1261284811651
 30
0.0
 40
0.3
100
AcDbArc
 50
270.0
 51
0.0
1001
GENIUS_GENODEF_13
1002
{
1000
HIER
1070
     0
1002
}
1002
{
1000
MANEDIT
1070
     0
1002
}
1002
{
1000
NOSEL
1070
     0
1002
}
1002
{
1000
BEHIND
1070
     0
1002
}
1002
{
1000
OTHER
1070
     0
1002
}
1002
{
1000
REACTOR
1002
}
1001
GENIUS_GENOBJ-N-FIL_13
1002
{
1000
OWNER
1000
GEN
1002
}
  0
LINE
  5
2F5B
330
1F
100
AcDbEntity
  8
ｴｸｽﾃﾝｼｮﾝﾌﾚｰﾑ
100
AcDbLine
 10
629.6019021049467
 20
300.078791135049
 30
0.0
 11
628.2781758349297
 21
302.0595561298589
 31
0.0
  0
LINE
  5
2F5C
330
1F
100
AcDbEntity
  8
ｴｸｽﾃﾝｼｮﾝﾌﾚｰﾑ
100
AcDbLine
 10
630.0518763744535
 20
289.9869184811653
 30
0.0
 11
630.0518763744535
 21
297.2818984811652
 31
0.0
  0
LINE
  5
2F5D
330
1F
100
AcDbEntity
  8
ｴｸｽﾃﾝｼｮﾝﾌﾚｰﾑ
100
AcDbLine
 10
629.6518763744534
 20
291.0295784811651
 30
0.0
 11
629.6518763744534
 21
297.2818984811652
 31
0.0
  0
LINE
  5
2F5E
330
1F
100
AcDbEntity
  8
ｴｸｽﾃﾝｼｮﾝﾌﾚｰﾑ
100
AcDbLine
 10
628.4867763744532
 20
297.2818984811652
 30
0.0
 11
628.4867763744532
 21
291.0295784811651
 31
0.0
  0
LINE
  5
2F5F
330
1F
100
AcDbEntity
  8
ｴｸｽﾃﾝｼｮﾝﾌﾚｰﾑ
100
AcDbLine
 10
636.0518763744535
 20
301.3469884811652
 30
0.0
 11
632.5518763744534
 21
301.3469884811652
 31
0.0
  0
ARC
  5
2F60
330
1F
100
AcDbEntity
  8
ｴｸｽﾃﾝｼｮﾝﾌﾚｰﾑ
100
AcDbCircle
 10
636.0518763744533
 20
303.7469884811653
 30
0.0
 40
2.399999999999999
100
AcDbArc
 50
270.0
 51
0.0
1001
GENIUS_GENODEF_13
1002
{
1000
HIER
1070
     0
1002
}
1002
{
1000
MANEDIT
1070
     0
1002
}
1002
{
1000
NOSEL
1070
     0
1002
}
1002
{
1000
BEHIND
1070
     0
1002
}
1002
{
1000
OTHER
1070
     0
1002
}
1002
{
1000
REACTOR
1002
}
1001
GENIUS_GENOBJ-N-FIL_13
1002
{
1000
OWNER
1000
GEN
1002
}
  0
LINE
  5
2F61
330
1F
100
AcDbEntity
  8
ｴｸｽﾃﾝｼｮﾝﾌﾚｰﾑ
100
AcDbLine
 10
626.1076663744534
 20
293.9903684811652
 30
0.0
 11
626.1076663744534
 21
297.5318984811652
 31
0.0
  0
LINE
  5
2F62
330
1F
100
AcDbEntity
  8
ｴｸｽﾃﾝｼｮﾝﾌﾚｰﾑ
100
AcDbLine
 10
632.5518763744534
 20
300.1819184811652
 30
0.0
 11
636.0518763744535
 21
300.1819184811652
 31
0.0
  0
LINE
  5
2F63
330
1F
100
AcDbEntity
  8
ｴｸｽﾃﾝｼｮﾝﾌﾚｰﾑ
100
AcDbLine
 10
632.5518763744534
 20
299.7818984811652
 30
0.0
 11
636.0518763744535
 21
299.7818984811652
 31
0.0
  0
LINE
  5
2F64
330
1F
100
AcDbEntity
  8
ｴｸｽﾃﾝｼｮﾝﾌﾚｰﾑ
100
AcDbLine
 10
624.3076563744534
 20
295.7903784811652
 30
0.0
 11
624.3076563744534
 21
297.6263184811653
 31
0.0
  0
LINE
  5
2F65
330
1F
100
AcDbEntity
  8
ｴｸｽﾃﾝｼｮﾝﾌﾚｰﾑ
100
AcDbLine
 10
624.3076563744534
 20
297.6263184811653
 30
0.0
 11
623.6748363744531
 21
298.2591484811653
 31
0.0
  0
LINE
  5
2F66
330
1F
100
AcDbEntity
  8
ｴｸｽﾃﾝｼｮﾝﾌﾚｰﾑ
100
AcDbLine
 10
627.224954092429
 20
292.8730807631898
 30
0.0
 11
624.3076563744534
 21
295.7903784811652
 31
0.0
  0
LINE
  5
2F67
330
1F
100
AcDbEntity
  8
ｴｸｽﾃﾝｼｮﾝﾌﾚｰﾑ
100
AcDbLine
 10
620.8464163744533
 20
295.4307084811653
 30
0.0
 11
625.3011863744532
 21
290.9759384811652
 31
0.0
  0
LINE
  5
2F68
330
1F
100
AcDbEntity
  8
ｴｸｽﾃﾝｼｮﾝﾌﾚｰﾑ
100
AcDbLine
 10
623.6748363744531
 20
298.2591484811653
 30
0.0
 11
620.8464163744533
 21
295.4307084811653
 31
0.0
  0
LINE
  5
2F69
330
1F
100
AcDbEntity
  8
ｴｸｽﾃﾝｼｮﾝﾌﾚｰﾑ
100
AcDbLine
 10
627.224954092429
 20
292.8730807631898
 30
0.0
 11
628.4867763744532
 21
292.8725885956621
 31
0.0
  0
LINE
  5
2F6A
330
1F
100
AcDbEntity
  8
ｴｸｽﾃﾝｼｮﾝﾌﾚｰﾑ
100
AcDbLine
 10
625.3011863744532
 20
290.9759384811652
 30
0.0
 11
628.4857834350746
 21
290.9759384811652
 31
0.0
  0
ARC
  5
2F6B
330
1F
100
AcDbEntity
  8
ｴｸｽﾃﾝｼｮﾝﾌﾚｰﾑ
100
AcDbCircle
 10
632.4018763744532
 20
297.5318984811652
 30
0.0
 40
6.294209999999999
100
AcDbArc
 50
89.99999999999998
 51
111.7701447830904
  0
ARC
  5
2F6C
330
1F
100
AcDbEntity
  8
ｴｸｽﾃﾝｼｮﾝﾌﾚｰﾑ
100
AcDbCircle
 10
632.4018763744532
 20
297.5318984811652
 30
0.0
 40
6.294209999999999
100
AcDbArc
 50
134.0330625592539
 51
180.0000100000009
  0
ARC
  5
2F6D
330
1F
100
AcDbEntity
  8
ｴｸｽﾃﾝｼｮﾝﾌﾚｰﾑ
100
AcDbCircle
 10
632.5518763744533
 20
297.2818984811652
 30
0.0
 40
2.5
100
AcDbArc
 50
89.99999999999998
 51
180.0000100000009
  0
ARC
  5
2F6E
330
1F
100
AcDbEntity
  8
ｴｸｽﾃﾝｼｮﾝﾌﾚｰﾑ
100
AcDbCircle
 10
631.0518763744532
 20
289.9869184811653
 30
0.0
 40
1.0
100
AcDbArc
 50
180.0
 51
279.3124500000003
  0
ARC
  5
2F6F
330
1F
100
AcDbEntity
  8
ｴｸｽﾃﾝｼｮﾝﾌﾚｰﾑ
100
AcDbCircle
 10
632.8318763744532
 20
279.1319184811653
 30
0.0
 40
10.0
100
AcDbArc
 50
55.56615000000207
 51
99.31244000000011
  0
ARC
  5
2F70
330
1F
100
AcDbEntity
  8
ｴｸｽﾃﾝｼｮﾝﾌﾚｰﾑ
100
AcDbCircle
 10
639.0518763744532
 20
288.2044684811654
 30
0.0
 40
1.0
100
AcDbArc
 50
235.5661399999993
 51
0.0000100000009937
  0
ARC
  5
2F71
330
1F
100
AcDbEntity
  8
ｴｸｽﾃﾝｼｮﾝﾌﾚｰﾑ
100
AcDbCircle
 10
627.0518763744533
 20
291.0295784811651
 30
0.0
 40
1.43491
100
AcDbArc
 50
315.0
 51
0.0000100000009937
  0
ARC
  5
2F72
330
1F
100
AcDbEntity
  8
ｴｸｽﾃﾝｼｮﾝﾌﾚｰﾑ
100
AcDbCircle
 10
632.5518763744533
 20
297.2818984811652
 30
0.0
 40
4.06509
100
AcDbArc
 50
89.99999999999998
 51
180.0000100000009
  0
ARC
  5
2F73
330
1F
100
AcDbEntity
  8
ｴｸｽﾃﾝｼｮﾝﾌﾚｰﾑ
100
AcDbCircle
 10
636.0518763744533
 20
303.7819084811652
 30
0.0
 40
3.6
100
AcDbArc
 50
270.0000099999993
 51
0.0000100000009937
  0
ARC
  5
2F74
330
1F
100
AcDbEntity
  8
ｴｸｽﾃﾝｼｮﾝﾌﾚｰﾑ
100
AcDbCircle
 10
636.0518763744533
 20
303.7819084811652
 30
0.0
 40
4.000020000000096
100
AcDbArc
 50
270.0000099999993
 51
306.8697257593716
  0
ARC
  5
2F75
330
1F
100
AcDbEntity
  8
ｴｸｽﾃﾝｼｮﾝﾌﾚｰﾑ
100
AcDbCircle
 10
639.0518763744532
 20
299.7818834811912
 30
0.0
 40
1.0
100
AcDbArc
 50
0.0000000000032442
 51
126.8697257593748
1001
GENIUS_GENOBJ-N-FIL_13
1002
{
1000
OWNER
1000
GEN
1002
}
1001
GENIUS_GENODEF_13
1002
{
1000
HIER
1070
     0
1002
}
1002
{
1000
MANEDIT
1070
     0
1002
}
1002
{
1000
NOSEL
1070
     0
1002
}
1002
{
1000
BEHIND
1070
     0
1002
}
1002
{
1000
OTHER
1070
     0
1002
}
1002
{
1000
REACTOR
1002
}
  0
ARC
  5
2F76
330
1F
100
AcDbEntity
  8
ｴｸｽﾃﾝｼｮﾝﾌﾚｰﾑ
100
AcDbCircle
 10
632.5518763744533
 20
297.2818984811652
 30
0.0
 40
2.9
100
AcDbArc
 50
89.99999999999998
 51
180.0000100000009
  0
ARC
  5
2F77
330
1F
100
AcDbEntity
  8
ｴｸｽﾃﾝｼｮﾝﾌﾚｰﾑ
100
AcDbCircle
 10
627.0518763744533
 20
291.0295784811651
 30
0.0
 40
2.6
100
AcDbArc
 50
315.0
 51
0.0000100000009937
  0
CIRCLE
  5
2F80
330
1F
100
AcDbEntity
  8
ｴｸｽﾃﾝｼｮﾝﾌﾚｰﾑ
100
AcDbCircle
 10
628.1318763744532
 20
304.1319084811653
 30
0.0
 40
2.077509999999989
  0
LINE
  5
2F81
330
1F
100
AcDbEntity
  8
ｴｸｽﾃﾝｼｮﾝﾌﾚｰﾑ
100
AcDbLine
 10
642.7363463744532
 20
303.0474384811653
 30
0.0
 11
642.7363463744532
 21
299.5474384811653
 31
0.0
  0
LINE
  5
2F82
330
1F
100
AcDbEntity
  8
ｴｸｽﾃﾝｼｮﾝﾌﾚｰﾑ
100
AcDbLine
 10
642.7363463744532
 20
297.0474384811653
 30
0.0
 11
642.7363463744532
 21
293.5474384811653
 31
0.0
  0
ARC
  5
2F83
330
1F
100
AcDbEntity
  8
ｴｸｽﾃﾝｼｮﾝﾌﾚｰﾑ
100
AcDbCircle
 10
642.7363463744534
 20
303.3474384811652
 30
0.0
 40
0.3
100
AcDbArc
 50
269.9999999999789
 51
0.0000000000227855
1001
GENIUS_GENOBJ-N-FIL_13
1002
{
1000
OWNER
1000
GEN
1002
}
1001
GENIUS_GENODEF_13
1002
{
1000
HIER
1070
     0
1002
}
1002
{
1000
MANEDIT
1070
     0
1002
}
1002
{
1000
NOSEL
1070
     0
1002
}
1002
{
1000
BEHIND
1070
     0
1002
}
1002
{
1000
OTHER
1070
     0
1002
}
1002
{
1000
REACTOR
1002
}
  0
ARC
  5
2F84
330
1F
100
AcDbEntity
  8
ｴｸｽﾃﾝｼｮﾝﾌﾚｰﾑ
100
AcDbCircle
 10
642.7363463744534
 20
299.2474384811653
 30
0.0
 40
0.3
100
AcDbArc
 50
359.9999999999902
 51
90.00000000003256
1001
GENIUS_GENOBJ-N-FIL_13
1002
{
1000
OWNER
1000
GEN
1002
}
1001
GENIUS_GENODEF_13
1002
{
1000
HIER
1070
     0
1002
}
1002
{
1000
MANEDIT
1070
     0
1002
}
1002
{
1000
NOSEL
1070
     0
1002
}
1002
{
1000
BEHIND
1070
     0
1002
}
1002
{
1000
OTHER
1070
     0
1002
}
1002
{
1000
REACTOR
1002
}
  0
ARC
  5
2F85
330
1F
100
AcDbEntity
  8
ｴｸｽﾃﾝｼｮﾝﾌﾚｰﾑ
100
AcDbCircle
 10
642.7363463744534
 20
297.3474384811652
 30
0.0
 40
0.3
100
AcDbArc
 50
269.9999999999789
 51
0.0000000000097579
1001
GENIUS_GENOBJ-N-FIL_13
1002
{
1000
OWNER
1000
GEN
1002
}
1001
GENIUS_GENODEF_13
1002
{
1000
HIER
1070
     0
1002
}
1002
{
1000
MANEDIT
1070
     0
1002
}
1002
{
1000
NOSEL
1070
     0
1002
}
1002
{
1000
BEHIND
1070
     0
1002
}
1002
{
1000
OTHER
1070
     0
1002
}
1002
{
1000
REACTOR
1002
}
  0
ARC
  5
2F86
330
1F
100
AcDbEntity
  8
ｴｸｽﾃﾝｼｮﾝﾌﾚｰﾑ
100
AcDbCircle
 10
642.7363463744534
 20
293.2474384811653
 30
0.0
 40
0.3
100
AcDbArc
 50
359.9999999999902
 51
90.00000000003256
1001
GENIUS_GENOBJ-N-FIL_13
1002
{
1000
OWNER
1000
GEN
1002
}
1001
GENIUS_GENODEF_13
1002
{
1000
HIER
1070
     0
1002
}
1002
{
1000
MANEDIT
1070
     0
1002
}
1002
{
1000
NOSEL
1070
     0
1002
}
1002
{
1000
BEHIND
1070
     0
1002
}
1002
{
1000
OTHER
1070
     0
1002
}
1002
{
1000
REACTOR
1002
}
  0
LINE
  5
2F8F
330
1F
100
AcDbEntity
  8
ｴｸｽﾃﾝｼｮﾝﾌﾚｰﾑ
100
AcDbLine
 10
643.0363463744534
 20
541.2474384811653
 30
0.0
 11
643.0363463744534
 21
539.3474384811653
 31
0.0
  0
LINE
  5
2F90
330
1F
100
AcDbEntity
  8
ｴｸｽﾃﾝｼｮﾝﾌﾚｰﾑ
100
AcDbLine
 10
642.7363463744532
 20
545.0474384811652
 30
0.0
 11
642.7363463744532
 21
541.5474384811652
 31
0.0
  0
LINE
  5
2F91
330
1F
100
AcDbEntity
  8
ｴｸｽﾃﾝｼｮﾝﾌﾚｰﾑ
100
AcDbLine
 10
642.7363463744532
 20
539.0474384811652
 30
0.0
 11
642.7363463744532
 21
535.5474384811652
 31
0.0
  0
ARC
  5
2F92
330
1F
100
AcDbEntity
  8
ｴｸｽﾃﾝｼｮﾝﾌﾚｰﾑ
100
AcDbCircle
 10
642.7363463744536
 20
545.3474384811652
 30
0.0
 40
0.3
100
AcDbArc
 50
269.9999999999789
 51
0.0000000000227855
1001
GENIUS_GENOBJ-N-FIL_13
1002
{
1000
OWNER
1000
GEN
1002
}
1001
GENIUS_GENODEF_13
1002
{
1000
HIER
1070
     0
1002
}
1002
{
1000
MANEDIT
1070
     0
1002
}
1002
{
1000
NOSEL
1070
     0
1002
}
1002
{
1000
BEHIND
1070
     0
1002
}
1002
{
1000
OTHER
1070
     0
1002
}
1002
{
1000
REACTOR
1002
}
  0
ARC
  5
2F93
330
1F
100
AcDbEntity
  8
ｴｸｽﾃﾝｼｮﾝﾌﾚｰﾑ
100
AcDbCircle
 10
642.7363463744536
 20
541.2474384811653
 30
0.0
 40
0.3
100
AcDbArc
 50
359.9999999999902
 51
90.00000000003256
1001
GENIUS_GENOBJ-N-FIL_13
1002
{
1000
OWNER
1000
GEN
1002
}
1001
GENIUS_GENODEF_13
1002
{
1000
HIER
1070
     0
1002
}
1002
{
1000
MANEDIT
1070
     0
1002
}
1002
{
1000
NOSEL
1070
     0
1002
}
1002
{
1000
BEHIND
1070
     0
1002
}
1002
{
1000
OTHER
1070
     0
1002
}
1002
{
1000
REACTOR
1002
}
  0
ARC
  5
2F94
330
1F
100
AcDbEntity
  8
ｴｸｽﾃﾝｼｮﾝﾌﾚｰﾑ
100
AcDbCircle
 10
642.7363463744536
 20
539.3474384811652
 30
0.0
 40
0.3
100
AcDbArc
 50
269.9999999999789
 51
0.0000000000097579
1001
GENIUS_GENOBJ-N-FIL_13
1002
{
1000
OWNER
1000
GEN
1002
}
1001
GENIUS_GENODEF_13
1002
{
1000
HIER
1070
     0
1002
}
1002
{
1000
MANEDIT
1070
     0
1002
}
1002
{
1000
NOSEL
1070
     0
1002
}
1002
{
1000
BEHIND
1070
     0
1002
}
1002
{
1000
OTHER
1070
     0
1002
}
1002
{
1000
REACTOR
1002
}
  0
ARC
  5
2F95
330
1F
100
AcDbEntity
  8
ｴｸｽﾃﾝｼｮﾝﾌﾚｰﾑ
100
AcDbCircle
 10
642.7363463744536
 20
535.2474384811653
 30
0.0
 40
0.3
100
AcDbArc
 50
359.9999999999902
 51
90.00000000003256
1001
GENIUS_GENOBJ-N-FIL_13
1002
{
1000
OWNER
1000
GEN
1002
}
1001
GENIUS_GENODEF_13
1002
{
1000
HIER
1070
     0
1002
}
1002
{
1000
MANEDIT
1070
     0
1002
}
1002
{
1000
NOSEL
1070
     0
1002
}
1002
{
1000
BEHIND
1070
     0
1002
}
1002
{
1000
OTHER
1070
     0
1002
}
1002
{
1000
REACTOR
1002
}
  0
LINE
  5
30AF
330
1F
100
AcDbEntity
  8
ｴｸｽﾃﾝｼｮﾝﾌﾚｰﾑ
100
AcDbLine
 10
643.0363463721901
 20
992.1364245261763
 30
0.0
 11
642.5720770057218
 21
1045.336424526176
 31
0.0
  0
LINE
  5
30C7
330
1F
100
AcDbEntity
  8
ｴｸｽﾃﾝｼｮﾝﾌﾚｰﾑ
100
AcDbLine
 10
635.2455335345812
 20
1037.667844997077
 30
0.0
 11
635.1576663721902
 21
1047.736424526176
 31
0.0
  0
LINE
  5
316D
330
1F
100
AcDbEntity
  8
ｴｸｽﾃﾝｼｮﾝﾌﾚｰﾑ
100
AcDbLine
 10
638.0518763721902
 20
987.1364245261764
 30
0.0
 11
637.6293573911361
 21
1035.552304219153
 31
0.0
  0
LINE
  5
31A0
330
1F
100
AcDbEntity
  8
ｴｸｽﾃﾝｼｮﾝﾌﾚｰﾑ
100
AcDbLine
 10
640.0518763721902
 20
987.1364245261764
 30
0.0
 11
639.6518763721901
 21
986.3364245261763
 31
0.0
  0
LINE
  5
31A2
330
1F
100
AcDbEntity
  8
ｴｸｽﾃﾝｼｮﾝﾌﾚｰﾑ
100
AcDbLine
 10
638.4518763721898
 20
986.3364245261763
 30
0.0
 11
638.0518763721902
 21
987.1364245261764
 31
0.0
  0
LINE
  5
321E
330
1F
100
AcDbEntity
  8
ｴｸｽﾃﾝｼｮﾝﾌﾚｰﾑ
100
AcDbLine
 10
640.0798023491206
 20
990.3364245261764
 30
0.0
 11
640.0518763721902
 21
987.1364245261764
 31
0.0
  0
LINE
  5
3317
330
1F
100
AcDbEntity
  8
ｴｸｽﾃﾝｼｮﾝﾌﾚｰﾑ
100
AcDbLine
 10
635.7454954576537
 20
1036.810546128791
 30
0.0
 11
637.4793688142167
 21
1035.809493879639
 31
0.0
  0
ARC
  5
331D
330
1F
100
AcDbEntity
  8
ｴｸｽﾃﾝｼｮﾝﾌﾚｰﾑ
100
AcDbCircle
 10
636.245495457654
 20
1037.676571532576
 30
0.0
 40
1.0
100
AcDbArc
 50
180.5000000000078
 51
239.9999999999995
1001
GENIUS_GENODEF_13
1002
{
1000
HIER
1070
     0
1002
}
1002
{
1000
MANEDIT
1070
     0
1002
}
1002
{
1000
NOSEL
1070
     0
1002
}
1002
{
1000
BEHIND
1070
     0
1002
}
1002
{
1000
OTHER
1070
     0
1002
}
1002
{
1000
REACTOR
1002
}
1001
GENIUS_GENOBJ-N-FIL_13
1002
{
1000
OWNER
1000
GEN
1002
}
  0
LINE
  5
3321
330
1F
100
AcDbEntity
  8
ｴｸｽﾃﾝｼｮﾝﾌﾚｰﾑ
100
AcDbLine
 10
642.53634637219
 20
991.8364245261765
 30
0.0
 11
642.53634637219
 21
990.3364245261764
 31
0.0
  0
LINE
  5
33DA
330
1F
100
AcDbEntity
  8
ｴｸｽﾃﾝｼｮﾝﾌﾚｰﾑ
100
AcDbLine
 10
640.6248148400732
 20
1040.020716762279
 30
0.0
 11
640.669474176449
 21
1045.138169833276
 31
0.0
  0
LINE
  5
33F6
330
1F
100
AcDbEntity
  8
ｴｸｽﾃﾝｼｮﾝﾌﾚｰﾑ
100
AcDbLine
 10
636.9885382805104
 20
1040.020716762279
 30
0.0
 11
636.9229344614368
 21
1047.538169833276
 31
0.0
  0
LINE
  5
3401
330
1F
100
AcDbEntity
  8
ｴｸｽﾃﾝｼｮﾝﾌﾚｰﾑ
100
AcDbLine
 10
638.8248833785578
 20
1038.236424526176
 30
0.0
 11
638.7884697420254
 21
1038.236424526176
 31
0.0
  0
ARC
  5
342D
330
1F
100
AcDbEntity
  8
ｴｸｽﾃﾝｼｮﾝﾌﾚｰﾑ
100
AcDbCircle
 10
638.824883378558
 20
1040.036424526176
 30
0.0
 40
1.8
100
AcDbArc
 50
270.0
 51
359.4999999999986
1001
GENIUS_GENODEF_13
1002
{
1000
HIER
1070
     0
1002
}
1002
{
1000
MANEDIT
1070
     0
1002
}
1002
{
1000
NOSEL
1070
     0
1002
}
1002
{
1000
BEHIND
1070
     0
1002
}
1002
{
1000
OTHER
1070
     0
1002
}
1002
{
1000
REACTOR
1002
}
1001
GENIUS_GENOBJ-N-FIL_13
1002
{
1000
OWNER
1000
GEN
1002
}
  0
ARC
  5
342F
330
1F
100
AcDbEntity
  8
ｴｸｽﾃﾝｼｮﾝﾌﾚｰﾑ
100
AcDbCircle
 10
638.7884697420256
 20
1040.036424526177
 30
0.0
 40
1.8
100
AcDbArc
 50
180.5000000000013
 51
270.0
1001
GENIUS_GENODEF_13
1002
{
1000
HIER
1070
     0
1002
}
1002
{
1000
MANEDIT
1070
     0
1002
}
1002
{
1000
NOSEL
1070
     0
1002
}
1002
{
1000
BEHIND
1070
     0
1002
}
1002
{
1000
OTHER
1070
     0
1002
}
1002
{
1000
REACTOR
1002
}
1001
GENIUS_GENOBJ-N-FIL_13
1002
{
1000
OWNER
1000
GEN
1002
}
  0
ARC
  5
3433
330
1F
100
AcDbEntity
  8
ｴｸｽﾃﾝｼｮﾝﾌﾚｰﾑ
100
AcDbCircle
 10
640.8694665610619
 20
1045.136424526176
 30
0.0
 40
0.2
100
AcDbArc
 50
89.99999999999998
 51
179.4999999999987
1001
GENIUS_GENODEF_13
1002
{
1000
HIER
1070
     0
1002
}
1002
{
1000
MANEDIT
1070
     0
1002
}
1002
{
1000
NOSEL
1070
     0
1002
}
1002
{
1000
BEHIND
1070
     0
1002
}
1002
{
1000
OTHER
1070
     0
1002
}
1002
{
1000
REACTOR
1002
}
1001
GENIUS_GENOBJ-N-FIL_13
1002
{
1000
OWNER
1000
GEN
1002
}
  0
ARC
  5
3435
330
1F
100
AcDbEntity
  8
ｴｸｽﾃﾝｼｮﾝﾌﾚｰﾑ
100
AcDbCircle
 10
636.7229420768239
 20
1047.536424526176
 30
0.0
 40
0.2
100
AcDbArc
 50
0.5000000000013048
 51
89.99999999999998
1001
GENIUS_GENOBJ-N-FIL_13
1002
{
1000
OWNER
1000
GEN
1002
}
1001
GENIUS_GENODEF_13
1002
{
1000
HIER
1070
     0
1002
}
1002
{
1000
MANEDIT
1070
     0
1002
}
1002
{
1000
NOSEL
1070
     0
1002
}
1002
{
1000
BEHIND
1070
     0
1002
}
1002
{
1000
OTHER
1070
     0
1002
}
1002
{
1000
REACTOR
1002
}
  0
LINE
  5
3495
330
1F
100
AcDbEntity
  8
ｴｸｽﾃﾝｼｮﾝﾌﾚｰﾑ
100
AcDbLine
 10
609.7793863721904
 20
994.8364145261765
 30
0.0
 11
610.2410377655901
 21
1047.736424526176
 31
0.0
  0
LINE
  5
349B
330
1F
100
AcDbEntity
  8
ｴｸｽﾃﾝｼｮﾝﾌﾚｰﾑ
100
AcDbLine
 10
613.57463637219
 20
994.8364145261765
 30
0.0
 11
613.1129849787903
 21
1047.736424526176
 31
0.0
  0
LINE
  5
34A1
330
1F
100
AcDbEntity
  8
ｴｸｽﾃﾝｼｮﾝﾌﾚｰﾑ
100
AcDbLine
 10
616.4030763721902
 20
994.8364145261765
 30
0.0
 11
616.4030763721902
 21
1047.736424526176
 31
0.0
  0
LINE
  5
34A7
330
1F
100
AcDbEntity
  8
ｴｸｽﾃﾝｼｮﾝﾌﾚｰﾑ
100
AcDbLine
 10
620.8464163721901
 20
994.8364145261765
 30
0.0
 11
620.3847649787904
 21
1047.736424526176
 31
0.0
  0
LINE
  5
34AD
330
1F
100
AcDbEntity
  8
ｴｸｽﾃﾝｼｮﾝﾌﾚｰﾑ
100
AcDbLine
 10
623.6748363721899
 20
994.8364145261765
 30
0.0
 11
623.6748363721899
 21
1047.736424526176
 31
0.0
  0
LINE
  5
34B3
330
1F
100
AcDbEntity
  8
ｴｸｽﾃﾝｼｮﾝﾌﾚｰﾑ
100
AcDbLine
 10
624.3076563721902
 20
994.8364145261765
 30
0.0
 11
624.7693077655899
 21
1047.736424526176
 31
0.0
  0
LINE
  5
34B9
330
1F
100
AcDbEntity
  8
ｴｸｽﾃﾝｼｮﾝﾌﾚｰﾑ
100
AcDbLine
 10
626.05436637219
 20
994.8364145261765
 30
0.0
 11
625.5927149787903
 21
1047.736424526176
 31
0.0
  0
LINE
  5
34BF
330
1F
100
AcDbEntity
  8
ｴｸｽﾃﾝｼｮﾝﾌﾚｰﾑ
100
AcDbLine
 10
630.2093863721902
 20
994.8364145261765
 30
0.0
 11
630.67103776559
 21
1047.736424526176
 31
0.0
  0
LINE
  5
34CF
330
1F
100
AcDbEntity
  8
ｴｸｽﾃﾝｼｮﾝﾌﾚｰﾑ
100
AcDbLine
 10
605.6243663721902
 20
994.8364145261765
 30
0.0
 11
631.2311518524648
 21
994.8364145261765
 31
0.0
  0
LINE
  5
34D4
330
1F
100
AcDbEntity
  8
ｴｸｽﾃﾝｼｮﾝﾌﾚｰﾑ
100
AcDbLine
 10
605.1627149787905
 20
1047.736424526176
 30
0.0
 11
605.6243663721902
 21
994.8364145261765
 31
0.0
  0
LINE
  5
34EB
330
1F
100
AcDbEntity
  8
ｴｸｽﾃﾝｼｮﾝﾌﾚｰﾑ
100
AcDbLine
 10
631.2311518524648
 20
994.8364145261765
 30
0.0
 11
631.6928032458645
 21
1047.736424526176
 31
0.0
  0
LINE
  5
352B
330
1F
100
AcDbEntity
  8
ｴｸｽﾃﾝｼｮﾝﾌﾚｰﾑ
100
AcDbLine
 10
628.0867763721903
 20
987.1364245261764
 30
0.0
 11
628.0195795774698
 21
994.8364145261765
 31
0.0
  0
LINE
  5
352C
330
1F
100
AcDbEntity
  8
ｴｸｽﾃﾝｼｮﾝﾌﾚｰﾑ
100
AcDbLine
 10
628.48677637219
 20
986.3364245261763
 30
0.0
 11
628.0867763721903
 21
987.1364245261764
 31
0.0
  0
LINE
  5
352D
330
1F
100
AcDbEntity
  8
ｴｸｽﾃﾝｼｮﾝﾌﾚｰﾑ
100
AcDbLine
 10
610.0867963721903
 20
987.1364245261764
 30
0.0
 11
610.0195995774702
 21
994.8364145261765
 31
0.0
  0
LINE
  5
352E
330
1F
100
AcDbEntity
  8
ｴｸｽﾃﾝｼｮﾝﾌﾚｰﾑ
100
AcDbLine
 10
610.4867963721903
 20
986.3364245261763
 30
0.0
 11
610.0867963721903
 21
987.1364245261764
 31
0.0
  0
LINE
  5
36F9
330
1F
100
AcDbEntity
  8
ｴｸｽﾃﾝｼｮﾝﾌﾚｰﾑ
100
AcDbLine
 10
343.5363463744535
 20
990.3364245261764
 30
0.0
 11
373.9579703975226
 21
990.3364245261764
 31
0.0
  0
LINE
  5
36FA
330
1F
100
AcDbEntity
  8
ｴｸｽﾃﾝｼｮﾝﾌﾚｰﾑ
100
AcDbLine
 10
343.5363463744535
 20
991.8364245261765
 30
0.0
 11
343.0363463744533
 21
992.1364245261766
 31
0.0
  0
LINE
  5
36FB
330
1F
100
AcDbEntity
  8
ｴｸｽﾃﾝｼｮﾝﾌﾚｰﾑ
100
AcDbLine
 10
343.0363463744533
 20
992.1364245261766
 30
0.0
 11
343.5006157409215
 21
1045.336424526176
 31
0.0
  0
LINE
  5
36FC
330
1F
100
AcDbEntity
  8
ｴｸｽﾃﾝｼｮﾝﾌﾚｰﾑ
100
AcDbLine
 10
343.5363463744535
 20
991.8364245261765
 30
0.0
 11
343.5363463744535
 21
990.3364245261764
 31
0.0
  0
LINE
  5
36FD
330
1F
100
AcDbEntity
  8
ｴｸｽﾃﾝｼｮﾝﾌﾚｰﾑ
100
AcDbLine
 10
345.9928903975229
 20
990.3364245261764
 30
0.0
 11
346.0208163744534
 21
987.1364245261766
 31
0.0
  0
LINE
  5
36FE
330
1F
100
AcDbEntity
  8
ｴｸｽﾃﾝｼｮﾝﾌﾚｰﾑ
100
AcDbLine
 10
346.0208163744534
 20
987.1364245261766
 30
0.0
 11
346.4208163744532
 21
986.3364245261763
 31
0.0
  0
ARC
  5
3728
330
1F
100
AcDbEntity
  8
ｴｸｽﾃﾝｼｮﾝﾌﾚｰﾑ
100
AcDbCircle
 10
349.3497506698196
 20
1047.536424526176
 30
0.0
 40
0.2
100
AcDbArc
 50
89.99999999999998
 51
179.4999999999987
1001
GENIUS_GENOBJ-N-FIL_13
1002
{
1000
OWNER
1000
GEN
1002
}
1001
GENIUS_GENODEF_13
1002
{
1000
HIER
1070
     0
1002
}
1002
{
1000
MANEDIT
1070
     0
1002
}
1002
{
1000
NOSEL
1070
     0
1002
}
1002
{
1000
BEHIND
1070
     0
1002
}
1002
{
1000
OTHER
1070
     0
1002
}
1002
{
1000
REACTOR
1002
}
  0
LINE
  5
3729
330
1F
100
AcDbEntity
  8
ｴｸｽﾃﾝｼｮﾝﾌﾚｰﾑ
100
AcDbLine
 10
349.1305439450028
 20
1045.336424526176
 30
0.0
 11
349.1497582852068
 21
1047.538169833276
 31
0.0
  0
ARC
  5
37DB
330
1F
100
AcDbEntity
  8
ｴｸｽﾃﾝｼｮﾝﾌﾚｰﾑ
100
AcDbCircle
 10
637.3293688142169
 20
1035.549686258503
 30
0.0
 40
0.3
100
AcDbArc
 50
0.5000000000013048
 51
59.99999999999944
1001
GENIUS_GENODEF_13
1002
{
1000
HIER
1070
     0
1002
}
1002
{
1000
MANEDIT
1070
     0
1002
}
1002
{
1000
NOSEL
1070
     0
1002
}
1002
{
1000
BEHIND
1070
     0
1002
}
1002
{
1000
OTHER
1070
     0
1002
}
1002
{
1000
REACTOR
1002
}
1001
GENIUS_GENOBJ-N-FIL_13
1002
{
1000
OWNER
1000
GEN
1002
}
  0
LINE
  5
39A5
330
1F
100
AcDbEntity
  8
ｴｸｽﾃﾝｼｮﾝﾌﾚｰﾑ
100
AcDbLine
 10
349.3497506698195
 20
123.4370934991482
 30
0.0
 11
636.7229420768238
 21
123.4370934991479
 31
0.0
  0
LINE
  5
39A6
330
1F
100
AcDbEntity
  8
ｴｸｽﾃﾝｼｮﾝﾌﾚｰﾑ
100
AcDbLine
 10
343.5006157409214
 20
125.8370934991483
 30
0.0
 11
642.5720770057221
 21
125.837093499148
 31
0.0
  0
LINE
  5
39A7
330
1F
100
AcDbEntity
  8
ｴｸｽﾃﾝｼｮﾝﾌﾚｰﾑ
100
AcDbLine
 10
343.0363463744531
 20
179.0370934991481
 30
0.0
 11
367.7863463744534
 21
179.0370934991481
 31
0.0
  0
LINE
  5
39A8
330
1F
100
AcDbEntity
  8
ｴｸｽﾃﾝｼｮﾝﾌﾚｰﾑ
100
AcDbLine
 10
371.2863363744532
 20
179.0370934991481
 30
0.0
 11
373.7863463744534
 21
179.0370934991481
 31
0.0
  0
LINE
  5
39A9
330
1F
100
AcDbEntity
  8
ｴｸｽﾃﾝｼｮﾝﾌﾚｰﾑ
100
AcDbLine
 10
377.2863463744532
 20
179.0370934991481
 30
0.0
 11
608.7863463721903
 21
179.0370934991479
 31
0.0
  0
LINE
  5
39AA
330
1F
100
AcDbEntity
  8
ｴｸｽﾃﾝｼｮﾝﾌﾚｰﾑ
100
AcDbLine
 10
343.5363463744534
 20
179.3370934991483
 30
0.0
 11
642.53634637219
 21
179.3370934991481
 31
0.0
  0
LINE
  5
39AB
330
1F
100
AcDbEntity
  8
ｴｸｽﾃﾝｼｮﾝﾌﾚｰﾑ
100
AcDbLine
 10
346.4208163744531
 20
184.8370934991483
 30
0.0
 11
639.6518763721901
 21
184.837093499148
 31
0.0
  0
LINE
  5
39AC
330
1F
100
AcDbEntity
  8
ｴｸｽﾃﾝｼｮﾝﾌﾚｰﾑ
100
AcDbLine
 10
377.2863463744532
 20
125.8370934991483
 30
0.0
 11
377.2863463744532
 21
179.3370934991483
 31
0.0
  0
LINE
  5
39AD
330
1F
100
AcDbEntity
  8
ｴｸｽﾃﾝｼｮﾝﾌﾚｰﾑ
100
AcDbLine
 10
373.7863463744534
 20
125.8370934991483
 30
0.0
 11
373.7863463744534
 21
179.3370934991483
 31
0.0
  0
LINE
  5
39AE
330
1F
100
AcDbEntity
  8
ｴｸｽﾃﾝｼｮﾝﾌﾚｰﾑ
100
AcDbLine
 10
371.2863363744532
 20
125.8370934991483
 30
0.0
 11
371.2863363744532
 21
179.3370934991483
 31
0.0
  0
LINE
  5
39AF
330
1F
100
AcDbEntity
  8
ｴｸｽﾃﾝｼｮﾝﾌﾚｰﾑ
100
AcDbLine
 10
367.7863463744534
 20
125.8370934991483
 30
0.0
 11
367.7863463744534
 21
179.3370934991483
 31
0.0
  0
LINE
  5
39B0
330
1F
100
AcDbEntity
  8
ｴｸｽﾃﾝｼｮﾝﾌﾚｰﾑ
100
AcDbLine
 10
355.9928828397858
 20
180.8370934991483
 30
0.0
 11
356.0208088167162
 21
184.0370934991483
 31
0.0
  0
LINE
  5
39B1
330
1F
100
AcDbEntity
  8
ｴｸｽﾃﾝｼｮﾝﾌﾚｰﾑ
100
AcDbLine
 10
356.0208088167162
 20
184.0370934991483
 30
0.0
 11
356.4208088167161
 21
184.8370934991483
 31
0.0
  0
LINE
  5
39B2
330
1F
100
AcDbEntity
  8
ｴｸｽﾃﾝｼｮﾝﾌﾚｰﾑ
100
AcDbLine
 10
373.9928928397857
 20
180.8370934991483
 30
0.0
 11
374.0208188167161
 21
184.0370934991483
 31
0.0
  0
LINE
  5
39B3
330
1F
100
AcDbEntity
  8
ｴｸｽﾃﾝｼｮﾝﾌﾚｰﾑ
100
AcDbLine
 10
374.0208188167161
 20
184.0370934991483
 30
0.0
 11
374.420818816716
 21
184.8370934991483
 31
0.0
  0
LINE
  5
39B4
330
1F
100
AcDbEntity
  8
ｴｸｽﾃﾝｼｮﾝﾌﾚｰﾑ
100
AcDbLine
 10
343.5363463744534
 20
180.8370934991483
 30
0.0
 11
642.53634637219
 21
180.8370934991437
 31
0.0
  0
LINE
  5
39B5
330
1F
100
AcDbEntity
  8
ｴｸｽﾃﾝｼｮﾝﾌﾚｰﾑ
100
AcDbLine
 10
343.5363463744534
 20
179.3370934991483
 30
0.0
 11
343.0363463744531
 21
179.0370934991483
 31
0.0
  0
LINE
  5
39B6
330
1F
100
AcDbEntity
  8
ｴｸｽﾃﾝｼｮﾝﾌﾚｰﾑ
100
AcDbLine
 10
343.0363463744531
 20
179.0370934991483
 30
0.0
 11
343.5006157409214
 21
125.8370934991483
 31
0.0
  0
LINE
  5
39B7
330
1F
100
AcDbEntity
  8
ｴｸｽﾃﾝｼｮﾝﾌﾚｰﾑ
100
AcDbLine
 10
343.5363463744534
 20
179.3370934991483
 30
0.0
 11
343.5363463744534
 21
180.8370934991483
 31
0.0
  0
LINE
  5
39B8
330
1F
100
AcDbEntity
  8
ｴｸｽﾃﾝｼｮﾝﾌﾚｰﾑ
100
AcDbLine
 10
345.9928903975229
 20
180.8370934991483
 30
0.0
 11
346.0208163744533
 21
184.0370934991483
 31
0.0
  0
LINE
  5
39B9
330
1F
100
AcDbEntity
  8
ｴｸｽﾃﾝｼｮﾝﾌﾚｰﾑ
100
AcDbLine
 10
346.0208163744533
 20
184.0370934991483
 30
0.0
 11
346.4208163744531
 21
184.8370934991483
 31
0.0
  0
ARC
  5
39BA
330
1F
100
AcDbEntity
  8
ｴｸｽﾃﾝｼｮﾝﾌﾚｰﾑ
100
AcDbCircle
 10
349.3497506698194
 20
123.6370934991482
 30
0.0
 40
0.2
100
AcDbArc
 50
180.5000000000013
 51
270.0
1001
GENIUS_GENOBJ-N-FIL_13
1002
{
1000
OWNER
1000
GEN
1002
}
1001
GENIUS_GENODEF_13
1002
{
1000
HIER
1070
     0
1002
}
1002
{
1000
MANEDIT
1070
     0
1002
}
1002
{
1000
NOSEL
1070
     0
1002
}
1002
{
1000
BEHIND
1070
     0
1002
}
1002
{
1000
OTHER
1070
     0
1002
}
1002
{
1000
REACTOR
1002
}
  0
LINE
  5
39BB
330
1F
100
AcDbEntity
  8
ｴｸｽﾃﾝｼｮﾝﾌﾚｰﾑ
100
AcDbLine
 10
349.1305439450027
 20
125.8370934991483
 30
0.0
 11
349.1497582852066
 21
123.6353481920484
 31
0.0
  0
ARC
  5
39BC
330
1F
100
AcDbEntity
  8
ｴｸｽﾃﾝｼｮﾝﾌﾚｰﾑ
100
AcDbCircle
 10
359.3474464939301
 20
123.6370934991482
 30
0.0
 40
0.2
100
AcDbArc
 50
180.5000000000013
 51
270.0
1001
GENIUS_GENOBJ-N-FIL_13
1002
{
1000
OWNER
1000
GEN
1002
}
1001
GENIUS_GENODEF_13
1002
{
1000
HIER
1070
     0
1002
}
1002
{
1000
MANEDIT
1070
     0
1002
}
1002
{
1000
NOSEL
1070
     0
1002
}
1002
{
1000
BEHIND
1070
     0
1002
}
1002
{
1000
OTHER
1070
     0
1002
}
1002
{
1000
REACTOR
1002
}
  0
LINE
  5
39BD
330
1F
100
AcDbEntity
  8
ｴｸｽﾃﾝｼｮﾝﾌﾚｰﾑ
100
AcDbLine
 10
359.1282397691134
 20
125.8370934991483
 30
0.0
 11
359.1474541093173
 21
123.6353481920484
 31
0.0
  0
ARC
  5
39BE
330
1F
100
AcDbEntity
  8
ｴｸｽﾃﾝｼｮﾝﾌﾚｰﾑ
100
AcDbCircle
 10
377.34745649393
 20
123.6370934991482
 30
0.0
 40
0.2
100
AcDbArc
 50
180.5000000000013
 51
270.0
1001
GENIUS_GENOBJ-N-FIL_13
1002
{
1000
OWNER
1000
GEN
1002
}
1001
GENIUS_GENODEF_13
1002
{
1000
HIER
1070
     0
1002
}
1002
{
1000
MANEDIT
1070
     0
1002
}
1002
{
1000
NOSEL
1070
     0
1002
}
1002
{
1000
BEHIND
1070
     0
1002
}
1002
{
1000
OTHER
1070
     0
1002
}
1002
{
1000
REACTOR
1002
}
  0
LINE
  5
39BF
330
1F
100
AcDbEntity
  8
ｴｸｽﾃﾝｼｮﾝﾌﾚｰﾑ
100
AcDbLine
 10
377.1282497691134
 20
125.8370934991483
 30
0.0
 11
377.1474641093173
 21
123.6353481920484
 31
0.0
  0
LINE
  5
39C1
330
1F
100
AcDbEntity
  8
ｴｸｽﾃﾝｼｮﾝﾌﾚｰﾑ
100
AcDbLine
 10
643.0363463721901
 20
179.0370934991479
 30
0.0
 11
618.2863463721901
 21
179.0370934991479
 31
0.0
  0
LINE
  5
39C2
330
1F
100
AcDbEntity
  8
ｴｸｽﾃﾝｼｮﾝﾌﾚｰﾑ
100
AcDbLine
 10
614.7863563721903
 20
179.0370934991479
 30
0.0
 11
612.2863463721901
 21
179.0370934991479
 31
0.0
  0
LINE
  5
39C3
330
1F
100
AcDbEntity
  8
ｴｸｽﾃﾝｼｮﾝﾌﾚｰﾑ
100
AcDbLine
 10
608.7863463721903
 20
125.837093499148
 30
0.0
 11
608.7863463721903
 21
179.3370934991481
 31
0.0
  0
LINE
  5
39C4
330
1F
100
AcDbEntity
  8
ｴｸｽﾃﾝｼｮﾝﾌﾚｰﾑ
100
AcDbLine
 10
612.2863463721901
 20
125.837093499148
 30
0.0
 11
612.2863463721901
 21
179.3370934991481
 31
0.0
  0
LINE
  5
39C5
330
1F
100
AcDbEntity
  8
ｴｸｽﾃﾝｼｮﾝﾌﾚｰﾑ
100
AcDbLine
 10
614.7863563721903
 20
125.837093499148
 30
0.0
 11
614.7863563721903
 21
179.3370934991481
 31
0.0
  0
LINE
  5
39C6
330
1F
100
AcDbEntity
  8
ｴｸｽﾃﾝｼｮﾝﾌﾚｰﾑ
100
AcDbLine
 10
618.2863463721901
 20
125.837093499148
 30
0.0
 11
618.2863463721901
 21
179.3370934991481
 31
0.0
  0
LINE
  5
39C7
330
1F
100
AcDbEntity
  8
ｴｸｽﾃﾝｼｮﾝﾌﾚｰﾑ
100
AcDbLine
 10
630.0798099068576
 20
180.837093499148
 30
0.0
 11
630.0518839299273
 21
184.0370934991481
 31
0.0
  0
LINE
  5
39C8
330
1F
100
AcDbEntity
  8
ｴｸｽﾃﾝｼｮﾝﾌﾚｰﾑ
100
AcDbLine
 10
630.0518839299273
 20
184.0370934991481
 30
0.0
 11
629.6518839299274
 21
184.837093499148
 31
0.0
  0
LINE
  5
39C9
330
1F
100
AcDbEntity
  8
ｴｸｽﾃﾝｼｮﾝﾌﾚｰﾑ
100
AcDbLine
 10
612.0797999068577
 20
180.837093499148
 30
0.0
 11
612.0518739299273
 21
184.0370934991481
 31
0.0
  0
LINE
  5
39CA
330
1F
100
AcDbEntity
  8
ｴｸｽﾃﾝｼｮﾝﾌﾚｰﾑ
100
AcDbLine
 10
612.0518739299273
 20
184.0370934991481
 30
0.0
 11
611.6518739299274
 21
184.837093499148
 31
0.0
  0
LINE
  5
39CB
330
1F
100
AcDbEntity
  8
ｴｸｽﾃﾝｼｮﾝﾌﾚｰﾑ
100
AcDbLine
 10
642.53634637219
 20
179.3370934991481
 30
0.0
 11
643.0363463721903
 21
179.0370934991481
 31
0.0
  0
LINE
  5
39CC
330
1F
100
AcDbEntity
  8
ｴｸｽﾃﾝｼｮﾝﾌﾚｰﾑ
100
AcDbLine
 10
643.0363463721903
 20
179.0370934991481
 30
0.0
 11
642.5720770057221
 21
125.837093499148
 31
0.0
  0
LINE
  5
39CD
330
1F
100
AcDbEntity
  8
ｴｸｽﾃﾝｼｮﾝﾌﾚｰﾑ
100
AcDbLine
 10
642.53634637219
 20
179.3370934991481
 30
0.0
 11
642.53634637219
 21
180.837093499148
 31
0.0
  0
LINE
  5
39CE
330
1F
100
AcDbEntity
  8
ｴｸｽﾃﾝｼｮﾝﾌﾚｰﾑ
100
AcDbLine
 10
640.0798023491206
 20
180.837093499148
 30
0.0
 11
640.0518763721902
 21
184.0370934991481
 31
0.0
  0
LINE
  5
39CF
330
1F
100
AcDbEntity
  8
ｴｸｽﾃﾝｼｮﾝﾌﾚｰﾑ
100
AcDbLine
 10
640.0518763721902
 20
184.0370934991481
 30
0.0
 11
639.6518763721903
 21
184.837093499148
 31
0.0
  0
ARC
  5
39D0
330
1F
100
AcDbEntity
  8
ｴｸｽﾃﾝｼｮﾝﾌﾚｰﾑ
100
AcDbCircle
 10
636.7229420768239
 20
123.637093499148
 30
0.0
 40
0.2
100
AcDbArc
 50
270.0
 51
359.4999999999986
1001
GENIUS_GENOBJ-N-FIL_13
1002
{
1000
OWNER
1000
GEN
1002
}
1001
GENIUS_GENODEF_13
1002
{
1000
HIER
1070
     0
1002
}
1002
{
1000
MANEDIT
1070
     0
1002
}
1002
{
1000
NOSEL
1070
     0
1002
}
1002
{
1000
BEHIND
1070
     0
1002
}
1002
{
1000
OTHER
1070
     0
1002
}
1002
{
1000
REACTOR
1002
}
  0
LINE
  5
39D1
330
1F
100
AcDbEntity
  8
ｴｸｽﾃﾝｼｮﾝﾌﾚｰﾑ
100
AcDbLine
 10
636.9421488016407
 20
125.837093499148
 30
0.0
 11
636.9229344614368
 21
123.6353481920482
 31
0.0
  0
ARC
  5
39D2
330
1F
100
AcDbEntity
  8
ｴｸｽﾃﾝｼｮﾝﾌﾚｰﾑ
100
AcDbCircle
 10
626.7252462527131
 20
123.637093499148
 30
0.0
 40
0.2
100
AcDbArc
 50
270.0
 51
359.4999999999986
1001
GENIUS_GENOBJ-N-FIL_13
1002
{
1000
OWNER
1000
GEN
1002
}
1001
GENIUS_GENODEF_13
1002
{
1000
HIER
1070
     0
1002
}
1002
{
1000
MANEDIT
1070
     0
1002
}
1002
{
1000
NOSEL
1070
     0
1002
}
1002
{
1000
BEHIND
1070
     0
1002
}
1002
{
1000
OTHER
1070
     0
1002
}
1002
{
1000
REACTOR
1002
}
  0
LINE
  5
39D3
330
1F
100
AcDbEntity
  8
ｴｸｽﾃﾝｼｮﾝﾌﾚｰﾑ
100
AcDbLine
 10
626.94445297753
 20
125.837093499148
 30
0.0
 11
626.9252386373259
 21
123.6353481920482
 31
0.0
  0
ARC
  5
39D4
330
1F
100
AcDbEntity
  8
ｴｸｽﾃﾝｼｮﾝﾌﾚｰﾑ
100
AcDbCircle
 10
608.7252362527131
 20
123.637093499148
 30
0.0
 40
0.2
100
AcDbArc
 50
270.0
 51
359.4999999999986
1001
GENIUS_GENOBJ-N-FIL_13
1002
{
1000
OWNER
1000
GEN
1002
}
1001
GENIUS_GENODEF_13
1002
{
1000
HIER
1070
     0
1002
}
1002
{
1000
MANEDIT
1070
     0
1002
}
1002
{
1000
NOSEL
1070
     0
1002
}
1002
{
1000
BEHIND
1070
     0
1002
}
1002
{
1000
OTHER
1070
     0
1002
}
1002
{
1000
REACTOR
1002
}
  0
LINE
  5
39D5
330
1F
100
AcDbEntity
  8
ｴｸｽﾃﾝｼｮﾝﾌﾚｰﾑ
100
AcDbLine
 10
608.94444297753
 20
125.837093499148
 30
0.0
 11
608.9252286373262
 21
123.6353481920482
 31
0.0
  0
LINE
  5
39E9
330
1F
100
AcDbEntity
  8
ｴｸｽﾃﾝｼｮﾝﾌﾚｰﾑ
100
AcDbLine
 10
921.2611254539153
 20
862.4840341857989
 30
0.0
 11
921.2611254539151
 21
275.1108427765319
 31
0.0
  0
LINE
  5
39EA
330
1F
100
AcDbEntity
  8
ｴｸｽﾃﾝｼｮﾝﾌﾚｰﾑ
100
AcDbLine
 10
918.8611254539152
 20
868.3331691146973
 30
0.0
 11
918.8611254539148
 21
269.2617078476335
 31
0.0
  0
LINE
  5
39EB
330
1F
100
AcDbEntity
  8
ｴｸｽﾃﾝｼｮﾝﾌﾚｰﾑ
100
AcDbLine
 10
865.6611254539152
 20
868.7974384811653
 30
0.0
 11
865.6611254539152
 21
844.0474384811651
 31
0.0
  0
LINE
  5
39EC
330
1F
100
AcDbEntity
  8
ｴｸｽﾃﾝｼｮﾝﾌﾚｰﾑ
100
AcDbLine
 10
865.6611254539152
 20
840.5474484811653
 30
0.0
 11
865.6611254539152
 21
838.0474384811652
 31
0.0
  0
LINE
  5
39ED
330
1F
100
AcDbEntity
  8
ｴｸｽﾃﾝｼｮﾝﾌﾚｰﾑ
100
AcDbLine
 10
865.6611254539152
 20
834.5474384811653
 30
0.0
 11
865.6611254539152
 21
602.0474384811653
 31
0.0
  0
LINE
  5
39EE
330
1F
100
AcDbEntity
  8
ｴｸｽﾃﾝｼｮﾝﾌﾚｰﾑ
100
AcDbLine
 10
865.361125453915
 20
868.297438481165
 30
0.0
 11
865.361125453915
 21
269.2974384811662
 31
0.0
  0
LINE
  5
39EF
330
1F
100
AcDbEntity
  8
ｴｸｽﾃﾝｼｮﾝﾌﾚｰﾑ
100
AcDbLine
 10
859.861125453915
 20
865.4129684811655
 30
0.0
 11
859.861125453915
 21
272.1819084811655
 31
0.0
  0
LINE
  5
39F0
330
1F
100
AcDbEntity
  8
ｴｸｽﾃﾝｼｮﾝﾌﾚｰﾑ
100
AcDbLine
 10
918.861125453915
 20
834.5474384811653
 30
0.0
 11
865.361125453915
 21
834.5474384811653
 31
0.0
  0
LINE
  5
39F1
330
1F
100
AcDbEntity
  8
ｴｸｽﾃﾝｼｮﾝﾌﾚｰﾑ
100
AcDbLine
 10
918.861125453915
 20
838.0474384811652
 30
0.0
 11
865.361125453915
 21
838.0474384811652
 31
0.0
  0
LINE
  5
39F2
330
1F
100
AcDbEntity
  8
ｴｸｽﾃﾝｼｮﾝﾌﾚｰﾑ
100
AcDbLine
 10
918.861125453915
 20
840.5474484811653
 30
0.0
 11
865.361125453915
 21
840.5474484811653
 31
0.0
  0
LINE
  5
39F3
330
1F
100
AcDbEntity
  8
ｴｸｽﾃﾝｼｮﾝﾌﾚｰﾑ
100
AcDbLine
 10
918.861125453915
 20
844.0474384811651
 30
0.0
 11
865.361125453915
 21
844.0474384811651
 31
0.0
  0
LINE
  5
39F4
330
1F
100
AcDbEntity
  8
ｴｸｽﾃﾝｼｮﾝﾌﾚｰﾑ
100
AcDbLine
 10
863.8611254539151
 20
855.8409020158327
 30
0.0
 11
860.6611254539153
 21
855.8129760389023
 31
0.0
  0
LINE
  5
39F5
330
1F
100
AcDbEntity
  8
ｴｸｽﾃﾝｼｮﾝﾌﾚｰﾑ
100
AcDbLine
 10
860.6611254539153
 20
855.8129760389023
 30
0.0
 11
859.861125453915
 21
855.4129760389024
 31
0.0
  0
LINE
  5
39F6
330
1F
100
AcDbEntity
  8
ｴｸｽﾃﾝｼｮﾝﾌﾚｰﾑ
100
AcDbLine
 10
863.8611254539151
 20
837.8408920158328
 30
0.0
 11
860.6611254539153
 21
837.8129660389022
 31
0.0
  0
LINE
  5
39F7
330
1F
100
AcDbEntity
  8
ｴｸｽﾃﾝｼｮﾝﾌﾚｰﾑ
100
AcDbLine
 10
860.6611254539153
 20
837.8129660389022
 30
0.0
 11
859.861125453915
 21
837.4129660389025
 31
0.0
  0
LINE
  5
39F8
330
1F
100
AcDbEntity
  8
ｴｸｽﾃﾝｼｮﾝﾌﾚｰﾑ
100
AcDbLine
 10
863.8611254539151
 20
868.297438481165
 30
0.0
 11
863.8611254539219
 21
269.2974384811657
 31
0.0
  0
LINE
  5
39F9
330
1F
100
AcDbEntity
  8
ｴｸｽﾃﾝｼｮﾝﾌﾚｰﾑ
100
AcDbLine
 10
865.361125453915
 20
868.297438481165
 30
0.0
 11
865.6611254539152
 21
868.7974384811655
 31
0.0
  0
LINE
  5
39FA
330
1F
100
AcDbEntity
  8
ｴｸｽﾃﾝｼｮﾝﾌﾚｰﾑ
100
AcDbLine
 10
865.6611254539152
 20
868.7974384811655
 30
0.0
 11
918.8611254539152
 21
868.3331691146973
 31
0.0
  0
LINE
  5
39FB
330
1F
100
AcDbEntity
  8
ｴｸｽﾃﾝｼｮﾝﾌﾚｰﾑ
100
AcDbLine
 10
865.361125453915
 20
868.297438481165
 30
0.0
 11
863.8611254539151
 21
868.297438481165
 31
0.0
  0
LINE
  5
39FC
330
1F
100
AcDbEntity
  8
ｴｸｽﾃﾝｼｮﾝﾌﾚｰﾑ
100
AcDbLine
 10
863.8611254539151
 20
865.8408944580955
 30
0.0
 11
860.6611254539153
 21
865.8129684811651
 31
0.0
  0
LINE
  5
39FD
330
1F
100
AcDbEntity
  8
ｴｸｽﾃﾝｼｮﾝﾌﾚｰﾑ
100
AcDbLine
 10
860.6611254539153
 20
865.8129684811651
 30
0.0
 11
859.861125453915
 21
865.4129684811655
 31
0.0
  0
ARC
  5
39FE
330
1F
100
AcDbEntity
  8
ｴｸｽﾃﾝｼｮﾝﾌﾚｰﾑ
100
AcDbCircle
 10
921.061125453915
 20
862.4840341857991
 30
0.0
 40
0.2
100
AcDbArc
 50
0.000000000000007
 51
89.50000000000034
1001
GENIUS_GENOBJ-N-FIL_13
1002
{
1000
OWNER
1000
GEN
1002
}
1001
GENIUS_GENODEF_13
1002
{
1000
HIER
1070
     0
1002
}
1002
{
1000
MANEDIT
1070
     0
1002
}
1002
{
1000
NOSEL
1070
     0
1002
}
1002
{
1000
BEHIND
1070
     0
1002
}
1002
{
1000
OTHER
1070
     0
1002
}
1002
{
1000
REACTOR
1002
}
  0
LINE
  5
39FF
330
1F
100
AcDbEntity
  8
ｴｸｽﾃﾝｼｮﾝﾌﾚｰﾑ
100
AcDbLine
 10
918.8611254539152
 20
862.703240910616
 30
0.0
 11
921.0628707610146
 21
862.6840265704117
 31
0.0
  0
ARC
  5
3A00
330
1F
100
AcDbEntity
  8
ｴｸｽﾃﾝｼｮﾝﾌﾚｰﾑ
100
AcDbCircle
 10
921.061125453915
 20
852.4863383616882
 30
0.0
 40
0.2
100
AcDbArc
 50
0.000000000000007
 51
89.50000000000034
1001
GENIUS_GENOBJ-N-FIL_13
1002
{
1000
OWNER
1000
GEN
1002
}
1001
GENIUS_GENODEF_13
1002
{
1000
HIER
1070
     0
1002
}
1002
{
1000
MANEDIT
1070
     0
1002
}
1002
{
1000
NOSEL
1070
     0
1002
}
1002
{
1000
BEHIND
1070
     0
1002
}
1002
{
1000
OTHER
1070
     0
1002
}
1002
{
1000
REACTOR
1002
}
  0
LINE
  5
3A01
330
1F
100
AcDbEntity
  8
ｴｸｽﾃﾝｼｮﾝﾌﾚｰﾑ
100
AcDbLine
 10
918.8611254539152
 20
852.705545086505
 30
0.0
 11
921.0628707610146
 21
852.6863307463012
 31
0.0
  0
ARC
  5
3A02
330
1F
100
AcDbEntity
  8
ｴｸｽﾃﾝｼｮﾝﾌﾚｰﾑ
100
AcDbCircle
 10
921.061125453915
 20
834.4863283616883
 30
0.0
 40
0.2
100
AcDbArc
 50
0.000000000000007
 51
89.50000000000034
1001
GENIUS_GENOBJ-N-FIL_13
1002
{
1000
OWNER
1000
GEN
1002
}
1001
GENIUS_GENODEF_13
1002
{
1000
HIER
1070
     0
1002
}
1002
{
1000
MANEDIT
1070
     0
1002
}
1002
{
1000
NOSEL
1070
     0
1002
}
1002
{
1000
BEHIND
1070
     0
1002
}
1002
{
1000
OTHER
1070
     0
1002
}
1002
{
1000
REACTOR
1002
}
  0
LINE
  5
3A03
330
1F
100
AcDbEntity
  8
ｴｸｽﾃﾝｼｮﾝﾌﾚｰﾑ
100
AcDbLine
 10
918.861125453915
 20
834.7055350865051
 30
0.0
 11
921.0628707610146
 21
834.6863207463011
 31
0.0
  0
LINE
  5
3A05
330
1F
100
AcDbEntity
  8
ｴｸｽﾃﾝｼｮﾝﾌﾚｰﾑ
100
AcDbLine
 10
865.6611254539152
 20
268.7974384811655
 30
0.0
 11
865.6611254539152
 21
293.5474384811657
 31
0.0
  0
LINE
  5
3A06
330
1F
100
AcDbEntity
  8
ｴｸｽﾃﾝｼｮﾝﾌﾚｰﾑ
100
AcDbLine
 10
865.6611254539152
 20
297.0474284811655
 30
0.0
 11
865.6611254539152
 21
299.5474384811657
 31
0.0
  0
LINE
  5
3A07
330
1F
100
AcDbEntity
  8
ｴｸｽﾃﾝｼｮﾝﾌﾚｰﾑ
100
AcDbLine
 10
918.8611254539152
 20
303.0474384811655
 30
0.0
 11
865.3611254539153
 21
303.0474384811655
 31
0.0
  0
LINE
  5
3A08
330
1F
100
AcDbEntity
  8
ｴｸｽﾃﾝｼｮﾝﾌﾚｰﾑ
100
AcDbLine
 10
918.8611254539152
 20
299.5474384811657
 30
0.0
 11
865.3611254539153
 21
299.5474384811657
 31
0.0
  0
LINE
  5
3A09
330
1F
100
AcDbEntity
  8
ｴｸｽﾃﾝｼｮﾝﾌﾚｰﾑ
100
AcDbLine
 10
918.8611254539152
 20
297.0474284811655
 30
0.0
 11
865.3611254539153
 21
297.0474284811655
 31
0.0
  0
LINE
  5
3A0A
330
1F
100
AcDbEntity
  8
ｴｸｽﾃﾝｼｮﾝﾌﾚｰﾑ
100
AcDbLine
 10
918.8611254539152
 20
293.5474384811657
 30
0.0
 11
865.3611254539153
 21
293.5474384811657
 31
0.0
  0
LINE
  5
3A0B
330
1F
100
AcDbEntity
  8
ｴｸｽﾃﾝｼｮﾝﾌﾚｰﾑ
100
AcDbLine
 10
863.8611254539153
 20
281.7539749464982
 30
0.0
 11
860.6611254539153
 21
281.7819009234286
 31
0.0
  0
LINE
  5
3A0C
330
1F
100
AcDbEntity
  8
ｴｸｽﾃﾝｼｮﾝﾌﾚｰﾑ
100
AcDbLine
 10
860.6611254539153
 20
281.7819009234286
 30
0.0
 11
859.861125453915
 21
282.1819009234287
 31
0.0
  0
LINE
  5
3A0D
330
1F
100
AcDbEntity
  8
ｴｸｽﾃﾝｼｮﾝﾌﾚｰﾑ
100
AcDbLine
 10
863.8611254539153
 20
299.7539849464981
 30
0.0
 11
860.6611254539153
 21
299.7819109234285
 31
0.0
  0
LINE
  5
3A0E
330
1F
100
AcDbEntity
  8
ｴｸｽﾃﾝｼｮﾝﾌﾚｰﾑ
100
AcDbLine
 10
860.6611254539153
 20
299.7819109234285
 30
0.0
 11
859.861125453915
 21
300.1819109234284
 31
0.0
  0
LINE
  5
3A0F
330
1F
100
AcDbEntity
  8
ｴｸｽﾃﾝｼｮﾝﾌﾚｰﾑ
100
AcDbLine
 10
865.3611254539153
 20
269.2974384811657
 30
0.0
 11
865.6611254539152
 21
268.7974384811655
 31
0.0
  0
LINE
  5
3A10
330
1F
100
AcDbEntity
  8
ｴｸｽﾃﾝｼｮﾝﾌﾚｰﾑ
100
AcDbLine
 10
865.6611254539152
 20
268.7974384811655
 30
0.0
 11
918.8611254539152
 21
269.2617078476337
 31
0.0
  0
LINE
  5
3A11
330
1F
100
AcDbEntity
  8
ｴｸｽﾃﾝｼｮﾝﾌﾚｰﾑ
100
AcDbLine
 10
865.3611254539153
 20
269.2974384811657
 30
0.0
 11
863.8611254539153
 21
269.2974384811657
 31
0.0
  0
LINE
  5
3A12
330
1F
100
AcDbEntity
  8
ｴｸｽﾃﾝｼｮﾝﾌﾚｰﾑ
100
AcDbLine
 10
863.8611254539153
 20
271.7539825042352
 30
0.0
 11
860.6611254539153
 21
271.7819084811656
 31
0.0
  0
LINE
  5
3A13
330
1F
100
AcDbEntity
  8
ｴｸｽﾃﾝｼｮﾝﾌﾚｰﾑ
100
AcDbLine
 10
860.6611254539153
 20
271.7819084811656
 30
0.0
 11
859.861125453915
 21
272.1819084811655
 31
0.0
  0
ARC
  5
3A14
330
1F
100
AcDbEntity
  8
ｴｸｽﾃﾝｼｮﾝﾌﾚｰﾑ
100
AcDbCircle
 10
921.0611254539154
 20
275.1108427765317
 30
0.0
 40
0.2
100
AcDbArc
 50
270.4999999999996
 51
0.000000000000007
1001
GENIUS_GENOBJ-N-FIL_13
1002
{
1000
OWNER
1000
GEN
1002
}
1001
GENIUS_GENODEF_13
1002
{
1000
HIER
1070
     0
1002
}
1002
{
1000
MANEDIT
1070
     0
1002
}
1002
{
1000
NOSEL
1070
     0
1002
}
1002
{
1000
BEHIND
1070
     0
1002
}
1002
{
1000
OTHER
1070
     0
1002
}
1002
{
1000
REACTOR
1002
}
  0
LINE
  5
3A15
330
1F
100
AcDbEntity
  8
ｴｸｽﾃﾝｼｮﾝﾌﾚｰﾑ
100
AcDbLine
 10
918.8611254539152
 20
274.8916360517151
 30
0.0
 11
921.0628707610149
 21
274.910850391919
 31
0.0
  0
ARC
  5
3A16
330
1F
100
AcDbEntity
  8
ｴｸｽﾃﾝｼｮﾝﾌﾚｰﾑ
100
AcDbCircle
 10
921.0611254539154
 20
285.1085386006424
 30
0.0
 40
0.2
100
AcDbArc
 50
270.4999999999996
 51
0.000000000000007
1001
GENIUS_GENOBJ-N-FIL_13
1002
{
1000
OWNER
1000
GEN
1002
}
1001
GENIUS_GENODEF_13
1002
{
1000
HIER
1070
     0
1002
}
1002
{
1000
MANEDIT
1070
     0
1002
}
1002
{
1000
NOSEL
1070
     0
1002
}
1002
{
1000
BEHIND
1070
     0
1002
}
1002
{
1000
OTHER
1070
     0
1002
}
1002
{
1000
REACTOR
1002
}
  0
LINE
  5
3A17
330
1F
100
AcDbEntity
  8
ｴｸｽﾃﾝｼｮﾝﾌﾚｰﾑ
100
AcDbLine
 10
918.8611254539152
 20
284.8893318758257
 30
0.0
 11
921.0628707610149
 21
284.9085462160297
 31
0.0
  0
ARC
  5
3A18
330
1F
100
AcDbEntity
  8
ｴｸｽﾃﾝｼｮﾝﾌﾚｰﾑ
100
AcDbCircle
 10
921.061125453915
 20
303.1085486006426
 30
0.0
 40
0.2
100
AcDbArc
 50
270.4999999999996
 51
0.000000000000007
1001
GENIUS_GENOBJ-N-FIL_13
1002
{
1000
OWNER
1000
GEN
1002
}
1001
GENIUS_GENODEF_13
1002
{
1000
HIER
1070
     0
1002
}
1002
{
1000
MANEDIT
1070
     0
1002
}
1002
{
1000
NOSEL
1070
     0
1002
}
1002
{
1000
BEHIND
1070
     0
1002
}
1002
{
1000
OTHER
1070
     0
1002
}
1002
{
1000
REACTOR
1002
}
  0
LINE
  5
3A19
330
1F
100
AcDbEntity
  8
ｴｸｽﾃﾝｼｮﾝﾌﾚｰﾑ
100
AcDbLine
 10
918.8611254539152
 20
302.8893418758257
 30
0.0
 11
921.0628707610149
 21
302.9085562160299
 31
0.0
  0
LINE
  5
3A4F
330
1F
100
AcDbEntity
  8
ｴｸｽﾃﾝｼｮﾝﾌﾚｰﾑ
100
AcDbLine
 10
865.6611254539152
 20
598.5474484811655
 30
0.0
 11
865.6611254539152
 21
596.0474384811654
 31
0.0
  0
LINE
  5
3A50
330
1F
100
AcDbEntity
  8
ｴｸｽﾃﾝｼｮﾝﾌﾚｰﾑ
100
AcDbLine
 10
918.861125453915
 20
592.5474384811656
 30
0.0
 11
865.3611254539153
 21
592.5474384811656
 31
0.0
  0
LINE
  5
3A51
330
1F
100
AcDbEntity
  8
ｴｸｽﾃﾝｼｮﾝﾌﾚｰﾑ
100
AcDbLine
 10
918.861125453915
 20
596.0474384811654
 30
0.0
 11
865.3611254539153
 21
596.0474384811654
 31
0.0
  0
LINE
  5
3A52
330
1F
100
AcDbEntity
  8
ｴｸｽﾃﾝｼｮﾝﾌﾚｰﾑ
100
AcDbLine
 10
918.861125453915
 20
598.5474484811655
 30
0.0
 11
865.3611254539153
 21
598.5474484811655
 31
0.0
  0
LINE
  5
3A53
330
1F
100
AcDbEntity
  8
ｴｸｽﾃﾝｼｮﾝﾌﾚｰﾑ
100
AcDbLine
 10
918.861125453915
 20
602.0474384811653
 30
0.0
 11
865.3611254539153
 21
602.0474384811653
 31
0.0
  0
LINE
  5
3A54
330
1F
100
AcDbEntity
  8
ｴｸｽﾃﾝｼｮﾝﾌﾚｰﾑ
100
AcDbLine
 10
865.6611254539152
 20
541.5474484811656
 30
0.0
 11
865.6611254539152
 21
539.0474384811653
 31
0.0
  0
LINE
  5
3A55
330
1F
100
AcDbEntity
  8
ｴｸｽﾃﾝｼｮﾝﾌﾚｰﾑ
100
AcDbLine
 10
918.861125453915
 20
535.5474384811656
 30
0.0
 11
865.3611254539153
 21
535.5474384811656
 31
0.0
  0
LINE
  5
3A56
330
1F
100
AcDbEntity
  8
ｴｸｽﾃﾝｼｮﾝﾌﾚｰﾑ
100
AcDbLine
 10
918.861125453915
 20
539.0474384811653
 30
0.0
 11
865.3611254539153
 21
539.0474384811653
 31
0.0
  0
LINE
  5
3A57
330
1F
100
AcDbEntity
  8
ｴｸｽﾃﾝｼｮﾝﾌﾚｰﾑ
100
AcDbLine
 10
918.861125453915
 20
541.5474484811656
 30
0.0
 11
865.3611254539153
 21
541.5474484811656
 31
0.0
  0
LINE
  5
3A58
330
1F
100
AcDbEntity
  8
ｴｸｽﾃﾝｼｮﾝﾌﾚｰﾑ
100
AcDbLine
 10
918.861125453915
 20
545.0474384811654
 30
0.0
 11
865.3611254539153
 21
545.0474384811654
 31
0.0
  0
LINE
  5
3A59
330
1F
100
AcDbEntity
  8
ｴｸｽﾃﾝｼｮﾝﾌﾚｰﾑ
100
AcDbLine
 10
865.6611254539152
 20
592.5474384811654
 30
0.0
 11
865.6611254539152
 21
545.0474384811654
 31
0.0
  0
LINE
  5
3A5A
330
1F
100
AcDbEntity
  8
ｴｸｽﾃﾝｼｮﾝﾌﾚｰﾑ
100
AcDbLine
 10
865.6611254539152
 20
535.5474384811653
 30
0.0
 11
865.6611254539152
 21
303.0474384811655
 31
0.0
  0
LINE
  5
3A6C
330
1F
100
AcDbEntity
  8
ｴｸｽﾃﾝｼｮﾝﾌﾚｰﾑ
100
AcDbLine
 10
863.8611254539153
 20
538.1693594580958
 30
0.0
 11
860.6611254539153
 21
538.1414334811653
 31
0.0
  0
LINE
  5
3A6D
330
1F
100
AcDbEntity
  8
ｴｸｽﾃﾝｼｮﾝﾌﾚｰﾑ
100
AcDbLine
 10
860.6611254539153
 20
538.1414334811653
 30
0.0
 11
859.861125453915
 21
537.7414334811653
 31
0.0
  0
LINE
  5
3A6E
330
1F
100
AcDbEntity
  8
ｴｸｽﾃﾝｼｮﾝﾌﾚｰﾑ
100
AcDbLine
 10
863.8611254539153
 20
599.4255175042351
 30
0.0
 11
860.6611254539153
 21
599.4534434811655
 31
0.0
  0
LINE
  5
3A6F
330
1F
100
AcDbEntity
  8
ｴｸｽﾃﾝｼｮﾝﾌﾚｰﾑ
100
AcDbLine
 10
860.6611254539153
 20
599.4534434811655
 30
0.0
 11
859.861125453915
 21
599.8534434811654
 31
0.0
  0
INSERT
  5
3A74
102
{ACAD_REACTORS
330
3A71
102
}
330
1F
100
AcDbEntity
  8
AM_12
100
AcDbBlockReference
  2
*S9
 10
0.0
 20
0.0
 30
0.0
  0
INSERT
  5
3A79
102
{ACAD_REACTORS
330
3A78
102
}
330
1F
100
AcDbEntity
  8
AM_5
100
AcDbBlockReference
  2
*S10
 10
0.0
 20
0.0
 30
0.0
  0
INSERT
  5
3A9B
102
{ACAD_REACTORS
330
3A9A
102
}
330
1F
100
AcDbEntity
  8
AM_12
100
AcDbBlockReference
  2
*S11
 10
0.0
 20
0.0
 30
0.0
  0
INSERT
  5
3A9F
102
{ACAD_REACTORS
330
3A9E
102
}
330
1F
100
AcDbEntity
  8
AM_12
100
AcDbBlockReference
  2
*S12
 10
0.0
 20
0.0
 30
0.0
  0
CIRCLE
  5
3B2D
330
1F
100
AcDbEntity
  8
ｴｸｽﾃﾝｼｮﾝﾌﾚｰﾑ
100
AcDbCircle
 10
353.0363463744534
 20
858.7974384811653
 30
0.0
 40
7.504189999999999
  0
CIRCLE
  5
3B2E
330
1F
100
AcDbEntity
  8
ｴｸｽﾃﾝｼｮﾝﾌﾚｰﾑ
100
AcDbCircle
 10
353.0363463744534
 20
858.7974384811653
 30
0.0
 40
8.699999999999999
  0
LINE
  5
3B2F
330
1F
100
AcDbEntity
  8
ｴｸｽﾃﾝｼｮﾝﾌﾚｰﾑ
100
AcDbLine
 10
358.8681973269594
 20
854.0748986958531
 30
0.0
 11
359.7975162391291
 21
853.3223510790318
 31
0.0
  0
LINE
  5
3B30
330
1F
100
AcDbEntity
  8
ｴｸｽﾃﾝｼｮﾝﾌﾚｰﾑ
100
AcDbLine
 10
360.4994276364572
 20
858.0130370323969
 30
0.0
 11
361.6886868641575
 21
857.8880408507369
 31
0.0
  0
LINE
  5
3B31
330
1F
100
AcDbEntity
  8
ｴｸｽﾃﾝｼｮﾝﾌﾚｰﾑ
100
AcDbLine
 10
360.4994276364572
 20
859.5818399299341
 30
0.0
 11
361.6886868641575
 21
859.706836111594
 31
0.0
  0
LINE
  5
3B32
330
1F
100
AcDbEntity
  8
ｴｸｽﾃﾝｼｮﾝﾌﾚｰﾑ
100
AcDbLine
 10
358.8681973269593
 20
863.5199782664777
 30
0.0
 11
359.7975162391291
 21
864.2725258832989
 31
0.0
  0
LINE
  5
3B33
330
1F
100
AcDbEntity
  8
ｴｸｽﾃﾝｼｮﾝﾌﾚｰﾑ
100
AcDbLine
 10
357.7588861597658
 20
864.6292894336712
 30
0.0
 11
358.5114337765871
 21
865.5586083458411
 31
0.0
  0
LINE
  5
3B34
330
1F
100
AcDbEntity
  8
ｴｸｽﾃﾝｼｮﾝﾌﾚｰﾑ
100
AcDbLine
 10
353.8207478232219
 20
866.2605197431689
 30
0.0
 11
353.9457440048821
 21
867.4497789708693
 31
0.0
  0
LINE
  5
3B35
330
1F
100
AcDbEntity
  8
ｴｸｽﾃﾝｼｮﾝﾌﾚｰﾑ
100
AcDbLine
 10
352.2519449256849
 20
866.2605197431689
 30
0.0
 11
352.126948744025
 21
867.4497789708693
 31
0.0
  0
LINE
  5
3B36
330
1F
100
AcDbEntity
  8
ｴｸｽﾃﾝｼｮﾝﾌﾚｰﾑ
100
AcDbLine
 10
348.3138065891412
 20
864.6292894336712
 30
0.0
 11
347.5612589723198
 21
865.5586083458411
 31
0.0
  0
LINE
  5
3B37
330
1F
100
AcDbEntity
  8
ｴｸｽﾃﾝｼｮﾝﾌﾚｰﾑ
100
AcDbLine
 10
357.7588861597657
 20
852.9655875286595
 30
0.0
 11
358.5114337765869
 21
852.0362686164897
 31
0.0
  0
LINE
  5
3B38
330
1F
100
AcDbEntity
  8
ｴｸｽﾃﾝｼｮﾝﾌﾚｰﾑ
100
AcDbLine
 10
353.8207478232219
 20
851.3343572191617
 30
0.0
 11
353.9457440048819
 21
850.1450979914613
 31
0.0
  0
LINE
  5
3B39
330
1F
100
AcDbEntity
  8
ｴｸｽﾃﾝｼｮﾝﾌﾚｰﾑ
100
AcDbLine
 10
352.2519449256848
 20
851.3343572191617
 30
0.0
 11
352.1269487440247
 21
850.1450979914613
 31
0.0
  0
LINE
  5
3B3A
330
1F
100
AcDbEntity
  8
ｴｸｽﾃﾝｼｮﾝﾌﾚｰﾑ
100
AcDbLine
 10
348.3138065891411
 20
852.9655875286595
 30
0.0
 11
347.5612589723198
 21
852.0362686164897
 31
0.0
  0
LINE
  5
3B3B
330
1F
100
AcDbEntity
  8
ｴｸｽﾃﾝｼｮﾝﾌﾚｰﾑ
100
AcDbLine
 10
347.2044954219476
 20
854.0748986958529
 30
0.0
 11
346.2751765097778
 21
853.3223510790318
 31
0.0
  0
LINE
  5
3B3C
330
1F
100
AcDbEntity
  8
ｴｸｽﾃﾝｼｮﾝﾌﾚｰﾑ
100
AcDbLine
 10
345.5732651124497
 20
858.0130370323969
 30
0.0
 11
344.3840058847494
 21
857.8880408507368
 31
0.0
  0
LINE
  5
3B3D
330
1F
100
AcDbEntity
  8
ｴｸｽﾃﾝｼｮﾝﾌﾚｰﾑ
100
AcDbLine
 10
345.5732651124497
 20
859.5818399299337
 30
0.0
 11
344.3840058847494
 21
859.7068361115939
 31
0.0
  0
LINE
  5
3B3E
330
1F
100
AcDbEntity
  8
ｴｸｽﾃﾝｼｮﾝﾌﾚｰﾑ
100
AcDbLine
 10
347.2044954219475
 20
863.5199782664777
 30
0.0
 11
346.2751765097777
 21
864.2725258832989
 31
0.0
  0
CIRCLE
  5
3B3F
330
1F
100
AcDbEntity
  8
ｴｸｽﾃﾝｼｮﾝﾌﾚｰﾑ
100
AcDbCircle
 10
353.0363463744533
 20
568.7974384811654
 30
0.0
 40
7.504189999999999
  0
CIRCLE
  5
3B40
330
1F
100
AcDbEntity
  8
ｴｸｽﾃﾝｼｮﾝﾌﾚｰﾑ
100
AcDbCircle
 10
353.0363463744533
 20
568.7974384811654
 30
0.0
 40
8.699999999999999
  0
LINE
  5
3B41
330
1F
100
AcDbEntity
  8
ｴｸｽﾃﾝｼｮﾝﾌﾚｰﾑ
100
AcDbLine
 10
358.8681973269593
 20
564.0748986958532
 30
0.0
 11
359.797516239129
 21
563.3223510790318
 31
0.0
  0
LINE
  5
3B42
330
1F
100
AcDbEntity
  8
ｴｸｽﾃﾝｼｮﾝﾌﾚｰﾑ
100
AcDbLine
 10
360.4994276364571
 20
568.0130370323969
 30
0.0
 11
361.6886868641574
 21
567.8880408507369
 31
0.0
  0
LINE
  5
3B43
330
1F
100
AcDbEntity
  8
ｴｸｽﾃﾝｼｮﾝﾌﾚｰﾑ
100
AcDbLine
 10
360.4994276364571
 20
569.581839929934
 30
0.0
 11
361.6886868641574
 21
569.706836111594
 31
0.0
  0
LINE
  5
3B44
330
1F
100
AcDbEntity
  8
ｴｸｽﾃﾝｼｮﾝﾌﾚｰﾑ
100
AcDbLine
 10
358.8681973269591
 20
573.5199782664778
 30
0.0
 11
359.797516239129
 21
574.2725258832989
 31
0.0
  0
LINE
  5
3B45
330
1F
100
AcDbEntity
  8
ｴｸｽﾃﾝｼｮﾝﾌﾚｰﾑ
100
AcDbLine
 10
357.7588861597657
 20
574.6292894336712
 30
0.0
 11
358.5114337765869
 21
575.558608345841
 31
0.0
  0
LINE
  5
3B46
330
1F
100
AcDbEntity
  8
ｴｸｽﾃﾝｼｮﾝﾌﾚｰﾑ
100
AcDbLine
 10
353.8207478232219
 20
576.2605197431691
 30
0.0
 11
353.9457440048821
 21
577.4497789708695
 31
0.0
  0
LINE
  5
3B47
330
1F
100
AcDbEntity
  8
ｴｸｽﾃﾝｼｮﾝﾌﾚｰﾑ
100
AcDbLine
 10
352.2519449256848
 20
576.2605197431691
 30
0.0
 11
352.1269487440248
 21
577.4497789708695
 31
0.0
  0
LINE
  5
3B48
330
1F
100
AcDbEntity
  8
ｴｸｽﾃﾝｼｮﾝﾌﾚｰﾑ
100
AcDbLine
 10
348.3138065891411
 20
574.6292894336712
 30
0.0
 11
347.5612589723197
 21
575.5586083458411
 31
0.0
  0
LINE
  5
3B49
330
1F
100
AcDbEntity
  8
ｴｸｽﾃﾝｼｮﾝﾌﾚｰﾑ
100
AcDbLine
 10
357.7588861597655
 20
562.9655875286594
 30
0.0
 11
358.5114337765868
 21
562.0362686164896
 31
0.0
  0
LINE
  5
3B4A
330
1F
100
AcDbEntity
  8
ｴｸｽﾃﾝｼｮﾝﾌﾚｰﾑ
100
AcDbLine
 10
353.8207478232217
 20
561.3343572191617
 30
0.0
 11
353.9457440048818
 21
560.1450979914613
 31
0.0
  0
LINE
  5
3B4B
330
1F
100
AcDbEntity
  8
ｴｸｽﾃﾝｼｮﾝﾌﾚｰﾑ
100
AcDbLine
 10
352.2519449256847
 20
561.3343572191617
 30
0.0
 11
352.1269487440246
 21
560.1450979914613
 31
0.0
  0
LINE
  5
3B4C
330
1F
100
AcDbEntity
  8
ｴｸｽﾃﾝｼｮﾝﾌﾚｰﾑ
100
AcDbLine
 10
348.313806589141
 20
562.9655875286594
 30
0.0
 11
347.5612589723197
 21
562.0362686164896
 31
0.0
  0
LINE
  5
3B4D
330
1F
100
AcDbEntity
  8
ｴｸｽﾃﾝｼｮﾝﾌﾚｰﾑ
100
AcDbLine
 10
347.2044954219475
 20
564.074898695853
 30
0.0
 11
346.2751765097777
 21
563.3223510790318
 31
0.0
  0
LINE
  5
3B4E
330
1F
100
AcDbEntity
  8
ｴｸｽﾃﾝｼｮﾝﾌﾚｰﾑ
100
AcDbLine
 10
345.5732651124496
 20
568.0130370323968
 30
0.0
 11
344.3840058847493
 21
567.8880408507366
 31
0.0
  0
LINE
  5
3B4F
330
1F
100
AcDbEntity
  8
ｴｸｽﾃﾝｼｮﾝﾌﾚｰﾑ
100
AcDbLine
 10
345.5732651124496
 20
569.5818399299338
 30
0.0
 11
344.3840058847493
 21
569.7068361115937
 31
0.0
  0
LINE
  5
3B50
330
1F
100
AcDbEntity
  8
ｴｸｽﾃﾝｼｮﾝﾌﾚｰﾑ
100
AcDbLine
 10
347.2044954219474
 20
573.5199782664775
 30
0.0
 11
346.2751765097776
 21
574.2725258832989
 31
0.0
  0
CIRCLE
  5
3B51
330
1F
100
AcDbEntity
  8
ｴｸｽﾃﾝｼｮﾝﾌﾚｰﾑ
100
AcDbCircle
 10
353.0363463744533
 20
278.7974384811654
 30
0.0
 40
7.504189999999999
  0
CIRCLE
  5
3B52
330
1F
100
AcDbEntity
  8
ｴｸｽﾃﾝｼｮﾝﾌﾚｰﾑ
100
AcDbCircle
 10
353.0363463744533
 20
278.7974384811654
 30
0.0
 40
8.699999999999999
  0
LINE
  5
3B53
330
1F
100
AcDbEntity
  8
ｴｸｽﾃﾝｼｮﾝﾌﾚｰﾑ
100
AcDbLine
 10
358.8681973269593
 20
274.0748986958533
 30
0.0
 11
359.797516239129
 21
273.3223510790319
 31
0.0
  0
LINE
  5
3B54
330
1F
100
AcDbEntity
  8
ｴｸｽﾃﾝｼｮﾝﾌﾚｰﾑ
100
AcDbLine
 10
360.4994276364571
 20
278.013037032397
 30
0.0
 11
361.6886868641574
 21
277.8880408507371
 31
0.0
  0
LINE
  5
3B55
330
1F
100
AcDbEntity
  8
ｴｸｽﾃﾝｼｮﾝﾌﾚｰﾑ
100
AcDbLine
 10
360.4994276364571
 20
279.5818399299342
 30
0.0
 11
361.6886868641574
 21
279.7068361115941
 31
0.0
  0
LINE
  5
3B56
330
1F
100
AcDbEntity
  8
ｴｸｽﾃﾝｼｮﾝﾌﾚｰﾑ
100
AcDbLine
 10
358.8681973269591
 20
283.5199782664779
 30
0.0
 11
359.797516239129
 21
284.2725258832991
 31
0.0
  0
LINE
  5
3B57
330
1F
100
AcDbEntity
  8
ｴｸｽﾃﾝｼｮﾝﾌﾚｰﾑ
100
AcDbLine
 10
357.7588861597657
 20
284.6292894336714
 30
0.0
 11
358.5114337765869
 21
285.5586083458411
 31
0.0
  0
LINE
  5
3B58
330
1F
100
AcDbEntity
  8
ｴｸｽﾃﾝｼｮﾝﾌﾚｰﾑ
100
AcDbLine
 10
353.8207478232219
 20
286.2605197431692
 30
0.0
 11
353.9457440048821
 21
287.4497789708696
 31
0.0
  0
LINE
  5
3B59
330
1F
100
AcDbEntity
  8
ｴｸｽﾃﾝｼｮﾝﾌﾚｰﾑ
100
AcDbLine
 10
352.2519449256848
 20
286.2605197431692
 30
0.0
 11
352.1269487440248
 21
287.4497789708696
 31
0.0
  0
LINE
  5
3B5A
330
1F
100
AcDbEntity
  8
ｴｸｽﾃﾝｼｮﾝﾌﾚｰﾑ
100
AcDbLine
 10
348.3138065891411
 20
284.6292894336714
 30
0.0
 11
347.5612589723197
 21
285.5586083458413
 31
0.0
  0
LINE
  5
3B5B
330
1F
100
AcDbEntity
  8
ｴｸｽﾃﾝｼｮﾝﾌﾚｰﾑ
100
AcDbLine
 10
357.7588861597655
 20
272.9655875286596
 30
0.0
 11
358.5114337765868
 21
272.0362686164899
 31
0.0
  0
LINE
  5
3B5C
330
1F
100
AcDbEntity
  8
ｴｸｽﾃﾝｼｮﾝﾌﾚｰﾑ
100
AcDbLine
 10
353.8207478232217
 20
271.3343572191618
 30
0.0
 11
353.9457440048818
 21
270.1450979914614
 31
0.0
  0
LINE
  5
3B5D
330
1F
100
AcDbEntity
  8
ｴｸｽﾃﾝｼｮﾝﾌﾚｰﾑ
100
AcDbLine
 10
352.2519449256847
 20
271.3343572191618
 30
0.0
 11
352.1269487440246
 21
270.1450979914614
 31
0.0
  0
LINE
  5
3B5E
330
1F
100
AcDbEntity
  8
ｴｸｽﾃﾝｼｮﾝﾌﾚｰﾑ
100
AcDbLine
 10
348.313806589141
 20
272.9655875286596
 30
0.0
 11
347.5612589723197
 21
272.0362686164899
 31
0.0
  0
LINE
  5
3B5F
330
1F
100
AcDbEntity
  8
ｴｸｽﾃﾝｼｮﾝﾌﾚｰﾑ
100
AcDbLine
 10
347.2044954219475
 20
274.0748986958531
 30
0.0
 11
346.2751765097777
 21
273.3223510790319
 31
0.0
  0
LINE
  5
3B60
330
1F
100
AcDbEntity
  8
ｴｸｽﾃﾝｼｮﾝﾌﾚｰﾑ
100
AcDbLine
 10
345.5732651124496
 20
278.0130370323968
 30
0.0
 11
344.3840058847493
 21
277.8880408507368
 31
0.0
  0
LINE
  5
3B61
330
1F
100
AcDbEntity
  8
ｴｸｽﾃﾝｼｮﾝﾌﾚｰﾑ
100
AcDbLine
 10
345.5732651124496
 20
279.5818399299339
 30
0.0
 11
344.3840058847493
 21
279.7068361115939
 31
0.0
  0
LINE
  5
3B62
330
1F
100
AcDbEntity
  8
ｴｸｽﾃﾝｼｮﾝﾌﾚｰﾑ
100
AcDbLine
 10
347.2044954219474
 20
283.5199782664777
 30
0.0
 11
346.2751765097776
 21
284.2725258832991
 31
0.0
  0
CIRCLE
  5
3B63
330
1F
100
AcDbEntity
  8
ｴｸｽﾃﾝｼｮﾝﾌﾚｰﾑ
100
AcDbCircle
 10
633.0363463744533
 20
278.7974384811653
 30
0.0
 40
7.504189999999999
  0
CIRCLE
  5
3B64
330
1F
100
AcDbEntity
  8
ｴｸｽﾃﾝｼｮﾝﾌﾚｰﾑ
100
AcDbCircle
 10
633.0363463744533
 20
278.7974384811653
 30
0.0
 40
8.699999999999999
  0
LINE
  5
3B65
330
1F
100
AcDbEntity
  8
ｴｸｽﾃﾝｼｮﾝﾌﾚｰﾑ
100
AcDbLine
 10
638.8681973269592
 20
274.0748986958531
 30
0.0
 11
639.7975162391292
 21
273.3223510790317
 31
0.0
  0
LINE
  5
3B66
330
1F
100
AcDbEntity
  8
ｴｸｽﾃﾝｼｮﾝﾌﾚｰﾑ
100
AcDbLine
 10
640.499427636457
 20
278.0130370323968
 30
0.0
 11
641.6886868641575
 21
277.8880408507368
 31
0.0
  0
LINE
  5
3B67
330
1F
100
AcDbEntity
  8
ｴｸｽﾃﾝｼｮﾝﾌﾚｰﾑ
100
AcDbLine
 10
640.499427636457
 20
279.5818399299339
 30
0.0
 11
641.6886868641575
 21
279.7068361115939
 31
0.0
  0
LINE
  5
3B68
330
1F
100
AcDbEntity
  8
ｴｸｽﾃﾝｼｮﾝﾌﾚｰﾑ
100
AcDbLine
 10
638.8681973269592
 20
283.5199782664777
 30
0.0
 11
639.7975162391292
 21
284.2725258832988
 31
0.0
  0
LINE
  5
3B69
330
1F
100
AcDbEntity
  8
ｴｸｽﾃﾝｼｮﾝﾌﾚｰﾑ
100
AcDbLine
 10
637.7588861597658
 20
284.6292894336711
 30
0.0
 11
638.5114337765871
 21
285.5586083458409
 31
0.0
  0
LINE
  5
3B6A
330
1F
100
AcDbEntity
  8
ｴｸｽﾃﾝｼｮﾝﾌﾚｰﾑ
100
AcDbLine
 10
633.820747823222
 20
286.260519743169
 30
0.0
 11
633.945744004882
 21
287.4497789708694
 31
0.0
  0
LINE
  5
3B6B
330
1F
100
AcDbEntity
  8
ｴｸｽﾃﾝｼｮﾝﾌﾚｰﾑ
100
AcDbLine
 10
632.2519449256849
 20
286.260519743169
 30
0.0
 11
632.1269487440249
 21
287.4497789708694
 31
0.0
  0
LINE
  5
3B6C
330
1F
100
AcDbEntity
  8
ｴｸｽﾃﾝｼｮﾝﾌﾚｰﾑ
100
AcDbLine
 10
628.3138065891412
 20
284.6292894336711
 30
0.0
 11
627.5612589723198
 21
285.5586083458411
 31
0.0
  0
LINE
  5
3B6D
330
1F
100
AcDbEntity
  8
ｴｸｽﾃﾝｼｮﾝﾌﾚｰﾑ
100
AcDbLine
 10
637.7588861597655
 20
272.9655875286594
 30
0.0
 11
638.511433776587
 21
272.0362686164897
 31
0.0
  0
LINE
  5
3B6E
330
1F
100
AcDbEntity
  8
ｴｸｽﾃﾝｼｮﾝﾌﾚｰﾑ
100
AcDbLine
 10
633.8207478232218
 20
271.3343572191616
 30
0.0
 11
633.9457440048818
 21
270.1450979914612
 31
0.0
  0
LINE
  5
3B6F
330
1F
100
AcDbEntity
  8
ｴｸｽﾃﾝｼｮﾝﾌﾚｰﾑ
100
AcDbLine
 10
632.2519449256847
 20
271.3343572191616
 30
0.0
 11
632.1269487440247
 21
270.1450979914612
 31
0.0
  0
LINE
  5
3B70
330
1F
100
AcDbEntity
  8
ｴｸｽﾃﾝｼｮﾝﾌﾚｰﾑ
100
AcDbLine
 10
628.3138065891412
 20
272.9655875286594
 30
0.0
 11
627.5612589723198
 21
272.0362686164897
 31
0.0
  0
LINE
  5
3B71
330
1F
100
AcDbEntity
  8
ｴｸｽﾃﾝｼｮﾝﾌﾚｰﾑ
100
AcDbLine
 10
627.2044954219475
 20
274.0748986958529
 30
0.0
 11
626.2751765097777
 21
273.3223510790317
 31
0.0
  0
LINE
  5
3B72
330
1F
100
AcDbEntity
  8
ｴｸｽﾃﾝｼｮﾝﾌﾚｰﾑ
100
AcDbLine
 10
625.5732651124496
 20
278.0130370323966
 30
0.0
 11
624.3840058847492
 21
277.8880408507366
 31
0.0
  0
LINE
  5
3B73
330
1F
100
AcDbEntity
  8
ｴｸｽﾃﾝｼｮﾝﾌﾚｰﾑ
100
AcDbLine
 10
625.5732651124496
 20
279.5818399299337
 30
0.0
 11
624.3840058847495
 21
279.7068361115937
 31
0.0
  0
LINE
  5
3B74
330
1F
100
AcDbEntity
  8
ｴｸｽﾃﾝｼｮﾝﾌﾚｰﾑ
100
AcDbLine
 10
627.2044954219475
 20
283.5199782664775
 30
0.0
 11
626.2751765097775
 21
284.2725258832988
 31
0.0
  0
CIRCLE
  5
3B75
330
1F
100
AcDbEntity
  8
ｴｸｽﾃﾝｼｮﾝﾌﾚｰﾑ
100
AcDbCircle
 10
633.0363463744536
 20
568.7974384811652
 30
0.0
 40
7.504189999999999
  0
CIRCLE
  5
3B76
330
1F
100
AcDbEntity
  8
ｴｸｽﾃﾝｼｮﾝﾌﾚｰﾑ
100
AcDbCircle
 10
633.0363463744536
 20
568.7974384811652
 30
0.0
 40
8.699999999999999
  0
LINE
  5
3B77
330
1F
100
AcDbEntity
  8
ｴｸｽﾃﾝｼｮﾝﾌﾚｰﾑ
100
AcDbLine
 10
638.8681973269592
 20
564.0748986958532
 30
0.0
 11
639.7975162391292
 21
563.3223510790316
 31
0.0
  0
LINE
  5
3B78
330
1F
100
AcDbEntity
  8
ｴｸｽﾃﾝｼｮﾝﾌﾚｰﾑ
100
AcDbLine
 10
640.499427636457
 20
568.0130370323968
 30
0.0
 11
641.6886868641575
 21
567.8880408507368
 31
0.0
  0
LINE
  5
3B79
330
1F
100
AcDbEntity
  8
ｴｸｽﾃﾝｼｮﾝﾌﾚｰﾑ
100
AcDbLine
 10
640.499427636457
 20
569.5818399299339
 30
0.0
 11
641.6886868641575
 21
569.7068361115939
 31
0.0
  0
LINE
  5
3B7A
330
1F
100
AcDbEntity
  8
ｴｸｽﾃﾝｼｮﾝﾌﾚｰﾑ
100
AcDbLine
 10
638.8681973269592
 20
573.5199782664778
 30
0.0
 11
639.7975162391292
 21
574.2725258832988
 31
0.0
  0
LINE
  5
3B7B
330
1F
100
AcDbEntity
  8
ｴｸｽﾃﾝｼｮﾝﾌﾚｰﾑ
100
AcDbLine
 10
637.7588861597658
 20
574.6292894336712
 30
0.0
 11
638.5114337765871
 21
575.558608345841
 31
0.0
  0
LINE
  5
3B7C
330
1F
100
AcDbEntity
  8
ｴｸｽﾃﾝｼｮﾝﾌﾚｰﾑ
100
AcDbLine
 10
633.820747823222
 20
576.2605197431691
 30
0.0
 11
633.945744004882
 21
577.4497789708695
 31
0.0
  0
LINE
  5
3B7D
330
1F
100
AcDbEntity
  8
ｴｸｽﾃﾝｼｮﾝﾌﾚｰﾑ
100
AcDbLine
 10
632.2519449256849
 20
576.2605197431691
 30
0.0
 11
632.1269487440249
 21
577.4497789708695
 31
0.0
  0
LINE
  5
3B7E
330
1F
100
AcDbEntity
  8
ｴｸｽﾃﾝｼｮﾝﾌﾚｰﾑ
100
AcDbLine
 10
628.3138065891412
 20
574.6292894336712
 30
0.0
 11
627.5612589723198
 21
575.5586083458411
 31
0.0
  0
LINE
  5
3B7F
330
1F
100
AcDbEntity
  8
ｴｸｽﾃﾝｼｮﾝﾌﾚｰﾑ
100
AcDbLine
 10
637.7588861597655
 20
562.9655875286594
 30
0.0
 11
638.511433776587
 21
562.0362686164896
 31
0.0
  0
LINE
  5
3B80
330
1F
100
AcDbEntity
  8
ｴｸｽﾃﾝｼｮﾝﾌﾚｰﾑ
100
AcDbLine
 10
633.8207478232218
 20
561.3343572191617
 30
0.0
 11
633.9457440048818
 21
560.1450979914613
 31
0.0
  0
LINE
  5
3B81
330
1F
100
AcDbEntity
  8
ｴｸｽﾃﾝｼｮﾝﾌﾚｰﾑ
100
AcDbLine
 10
632.2519449256847
 20
561.3343572191617
 30
0.0
 11
632.1269487440247
 21
560.1450979914613
 31
0.0
  0
LINE
  5
3B82
330
1F
100
AcDbEntity
  8
ｴｸｽﾃﾝｼｮﾝﾌﾚｰﾑ
100
AcDbLine
 10
628.3138065891412
 20
562.9655875286594
 30
0.0
 11
627.5612589723198
 21
562.0362686164896
 31
0.0
  0
LINE
  5
3B83
330
1F
100
AcDbEntity
  8
ｴｸｽﾃﾝｼｮﾝﾌﾚｰﾑ
100
AcDbLine
 10
627.2044954219475
 20
564.074898695853
 30
0.0
 11
626.2751765097777
 21
563.3223510790318
 31
0.0
  0
LINE
  5
3B84
330
1F
100
AcDbEntity
  8
ｴｸｽﾃﾝｼｮﾝﾌﾚｰﾑ
100
AcDbLine
 10
625.5732651124496
 20
568.0130370323968
 30
0.0
 11
624.3840058847492
 21
567.8880408507366
 31
0.0
  0
LINE
  5
3B85
330
1F
100
AcDbEntity
  8
ｴｸｽﾃﾝｼｮﾝﾌﾚｰﾑ
100
AcDbLine
 10
625.5732651124496
 20
569.5818399299338
 30
0.0
 11
624.3840058847495
 21
569.7068361115937
 31
0.0
  0
LINE
  5
3B86
330
1F
100
AcDbEntity
  8
ｴｸｽﾃﾝｼｮﾝﾌﾚｰﾑ
100
AcDbLine
 10
627.2044954219475
 20
573.5199782664775
 30
0.0
 11
626.2751765097775
 21
574.2725258832989
 31
0.0
  0
CIRCLE
  5
3B87
330
1F
100
AcDbEntity
  8
ｴｸｽﾃﾝｼｮﾝﾌﾚｰﾑ
100
AcDbCircle
 10
633.0363463744536
 20
858.7974384811653
 30
0.0
 40
7.504189999999999
  0
CIRCLE
  5
3B88
330
1F
100
AcDbEntity
  8
ｴｸｽﾃﾝｼｮﾝﾌﾚｰﾑ
100
AcDbCircle
 10
633.0363463744536
 20
858.7974384811653
 30
0.0
 40
8.699999999999999
  0
LINE
  5
3B89
330
1F
100
AcDbEntity
  8
ｴｸｽﾃﾝｼｮﾝﾌﾚｰﾑ
100
AcDbLine
 10
638.8681973269594
 20
854.0748986958531
 30
0.0
 11
639.7975162391294
 21
853.3223510790318
 31
0.0
  0
LINE
  5
3B8A
330
1F
100
AcDbEntity
  8
ｴｸｽﾃﾝｼｮﾝﾌﾚｰﾑ
100
AcDbLine
 10
640.4994276364573
 20
858.0130370323969
 30
0.0
 11
641.6886868641577
 21
857.8880408507368
 31
0.0
  0
LINE
  5
3B8B
330
1F
100
AcDbEntity
  8
ｴｸｽﾃﾝｼｮﾝﾌﾚｰﾑ
100
AcDbLine
 10
640.4994276364573
 20
859.5818399299339
 30
0.0
 11
641.6886868641577
 21
859.7068361115939
 31
0.0
  0
LINE
  5
3B8C
330
1F
100
AcDbEntity
  8
ｴｸｽﾃﾝｼｮﾝﾌﾚｰﾑ
100
AcDbLine
 10
638.8681973269594
 20
863.5199782664777
 30
0.0
 11
639.7975162391294
 21
864.2725258832989
 31
0.0
  0
LINE
  5
3B8D
330
1F
100
AcDbEntity
  8
ｴｸｽﾃﾝｼｮﾝﾌﾚｰﾑ
100
AcDbLine
 10
637.758886159766
 20
864.6292894336712
 30
0.0
 11
638.5114337765871
 21
865.5586083458411
 31
0.0
  0
LINE
  5
3B8E
330
1F
100
AcDbEntity
  8
ｴｸｽﾃﾝｼｮﾝﾌﾚｰﾑ
100
AcDbLine
 10
633.820747823222
 20
866.2605197431689
 30
0.0
 11
633.9457440048822
 21
867.4497789708693
 31
0.0
  0
LINE
  5
3B8F
330
1F
100
AcDbEntity
  8
ｴｸｽﾃﾝｼｮﾝﾌﾚｰﾑ
100
AcDbLine
 10
632.2519449256851
 20
866.2605197431689
 30
0.0
 11
632.1269487440249
 21
867.4497789708693
 31
0.0
  0
LINE
  5
3B90
330
1F
100
AcDbEntity
  8
ｴｸｽﾃﾝｼｮﾝﾌﾚｰﾑ
100
AcDbLine
 10
628.3138065891412
 20
864.6292894336712
 30
0.0
 11
627.56125897232
 21
865.5586083458411
 31
0.0
  0
LINE
  5
3B91
330
1F
100
AcDbEntity
  8
ｴｸｽﾃﾝｼｮﾝﾌﾚｰﾑ
100
AcDbLine
 10
637.7588861597658
 20
852.9655875286595
 30
0.0
 11
638.5114337765871
 21
852.0362686164897
 31
0.0
  0
LINE
  5
3B92
330
1F
100
AcDbEntity
  8
ｴｸｽﾃﾝｼｮﾝﾌﾚｰﾑ
100
AcDbLine
 10
633.820747823222
 20
851.3343572191617
 30
0.0
 11
633.945744004882
 21
850.1450979914613
 31
0.0
  0
LINE
  5
3B93
330
1F
100
AcDbEntity
  8
ｴｸｽﾃﾝｼｮﾝﾌﾚｰﾑ
100
AcDbLine
 10
632.2519449256847
 20
851.3343572191617
 30
0.0
 11
632.1269487440249
 21
850.1450979914613
 31
0.0
  0
LINE
  5
3B94
330
1F
100
AcDbEntity
  8
ｴｸｽﾃﾝｼｮﾝﾌﾚｰﾑ
100
AcDbLine
 10
628.3138065891412
 20
852.9655875286595
 30
0.0
 11
627.56125897232
 21
852.0362686164897
 31
0.0
  0
LINE
  5
3B95
330
1F
100
AcDbEntity
  8
ｴｸｽﾃﾝｼｮﾝﾌﾚｰﾑ
100
AcDbLine
 10
627.2044954219477
 20
854.0748986958529
 30
0.0
 11
626.2751765097777
 21
853.3223510790318
 31
0.0
  0
LINE
  5
3B96
330
1F
100
AcDbEntity
  8
ｴｸｽﾃﾝｼｮﾝﾌﾚｰﾑ
100
AcDbLine
 10
625.5732651124499
 20
858.0130370323969
 30
0.0
 11
624.3840058847495
 21
857.8880408507368
 31
0.0
  0
LINE
  5
3B97
330
1F
100
AcDbEntity
  8
ｴｸｽﾃﾝｼｮﾝﾌﾚｰﾑ
100
AcDbLine
 10
625.5732651124499
 20
859.5818399299337
 30
0.0
 11
624.3840058847495
 21
859.7068361115939
 31
0.0
  0
LINE
  5
3B98
330
1F
100
AcDbEntity
  8
ｴｸｽﾃﾝｼｮﾝﾌﾚｰﾑ
100
AcDbLine
 10
627.2044954219477
 20
863.5199782664777
 30
0.0
 11
626.2751765097777
 21
864.2725258832989
 31
0.0
  0
HATCH
  5
3BD9
330
1F
100
AcDbEntity
  8
AM_8
100
AcDbHatch
 10
0.0
 20
0.0
 30
0.0
210
0.0
220
0.0
230
1.0
  2
_U
 70
     0
 71
     0
 91
        1
 92
        1
 93
       22
 72
     2
 10
636.7229420768239
 20
1047.536424526176
 40
0.2000000000000354
 50
0.500000000006101
 51
89.99999999999998
 73
     1
 72
     1
 10
636.7229420768239
 20
1047.736424526176
 11
635.1576663721902
 21
1047.736424526176
 72
     1
 10
635.1576663721902
 20
1047.736424526176
 11
635.2455335345815
 21
1037.667844997077
 72
     2
 10
636.2454954576496
 20
1037.676571532583
 40
1.000000000004107
 50
180.5000000004332
 51
240.0000000004231
 73
     1
 72
     1
 10
635.7454954576537
 20
1036.810546128791
 11
637.4793688142167
 21
1035.809493879639
 72
     2
 10
637.3293688142171
 20
1035.549686258503
 40
0.299999999999986
 50
299.9999999999715
 51
359.5000000000019
 73
     0
 72
     1
 10
637.6293573911361
 20
1035.552304219153
 11
638.0518763721901
 21
987.1364245261764
 72
     1
 10
638.0518763721902
 20
987.1364245261764
 11
638.45187637219
 21
986.3364245261761
 72
     1
 10
638.4518763721898
 20
986.3364245261763
 11
639.6518763721901
 21
986.3364245261763
 72
     1
 10
639.6518763721901
 20
986.3364245261763
 11
640.0518763721899
 21
987.1364245261764
 72
     1
 10
640.0518763721902
 20
987.1364245261764
 11
640.0798023491206
 21
990.3364245261764
 72
     1
 10
640.0798023491206
 20
990.3364245261764
 11
642.53634637219
 21
990.3364245261764
 72
     1
 10
642.53634637219
 20
990.3364245261764
 11
642.53634637219
 21
991.8364245261765
 72
     1
 10
642.53634637219
 20
991.8364245261765
 11
643.0363463721903
 21
992.1364245261763
 72
     1
 10
643.0363463721901
 20
992.1364245261763
 11
642.5720770057218
 21
1045.336424526176
 72
     1
 10
642.5720770057218
 20
1045.336424526176
 11
640.8694665610616
 21
1045.336424526176
 72
     2
 10
640.8694665610619
 20
1045.136424526176
 40
0.200000000000017
 50
89.99999999999998
 51
179.4999999999938
 73
     1
 72
     1
 10
640.669474176449
 20
1045.138169833276
 11
640.6248148400732
 21
1040.020716762279
 72
     2
 10
638.8248833785578
 20
1040.036424526176
 40
1.799999999999859
 50
360.4999999999886
 51
449.9999999999928
 73
     0
 72
     1
 10
638.8248833785578
 20
1038.236424526176
 11
638.7884697420254
 21
1038.236424526176
 72
     2
 10
638.7884697420256
 20
1040.036424526177
 40
1.800000000000082
 50
90.00000000000362
 51
179.5000000000006
 73
     0
 72
     1
 10
636.98853828051
 20
1040.020716762279
 11
636.9229344614367
 21
1047.538169833276
 97
        0
 75
     0
 76
     0
 52
-45.00000000000001
 41
10.0
 77
     0
 78
     1
 53
315.0
 43
-66.77036682922182
 44
1138.9655858317
 45
7.071067811865476
 46
7.071067811865473
 79
     0
 98
        1
 10
-66.77036682922182
 20
1138.9655858317
1001
GENIUS_GENOBJ-N-HTC_13
1002
{
1000
OWNER
1000
GEN
1002
}
1001
GENIUS_GENODEF_13
1002
{
1000
HIER
1070
     0
1002
}
1002
{
1000
MANEDIT
1070
     0
1002
}
1002
{
1000
NOSEL
1070
     0
1002
}
1002
{
1000
BEHIND
1070
     0
1002
}
1002
{
1000
OTHER
1070
     0
1002
}
1002
{
1000
REACTOR
1002
}
1001
GENIUS_GENHATCH_13
1002
{
1000
DATA
1040
45.0
1042
2.5
1000
_U
1070
     0
1011
639.9786016545472
1021
1025.020674905996
1031
0.0
1002
}
1002
{
1000
UCS
1010
0.0
1020
0.0
1030
0.0
1010
1.0
1020
0.0
1030
0.0
1010
0.0
1020
1.0
1030
0.0
1002
}
  0
LINE
  5
3BF5
330
1F
100
AcDbEntity
  8
ｶﾞｽｹｯﾄ
100
AcDbLine
 10
638.8478473939713
 20
1044.436424526176
 30
0.0
 11
638.7655057266124
 21
1044.436424526176
 31
0.0
  0
ARC
  5
3BF6
330
1F
100
AcDbEntity
  8
ｶﾞｽｹｯﾄ
100
AcDbCircle
 10
638.8478473939713
 20
1042.636424526176
 30
0.0
 40
1.8
100
AcDbArc
 50
0.5000000000013048
 51
89.99999999999998
1001
GENIUS_GENODEF_13
1002
{
1000
HIER
1070
     0
1002
}
1002
{
1000
MANEDIT
1070
     0
1002
}
1002
{
1000
NOSEL
1070
     0
1002
}
1002
{
1000
BEHIND
1070
     0
1002
}
1002
{
1000
OTHER
1070
     0
1002
}
1002
{
1000
REACTOR
1002
}
1001
GENIUS_GENOBJ-N-FIL_13
1002
{
1000
OWNER
1000
GEN
1002
}
  0
ARC
  5
3BF7
330
1F
100
AcDbEntity
  8
ｶﾞｽｹｯﾄ
100
AcDbCircle
 10
638.7655057266124
 20
1042.636424526176
 30
0.0
 40
1.8
100
AcDbArc
 50
89.99999999999998
 51
179.4999999999987
1001
GENIUS_GENODEF_13
1002
{
1000
HIER
1070
     0
1002
}
1002
{
1000
MANEDIT
1070
     0
1002
}
1002
{
1000
NOSEL
1070
     0
1002
}
1002
{
1000
BEHIND
1070
     0
1002
}
1002
{
1000
OTHER
1070
     0
1002
}
1002
{
1000
REACTOR
1002
}
1001
GENIUS_GENOBJ-N-FIL_13
1002
{
1000
OWNER
1000
GEN
1002
}
  0
HATCH
  5
3C06
330
1F
100
AcDbEntity
  8
ｶﾞｽｹｯﾄ
100
AcDbHatch
 10
0.0
 20
0.0
 30
0.0
210
0.0
220
0.0
230
1.0
  2
SOLID
 70
     1
 71
     0
 91
        1
 92
        1
 93
        8
 72
     1
 10
638.7884697420254
 20
1038.236424526177
 11
638.8248833785578
 21
1038.236424526176
 72
     2
 10
638.8248833785578
 20
1040.036424526176
 40
1.799999999999968
 50
-90.00000000000001
 51
-0.5000000000003379
 73
     1
 72
     1
 10
640.6248148400734
 20
1040.020716762279
 11
640.6477788554866
 21
1042.652132290077
 72
     2
 10
638.8478473939713
 20
1042.636424526176
 40
1.800000000000008
 50
0.5000000001188072
 51
89.99999999999998
 73
     1
 72
     1
 10
638.8478473939713
 20
1044.436424526176
 11
638.7655057266125
 21
1044.436424526176
 72
     2
 10
638.7655057266124
 20
1042.636424526176
 40
1.800000000000096
 50
90.0000000000036
 51
179.4999999998879
 73
     1
 72
     1
 10
636.965574265097
 20
1042.652132290077
 11
636.9885382805107
 21
1040.020716762279
 72
     2
 10
638.7884697420258
 20
1040.036424526176
 40
1.799999999999633
 50
180.4999999999923
 51
269.9999999999928
 73
     1
 97
        0
 75
     0
 76
     1
 98
        1
 10
-66.77036682922182
 20
1138.9655858317
1001
GENIUS_GENODEF_13
1002
{
1000
HIER
1070
     0
1002
}
1002
{
1000
MANEDIT
1070
     0
1002
}
1002
{
1000
NOSEL
1070
     0
1002
}
1002
{
1000
BEHIND
1070
     0
1002
}
1002
{
1000
OTHER
1070
     0
1002
}
1002
{
1000
REACTOR
1002
}
1001
GENIUS_GENOBJ-N-HTC_13
1002
{
1000
OWNER
1000
GEN
1002
}
1001
GENIUS_GENHATCH_13
1002
{
1000
DATA
1040
0.0
1042
1.0
1000
SOLID
1070
     0
1011
638.2629504948336
1021
1041.630498477084
1031
0.0
1002
}
1002
{
1000
UCS
1010
0.0
1020
0.0
1030
0.0
1010
1.0
1020
0.0
1030
0.0
1010
0.0
1020
1.0
1030
0.0
1002
}
  0
DIMENSION
  5
3D55
330
1F
100
AcDbEntity
  8
AM_5
100
AcDbDimension
  2
*D6
 10
918.8611254539152
 20
916.7974394911652
 30
0.0
 11
891.3611254539151
 21
929.7974394911653
 31
0.0
 70
    32
 71
     5
 42
55.00000000000023
  3
AM_ISO$0
100
AcDbAlignedDimension
 13
863.8611254539151
 23
868.297438481165
 33
0.0
 14
918.8611254539152
 24
868.3331691146973
 34
0.0
100
AcDbRotatedDimension
1001
ACAD
1000
DSTYLE
1002
{
1070
    40
1040
4.0
1002
}
  0
LINE
  5
3EF6
330
1F
100
AcDbEntity
  8
ｴｸｽﾃﾝｼｮﾝﾌﾚｰﾑ
100
AcDbLine
 10
363.8478407985867
 20
1041.236424526176
 30
0.0
 11
363.8007157125167
 21
1035.836424526176
 31
0.0
  0
LINE
  5
3F0D
330
1F
100
AcDbEntity
  8
ｴｸｽﾃﾝｼｮﾝﾌﾚｰﾑ
100
AcDbLine
 10
377.1007688167163
 20
1045.336424526176
 30
0.0
 11
343.5006157409215
 21
1045.336424526176
 31
0.0
  0
ARC
  5
3F0E
330
1F
100
AcDbEntity
  8
ｴｸｽﾃﾝｼｮﾝﾌﾚｰﾑ
100
AcDbCircle
 10
373.1683061855813
 20
1045.136424526176
 30
0.0
 40
0.2
100
AcDbArc
 50
0.500000000001299
 51
90.00000000000003
1001
GENIUS_GENODEF_13
1002
{
1000
HIER
1070
     0
1002
}
1002
{
1000
MANEDIT
1070
     0
1002
}
1002
{
1000
NOSEL
1070
     0
1002
}
1002
{
1000
BEHIND
1070
     0
1002
}
1002
{
1000
OTHER
1070
     0
1002
}
1002
{
1000
REACTOR
1002
}
1001
GENIUS_GENOBJ-N-FIL_13
1002
{
1000
OWNER
1000
GEN
1002
}
  0
ARC
  5
3F11
330
1F
100
AcDbEntity
  8
ｴｸｽﾃﾝｼｮﾝﾌﾚｰﾑ
100
AcDbCircle
 10
377.3148306698193
 20
1047.536424526176
 30
0.0
 40
0.2
100
AcDbArc
 50
90.00000000000003
 51
179.4999999999987
1001
GENIUS_GENOBJ-N-FIL_13
1002
{
1000
OWNER
1000
GEN
1002
}
1001
GENIUS_GENODEF_13
1002
{
1000
HIER
1070
     0
1002
}
1002
{
1000
MANEDIT
1070
     0
1002
}
1002
{
1000
NOSEL
1070
     0
1002
}
1002
{
1000
BEHIND
1070
     0
1002
}
1002
{
1000
OTHER
1070
     0
1002
}
1002
{
1000
REACTOR
1002
}
  0
LINE
  5
3F14
330
1F
100
AcDbEntity
  8
ｴｸｽﾃﾝｼｮﾝﾌﾚｰﾑ
100
AcDbLine
 10
377.9730417186956
 20
1037.194881103767
 30
0.0
 11
378.0650363744533
 21
1047.736424526176
 31
0.0
  0
LINE
  5
3F15
330
1F
100
AcDbEntity
  8
ｴｸｽﾃﾝｼｮﾝﾌﾚｰﾑ
100
AcDbLine
 10
375.985896374453
 20
987.1364245261764
 30
0.0
 11
376.408415355507
 21
1035.552304219153
 31
0.0
  0
LINE
  5
3F17
330
1F
100
AcDbEntity
  8
ｴｸｽﾃﾝｼｮﾝﾌﾚｰﾑ
100
AcDbLine
 10
373.985896374453
 20
987.1364245261764
 30
0.0
 11
374.3858963744531
 21
986.3364245261763
 31
0.0
  0
LINE
  5
3F18
330
1F
100
AcDbEntity
  8
ｴｸｽﾃﾝｼｮﾝﾌﾚｰﾑ
100
AcDbLine
 10
375.5858963744533
 20
986.3364245261763
 30
0.0
 11
375.985896374453
 21
987.1364245261764
 31
0.0
  0
LINE
  5
3F19
330
1F
100
AcDbEntity
  8
ｴｸｽﾃﾝｼｮﾝﾌﾚｰﾑ
100
AcDbLine
 10
377.4730797956315
 20
1036.337582235481
 30
0.0
 11
376.5584039324265
 21
1035.809493879639
 31
0.0
  0
ARC
  5
3F1A
330
1F
100
AcDbEntity
  8
ｴｸｽﾃﾝｼｮﾝﾌﾚｰﾑ
100
AcDbCircle
 10
376.7084039324263
 20
1035.549686258503
 30
0.0
 40
0.3
100
AcDbArc
 50
120.0000000000005
 51
179.4999999999987
1001
GENIUS_GENODEF_13
1002
{
1000
HIER
1070
     0
1002
}
1002
{
1000
MANEDIT
1070
     0
1002
}
1002
{
1000
NOSEL
1070
     0
1002
}
1002
{
1000
BEHIND
1070
     0
1002
}
1002
{
1000
OTHER
1070
     0
1002
}
1002
{
1000
REACTOR
1002
}
1001
GENIUS_GENOBJ-N-FIL_13
1002
{
1000
OWNER
1000
GEN
1002
}
  0
LINE
  5
3F1C
330
1F
100
AcDbEntity
  8
ｴｸｽﾃﾝｼｮﾝﾌﾚｰﾑ
100
AcDbLine
 10
373.41295790657
 20
1040.020716762279
 30
0.0
 11
373.3682985701942
 21
1045.138169833276
 31
0.0
  0
LINE
  5
3F1D
330
1F
100
AcDbEntity
  8
ｴｸｽﾃﾝｼｮﾝﾌﾚｰﾑ
100
AcDbLine
 10
377.0492344661327
 20
1040.020716762279
 30
0.0
 11
377.1148382852063
 21
1047.538169833276
 31
0.0
  0
LINE
  5
3F1E
330
1F
100
AcDbEntity
  8
ｴｸｽﾃﾝｼｮﾝﾌﾚｰﾑ
100
AcDbLine
 10
375.2128893680854
 20
1038.236424526176
 30
0.0
 11
375.2493030046178
 21
1038.236424526176
 31
0.0
  0
ARC
  5
3F1F
330
1F
100
AcDbEntity
  8
ｴｸｽﾃﾝｼｮﾝﾌﾚｰﾑ
100
AcDbCircle
 10
375.2128893680851
 20
1040.036424526176
 30
0.0
 40
1.8
100
AcDbArc
 50
180.5000000000013
 51
270.0
1001
GENIUS_GENODEF_13
1002
{
1000
HIER
1070
     0
1002
}
1002
{
1000
MANEDIT
1070
     0
1002
}
1002
{
1000
NOSEL
1070
     0
1002
}
1002
{
1000
BEHIND
1070
     0
1002
}
1002
{
1000
OTHER
1070
     0
1002
}
1002
{
1000
REACTOR
1002
}
1001
GENIUS_GENOBJ-N-FIL_13
1002
{
1000
OWNER
1000
GEN
1002
}
  0
ARC
  5
3F20
330
1F
100
AcDbEntity
  8
ｴｸｽﾃﾝｼｮﾝﾌﾚｰﾑ
100
AcDbCircle
 10
375.2493030046176
 20
1040.036424526177
 30
0.0
 40
1.8
100
AcDbArc
 50
270.0
 51
359.4999999999988
1001
GENIUS_GENODEF_13
1002
{
1000
HIER
1070
     0
1002
}
1002
{
1000
MANEDIT
1070
     0
1002
}
1002
{
1000
NOSEL
1070
     0
1002
}
1002
{
1000
BEHIND
1070
     0
1002
}
1002
{
1000
OTHER
1070
     0
1002
}
1002
{
1000
REACTOR
1002
}
1001
GENIUS_GENOBJ-N-FIL_13
1002
{
1000
OWNER
1000
GEN
1002
}
  0
LINE
  5
3F22
330
1F
100
AcDbEntity
  8
ｶﾞｽｹｯﾄ
100
AcDbLine
 10
375.1899253526719
 20
1044.436424526176
 30
0.0
 11
375.2722670200308
 21
1044.436424526176
 31
0.0
  0
ARC
  5
3F23
330
1F
100
AcDbEntity
  8
ｶﾞｽｹｯﾄ
100
AcDbCircle
 10
375.1899253526719
 20
1042.636424526176
 30
0.0
 40
1.8
100
AcDbArc
 50
90.00000000000003
 51
179.4999999999987
1001
GENIUS_GENODEF_13
1002
{
1000
HIER
1070
     0
1002
}
1002
{
1000
MANEDIT
1070
     0
1002
}
1002
{
1000
NOSEL
1070
     0
1002
}
1002
{
1000
BEHIND
1070
     0
1002
}
1002
{
1000
OTHER
1070
     0
1002
}
1002
{
1000
REACTOR
1002
}
1001
GENIUS_GENOBJ-N-FIL_13
1002
{
1000
OWNER
1000
GEN
1002
}
  0
ARC
  5
3F24
330
1F
100
AcDbEntity
  8
ｶﾞｽｹｯﾄ
100
AcDbCircle
 10
375.2722670200308
 20
1042.636424526176
 30
0.0
 40
1.8
100
AcDbArc
 50
0.500000000001299
 51
90.00000000000003
1001
GENIUS_GENODEF_13
1002
{
1000
HIER
1070
     0
1002
}
1002
{
1000
MANEDIT
1070
     0
1002
}
1002
{
1000
NOSEL
1070
     0
1002
}
1002
{
1000
BEHIND
1070
     0
1002
}
1002
{
1000
OTHER
1070
     0
1002
}
1002
{
1000
REACTOR
1002
}
1001
GENIUS_GENOBJ-N-FIL_13
1002
{
1000
OWNER
1000
GEN
1002
}
  0
HATCH
  5
3F25
330
1F
100
AcDbEntity
  8
ｶﾞｽｹｯﾄ
100
AcDbHatch
 10
0.0
 20
0.0
 30
0.0
210
0.0
220
0.0
230
1.0
  2
SOLID
 70
     1
 71
     0
 91
        1
 92
        1
 93
        8
 72
     1
 10
375.2493030046178
 20
1038.236424526177
 11
375.2128893680854
 21
1038.236424526176
 72
     2
 10
375.2128893680854
 20
1040.036424526176
 40
1.799999999999968
 50
-270.0
 51
-180.5000000000003
 73
     0
 72
     1
 10
373.4129579065698
 20
1040.020716762279
 11
373.3899938911566
 21
1042.652132290077
 72
     2
 10
375.1899253526719
 20
1042.636424526176
 40
1.800000000000008
 50
-179.4999999998812
 51
-90.00000000000001
 73
     0
 72
     1
 10
375.1899253526719
 20
1044.436424526176
 11
375.2722670200307
 21
1044.436424526176
 72
     2
 10
375.2722670200308
 20
1042.636424526176
 40
1.800000000000096
 50
-89.99999999999641
 51
-0.5000000001120262
 73
     0
 72
     1
 10
377.0721984815462
 20
1042.652132290077
 11
377.0492344661325
 21
1040.020716762279
 72
     2
 10
375.2493030046173
 20
1040.036424526176
 40
1.799999999999633
 50
0.4999999999922847
 51
89.99999999999277
 73
     0
 97
        0
 75
     0
 76
     1
 98
        1
 10
1080.808139575865
 20
1138.9655858317
1001
GENIUS_GENODEF_13
1002
{
1000
HIER
1070
     0
1002
}
1002
{
1000
MANEDIT
1070
     0
1002
}
1002
{
1000
NOSEL
1070
     0
1002
}
1002
{
1000
BEHIND
1070
     0
1002
}
1002
{
1000
OTHER
1070
     0
1002
}
1002
{
1000
REACTOR
1002
}
1001
GENIUS_GENOBJ-N-HTC_13
1002
{
1000
OWNER
1000
GEN
1002
}
1001
GENIUS_GENHATCH_13
1002
{
1000
DATA
1040
0.0
1042
-1.0
1000
SOLID
1070
     0
1011
475.7748222540727
1021
1041.630498477084
1031
0.0
1002
}
1002
{
1000
UCS
1010
0.0
1020
0.0
1030
0.0
1010
1.0
1020
0.0
1030
0.0
1010
0.0
1020
1.0
1030
0.0
1002
}
  0
ARC
  5
3F96
330
1F
100
AcDbEntity
  8
ｴｸｽﾃﾝｼｮﾝﾌﾚｰﾑ
100
AcDbCircle
 10
376.9730797956315
 20
1037.203607639266
 30
0.0
 40
1.0
100
AcDbArc
 50
299.9999999999981
 51
359.5000000000015
1001
GENIUS_GENODEF_13
1002
{
1000
HIER
1070
     0
1002
}
1002
{
1000
MANEDIT
1070
     0
1002
}
1002
{
1000
NOSEL
1070
     0
1002
}
1002
{
1000
BEHIND
1070
     0
1002
}
1002
{
1000
OTHER
1070
     0
1002
}
1002
{
1000
REACTOR
1002
}
1001
GENIUS_GENOBJ-N-FIL_13
1002
{
1000
OWNER
1000
GEN
1002
}
  0
LINE
  5
3FAC
330
1F
100
AcDbEntity
  8
ｴｸｽﾃﾝｼｮﾝﾌﾚｰﾑ
100
AcDbLine
 10
372.6650363744534
 20
1045.336424526176
 30
0.0
 11
372.7479416184656
 21
1035.836424526176
 31
0.0
  0
LINE
  5
40AC
330
1F
100
AcDbEntity
  8
ｴｸｽﾃﾝｼｮﾝﾌﾚｰﾑ
100
AcDbLine
 10
363.8478407985867
 20
1041.236424526176
 30
0.0
 11
353.0363463744534
 21
1041.236424526176
 31
0.0
  0
LINE
  5
40BC
330
1F
100
AcDbEntity
  8
ｴｸｽﾃﾝｼｮﾝﾌﾚｰﾑ
100
AcDbLine
 10
361.7363463744534
 20
1011.336424526176
 30
0.0
 11
361.7363463744534
 21
990.3364245261764
 31
0.0
  0
LINE
  5
40C1
330
1F
100
AcDbEntity
  8
ｴｸｽﾃﾝｼｮﾝﾌﾚｰﾑ
100
AcDbLine
 10
361.7363463744534
 20
1011.336424526176
 30
0.0
 11
344.3363463744534
 21
1011.336424526176
 31
0.0
  0
LINE
  5
40C2
330
1F
100
AcDbEntity
  8
ｴｸｽﾃﾝｼｮﾝﾌﾚｰﾑ
100
AcDbLine
 10
360.5405363744534
 20
1011.336424526176
 30
0.0
 11
360.5405363744534
 21
1041.236424526176
 31
0.0
  0
LINE
  5
40CA
330
1F
100
AcDbEntity
  8
ｴｸｽﾃﾝｼｮﾝﾌﾚｰﾑ
100
AcDbLine
 10
344.3363463744534
 20
1011.336424526176
 30
0.0
 11
344.3363463744534
 21
990.3364245261764
 31
0.0
  0
LINE
  5
40D4
330
1F
100
AcDbEntity
  8
ｴｸｽﾃﾝｼｮﾝﾌﾚｰﾑ
100
AcDbLine
 10
345.5321563744534
 20
1011.336424526176
 30
0.0
 11
345.5321563744534
 21
1045.336424526176
 31
0.0
  0
LINE
  5
40E1
330
1F
100
AcDbEntity
  8
ｴｸｽﾃﾝｼｮﾝﾌﾚｰﾑ
100
AcDbLine
 10
372.7479416184656
 20
1035.836424526176
 30
0.0
 11
363.8007157125167
 21
1035.836424526176
 31
0.0
  0
LINE
  5
40F6
330
1F
100
AcDbEntity
  8
ｴｸｽﾃﾝｼｮﾝﾌﾚｰﾑ
100
AcDbLine
 10
363.7919888447259
 20
1034.836424526176
 30
0.0
 11
373.269624780834
 21
1034.836424526176
 31
0.0
  0
LINE
  5
40F8
330
1F
100
AcDbEntity
  8
ｴｸｽﾃﾝｼｮﾝﾌﾚｰﾑ
100
AcDbLine
 10
363.7919888447259
 20
1034.836424526176
 30
0.0
 11
363.4036432280371
 21
990.3364245261764
 31
0.0
  0
HATCH
  5
410F
330
1F
100
AcDbEntity
  8
AM_8
100
AcDbHatch
 10
0.0
 20
0.0
 30
0.0
210
0.0
220
0.0
230
1.0
  2
_U
 70
     0
 71
     0
 91
        1
 92
        1
 93
        8
 72
     1
 10
343.5363463744535
 20
991.8364245261765
 11
343.5363463744535
 21
990.3364245261764
 72
     1
 10
343.5363463744535
 20
990.3364245261764
 11
344.3363463744534
 21
990.3364245261764
 72
     1
 10
344.3363463744534
 20
990.3364245261764
 11
344.3363463744534
 21
1011.336424526176
 72
     1
 10
344.3363463744534
 20
1011.336424526176
 11
345.5321563744534
 21
1011.336424526176
 72
     1
 10
345.5321563744534
 20
1011.336424526176
 11
345.5321563744534
 21
1045.336424526176
 72
     1
 10
345.5321563744534
 20
1045.336424526176
 11
343.5006157409215
 21
1045.336424526176
 72
     1
 10
343.5006157409215
 20
1045.336424526176
 11
343.0363463744533
 21
992.1364245261766
 72
     1
 10
343.0363463744533
 20
992.1364245261766
 11
343.5363463744535
 21
991.8364245261765
 97
        0
 75
     0
 76
     0
 52
45.0
 41
7.5
 77
     0
 78
     1
 53
45.0
 43
-214.2389638734827
 44
-226.3572623904984
 45
-5.303300858899106
 46
5.303300858899106
 79
     0
 98
        1
 10
-214.2389638734827
 20
-226.3572623904984
1001
GENIUS_GENODEF_13
1002
{
1000
HIER
1070
     0
1002
}
1002
{
1000
MANEDIT
1070
     0
1002
}
1002
{
1000
NOSEL
1070
     0
1002
}
1002
{
1000
BEHIND
1070
     0
1002
}
1002
{
1000
OTHER
1070
     0
1002
}
1002
{
1000
REACTOR
1002
}
1001
GENIUS_GENOBJ-N-HTC_13
1002
{
1000
OWNER
1000
GEN
1002
}
1001
GENIUS_GENHATCH_13
1002
{
1000
DATA
1040
45.0
1042
2.5
1000
_U
1070
     0
1011
444.4615860799956
1021
1038.092831447376
1031
0.0
1002
}
1002
{
1000
UCS
1010
0.0
1020
0.0
1030
0.0
1010
1.0
1020
0.0
1030
0.0
1010
0.0
1020
1.0
1030
0.0
1002
}
  0
LINE
  5
416A
330
1F
100
AcDbEntity
  8
ｴｸｽﾃﾝｼｮﾝﾌﾚｰﾑ
100
AcDbLine
 10
373.269624780834
 20
1034.836424526176
 30
0.0
 11
373.6579703975226
 21
990.3364245261764
 31
0.0
  0
LINE
  5
4177
330
1F
100
AcDbEntity
  8
ｴｸｽﾃﾝｼｮﾝﾌﾚｰﾑ
100
AcDbLine
 10
373.9579703975226
 20
990.3364245261764
 30
0.0
 11
373.985896374453
 21
987.1364245261764
 31
0.0
  0
HATCH
  5
4182
330
1F
100
AcDbEntity
  8
AM_8
100
AcDbHatch
 10
0.0
 20
0.0
 30
0.0
210
0.0
220
0.0
230
1.0
  2
_U
 70
     0
 71
     0
 91
        1
 92
        1
 93
       30
 72
     2
 10
375.2493030046175
 20
1040.036424526177
 40
1.799999999999749
 50
0.5000000000017501
 51
89.99999999999639
 73
     0
 72
     1
 10
375.2493030046176
 20
1038.236424526177
 11
375.2128893680854
 21
1038.236424526176
 72
     2
 10
375.2128893680851
 20
1040.036424526176
 40
1.799999999999954
 50
89.99999999999277
 51
179.4999999999983
 73
     0
 72
     1
 10
373.4129579065696
 20
1040.020716762279
 11
373.3682985701942
 21
1045.138169833276
 72
     2
 10
373.1683061855813
 20
1045.136424526176
 40
0.2000000000000362
 50
0.5000000000305426
 51
90.0
 73
     1
 72
     1
 10
373.1683061855813
 20
1045.336424526176
 11
372.6650363744534
 21
1045.336424526176
 72
     1
 10
372.6650363744534
 20
1045.336424526176
 11
372.7479416184656
 21
1035.836424526176
 72
     1
 10
372.7479416184656
 20
1035.836424526176
 11
363.8007157125167
 21
1035.836424526176
 72
     1
 10
363.8007157125167
 20
1035.836424526176
 11
363.8478407985867
 21
1041.236424526176
 72
     1
 10
363.8478407985867
 20
1041.236424526176
 11
360.5405363744534
 21
1041.236424526176
 72
     1
 10
360.5405363744534
 20
1041.236424526176
 11
360.5405363744534
 21
1011.336424526176
 72
     1
 10
360.5405363744534
 20
1011.336424526176
 11
361.7363463744534
 21
1011.336424526176
 72
     1
 10
361.7363463744534
 20
1011.336424526176
 11
361.7363463744534
 21
990.3364245261764
 72
     1
 10
361.7363463744534
 20
990.3364245261764
 11
363.4036432280371
 21
990.3364245261764
 72
     1
 10
363.4036432280371
 20
990.3364245261764
 11
363.7919888447259
 21
1034.836424526176
 72
     1
 10
363.7919888447259
 20
1034.836424526176
 11
373.269624780834
 21
1034.836424526176
 72
     1
 10
373.269624780834
 20
1034.836424526176
 11
373.6579703975226
 21
990.3364245261764
 72
     1
 10
373.6579703975226
 20
990.3364245261764
 11
373.9579703975226
 21
990.3364245261764
 72
     1
 10
373.9579703975226
 20
990.3364245261764
 11
373.985896374453
 21
987.1364245261764
 72
     1
 10
373.985896374453
 20
987.1364245261764
 11
374.3858963744531
 21
986.3364245261763
 72
     1
 10
374.3858963744531
 20
986.3364245261763
 11
375.5858963744533
 21
986.3364245261763
 72
     1
 10
375.5858963744533
 20
986.3364245261763
 11
375.985896374453
 21
987.1364245261764
 72
     1
 10
375.985896374453
 20
987.1364245261764
 11
376.408415355507
 21
1035.552304219153
 72
     2
 10
376.7084039324262
 20
1035.549686258503
 40
0.2999999999999416
 50
180.5000000000524
 51
240.000000000034
 73
     0
 72
     1
 10
376.5584039324263
 20
1035.809493879638
 11
377.4730797956315
 21
1036.337582235481
 72
     2
 10
376.9730797956314
 20
1037.203607639266
 40
1.000000000000138
 50
300.0000000000029
 51
359.4999999999954
 73
     1
 72
     1
 10
377.9730417186956
 20
1037.194881103767
 11
378.0650363744533
 21
1047.736424526176
 72
     1
 10
378.0650363744533
 20
1047.736424526176
 11
377.3148306698193
 21
1047.736424526176
 72
     2
 10
377.3148306698193
 20
1047.536424526176
 40
0.2000000000000455
 50
90.0
 51
179.4999999999694
 73
     1
 72
     1
 10
377.1148382852063
 20
1047.538169833276
 11
377.0492344661327
 21
1040.020716762279
 97
        0
 75
     0
 76
     0
 52
45.0
 41
12.5
 77
     0
 78
     1
 53
45.0
 43
-214.2389638734827
 44
-226.3572623904984
 45
-8.838834764831844
 46
8.838834764831844
 79
     0
 98
        1
 10
-214.2389638734827
 20
-226.3572623904984
1001
GENIUS_GENOBJ-N-HTC_13
1002
{
1000
OWNER
1000
GEN
1002
}
1001
GENIUS_GENODEF_13
1002
{
1000
HIER
1070
     0
1002
}
1002
{
1000
MANEDIT
1070
     0
1002
}
1002
{
1000
NOSEL
1070
     0
1002
}
1002
{
1000
BEHIND
1070
     0
1002
}
1002
{
1000
OTHER
1070
     0
1002
}
1002
{
1000
REACTOR
1002
}
1001
GENIUS_GENHATCH_13
1002
{
1000
DATA
1040
45.0
1042
2.5
1000
_U
1070
     0
1011
462.0063842941606
1021
1021.43971603641
1031
0.0
1002
}
1002
{
1000
UCS
1010
0.0
1020
0.0
1030
0.0
1010
1.0
1020
0.0
1030
0.0
1010
0.0
1020
1.0
1030
0.0
1002
}
  0
DIMENSION
  5
4290
330
1F
100
AcDbEntity
  8
AM_5
100
AcDbDimension
  2
*D7
 10
295.0363453644532
 20
268.7974384811654
 30
0.0
 11
282.0363453644532
 21
568.7974384811655
 31
0.0
 70
    32
 71
     5
 42
600.0000000000002
  3
AM_ISO$0
100
AcDbAlignedDimension
 13
353.0363463744534
 23
868.7974384811656
 33
0.0
 14
353.0363463744533
 24
268.7974384811654
 34
0.0
 50
90.0
100
AcDbRotatedDimension
1001
ACAD
1000
DSTYLE
1002
{
1070
    40
1040
4.0
1002
}
  0
DIMENSION
  5
42CA
330
1F
100
AcDbEntity
  8
AM_5
100
AcDbDimension
  2
*D8
 10
643.0363463744535
 20
916.7974394911652
 30
0.0
 11
493.0363463744535
 21
929.7974394911653
 31
0.0
 70
    32
 71
     5
 42
300.0000000000002
  3
AM_ISO$0
100
AcDbAlignedDimension
 13
343.0363463744534
 23
858.7974384811653
 33
0.0
 14
643.0363463744535
 24
858.7974384811653
 34
0.0
100
AcDbRotatedDimension
1001
ACAD
1000
DSTYLE
1002
{
1070
    40
1040
4.0
1002
}
  0
INSERT
  5
44B3
102
{ACAD_REACTORS
330
9A8
102
}
330
1F
100
AcDbEntity
  8
0
100
AcDbBlockReference
  2
*S13
 10
0.0
 20
0.0
 30
0.0
  0
VIEWPORT
  5
186
102
{ACAD_XDICTIONARY
360
45D2
102
}
330
23
100
AcDbEntity
 67
     1
  8
0
100
AcDbViewport
 10
5.249999639556163
 20
3.999999883606677
 30
0.0
 40
14.57585398793907
 41
8.992999745766947
 68
     1
 69
     1
 12
5.249999639556163
 22
3.999999883606677
 13
0.0
 23
0.0
 14
10.0
 24
10.0
 15
10.0
 25
10.0
 16
0.0
 26
0.0
 36
1.0
 17
0.0
 27
0.0
 37
0.0
 42
50.0
 43
0.0
 44
0.0
 45
8.992999745766947
 50
0.0
 51
0.0
 72
   100
 90
    32800
  1

281
     0
 71
     1
 74
     0
110
0.0
120
0.0
130
0.0
111
1.0
121
0.0
131
0.0
112
0.0
122
1.0
132
0.0
 79
     0
146
0.0
  0
ENDSEC
  0
SECTION
  2
OBJECTS
  0
DICTIONARY
  5
C
330
0
100
AcDbDictionary
281
     1
  3
ACAD_COLOR
350
C9
  3
ACAD_GROUP
350
D
  3
ACAD_LAYOUT
350
1A
  3
ACAD_MATERIAL
350
C8
  3
ACAD_MLEADERSTYLE
350
43E2
  3
ACAD_MLINESTYLE
350
17
  3
ACAD_PLOTSETTINGS
350
19
  3
ACAD_PLOTSTYLENAME
350
E
  3
ACAD_SCALELIST
350
43D0
  3
ACAD_TABLESTYLE
350
BD6
  3
ACAD_VISUALSTYLE
350
43BF
  3
ACDB_RECOMPOSE_DATA
350
444E
  3
AcDbVariableDictionary
350
9E
  3
AcmDictionary
350
63
  3
AMG
350
49
  3
AMGSNAPSETTINGS
350
234
  3
DWGPROPS
350
45C9
  0
DICTIONARY
  5
444F
330
8
100
AcDbDictionary
280
     1
281
     1
  0
DICTIONARY
  5
2C1
330
2
100
AcDbDictionary
280
     1
281
     1
  3
ACAD_LAYERFILTERS
360
3BE7
  3
ACAD_LAYERSTATES
360
2C2
  3
ACLYDICTIONARY
360
3BE6
  3
AMLAYER_GROUPCOLORS
360
3BD6
  0
DICTIONARY
  5
4438
330
10
100
AcDbDictionary
280
     1
281
     1
  3
ADSK_XREC_LAYER_RECONCILED
360
4439
  0
DICTIONARY
  5
443A
330
1F0
100
AcDbDictionary
280
     1
281
     1
  3
ADSK_XREC_LAYER_RECONCILED
360
443B
  0
DICTIONARY
  5
443C
330
23E
100
AcDbDictionary
280
     1
281
     1
  3
ADSK_XREC_LAYER_RECONCILED
360
443D
  0
DICTIONARY
  5
443E
330
23F
100
AcDbDictionary
280
     1
281
     1
  3
ADSK_XREC_LAYER_RECONCILED
360
443F
  0
DICTIONARY
  5
4440
330
2AD
100
AcDbDictionary
280
     1
281
     1
  3
ADSK_XREC_LAYER_RECONCILED
360
4441
  0
DICTIONARY
  5
4442
330
3A72
100
AcDbDictionary
280
     1
281
     1
  3
ADSK_XREC_LAYER_RECONCILED
360
4443
  0
DICTIONARY
  5
4444
330
3A73
100
AcDbDictionary
280
     1
281
     1
  3
ADSK_XREC_LAYER_RECONCILED
360
4445
  0
DICTIONARY
  5
4446
330
3BDA
100
AcDbDictionary
280
     1
281
     1
  3
ADSK_XREC_LAYER_RECONCILED
360
4447
  0
DICTIONARY
  5
4448
330
3BE4
100
AcDbDictionary
280
     1
281
     1
  3
ADSK_XREC_LAYER_RECONCILED
360
4449
  0
DICTIONARY
  5
444A
330
433B
100
AcDbDictionary
280
     1
281
     1
  3
ADSK_XREC_LAYER_RECONCILED
360
444B
  0
DICTIONARY
  5
99
330
1F
100
AcDbDictionary
280
     1
281
     1
  3
ACAD_SORTENTS
360
2272
  0
DICTIONARY
  5
AF1
330
AE9
100
AcDbDictionary
280
     1
281
     1
  0
DICTIONARY
  5
B55
330
AFC
100
AcDbDictionary
280
     1
281
     1
  0
DICTIONARY
  5
45D0
330
182
100
AcDbDictionary
280
     1
281
     1
  3
ACAD_XREC_ROUNDTRIP
360
45D1
  0
DICTIONARY
  5
45D2
330
186
100
AcDbDictionary
280
     1
281
     1
  3
ACAD_XREC_ROUNDTRIP
360
45D3
  0
DICTIONARY
  5
C9
102
{ACAD_REACTORS
330
C
102
}
330
C
100
AcDbDictionary
281
     1
  0
DICTIONARY
  5
D
102
{ACAD_REACTORS
330
C
102
}
330
C
100
AcDbDictionary
281
     1
  0
DICTIONARY
  5
1A
102
{ACAD_REACTORS
330
C
102
}
330
C
100
AcDbDictionary
281
     1
  3
Model
350
22
  3
レイアウト1
350
1E
  3
レイアウト2
350
26
  0
DICTIONARY
  5
C8
102
{ACAD_REACTORS
330
C
102
}
330
C
100
AcDbDictionary
281
     1
  3
ByBlock
350
43AF
  3
ByLayer
350
43A7
  3
Global
350
43B7
  0
DICTIONARY
  5
43E2
102
{ACAD_REACTORS
330
C
102
}
330
C
100
AcDbDictionary
281
     1
  3
Standard
350
43E3
  0
DICTIONARY
  5
17
102
{ACAD_REACTORS
330
C
102
}
330
C
100
AcDbDictionary
281
     1
  3
Standard
350
18
  0
DICTIONARY
  5
19
102
{ACAD_REACTORS
330
C
102
}
330
C
100
AcDbDictionary
281
     1
  0
ACDBDICTIONARYWDFLT
  5
E
102
{ACAD_REACTORS
330
C
102
}
330
C
100
AcDbDictionary
281
     1
  3
Normal
350
F
100
AcDbDictionaryWithDefault
340
F
  0
DICTIONARY
  5
43D0
102
{ACAD_REACTORS
330
C
102
}
330
C
100
AcDbDictionary
281
     1
  3
A0
350
43D1
  3
A1
350
43D2
  3
A2
350
43D3
  3
A3
350
43D4
  3
A4
350
43D5
  3
A5
350
43D6
  3
A6
350
43D7
  3
A7
350
43D8
  3
A8
350
43D9
  3
A9
350
43DA
  3
B0
350
43DB
  3
B1
350
43DC
  3
B2
350
43DD
  3
B3
350
43DE
  3
B4
350
43DF
  3
B5
350
43E0
  3
B6
350
43E1
  0
DICTIONARY
  5
BD6
102
{ACAD_REACTORS
330
C
102
}
330
C
100
AcDbDictionary
281
     1
  3
Standard
350
BD7
  0
DICTIONARY
  5
43BF
102
{ACAD_REACTORS
330
C
102
}
330
C
100
AcDbDictionary
281
     1
  3
2dWireframe
350
43C5
  3
3D Hidden
350
43C7
  3
3dWireframe
350
43C6
  3
Basic
350
43C4
  3
Brighten
350
43CB
  3
ColorChange
350
43CF
  3
Conceptual
350
43C8
  3
Dim
350
43CA
  3
Facepattern
350
43CE
  3
Flat
350
43C0
  3
FlatWithEdges
350
43C1
  3
Gouraud
350
43C2
  3
GouraudWithEdges
350
43C3
  3
Linepattern
350
43CD
  3
Realistic
350
43C9
  3
Thicken
350
43CC
  0
XRECORD
  5
444E
102
{ACAD_REACTORS
330
C
102
}
330
C
100
AcDbXrecord
280
     1
 90
        1
330
BD7
  0
DICTIONARY
  5
9E
102
{ACAD_REACTORS
330
C
102
}
330
C
100
AcDbDictionary
281
     1
  3
CANNOSCALE
350
4467
  3
CMLEADERSTYLE
350
4466
  3
CTABLESTYLE
350
C25
  3
DIMASSOC
350
A0
  3
INDEXCTL
350
9F
  3
SORTENTS
350
45C7
  0
DICTIONARY
  5
63
102
{ACAD_REACTORS
330
C
102
}
330
C
100
AcDbDictionary
281
     1
  3
AcmBOM
350
9A7
  3
AcmStdDictionary
350
69
  3
AMDTSECTSYM_ARROWCOLOR
350
BE7
  0
DICTIONARY
  5
49
102
{ACAD_REACTORS
330
C
102
}
330
C
100
AcDbDictionary
281
     1
  0
DICTIONARY
  5
234
102
{ACAD_REACTORS
330
C
102
}
330
C
100
AcDbDictionary
281
     1
  0
XRECORD
  5
45C9
102
{ACAD_REACTORS
330
C
102
}
330
C
100
AcDbXrecord
280
     1
  1
DWGPROPS COOKIE
  2

  3

  4

  6

  7

  8
Administrator
  9

300
AmdtFileType=84
301
=
302
=
303
=
304
=
305
=
306
=
307
=
308
=
309
=
 40
0.1351052546296296
 41
2454770.465836227
 42
2455068.666872107
  1

 90
        1
  0
DICTIONARY
  5
3BE7
102
{ACAD_REACTORS
330
2C1
102
}
330
2C1
100
AcDbDictionary
281
     1
  0
DICTIONARY
  5
2C2
102
{ACAD_REACTORS
330
2C1
102
}
330
2C1
100
AcDbDictionary
281
     1
  0
DICTIONARY
  5
3BE6
102
{ACAD_REACTORS
330
2C1
102
}
330
2C1
100
AcDbDictionary
281
     1
1001
ACAD
1000
<All
  0
DICTIONARY
  5
3BD6
102
{ACAD_REACTORS
330
2C1
102
}
330
2C1
100
AcDbDictionary
280
     1
281
     1
  0
XRECORD
  5
4439
102
{ACAD_REACTORS
330
4438
102
}
330
4438
100
AcDbXrecord
280
     1
290
     1
  0
XRECORD
  5
443B
102
{ACAD_REACTORS
330
443A
102
}
330
443A
100
AcDbXrecord
280
     1
290
     1
  0
XRECORD
  5
443D
102
{ACAD_REACTORS
330
443C
102
}
330
443C
100
AcDbXrecord
280
     1
290
     1
  0
XRECORD
  5
443F
102
{ACAD_REACTORS
330
443E
102
}
330
443E
100
AcDbXrecord
280
     1
290
     1
  0
XRECORD
  5
4441
102
{ACAD_REACTORS
330
4440
102
}
330
4440
100
AcDbXrecord
280
     1
290
     1
  0
XRECORD
  5
4443
102
{ACAD_REACTORS
330
4442
102
}
330
4442
100
AcDbXrecord
280
     1
290
     1
  0
XRECORD
  5
4445
102
{ACAD_REACTORS
330
4444
102
}
330
4444
100
AcDbXrecord
280
     1
290
     1
  0
XRECORD
  5
4447
102
{ACAD_REACTORS
330
4446
102
}
330
4446
100
AcDbXrecord
280
     1
290
     1
  0
XRECORD
  5
4449
102
{ACAD_REACTORS
330
4448
102
}
330
4448
100
AcDbXrecord
280
     1
290
     1
  0
XRECORD
  5
444B
102
{ACAD_REACTORS
330
444A
102
}
330
444A
100
AcDbXrecord
280
     1
290
     1
  0
SORTENTSTABLE
  5
2272
102
{ACAD_REACTORS
330
99
102
}
330
99
100
AcDbSortentsTable
330
1F
331
2F91
  5
2F94
331
2F13
  5
2F16
331
2ECC
  5
2ECF
331
2E95
  5
2E98
331
2C09
  5
2C6D
331
1FED
  5
2795
331
28B3
  5
1C18
331
2B52
  5
2B5B
331
2C98
  5
2C9B
331
2CD7
  5
2CDA
331
2F4A
  5
2F4D
331
2F1B
  5
2F1F
331
2ED4
  5
2ED7
331
2E9D
  5
2EA0
331
2CDF
  5
2CE2
331
2B5A
  5
2B63
331
2CA0
  5
2CA3
331
2E5E
  5
2E61
331
2F52
  5
2F55
331
3B81
  5
3B83
331
3B42
  5
3B44
331
39BD
  5
39BF
331
2F5A
  5
2F5D
331
2E66
  5
2E69
331
2B62
  5
2B6B
331
2CA8
  5
2CAB
331
2CE7
  5
2CEA
331
2F23
  5
2F26
331
3B89
  5
3B8B
331
39C5
  5
39C7
331
352E
  5
3592
331
34A7
  5
34DA
331
2EE4
  5
2EE7
331
2E6E
  5
2E71
331
2F62
  5
2F65
331
3A0C
  5
3A10
331
3B4A
  5
3B4C
331
3B91
  5
3B93
331
3A9B
  5
3B2D
331
39CD
  5
39CF
331
36FE
  5
372A
331
3A14
  5
3A18
331
3B52
  5
3B54
331
40F6
  5
4109
331
3B5A
  5
3B5C
331
1C37
  5
1E19
331
2005
  5
279E
331
2C71
  5
2C74
331
2CB0
  5
2CB3
331
2F2B
  5
2F2E
331
2EAD
  5
2EB0
331
2CEF
  5
2CFA
331
1AB1
  5
1AB8
331
297B
  5
2B43
331
2B72
  5
2C06
331
2C79
  5
2C7C
331
2CB8
  5
2CBB
331
2E76
  5
2E79
331
2EF4
  5
2EF7
331
2F6A
  5
2F6D
331
2F33
  5
2F36
331
2EB5
  5
2EB8
331
1E67
  5
1E8E
331
2C81
  5
2C84
331
2E7E
  5
2E81
331
2EFC
  5
2EFF
331
2F72
  5
2F75
331
39D5
  5
39EA
331
2F3B
  5
2F3E
331
2EBD
  5
2EC0
331
2D07
  5
2D0A
331
2B43
  5
2B4C
331
2C89
  5
2C8C
331
2CC8
  5
2CCB
331
2E86
  5
2E89
331
2F04
  5
2F07
331
2F82
  5
2F85
331
3B62
  5
3B64
331
3A54
  5
3A58
331
39ED
  5
39EF
331
39A6
  5
39A8
331
34BF
  5
34EF
331
2EC5
  5
2EC8
331
2E8E
  5
2E91
331
2F0C
  5
2F0F
331
3B6A
  5
3B6C
331
3BD9
  5
3BF6
331
39F5
  5
39F9
331
39AE
  5
39B0
331
34CF
  5
352B
331
3B33
  5
3B35
331
3B72
  5
3B74
331
3F18
  5
3F1E
331
3A6C
  5
3A6E
331
39FD
  5
3A01
331
39B6
  5
39B8
331
3B3B
  5
3B3D
331
3B7A
  5
3B7C
331
2CD0
  5
2CD3
331
2B4B
  5
2B54
331
1A7A
  5
1A7B
331
2C91
  5
2C94
331
2F92
  5
2F95
331
2F14
  5
2F17
331
2ECD
  5
2ED0
331
2E96
  5
2E99
331
2CD8
  5
2CDB
331
2C0A
  5
2C6E
331
1FEE
  5
2796
331
2B53
  5
2B5C
331
2C99
  5
2C9C
331
2E57
  5
2E5A
331
2F4B
  5
2F4E
331
2ED5
  5
2ED8
331
2E9E
  5
2EA1
331
2E5F
  5
2E62
331
2B5B
  5
2B64
331
1AF1
  5
1B01
331
1FFE
  5
2797
331
2CA1
  5
2CA4
331
2CE0
  5
2CE3
331
2F53
  5
2F56
331
3F20
  5
3F32
331
3B82
  5
3B84
331
3B43
  5
3B45
331
3A05
  5
3A09
331
39BE
  5
39C1
331
3321
  5
3256
331
2F5B
  5
2F5E
331
2E67
  5
2E6A
331
2B63
  5
2B7E
331
2CA9
  5
2CAC
331
2F24
  5
2F27
331
3A74
  5
3A7A
331
3B8A
  5
3B8C
331
39C6
  5
39C8
331
2EE5
  5
2EE8
331
2E6F
  5
2E72
331
2F63
  5
2F66
331
3A0D
  5
3A11
331
3B4B
  5
3B4D
331
3B92
  5
3B94
331
39CE
  5
39D0
331
3A15
  5
3A19
331
3B53
  5
3B55
331
3B5B
  5
3B5D
331
1B01
  5
1B0B
331
2CE8
  5
2CEB
331
2006
  5
2B3D
331
2C72
  5
2C75
331
2CB1
  5
2CB4
331
2F2C
  5
2F2F
331
2EAE
  5
2EB1
331
2CF8
  5
2CFB
331
1E60
  5
1E83
331
2C7A
  5
2C7D
331
2CB9
  5
2CC4
331
2E77
  5
2E7A
331
2EF5
  5
2EF8
331
2F6B
  5
2F6E
331
3401
  5
3435
331
2F34
  5
2F37
331
2EB6
  5
2EB9
331
2B3C
  5
2B45
331
1ACA
  5
1AD6
331
2BD3
  5
1FFF
331
2C82
  5
2C85
331
2E7F
  5
2E82
331
2EFD
  5
2F00
331
2F73
  5
2F76
331
3B63
  5
3B65
331
31A2
  5
3322
331
2F3C
  5
2F3F
331
2EBE
  5
2EC1
331
2D08
  5
2D0B
331
2B44
  5
2B4D
331
2C8A
  5
2C8D
331
2CC9
  5
2CCC
331
2E87
  5
2E8A
331
2F05
  5
2F08
331
2F83
  5
2F86
331
410F
  5
416A
331
3A55
  5
3A59
331
39EE
  5
39F2
331
39A7
  5
39A9
331
2EC6
  5
2EC9
331
2E8F
  5
2E92
331
2F0D
  5
2F10
331
3B6B
  5
3B6D
331
3F11
  5
3F16
331
39F6
  5
39FA
331
39AF
  5
39B1
331
3B34
  5
3B36
331
3B73
  5
3B75
331
3F19
  5
3F1F
331
3A6D
  5
3A6F
331
39FE
  5
3A02
331
39B7
  5
39B9
331
3B3C
  5
3B3E
331
3B7B
  5
3B7D
331
4177
  5
3F1B
331
170B
  5
1A7A
331
2CD1
  5
2CD4
331
2C03
  5
2C07
331
1FE7
  5
2002
331
1A7B
  5
1A7C
331
28AD
  5
16FC
331
2B4C
  5
2B55
331
2C92
  5
2C95
331
2F93
  5
2FCD
331
2F15
  5
2F18
331
2ECE
  5
2ED1
331
2E97
  5
2E9A
331
2CD9
  5
2CDC
331
2C0B
  5
2C6F
331
2B54
  5
2B5D
331
2C9A
  5
2C9D
331
2E58
  5
2E5B
331
2F4C
  5
2F4F
331
2F1D
  5
2F20
331
2ED6
  5
2ED9
331
2E9F
  5
2EA2
331
2E60
  5
2E63
331
2B5C
  5
2B65
331
1F70
  5
1FC9
331
1FFF
  5
2798
331
2CA2
  5
2CA5
331
2CE1
  5
2CE4
331
2F54
  5
2F57
331
3A06
  5
3A0A
331
39BF
  5
39C2
331
34A1
  5
34D7
331
2F5C
  5
2F5F
331
2CAA
  5
2CAD
331
2E68
  5
2E6B
331
2F25
  5
2F28
331
3B44
  5
3B46
331
3B83
  5
3B85
331
3B8B
  5
3B8D
331
39C7
  5
39C9
331
33DA
  5
3430
331
2EE6
  5
2EE9
331
2F64
  5
2F67
331
3A0E
  5
3A12
331
3B4C
  5
3B4E
331
3B93
  5
3B95
331
39CF
  5
39D1
331
3728
  5
375B
331
3A16
  5
3A21
331
3B54
  5
3B56
331
40F8
  5
3F0F
331
3B5C
  5
3B5E
331
1B02
  5
1B0C
331
C54
  5
C54
331
2CE9
  5
2CEC
331
1B1A
  5
1B2D
331
2806
  5
1AF4
331
2B6C
  5
2B7F
331
2C73
  5
2C76
331
2CB2
  5
2CB5
331
2E70
  5
2E73
331
2F2D
  5
2F30
331
2EAF
  5
2EB2
331
2CF9
  5
2CFC
331
297D
  5
2B44
331
2C7B
  5
2C7E
331
2E78
  5
2E7C
331
2EF6
  5
2EF9
331
2F6C
  5
2F6F
331
2F35
  5
2F38
331
2EB7
  5
2EBA
331
2B3D
  5
2B46
331
1FD0
  5
1FF9
331
16FC
  5
1708
331
2C83
  5
2C86
331
2CC2
  5
2CC5
331
2E80
  5
2E83
331
2EFE
  5
2F01
331
2F74
  5
2F77
331
3B64
  5
3B66
331
34B9
  5
34E4
331
2F3D
  5
2F40
331
2EBF
  5
2EC2
331
2D09
  5
2D0C
331
2B45
  5
2B4E
331
2C8B
  5
2C8E
331
2CCA
  5
2CCD
331
2E88
  5
2E8B
331
2F06
  5
2F09
331
2F84
  5
2F87
331
3A56
  5
3A5A
331
39A8
  5
39AA
331
2EC7
  5
2ECA
331
2F0E
  5
2F11
331
39EF
  5
39F3
331
3B2D
  5
3B2F
331
3B6C
  5
3B6E
331
40C1
  5
40C1
331
39F7
  5
39FB
331
39B0
  5
39B2
331
3B35
  5
3B37
331
3B74
  5
3B76
331
3F1A
  5
3F21
331
3A6E
  5
3A74
331
39FF
  5
3A03
331
3B3D
  5
3B3F
331
3B7C
  5
3B7E
331
2E90
  5
2E93
331
2CD2
  5
2CD5
331
2C04
  5
2C08
331
1FE8
  5
25E7
331
2B4D
  5
2B56
331
2C93
  5
2C97
331
2F94
  5
3007
331
2F16
  5
2F1A
331
2ECF
  5
2ED2
331
2E98
  5
2E9B
331
2CDA
  5
2CDD
331
2B55
  5
2B5E
331
1C22
  5
1C2E
331
2C9B
  5
2C9E
331
2E59
  5
2E5C
331
2F4D
  5
2F50
331
39B8
  5
39BA
331
2F1E
  5
2F21
331
2ED7
  5
2EDA
331
2E61
  5
2E64
331
2B5D
  5
2B66
331
1AF3
  5
1B02
331
2CA3
  5
2CA6
331
2CE2
  5
2CE5
331
2EA0
  5
2EA3
331
2F55
  5
2F58
331
3F22
  5
3F3C
331
3A07
  5
3A0B
331
2F5D
  5
2F60
331
2CAB
  5
2CAE
331
2E69
  5
2E6C
331
2F26
  5
2F29
331
3B45
  5
3B47
331
3B84
  5
3B86
331
40E1
  5
40F7
331
3B8C
  5
3B8E
331
39C8
  5
39CA
331
36F9
  5
36FC
331
2EE7
  5
2EF4
331
2F65
  5
2F68
331
3A0F
  5
3A13
331
3B4D
  5
3B4F
331
3B94
  5
3B96
331
3A17
  5
3A27
331
3729
  5
39A5
331
3B55
  5
3B57
331
3B5D
  5
3B5F
331
1B03
  5
1B13
331
1C32
  5
1E04
331
2000
  5
2799
331
2CEA
  5
2CED
331
1FB1
  5
1FF7
331
2B6D
  5
2B80
331
2C74
  5
2C77
331
2CB3
  5
2CB6
331
2E71
  5
2E74
331
2F2E
  5
2F31
331
2EB0
  5
2EB3
331
2CFA
  5
2CFD
331
297E
  5
2B40
331
2C7C
  5
2C7F
331
2EF7
  5
2EFA
331
2F6D
  5
2F70
331
39D0
  5
39D2
331
2F36
  5
2F39
331
2EB8
  5
2EBB
331
2B3E
  5
2B47
331
2C84
  5
2C87
331
2CC3
  5
2CC6
331
2E81
  5
2E84
331
2EFF
  5
2F02
331
2F75
  5
2F78
331
3A4F
  5
3A53
331
2F3E
  5
2F41
331
2F07
  5
2F0A
331
2EC0
  5
2EC3
331
2D0A
  5
2D0D
331
2B46
  5
2B4F
331
2C8C
  5
2C8F
331
2CCB
  5
2CCE
331
2E89
  5
2E8C
331
2F85
  5
2F88
331
3B65
  5
3B67
331
39F0
  5
39F4
331
39A9
  5
39AB
331
3433
  5
1E3E
331
2F0F
  5
2F12
331
3A57
  5
3A6C
331
3B2E
  5
3B30
331
3B6D
  5
3B6F
331
40C2
  5
40CA
331
39F8
  5
39FC
331
39B1
  5
39B3
331
3B36
  5
3B38
331
3B75
  5
3B77
331
40CA
  5
40E1
331
3A6F
  5
3A79
331
3B3E
  5
3B40
331
3B7D
  5
3B7F
331
2EC8
  5
2ECB
331
2E91
  5
2E94
331
1FE9
  5
26FF
331
2B4E
  5
2B57
331
2CD3
  5
2CD6
331
2ED0
  5
2ED3
331
2E99
  5
2E9C
331
2CDB
  5
2CDE
331
27A8
  5
2B3E
331
1A85
  5
1A86
331
1C23
  5
1C30
331
2B56
  5
2B5F
331
2C9C
  5
2C9F
331
2E5A
  5
2E5D
331
2F4E
  5
2F51
331
2F95
  5
3176
331
3A00
  5
3A05
331
39B9
  5
39BB
331
349B
  5
34D4
331
2F1F
  5
2F22
331
2ED8
  5
2EE3
331
2E62
  5
2E65
331
2C6D
  5
2C70
331
2B5E
  5
2B67
331
28E7
  5
2B3F
331
2CA4
  5
2CA7
331
2CE3
  5
2CE6
331
2EA1
  5
2EAC
331
2F56
  5
2F59
331
3F23
  5
3F96
331
3B85
  5
3B87
331
3B46
  5
3B48
331
39C1
  5
39C3
331
2F5E
  5
2F61
331
2CAC
  5
2CAF
331
2E6A
  5
2E6D
331
2F27
  5
2F2A
331
3A08
  5
3A0C
331
3B8D
  5
3B8F
331
39C9
  5
39CB
331
36FA
  5
36FD
331
2F66
  5
2F69
331
3A10
  5
3A14
331
3B4E
  5
3B50
331
3B95
  5
3B97
331
3A9F
  5
3B2E
331
3A18
  5
3A51
331
3B56
  5
3B58
331
3B5E
  5
3B60
331
1C33
  5
1E0E
331
C56
  5
C56
331
2001
  5
279A
331
2CEB
  5
2CEE
331
1E03
  5
1E27
331
2977
  5
2B41
331
2B6E
  5
2B81
331
2C75
  5
2C78
331
2CB4
  5
2CB7
331
2E72
  5
2E75
331
2F2F
  5
2F32
331
2EB1
  5
2EB4
331
2CFB
  5
2CFE
331
2870
  5
1E11
331
16EE
  5
16EE
331
2C7D
  5
2C80
331
2E7A
  5
2E7D
331
2EF8
  5
2EFB
331
2F6E
  5
2F71
331
39D1
  5
39D3
331
316D
  5
32C5
331
2F37
  5
2F3A
331
2EB9
  5
2EBC
331
2E82
  5
2E85
331
2B3F
  5
2B48
331
2BD6
  5
1FE9
331
2C85
  5
2C88
331
2CC4
  5
2CC7
331
2F00
  5
2F03
331
2F76
  5
2F79
331
34B3
  5
34DF
331
3B66
  5
3B68
331
3A50
  5
3A54
331
39E9
  5
39EB
331
2F3F
  5
2F42
331
2EC1
  5
2EC4
331
2D0B
  5
2E57
331
2B47
  5
2B50
331
2C8D
  5
2C90
331
2CCC
  5
2CCF
331
2E8A
  5
2E8D
331
2F08
  5
2F0B
331
2F86
  5
2F91
331
416A
  5
4172
331
3A58
  5
3A6D
331
39F1
  5
39F5
331
39AA
  5
39AC
331
3B2F
  5
3B31
331
3B6E
  5
3B70
331
3F14
  5
3F18
331
39F9
  5
39FD
331
39B2
  5
39B4
331
3B37
  5
3B39
331
3B76
  5
3B78
331
3F1C
  5
3F22
331
3B3F
  5
3B41
331
3B7E
  5
3B80
331
4182
  5
4181
331
1B7C
  5
1B8A
331
1AD5
  5
1AD7
331
2F10
  5
2F13
331
2EC9
  5
2ECC
331
2E92
  5
2E95
331
2C06
  5
2C09
331
1AE5
  5
1AED
331
1C0C
  5
1C1B
331
1FEA
  5
277D
331
2B4F
  5
2B58
331
2C95
  5
2C98
331
2CD4
  5
2CD7
331
2F18
  5
2F1B
331
2ED1
  5
2ED4
331
2E9A
  5
2E9D
331
2CDC
  5
2CDF
331
2B57
  5
2B60
331
1AED
  5
1AF3
331
1C24
  5
1C31
331
2C9D
  5
2CA0
331
2E5B
  5
2E5E
331
2F4F
  5
2F52
331
3A01
  5
3A06
331
39BA
  5
39BC
331
34EB
  5
352C
331
331D
  5
342F
331
2F57
  5
2F5A
331
2E63
  5
2E66
331
2C6E
  5
2C71
331
2B5F
  5
2B68
331
2CA5
  5
2CA8
331
2CE4
  5
2CE7
331
2F20
  5
2F23
331
3F24
  5
3FB0
331
3BF5
  5
3BF7
331
3B86
  5
3B88
331
3B47
  5
3B49
331
39C2
  5
39C4
331
352B
  5
352D
331
2F5F
  5
2F62
331
2EE1
  5
2EE4
331
2CAD
  5
2CB0
331
2E6B
  5
2E6E
331
3A09
  5
3A0D
331
3B8E
  5
3B90
331
39CA
  5
39CC
331
36FB
  5
36FE
331
2F67
  5
2F6A
331
3A11
  5
3A15
331
3B4F
  5
3B51
331
3FAC
  5
40AD
331
3D55
  5
3E0F
331
3B96
  5
3B98
331
3B57
  5
3B59
331
3A19
  5
3A52
331
3B5F
  5
3B61
331
2002
  5
279B
331
1F93
  5
1FD1
331
2F28
  5
2F2B
331
2EAA
  5
2EAD
331
2CEC
  5
2CEF
331
1B1D
  5
1B2E
331
2841
  5
1E10
331
2B6F
  5
2B82
331
2C76
  5
2C79
331
2CB5
  5
2CB8
331
2E73
  5
2E77
331
2F30
  5
2F33
331
2EB2
  5
2EB5
331
2CFC
  5
2CFF
331
1B2D
  5
1B30
331
2C7E
  5
2C81
331
2E7B
  5
2E7E
331
2EF9
  5
2EFC
331
2F6F
  5
2F72
331
39D2
  5
39D4
331
37DB
  5
3401
331
2F38
  5
2F3B
331
2EBA
  5
2EBD
331
1B4D
  5
1B66
331
2B40
  5
2B49
331
2C86
  5
2C89
331
2CC5
  5
2CC8
331
2E83
  5
2E86
331
2F01
  5
2F04
331
2F77
  5
2F82
331
40AC
  5
40C2
331
3B67
  5
3B69
331
3A51
  5
3A55
331
39EA
  5
39EC
331
342D
  5
3495
331
2F40
  5
2F43
331
2EC2
  5
2EC5
331
2D0C
  5
2E58
331
2C8E
  5
2C92
331
2CCD
  5
2CD0
331
2E8B
  5
2E8E
331
2F09
  5
2F0C
331
40BC
  5
40D4
331
3F0D
  5
3F12
331
39F2
  5
39F6
331
39AB
  5
39AD
331
321E
  5
331F
331
2F8F
  5
2F92
331
3435
  5
1E98
331
3A59
  5
39F0
331
3B30
  5
3B32
331
3B6F
  5
3B71
331
3F15
  5
3F19
331
39FA
  5
39FE
331
39B3
  5
39B5
331
34D4
  5
34AD
331
3495
  5
34BF
331
3B38
  5
3B3A
331
3B77
  5
3B79
331
3F1D
  5
3F23
331
3B7F
  5
3B81
331
1AD6
  5
1ADF
331
1FE3
  5
1FFD
331
2B48
  5
2B51
331
2F11
  5
2F14
331
2ECA
  5
2ECD
331
2E93
  5
2E96
331
2C07
  5
2C0A
331
1C0D
  5
1C1F
331
1F54
  5
1FC3
331
2B50
  5
2B59
331
2C96
  5
2C99
331
2CD5
  5
2CD8
331
2F19
  5
2F1C
331
2ED2
  5
2ED5
331
2E9B
  5
2E9E
331
2CDD
  5
2CE0
331
1F6C
  5
1FC4
331
1C25
  5
1C33
331
2B58
  5
2B61
331
2C9E
  5
2CA1
331
2E5C
  5
2E5F
331
2F50
  5
2F53
331
3A02
  5
3A07
331
39BB
  5
39BD
331
30AF
  5
321E
331
2F58
  5
2F5B
331
2E64
  5
2E67
331
2C6F
  5
2C72
331
27DA
  5
1ACA
331
2B60
  5
2B69
331
2CA6
  5
2CA9
331
2CE5
  5
2CE8
331
2F21
  5
2F24
331
3B40
  5
3B42
331
3B87
  5
3B89
331
3B48
  5
3B4A
331
3A0A
  5
3A0E
331
352C
  5
352E
331
30C7
  5
32C4
331
2EE2
  5
2EE5
331
2CAE
  5
2CB1
331
2E6C
  5
2E6F
331
2F60
  5
2F63
331
39C3
  5
39C5
331
3A79
  5
3A9B
331
3BF6
  5
3C05
331
3F25
  5
4013
331
40D4
  5
40E2
331
3B8F
  5
3B91
331
39CB
  5
39CD
331
34AD
  5
34DC
331
36FC
  5
3728
331
3A12
  5
3A16
331
3B50
  5
3B52
331
3C06
  5
3D77
331
3B97
  5
3BD7
331
33F6
  5
3433
331
3B58
  5
3B5A
331
2003
  5
279C
331
1AA7
  5
1AAF
331
1C35
  5
1E0F
331
1F94
  5
1FE6
331
2F68
  5
2F6B
331
2EF2
  5
2EF5
331
2EAB
  5
2EAE
331
2CB6
  5
2CB9
331
2B70
  5
2B84
331
1AAF
  5
1AB0
331
2979
  5
2B42
331
2C77
  5
2C7A
331
2CED
  5
2CF0
331
2F29
  5
2F2C
331
2F31
  5
2F34
331
2EB3
  5
2EB6
331
2CFD
  5
2D00
331
2C7F
  5
2C82
331
2E7C
  5
2E7F
331
2EFA
  5
2EFD
331
2F70
  5
2F73
331
2F39
  5
2F3C
331
2EBB
  5
2EBE
331
2B41
  5
2B4A
331
1E6D
  5
1E91
331
2C87
  5
2C8A
331
2CC6
  5
2CC9
331
2E84
  5
2E87
331
2F02
  5
2F05
331
2F80
  5
2F83
331
39D3
  5
39D5
331
3B60
  5
3B62
331
3EF6
  5
3F02
331
3A52
  5
3A56
331
2F41
  5
2F4C
331
2EC3
  5
2EC6
331
2D0D
  5
2E59
331
2CCE
  5
2CD1
331
2E8C
  5
2E8F
331
2F0A
  5
2F0D
331
39EB
  5
39ED
331
3B68
  5
3B6A
331
3F0E
  5
3F15
331
39F3
  5
39F7
331
39AC
  5
39AE
331
3A5A
  5
39F1
331
3B31
  5
3B33
331
3B70
  5
3B72
331
39FB
  5
39FF
331
39B4
  5
39B6
331
3317
  5
33CC
331
3B39
  5
3B3B
331
3B78
  5
3B7A
331
3F1E
  5
3F25
331
1708
  5
170B
331
2B49
  5
2B52
331
1AD7
  5
1AE5
331
1FE4
  5
2000
331
2F12
  5
2F15
331
2ECB
  5
2ECE
331
2E94
  5
2E97
331
2C08
  5
2C0B
331
1FEC
  5
2794
331
27A3
  5
1B79
331
2B51
  5
2B5A
331
2C97
  5
2C9A
331
2CD6
  5
2CD9
331
2F90
  5
2F93
331
2F1A
  5
2F1D
331
2ED3
  5
2ED6
331
2E9C
  5
2E9F
331
2CDE
  5
2CE1
331
2B59
  5
2B62
331
2C9F
  5
2CA2
331
2E5D
  5
2E60
331
2F51
  5
2F54
331
3B80
  5
3B82
331
3A03
  5
3A08
331
2F59
  5
2F5C
331
2E65
  5
2E68
331
2B61
  5
2B6A
331
2CA7
  5
2CAA
331
2CE6
  5
2CE9
331
2F22
  5
2F25
331
39BC
  5
39BE
331
3B41
  5
3B43
331
3BF7
  5
3D55
331
3B88
  5
3B8A
331
39C4
  5
39C6
331
2EE3
  5
2EE6
331
2CAF
  5
2CB2
331
2E6D
  5
2E70
331
2F61
  5
2F64
331
352D
  5
3552
331
3A0B
  5
3A0F
331
3B49
  5
3B4B
331
3F96
  5
3F20
331
3B90
  5
3B92
331
39CC
  5
39CE
331
36FD
  5
3729
331
3A13
  5
3A17
331
3B51
  5
3B53
331
3B59
  5
3B5B
331
2004
  5
279D
331
1F95
  5
1FEE
331
1C36
  5
1E12
331
2C70
  5
2C73
331
2F2A
  5
2F2D
331
2EAC
  5
2EAF
331
2CEE
  5
2CF1
331
2B71
  5
2B85
331
2C78
  5
2C7B
331
2CB7
  5
2CBA
331
2E75
  5
2E78
331
2EF3
  5
2EF6
331
2F69
  5
2F6C
331
2F32
  5
2F35
331
2EB4
  5
2EB7
331
2CFE
  5
2D09
331
1FCD
  5
1FF8
331
2BD1
  5
25CA
331
2C80
  5
2C83
331
2E7D
  5
2E80
331
2EFB
  5
2EFE
331
2F71
  5
2F74
331
3B98
  5
3BF5
331
39D4
  5
39E9
331
2F3A
  5
2F3D
331
2EBC
  5
2EBF
331
2CC7
  5
2CCA
331
2B42
  5
2B4B
331
1FD5
  5
1FFC
331
28A3
  5
1C15
331
2BD9
  5
25D7
331
2C88
  5
2C8B
331
2E85
  5
2E88
331
2F03
  5
2F06
331
2F81
  5
2F84
331
31A0
  5
3321
331
3B61
  5
3B63
331
3A53
  5
3A57
331
39EC
  5
39EE
331
39A5
  5
39A7
331
2EC4
  5
2EC7
331
2E8D
  5
2E90
331
2CCF
  5
2CD2
331
2F0B
  5
2F0E
331
342F
  5
34A1
331
3B69
  5
3B6B
331
39F4
  5
39F8
331
39AD
  5
39AF
331
3B32
  5
3B34
331
3B71
  5
3B73
331
3F17
  5
3F1D
331
39FC
  5
3A00
331
39B5
  5
39B7
331
3B3A
  5
3B3C
331
3B79
  5
3B7B
331
3F1F
  5
3F26
331
1EBE
  5
1F97
331
1FE5
  5
2001
331
2B4A
  5
2B53
331
2C90
  5
2C93
  0
XRECORD
  5
45D1
102
{ACAD_REACTORS
330
45D0
102
}
330
45D0
100
AcDbXrecord
280
     1
102
SHADEPLOT
 70
     0
  0
XRECORD
  5
45D3
102
{ACAD_REACTORS
330
45D2
102
}
330
45D2
100
AcDbXrecord
280
     1
102
SHADEPLOT
 70
     0
  0
LAYOUT
  5
22
102
{ACAD_XDICTIONARY
360
45CC
102
}
102
{ACAD_REACTORS
330
1A
102
}
330
1A
100
AcDbPlotSettings
  1

  2
RICOH IPSiO CX7200 RPCS
  4
A3
  6
AM_VIEW1
 40
5.873749732971191
 41
5.873747825622558
 42
5.873748779296875
 43
5.873748779296875
 44
296.9259948730469
 45
419.9466552734374
 46
2.589999999999999
 47
4.099999999999999
 48
10.00000000000003
 49
0.0
140
410.0
141
280.0
142
1.0
143
1.0
 70
 11956
 72
     1
 73
     1
 74
     4
  7
takachi-2.ctb
 75
    16
147
1.0
148
-10.00000000000003
149
0.0
100
AcDbLayout
  1
Model
 70
     1
 71
     0
 10
0.0
 20
0.0
 11
12.0
 21
9.0
 12
0.0
 22
0.0
 32
0.0
 14
0.0
 24
0.0
 34
0.0
 15
0.0
 25
0.0
 35
0.0
146
0.0
 13
0.0
 23
0.0
 33
0.0
 16
1.0
 26
0.0
 36
0.0
 17
0.0
 27
1.0
 37
0.0
 76
     0
330
1F
331
43A5
  0
LAYOUT
  5
1E
102
{ACAD_XDICTIONARY
360
45CA
102
}
102
{ACAD_REACTORS
330
1A
102
}
330
1A
100
AcDbPlotSettings
  1

  2
none_device
  4
Letter_(8.50_x_11.00_Inches)
  6

 40
6.349999904632568
 41
6.349999904632568
 42
6.350006103515625
 43
6.350006103515625
 44
215.8999938964844
 45
279.3999938964844
 46
0.0
 47
0.0
 48
0.0
 49
0.0
140
0.0
141
0.0
142
1.0
143
1.0
 70
   688
 72
     0
 73
     1
 74
     5
  7
takachi-2.ctb
 75
    16
147
1.0
148
0.0
149
0.0
100
AcDbLayout
  1
レイアウト1
 70
     1
 71
     1
 10
-0.2500002402958907
 20
-0.2499999962453767
 11
10.74999951940821
 21
8.249999763458731
 12
0.0
 22
0.0
 32
0.0
 14
1.000000000000000E+20
 24
1.000000000000000E+20
 34
1.000000000000000E+20
 15
-1.000000000000000E+20
 25
-1.000000000000000E+20
 35
-1.000000000000000E+20
146
0.0
 13
0.0
 23
0.0
 33
0.0
 16
1.0
 26
0.0
 36
0.0
 17
0.0
 27
1.0
 37
0.0
 76
     0
330
1B
331
182
  0
LAYOUT
  5
26
102
{ACAD_XDICTIONARY
360
45CE
102
}
102
{ACAD_REACTORS
330
1A
102
}
330
1A
100
AcDbPlotSettings
  1

  2
none_device
  4
Letter_(8.50_x_11.00_Inches)
  6

 40
6.349999904632568
 41
6.349999904632568
 42
6.350006103515625
 43
6.350006103515625
 44
215.8999938964844
 45
279.3999938964844
 46
0.0
 47
0.0
 48
0.0
 49
0.0
140
0.0
141
0.0
142
1.0
143
1.0
 70
   688
 72
     0
 73
     1
 74
     5
  7
takachi-2.ctb
 75
    16
147
1.0
148
0.0
149
0.0
100
AcDbLayout
  1
レイアウト2
 70
     1
 71
     2
 10
-0.2500002402958907
 20
-0.2499999962453767
 11
10.74999951940821
 21
8.249999763458731
 12
0.0
 22
0.0
 32
0.0
 14
1.000000000000000E+20
 24
1.000000000000000E+20
 34
1.000000000000000E+20
 15
-1.000000000000000E+20
 25
-1.000000000000000E+20
 35
-1.000000000000000E+20
146
0.0
 13
0.0
 23
0.0
 33
0.0
 16
1.0
 26
0.0
 36
0.0
 17
0.0
 27
1.0
 37
0.0
 76
     0
330
23
331
186
  0
MATERIAL
  5
43AF
102
{ACAD_XDICTIONARY
360
43B0
102
}
102
{ACAD_REACTORS
330
C8
102
}
330
C8
100
AcDbMaterial
  1
ByBlock
 72
     0
 43
0.0008202099737533
 43
0.0
 43
0.0
 43
0.0
 43
0.0
 43
0.0008202099737533
 43
0.0
 43
0.0
 43
0.0
 43
0.0
 43
1.0
 43
0.0
 43
0.0
 43
0.0
 43
0.0
 43
1.0
 77
     0
 47
0.0008202099737533
 47
0.0
 47
0.0
 47
0.0
 47
0.0
 47
0.0008202099737533
 47
0.0
 47
0.0
 47
0.0
 47
0.0
 47
1.0
 47
0.0
 47
0.0
 47
0.0
 47
0.0
 47
1.0
171
     0
 49
0.0008202099737533
 49
0.0
 49
0.0
 49
0.0
 49
0.0
 49
0.0008202099737533
 49
0.0
 49
0.0
 49
0.0
 49
0.0
 49
1.0
 49
0.0
 49
0.0
 49
0.0
 49
0.0
 49
1.0
175
     0
142
0.0008202099737533
142
0.0
142
0.0
142
0.0
142
0.0
142
0.0008202099737533
142
0.0
142
0.0
142
0.0
142
0.0
142
1.0
142
0.0
142
0.0
142
0.0
142
0.0
142
1.0
179
     0
144
0.0008202099737533
144
0.0
144
0.0
144
0.0
144
0.0
144
0.0008202099737533
144
0.0
144
0.0
144
0.0
144
0.0
144
1.0
144
0.0
144
0.0
144
0.0
144
0.0
144
1.0
147
0.0008202099737533
147
0.0
147
0.0
147
0.0
147
0.0
147
0.0008202099737533
147
0.0
147
0.0
147
0.0
147
0.0
147
1.0
147
0.0
147
0.0
147
0.0
147
0.0
147
1.0
  0
MATERIAL
  5
43A7
102
{ACAD_XDICTIONARY
360
43A8
102
}
102
{ACAD_REACTORS
330
C8
102
}
330
C8
100
AcDbMaterial
  1
ByLayer
 72
     0
 43
0.0008202099737533
 43
0.0
 43
0.0
 43
0.0
 43
0.0
 43
0.0008202099737533
 43
0.0
 43
0.0
 43
0.0
 43
0.0
 43
1.0
 43
0.0
 43
0.0
 43
0.0
 43
0.0
 43
1.0
 77
     0
 47
0.0008202099737533
 47
0.0
 47
0.0
 47
0.0
 47
0.0
 47
0.0008202099737533
 47
0.0
 47
0.0
 47
0.0
 47
0.0
 47
1.0
 47
0.0
 47
0.0
 47
0.0
 47
0.0
 47
1.0
171
     0
 49
0.0008202099737533
 49
0.0
 49
0.0
 49
0.0
 49
0.0
 49
0.0008202099737533
 49
0.0
 49
0.0
 49
0.0
 49
0.0
 49
1.0
 49
0.0
 49
0.0
 49
0.0
 49
0.0
 49
1.0
175
     0
142
0.0008202099737533
142
0.0
142
0.0
142
0.0
142
0.0
142
0.0008202099737533
142
0.0
142
0.0
142
0.0
142
0.0
142
1.0
142
0.0
142
0.0
142
0.0
142
0.0
142
1.0
179
     0
144
0.0008202099737533
144
0.0
144
0.0
144
0.0
144
0.0
144
0.0008202099737533
144
0.0
144
0.0
144
0.0
144
0.0
144
1.0
144
0.0
144
0.0
144
0.0
144
0.0
144
1.0
147
0.0008202099737533
147
0.0
147
0.0
147
0.0
147
0.0
147
0.0008202099737533
147
0.0
147
0.0
147
0.0
147
0.0
147
1.0
147
0.0
147
0.0
147
0.0
147
0.0
147
1.0
  0
MATERIAL
  5
43B7
102
{ACAD_XDICTIONARY
360
43B8
102
}
102
{ACAD_REACTORS
330
C8
102
}
330
C8
100
AcDbMaterial
  1
Global
 72
     0
 43
0.0008202099737533
 43
0.0
 43
0.0
 43
0.0
 43
0.0
 43
0.0008202099737533
 43
0.0
 43
0.0
 43
0.0
 43
0.0
 43
1.0
 43
0.0
 43
0.0
 43
0.0
 43
0.0
 43
1.0
 77
     0
 47
0.0008202099737533
 47
0.0
 47
0.0
 47
0.0
 47
0.0
 47
0.0008202099737533
 47
0.0
 47
0.0
 47
0.0
 47
0.0
 47
1.0
 47
0.0
 47
0.0
 47
0.0
 47
0.0
 47
1.0
171
     0
 49
0.0008202099737533
 49
0.0
 49
0.0
 49
0.0
 49
0.0
 49
0.0008202099737533
 49
0.0
 49
0.0
 49
0.0
 49
0.0
 49
1.0
 49
0.0
 49
0.0
 49
0.0
 49
0.0
 49
1.0
175
     0
142
0.0008202099737533
142
0.0
142
0.0
142
0.0
142
0.0
142
0.0008202099737533
142
0.0
142
0.0
142
0.0
142
0.0
142
1.0
142
0.0
142
0.0
142
0.0
142
0.0
142
1.0
179
     0
144
0.0008202099737533
144
0.0
144
0.0
144
0.0
144
0.0
144
0.0008202099737533
144
0.0
144
0.0
144
0.0
144
0.0
144
1.0
144
0.0
144
0.0
144
0.0
144
0.0
144
1.0
147
0.0008202099737533
147
0.0
147
0.0
147
0.0
147
0.0
147
0.0008202099737533
147
0.0
147
0.0
147
0.0
147
0.0
147
1.0
147
0.0
147
0.0
147
0.0
147
0.0
147
1.0
  0
MLEADERSTYLE
  5
43E3
102
{ACAD_REACTORS
330
43E2
102
}
330
43E2
100
AcDbMLeaderStyle
170
     2
171
     1
172
     0
 90
        2
 40
0.0
 41
0.0
173
     1
 91
-1056964608
340
14
 92
       -2
290
     1
 42
2.0
291
     1
 43
0.36
  3
Standard
 44
4.0
300

342
11
174
     1
178
     6
175
     1
176
     0
 93
-1056964608
 45
4.0
292
     0
297
     0
 46
4.0
 94
-1056964608
 47
1.0
 49
1.0
140
1.0
293
     1
141
0.0
294
     1
177
     0
142
1.0
295
     0
296
     0
143
0.125
1001
ACAD_MLEADERVER
1070
     2
  0
MLINESTYLE
  5
18
102
{ACAD_REACTORS
330
17
102
}
330
17
100
AcDbMlineStyle
  2
STANDARD
 70
     0
  3

 62
   256
 51
90.0
 52
90.0
 71
     2
 49
0.5
 62
   256
  6
BYLAYER
 49
-0.5
 62
   256
  6
BYLAYER
  0
ACDBPLACEHOLDER
  5
F
102
{ACAD_REACTORS
330
E
102
}
330
E
  0
SCALE
  5
43D1
102
{ACAD_REACTORS
330
43D0
102
}
330
43D0
100
AcDbScale
 70
     0
300
1:1
140
1.0
141
1.0
290
     1
  0
SCALE
  5
43D2
102
{ACAD_REACTORS
330
43D0
102
}
330
43D0
100
AcDbScale
 70
     0
300
1:2
140
1.0
141
2.0
290
     0
  0
SCALE
  5
43D3
102
{ACAD_REACTORS
330
43D0
102
}
330
43D0
100
AcDbScale
 70
     0
300
1:4
140
1.0
141
4.0
290
     0
  0
SCALE
  5
43D4
102
{ACAD_REACTORS
330
43D0
102
}
330
43D0
100
AcDbScale
 70
     0
300
1:5
140
1.0
141
5.0
290
     0
  0
SCALE
  5
43D5
102
{ACAD_REACTORS
330
43D0
102
}
330
43D0
100
AcDbScale
 70
     0
300
1:8
140
1.0
141
8.0
290
     0
  0
SCALE
  5
43D6
102
{ACAD_REACTORS
330
43D0
102
}
330
43D0
100
AcDbScale
 70
     0
300
1:10
140
1.0
141
10.0
290
     0
  0
SCALE
  5
43D7
102
{ACAD_REACTORS
330
43D0
102
}
330
43D0
100
AcDbScale
 70
     0
300
1:16
140
1.0
141
16.0
290
     0
  0
SCALE
  5
43D8
102
{ACAD_REACTORS
330
43D0
102
}
330
43D0
100
AcDbScale
 70
     0
300
1:20
140
1.0
141
20.0
290
     0
  0
SCALE
  5
43D9
102
{ACAD_REACTORS
330
43D0
102
}
330
43D0
100
AcDbScale
 70
     0
300
1:30
140
1.0
141
30.0
290
     0
  0
SCALE
  5
43DA
102
{ACAD_REACTORS
330
43D0
102
}
330
43D0
100
AcDbScale
 70
     0
300
1:40
140
1.0
141
40.0
290
     0
  0
SCALE
  5
43DB
102
{ACAD_REACTORS
330
43D0
102
}
330
43D0
100
AcDbScale
 70
     0
300
1:50
140
1.0
141
50.0
290
     0
  0
SCALE
  5
43DC
102
{ACAD_REACTORS
330
43D0
102
}
330
43D0
100
AcDbScale
 70
     0
300
1:100
140
1.0
141
100.0
290
     0
  0
SCALE
  5
43DD
102
{ACAD_REACTORS
330
43D0
102
}
330
43D0
100
AcDbScale
 70
     0
300
2:1
140
2.0
141
1.0
290
     0
  0
SCALE
  5
43DE
102
{ACAD_REACTORS
330
43D0
102
}
330
43D0
100
AcDbScale
 70
     0
300
4:1
140
4.0
141
1.0
290
     0
  0
SCALE
  5
43DF
102
{ACAD_REACTORS
330
43D0
102
}
330
43D0
100
AcDbScale
 70
     0
300
8:1
140
8.0
141
1.0
290
     0
  0
SCALE
  5
43E0
102
{ACAD_REACTORS
330
43D0
102
}
330
43D0
100
AcDbScale
 70
     0
300
10:1
140
10.0
141
1.0
290
     0
  0
SCALE
  5
43E1
102
{ACAD_REACTORS
330
43D0
102
}
330
43D0
100
AcDbScale
 70
     0
300
100:1
140
100.0
141
1.0
290
     0
  0
TABLESTYLE
  5
BD7
102
{ACAD_XDICTIONARY
360
444C
102
}
102
{ACAD_REACTORS
330
BD6
102
}
330
BD6
100
AcDbTableStyle
  3
Standard
 70
     0
 71
     0
 40
1.5
 41
1.5
280
     0
281
     0
  7
STANDARD
140
4.5
170
     2
 62
     0
 63
     7
283
     0
274
    -2
284
     1
 64
     0
275
    -2
285
     1
 65
     0
276
    -2
286
     1
 66
     0
277
    -2
287
     1
 67
     0
278
    -2
288
     1
 68
     0
279
    -2
289
     1
 69
     0
  7
STANDARD
140
6.0
170
     5
 62
     0
 63
     7
283
     0
274
    -2
284
     1
 64
     0
275
    -2
285
     1
 65
     0
276
    -2
286
     1
 66
     0
277
    -2
287
     1
 67
     0
278
    -2
288
     1
 68
     0
279
    -2
289
     1
 69
     0
  7
STANDARD
140
4.5
170
     5
 62
     0
 63
     7
283
     0
274
    -2
284
     1
 64
     0
275
    -2
285
     1
 65
     0
276
    -2
286
     1
 66
     0
277
    -2
287
     1
 67
     0
278
    -2
288
     1
 68
     0
279
    -2
289
     1
 69
     0
  0
VISUALSTYLE
  5
43C5
102
{ACAD_REACTORS
330
43BF
102
}
330
43BF
100
AcDbVisualStyle
  2
2dWireframe
 70
     4
 71
     0
 72
     2
 73
     0
 90
        0
 40
-0.6
 41
-30.0
 62
     5
 63
     7
 74
     1
 91
        4
 64
     7
 65
   257
 75
     1
175
     1
 42
1.0
 92
        0
 66
   257
 43
1.0
 76
     1
 77
     6
 78
     2
 67
     7
 79
     5
170
     0
171
     0
290
     0
174
     0
 93
        1
 44
0.0
173
     0
291
     0
 45
0.0
1001
ACAD
1000
AcDbSavedByObjectVersion
1070
     0
  0
VISUALSTYLE
  5
43C7
102
{ACAD_REACTORS
330
43BF
102
}
330
43BF
100
AcDbVisualStyle
  2
3D Hidden
 70
     6
 71
     1
 72
     2
 73
     2
 90
        0
 40
-0.6
 41
-30.0
 62
     5
 63
     7
 74
     2
 91
        2
 64
     7
 65
   257
 75
     2
175
     1
 42
40.0
 92
        0
 66
   257
 43
1.0
 76
     1
 77
     6
 78
     2
 67
     7
 79
     3
170
     0
171
     0
290
     0
174
     0
 93
        1
 44
0.0
173
     0
291
     0
 45
0.0
1001
ACAD
1000
AcDbSavedByObjectVersion
1070
     0
  0
VISUALSTYLE
  5
43C6
102
{ACAD_REACTORS
330
43BF
102
}
330
43BF
100
AcDbVisualStyle
  2
3dWireframe
 70
     5
 71
     0
 72
     2
 73
     0
 90
        0
 40
-0.6
 41
-30.0
 62
     5
 63
     7
 74
     1
 91
        4
 64
     7
 65
   257
 75
     1
175
     1
 42
1.0
 92
        0
 66
   257
 43
1.0
 76
     1
 77
     6
 78
     2
 67
     7
 79
     5
170
     0
171
     0
290
     0
174
     0
 93
        1
 44
0.0
173
     0
291
     0
 45
0.0
1001
ACAD
1000
AcDbSavedByObjectVersion
1070
     0
  0
VISUALSTYLE
  5
43C4
102
{ACAD_REACTORS
330
43BF
102
}
330
43BF
100
AcDbVisualStyle
  2
Basic
 70
     7
 71
     1
 72
     0
 73
     1
 90
        0
 40
-0.6
 41
-30.0
 62
     5
 63
     7
 74
     0
 91
        4
 64
     7
 65
   257
 75
     1
175
     1
 42
1.0
 92
        8
 66
     7
 43
1.0
 76
     1
 77
     6
 78
     2
 67
     7
 79
     5
170
     0
171
     0
290
     0
174
     0
 93
        1
 44
0.0
173
     0
291
     1
 45
0.0
1001
ACAD
1000
AcDbSavedByObjectVersion
1070
     0
  0
VISUALSTYLE
  5
43CB
102
{ACAD_REACTORS
330
43BF
102
}
330
43BF
100
AcDbVisualStyle
  2
Brighten
 70
    12
 71
     2
 72
     2
 73
     0
 90
        0
 40
-0.6
 41
-30.0
 62
     5
 63
     7
 74
     1
 91
        4
 64
     7
 65
   257
 75
     1
175
     1
 42
1.0
 92
        8
 66
     7
 43
1.0
 76
     1
 77
     6
 78
     2
 67
     7
 79
     5
170
     0
171
     0
290
     0
174
     0
 93
        1
 44
50.0
173
     0
291
     1
 45
0.0
1001
ACAD
1000
AcDbSavedByObjectVersion
1070
     0
  0
VISUALSTYLE
  5
43CF
102
{ACAD_REACTORS
330
43BF
102
}
330
43BF
100
AcDbVisualStyle
  2
ColorChange
 70
    16
 71
     2
 72
     2
 73
     3
 90
        0
 40
-0.6
 41
-30.0
 62
     5
 63
     8
 74
     1
 91
        4
 64
     7
 65
   257
 75
     1
175
     1
 42
1.0
 92
        8
 66
     8
 43
1.0
 76
     1
 77
     6
 78
     2
 67
     7
 79
     5
170
     0
171
     0
290
     0
174
     0
 93
        1
 44
0.0
173
     0
291
     1
 45
0.0
1001
ACAD
1000
AcDbSavedByObjectVersion
1070
     0
  0
VISUALSTYLE
  5
43C8
102
{ACAD_REACTORS
330
43BF
102
}
330
43BF
100
AcDbVisualStyle
  2
Conceptual
 70
     9
 71
     3
 72
     2
 73
     0
 90
        0
 40
-0.6
 41
-30.0
 62
     5
 63
     7
 74
     2
 91
        2
 64
     7
 65
   257
 75
     1
175
     1
 42
40.0
 92
        8
 66
     7
 43
1.0
 76
     1
 77
     6
 78
     2
 67
     7
 79
     3
170
     0
171
     0
290
     0
174
     0
 93
        1
 44
0.0
173
     0
291
     0
 45
0.0
1001
ACAD
1000
AcDbSavedByObjectVersion
1070
     0
  0
VISUALSTYLE
  5
43CA
102
{ACAD_REACTORS
330
43BF
102
}
330
43BF
100
AcDbVisualStyle
  2
Dim
 70
    11
 71
     2
 72
     2
 73
     0
 90
        0
 40
-0.6
 41
-30.0
 62
     5
 63
     7
 74
     1
 91
        4
 64
     7
 65
   257
 75
     1
175
     1
 42
1.0
 92
        8
 66
     7
 43
1.0
 76
     1
 77
     6
 78
     2
 67
     7
 79
     5
170
     0
171
     0
290
     0
174
     0
 93
        1
 44
-50.0
173
     0
291
     1
 45
0.0
1001
ACAD
1000
AcDbSavedByObjectVersion
1070
     0
  0
VISUALSTYLE
  5
43CE
102
{ACAD_REACTORS
330
43BF
102
}
330
43BF
100
AcDbVisualStyle
  2
Facepattern
 70
    15
 71
     2
 72
     2
 73
     0
 90
        0
 40
-0.6
 41
-30.0
 62
     5
 63
     7
 74
     1
 91
        4
 64
     7
 65
   257
 75
     1
175
     1
 42
1.0
 92
        8
 66
     7
 43
1.0
 76
     1
 77
     6
 78
     2
 67
     7
 79
     5
170
     0
171
     0
290
     0
174
     0
 93
        1
 44
0.0
173
     0
291
     1
 45
0.0
1001
ACAD
1000
AcDbSavedByObjectVersion
1070
     0
  0
VISUALSTYLE
  5
43C0
102
{ACAD_REACTORS
330
43BF
102
}
330
43BF
100
AcDbVisualStyle
  2
Flat
 70
     0
 71
     2
 72
     1
 73
     1
 90
        2
 40
-0.6
 41
30.0
 62
     5
 63
     7
 74
     0
 91
        4
 64
     7
 65
   257
 75
     1
175
     1
 42
1.0
 92
        8
 66
     7
 43
1.0
 76
     1
 77
     6
 78
     2
 67
     7
 79
     5
170
     0
171
     0
290
     0
174
     0
 93
       13
 44
0.0
173
     0
291
     1
 45
0.0
1001
ACAD
1000
AcDbSavedByObjectVersion
1070
     0
  0
VISUALSTYLE
  5
43C1
102
{ACAD_REACTORS
330
43BF
102
}
330
43BF
100
AcDbVisualStyle
  2
FlatWithEdges
 70
     1
 71
     2
 72
     1
 73
     1
 90
        2
 40
-0.6
 41
30.0
 62
     5
 63
     7
 74
     1
 91
        4
 64
     7
 65
   257
 75
     1
175
     1
 42
1.0
 92
        0
 66
   257
 43
1.0
 76
     1
 77
     6
 78
     2
 67
     7
 79
     5
170
     0
171
     0
290
     0
174
     0
 93
       13
 44
0.0
173
     0
291
     1
 45
0.0
1001
ACAD
1000
AcDbSavedByObjectVersion
1070
     0
  0
VISUALSTYLE
  5
43C2
102
{ACAD_REACTORS
330
43BF
102
}
330
43BF
100
AcDbVisualStyle
  2
Gouraud
 70
     2
 71
     2
 72
     2
 73
     1
 90
        2
 40
-0.6
 41
30.0
 62
     5
 63
     7
 74
     0
 91
        4
 64
     7
 65
   257
 75
     1
175
     1
 42
1.0
 92
        0
 66
     7
 43
1.0
 76
     1
 77
     6
 78
     2
 67
     7
 79
     5
170
     0
171
     0
290
     0
174
     0
 93
       13
 44
0.0
173
     0
291
     1
 45
0.0
1001
ACAD
1000
AcDbSavedByObjectVersion
1070
     0
  0
VISUALSTYLE
  5
43C3
102
{ACAD_REACTORS
330
43BF
102
}
330
43BF
100
AcDbVisualStyle
  2
GouraudWithEdges
 70
     3
 71
     2
 72
     2
 73
     1
 90
        2
 40
-0.6
 41
30.0
 62
     5
 63
     7
 74
     1
 91
        4
 64
     7
 65
   257
 75
     1
175
     1
 42
1.0
 92
        0
 66
   257
 43
1.0
 76
     1
 77
     6
 78
     2
 67
     7
 79
     5
170
     0
171
     0
290
     0
174
     0
 93
       13
 44
0.0
173
     0
291
     1
 45
0.0
1001
ACAD
1000
AcDbSavedByObjectVersion
1070
     0
  0
VISUALSTYLE
  5
43CD
102
{ACAD_REACTORS
330
43BF
102
}
330
43BF
100
AcDbVisualStyle
  2
Linepattern
 70
    14
 71
     2
 72
     2
 73
     0
 90
        0
 40
-0.6
 41
-30.0
 62
     5
 63
     7
 74
     1
 91
        4
 64
     7
 65
   257
 75
     7
175
     7
 42
1.0
 92
        8
 66
     7
 43
1.0
 76
     1
 77
     6
 78
     2
 67
     7
 79
     5
170
     0
171
     0
290
     0
174
     0
 93
        1
 44
0.0
173
     0
291
     1
 45
0.0
1001
ACAD
1000
AcDbSavedByObjectVersion
1070
     0
  0
VISUALSTYLE
  5
43C9
102
{ACAD_REACTORS
330
43BF
102
}
330
43BF
100
AcDbVisualStyle
  2
Realistic
 70
     8
 71
     2
 72
     2
 73
     0
 90
        0
 40
-0.6
 41
-30.0
 62
     5
 63
     7
 74
     1
 91
        0
 64
     7
 65
   257
 75
     1
175
     1
 42
1.0
 92
        8
 66
     8
 43
1.0
 76
     1
 77
     6
 78
     2
 67
     7
 79
     5
170
     0
171
     0
290
     0
174
     0
 93
       13
 44
0.0
173
     0
291
     0
 45
0.0
1001
ACAD
1000
AcDbSavedByObjectVersion
1070
     0
  0
VISUALSTYLE
  5
43CC
102
{ACAD_REACTORS
330
43BF
102
}
330
43BF
100
AcDbVisualStyle
  2
Thicken
 70
    13
 71
     2
 72
     2
 73
     0
 90
        0
 40
-0.6
 41
-30.0
 62
     5
 63
     7
 74
     1
 91
        4
 64
     7
 65
   257
 75
     1
175
     1
 42
1.0
 92
       12
 66
     7
 43
1.0
 76
     1
 77
     6
 78
     2
 67
     7
 79
     5
170
     0
171
     0
290
     0
174
     0
 93
        1
 44
0.0
173
     0
291
     1
 45
0.0
1001
ACAD
1000
AcDbSavedByObjectVersion
1070
     0
  0
DICTIONARYVAR
  5
4467
102
{ACAD_REACTORS
330
9E
102
}
330
9E
100
DictionaryVariables
280
     0
  1
1:1
  0
DICTIONARYVAR
  5
4466
102
{ACAD_REACTORS
330
9E
102
}
330
9E
100
DictionaryVariables
280
     0
  1
STANDARD
  0
DICTIONARYVAR
  5
C25
102
{ACAD_REACTORS
330
9E
102
}
330
9E
100
DictionaryVariables
280
     0
  1
STANDARD
  0
DICTIONARYVAR
  5
A0
102
{ACAD_REACTORS
330
9E
102
}
330
9E
100
DictionaryVariables
280
     0
  1
1
  0
DICTIONARYVAR
  5
9F
102
{ACAD_REACTORS
330
9E
102
}
330
9E
100
DictionaryVariables
280
     0
  1
0
  0
DICTIONARYVAR
  5
45C7
102
{ACAD_REACTORS
330
9E
102
}
330
9E
100
DictionaryVariables
280
     0
  1
127
  0
DICTIONARY
  5
9A7
102
{ACAD_REACTORS
330
63
102
}
330
63
100
AcDbDictionary
281
     1
  0
DICTIONARY
  5
69
102
{ACAD_REACTORS
330
63
102
}
330
63
100
AcDbDictionary
281
     1
  0
XRECORD
  5
BE7
102
{ACAD_REACTORS
330
63
102
}
330
63
100
AcDbXrecord
280
     1
 90
-1023410169
  0
DICTIONARY
  5
45CC
330
22
100
AcDbDictionary
280
     1
281
     1
  3
ACAD_XREC_ROUNDTRIP
360
45CD
  0
DICTIONARY
  5
45CA
330
1E
100
AcDbDictionary
280
     1
281
     1
  3
ACAD_XREC_ROUNDTRIP
360
45CB
  0
DICTIONARY
  5
45CE
330
26
100
AcDbDictionary
280
     1
281
     1
  3
ACAD_XREC_ROUNDTRIP
360
45CF
  0
DICTIONARY
  5
43B0
330
43AF
100
AcDbDictionary
280
     1
281
     1
  3
ACAD_XREC_ROUNDTRIP
360
45D6
  3
BUMPTILE
360
43B2
  3
DIFFUSETILE
360
43B1
  3
OPACITYTILE
360
43B5
  3
REFLECTIONTILE
360
43B4
  3
REFRACTIONTILE
360
43B6
  3
SPECULARTILE
360
43B3
  0
DICTIONARY
  5
43A8
330
43A7
100
AcDbDictionary
280
     1
281
     1
  3
ACAD_XREC_ROUNDTRIP
360
45D5
  3
BUMPTILE
360
43AA
  3
DIFFUSETILE
360
43A9
  3
OPACITYTILE
360
43AD
  3
REFLECTIONTILE
360
43AC
  3
REFRACTIONTILE
360
43AE
  3
SPECULARTILE
360
43AB
  0
DICTIONARY
  5
43B8
330
43B7
100
AcDbDictionary
280
     1
281
     1
  3
ACAD_XREC_ROUNDTRIP
360
45D7
  3
BUMPTILE
360
43BA
  3
DIFFUSETILE
360
43B9
  3
OPACITYTILE
360
43BD
  3
REFLECTIONTILE
360
43BC
  3
REFRACTIONTILE
360
43BE
  3
SPECULARTILE
360
43BB
  0
DICTIONARY
  5
444C
330
BD7
100
AcDbDictionary
280
     1
281
     1
  3
ACAD_ROUNDTRIP_2008_TABLESTYLE_CELLSTYLEMAP
360
45C8
  3
ACAD_XREC_ROUNDTRIP
360
45D4
  0
XRECORD
  5
45CD
102
{ACAD_REACTORS
330
45CC
102
}
330
45CC
100
AcDbXrecord
280
     1
102
SHADEPLOT
 70
     0
102
SHADEPLOTRESLEVEL
 70
     2
102
SHADEPLOTCUSTOMDPI
 70
   300
  0
XRECORD
  5
45CB
102
{ACAD_REACTORS
330
45CA
102
}
330
45CA
100
AcDbXrecord
280
     1
102
SHADEPLOT
 70
     1
102
SHADEPLOTRESLEVEL
 70
     2
102
SHADEPLOTCUSTOMDPI
 70
   300
  0
XRECORD
  5
45CF
102
{ACAD_REACTORS
330
45CE
102
}
330
45CE
100
AcDbXrecord
280
     1
102
SHADEPLOT
 70
     1
102
SHADEPLOTRESLEVEL
 70
     2
102
SHADEPLOTCUSTOMDPI
 70
   300
  0
XRECORD
  5
45D6
102
{ACAD_REACTORS
330
43B0
102
}
330
43B0
100
AcDbXrecord
280
     1
102
MATERIAL
148
0.0
149
0.0
149
0.0
 93
        0
 94
      127
282
     0
 72
     0
 77
     0
171
     0
175
     0
179
     0
273
     0
  0
XRECORD
  5
43B2
102
{ACAD_REACTORS
330
43B0
102
}
330
43B0
100
AcDbXrecord
280
     1
270
     1
271
     1
  0
XRECORD
  5
43B1
102
{ACAD_REACTORS
330
43B0
102
}
330
43B0
100
AcDbXrecord
280
     1
270
     1
271
     1
  0
XRECORD
  5
43B5
102
{ACAD_REACTORS
330
43B0
102
}
330
43B0
100
AcDbXrecord
280
     1
270
     1
271
     1
  0
XRECORD
  5
43B4
102
{ACAD_REACTORS
330
43B0
102
}
330
43B0
100
AcDbXrecord
280
     1
270
     1
271
     1
  0
XRECORD
  5
43B6
102
{ACAD_REACTORS
330
43B0
102
}
330
43B0
100
AcDbXrecord
280
     1
270
     1
271
     1
  0
XRECORD
  5
43B3
102
{ACAD_REACTORS
330
43B0
102
}
330
43B0
100
AcDbXrecord
280
     1
270
     1
271
     1
  0
XRECORD
  5
45D5
102
{ACAD_REACTORS
330
43A8
102
}
330
43A8
100
AcDbXrecord
280
     1
102
MATERIAL
148
0.0
149
0.0
149
0.0
 93
        0
 94
      127
282
     0
 72
     0
 77
     0
171
     0
175
     0
179
     0
273
     0
  0
XRECORD
  5
43AA
102
{ACAD_REACTORS
330
43A8
102
}
330
43A8
100
AcDbXrecord
280
     1
270
     1
271
     1
  0
XRECORD
  5
43A9
102
{ACAD_REACTORS
330
43A8
102
}
330
43A8
100
AcDbXrecord
280
     1
270
     1
271
     1
  0
XRECORD
  5
43AD
102
{ACAD_REACTORS
330
43A8
102
}
330
43A8
100
AcDbXrecord
280
     1
270
     1
271
     1
  0
XRECORD
  5
43AC
102
{ACAD_REACTORS
330
43A8
102
}
330
43A8
100
AcDbXrecord
280
     1
270
     1
271
     1
  0
XRECORD
  5
43AE
102
{ACAD_REACTORS
330
43A8
102
}
330
43A8
100
AcDbXrecord
280
     1
270
     1
271
     1
  0
XRECORD
  5
43AB
102
{ACAD_REACTORS
330
43A8
102
}
330
43A8
100
AcDbXrecord
280
     1
270
     1
271
     1
  0
XRECORD
  5
45D7
102
{ACAD_REACTORS
330
43B8
102
}
330
43B8
100
AcDbXrecord
280
     1
102
MATERIAL
148
0.0
149
0.0
149
0.0
 93
        0
 94
      127
282
     0
 72
     0
 77
     0
171
     0
175
     0
179
     0
273
     0
  0
XRECORD
  5
43BA
102
{ACAD_REACTORS
330
43B8
102
}
330
43B8
100
AcDbXrecord
280
     1
270
     1
271
     1
  0
XRECORD
  5
43B9
102
{ACAD_REACTORS
330
43B8
102
}
330
43B8
100
AcDbXrecord
280
     1
270
     1
271
     1
  0
XRECORD
  5
43BD
102
{ACAD_REACTORS
330
43B8
102
}
330
43B8
100
AcDbXrecord
280
     1
270
     1
271
     1
  0
XRECORD
  5
43BC
102
{ACAD_REACTORS
330
43B8
102
}
330
43B8
100
AcDbXrecord
280
     1
270
     1
271
     1
  0
XRECORD
  5
43BE
102
{ACAD_REACTORS
330
43B8
102
}
330
43B8
100
AcDbXrecord
280
     1
270
     1
271
     1
  0
XRECORD
  5
43BB
102
{ACAD_REACTORS
330
43B8
102
}
330
43B8
100
AcDbXrecord
280
     1
270
     1
271
     1
  0
CELLSTYLEMAP
  5
45C8
102
{ACAD_REACTORS
330
444C
102
}
330
444C
100
AcDbCellStyleMap
 90
        3
300
CELLSTYLE
  1
TABLEFORMAT_BEGIN
 90
        5
170
     1
 91
        0
 92
    32768
 62
   257
 93
        1
300
CONTENTFORMAT
  1
CONTENTFORMAT_BEGIN
 90
        0
 91
        0
 92
        4
 93
        0
300

 40
0.0
140
1.0
 94
        5
 62
     0
340
11
144
6.0
309
CONTENTFORMAT_END
171
     1
301
MARGIN
  1
CELLMARGIN_BEGIN
 40
1.5
 40
1.5
 40
1.5
 40
1.5
 40
0.18
 40
0.18
309
CELLMARGIN_END
 94
        6
 95
        1
302
GRIDFORMAT
  1
GRIDFORMAT_BEGIN
 90
        0
 91
        1
 62
     0
 92
       -2
340
0
 93
        0
 40
0.045
309
GRIDFORMAT_END
 95
        2
302
GRIDFORMAT
  1
GRIDFORMAT_BEGIN
 90
        0
 91
        1
 62
     0
 92
       -2
340
0
 93
        0
 40
0.045
309
GRIDFORMAT_END
 95
        4
302
GRIDFORMAT
  1
GRIDFORMAT_BEGIN
 90
        0
 91
        1
 62
     0
 92
       -2
340
0
 93
        0
 40
0.045
309
GRIDFORMAT_END
 95
        8
302
GRIDFORMAT
  1
GRIDFORMAT_BEGIN
 90
        0
 91
        1
 62
     0
 92
       -2
340
0
 93
        0
 40
0.045
309
GRIDFORMAT_END
 95
       16
302
GRIDFORMAT
  1
GRIDFORMAT_BEGIN
 90
        0
 91
        1
 62
     0
 92
       -2
340
0
 93
        0
 40
0.045
309
GRIDFORMAT_END
 95
       32
302
GRIDFORMAT
  1
GRIDFORMAT_BEGIN
 90
        0
 91
        1
 62
     0
 92
       -2
340
0
 93
        0
 40
0.045
309
GRIDFORMAT_END
309
TABLEFORMAT_END
  1
CELLSTYLE_BEGIN
 90
        1
 91
        1
300
_TITLE
309
CELLSTYLE_END
300
CELLSTYLE
  1
TABLEFORMAT_BEGIN
 90
        5
170
     1
 91
        0
 92
        0
 62
   257
 93
        1
300
CONTENTFORMAT
  1
CONTENTFORMAT_BEGIN
 90
        0
 91
        0
 92
        4
 93
        0
300

 40
0.0
140
1.0
 94
        5
 62
     0
340
11
144
4.5
309
CONTENTFORMAT_END
171
     1
301
MARGIN
  1
CELLMARGIN_BEGIN
 40
1.5
 40
1.5
 40
1.5
 40
1.5
 40
0.18
 40
0.18
309
CELLMARGIN_END
 94
        6
 95
        1
302
GRIDFORMAT
  1
GRIDFORMAT_BEGIN
 90
        0
 91
        1
 62
     0
 92
       -2
340
0
 93
        0
 40
0.045
309
GRIDFORMAT_END
 95
        2
302
GRIDFORMAT
  1
GRIDFORMAT_BEGIN
 90
        0
 91
        1
 62
     0
 92
       -2
340
0
 93
        0
 40
0.045
309
GRIDFORMAT_END
 95
        4
302
GRIDFORMAT
  1
GRIDFORMAT_BEGIN
 90
        0
 91
        1
 62
     0
 92
       -2
340
0
 93
        0
 40
0.045
309
GRIDFORMAT_END
 95
        8
302
GRIDFORMAT
  1
GRIDFORMAT_BEGIN
 90
        0
 91
        1
 62
     0
 92
       -2
340
0
 93
        0
 40
0.045
309
GRIDFORMAT_END
 95
       16
302
GRIDFORMAT
  1
GRIDFORMAT_BEGIN
 90
        0
 91
        1
 62
     0
 92
       -2
340
0
 93
        0
 40
0.045
309
GRIDFORMAT_END
 95
       32
302
GRIDFORMAT
  1
GRIDFORMAT_BEGIN
 90
        0
 91
        1
 62
     0
 92
       -2
340
0
 93
        0
 40
0.045
309
GRIDFORMAT_END
309
TABLEFORMAT_END
  1
CELLSTYLE_BEGIN
 90
        2
 91
        1
300
_HEADER
309
CELLSTYLE_END
300
CELLSTYLE
  1
TABLEFORMAT_BEGIN
 90
        5
170
     1
 91
        0
 92
        0
 62
   257
 93
        1
300
CONTENTFORMAT
  1
CONTENTFORMAT_BEGIN
 90
        0
 91
        0
 92
        4
 93
        0
300

 40
0.0
140
1.0
 94
        2
 62
     0
340
11
144
4.5
309
CONTENTFORMAT_END
171
     1
301
MARGIN
  1
CELLMARGIN_BEGIN
 40
1.5
 40
1.5
 40
1.5
 40
1.5
 40
0.18
 40
0.18
309
CELLMARGIN_END
 94
        6
 95
        1
302
GRIDFORMAT
  1
GRIDFORMAT_BEGIN
 90
        0
 91
        1
 62
     0
 92
       -2
340
0
 93
        0
 40
0.045
309
GRIDFORMAT_END
 95
        2
302
GRIDFORMAT
  1
GRIDFORMAT_BEGIN
 90
        0
 91
        1
 62
     0
 92
       -2
340
0
 93
        0
 40
0.045
309
GRIDFORMAT_END
 95
        4
302
GRIDFORMAT
  1
GRIDFORMAT_BEGIN
 90
        0
 91
        1
 62
     0
 92
       -2
340
0
 93
        0
 40
0.045
309
GRIDFORMAT_END
 95
        8
302
GRIDFORMAT
  1
GRIDFORMAT_BEGIN
 90
        0
 91
        1
 62
     0
 92
       -2
340
0
 93
        0
 40
0.045
309
GRIDFORMAT_END
 95
       16
302
GRIDFORMAT
  1
GRIDFORMAT_BEGIN
 90
        0
 91
        1
 62
     0
 92
       -2
340
0
 93
        0
 40
0.045
309
GRIDFORMAT_END
 95
       32
302
GRIDFORMAT
  1
GRIDFORMAT_BEGIN
 90
        0
 91
        1
 62
     0
 92
       -2
340
0
 93
        0
 40
0.045
309
GRIDFORMAT_END
309
TABLEFORMAT_END
  1
CELLSTYLE_BEGIN
 90
        3
 91
        2
300
_DATA
309
CELLSTYLE_END
  0
XRECORD
  5
45D4
102
{ACAD_REACTORS
330
444C
102
}
330
444C
100
AcDbXrecord
280
     1
102
ACAD_ROUNDTRIP_PRE2007_TABLESTYLE
 90
        4
 91
        0
  1

 92
        4
 93
        0
  2

 94
        4
 95
        0
  3

  0
ENDSEC
  0
EOF
