  0
SECTION
  2
HEADER
  9
$ACADVER
  1
AC1015
  9
$ACADMAINTVER
 70
    20
  9
$DWGCODEPAGE
  3
ANSI_932
  9
$INSBASE
 10
0.0
 20
0.0
 30
0.0
  9
$EXTMIN
 10
0.0
 20
-0.0000000000001599
 30
0.0
  9
$EXTMAX
 10
1209.0
 20
840.0000000000002
 30
0.0
  9
$LIMMIN
 10
0.0
 20
0.0
  9
$LIMMAX
 10
1209.0
 20
840.0000000000002
  9
$ORTHOMODE
 70
     0
  9
$REGENMODE
 70
     1
  9
$FILLMODE
 70
     1
  9
$QTEXTMODE
 70
     0
  9
$MIRRTEXT
 70
     1
  9
$LTSCALE
 40
3.0
  9
$ATTMODE
 70
     1
  9
$TEXTSIZE
 40
2.5
  9
$TRACEWID
 40
0.05
  9
$TEXTSTYLE
  7
takachi1
  9
$CLAYER
  8
0
  9
$CELTYPE
  6
ByLayer
  9
$CECOLOR
 62
   256
  9
$CELTSCALE
 40
1.0
  9
$DISPSILH
 70
     0
  9
$DIMSCALE
 40
5.0
  9
$DIMASZ
 40
2.5
  9
$DIMEXO
 40
1.0
  9
$DIMDLI
 40
10.0
  9
$DIMRND
 40
0.0
  9
$DIMDLE
 40
0.0
  9
$DIMEXE
 40
1.0
  9
$DIMTP
 40
0.1
  9
$DIMTM
 40
0.1
  9
$DIMTXT
 40
3.5
  9
$DIMCEN
 40
0.0
  9
$DIMTSZ
 40
0.0
  9
$DIMTOL
 70
     0
  9
$DIMLIM
 70
     0
  9
$DIMTIH
 70
     0
  9
$DIMTOH
 70
     0
  9
$DIMSE1
 70
     0
  9
$DIMSE2
 70
     0
  9
$DIMTAD
 70
     1
  9
$DIMZIN
 70
     8
  9
$DIMBLK
  1
Open30
  9
$DIMASO
 70
     1
  9
$DIMSHO
 70
     1
  9
$DIMPOST
  1

  9
$DIMAPOST
  1
"
  9
$DIMALT
 70
     0
  9
$DIMALTD
 70
     2
  9
$DIMALTF
 40
0.0393701
  9
$DIMLFAC
 40
1.0
  9
$DIMTOFL
 70
     1
  9
$DIMTVP
 40
0.0
  9
$DIMTIX
 70
     0
  9
$DIMSOXD
 70
     0
  9
$DIMSAH
 70
     0
  9
$DIMBLK1
  1

  9
$DIMBLK2
  1

  9
$DIMSTYLE
  2
AM_ISO
  9
$DIMCLRD
 70
     3
  9
$DIMCLRE
 70
     3
  9
$DIMCLRT
 70
     2
  9
$DIMTFAC
 40
0.71
  9
$DIMGAP
 40
1.5
  9
$DIMJUST
 70
     0
  9
$DIMSD1
 70
     0
  9
$DIMSD2
 70
     0
  9
$DIMTOLJ
 70
     0
  9
$DIMTZIN
 70
     8
  9
$DIMALTZ
 70
     0
  9
$DIMALTTZ
 70
     0
  9
$DIMUPT
 70
     0
  9
$DIMDEC
 70
     2
  9
$DIMTDEC
 70
     2
  9
$DIMALTU
 70
     2
  9
$DIMALTTD
 70
     2
  9
$DIMTXSTY
  7
STANDARD
  9
$DIMAUNIT
 70
     0
  9
$DIMADEC
 70
     0
  9
$DIMALTRND
 40
0.0
  9
$DIMAZIN
 70
     2
  9
$DIMDSEP
 70
    46
  9
$DIMATFIT
 70
     3
  9
$DIMFRAC
 70
     0
  9
$DIMLDRBLK
  1
Open30
  9
$DIMLUNIT
 70
     2
  9
$DIMLWD
 70
    -1
  9
$DIMLWE
 70
    -1
  9
$DIMTMOVE
 70
     0
  9
$LUNITS
 70
     2
  9
$LUPREC
 70
     2
  9
$SKETCHINC
 40
0.1
  9
$FILLETRAD
 40
0.6000000000000001
  9
$AUNITS
 70
     0
  9
$AUPREC
 70
     0
  9
$MENU
  1
.
  9
$ELEVATION
 40
0.0
  9
$PELEVATION
 40
0.0
  9
$THICKNESS
 40
0.0
  9
$LIMCHECK
 70
     0
  9
$CHAMFERA
 40
7.5
  9
$CHAMFERB
 40
7.5
  9
$CHAMFERC
 40
1.0
  9
$CHAMFERD
 40
0.0
  9
$SKPOLY
 70
     0
  9
$TDCREATE
 40
2454770.465836227
  9
$TDUCREATE
 40
2454770.090836227
  9
$TDUPDATE
 40
2455068.667029977
  9
$TDUUPDATE
 40
2455068.292029977
  9
$TDINDWG
 40
0.1341892940
  9
$TDUSRTIMER
 40
0.1341892940
  9
$USRTIMER
 70
     1
  9
$ANGBASE
 50
0.0
  9
$ANGDIR
 70
     0
  9
$PDMODE
 70
     0
  9
$PDSIZE
 40
0.0
  9
$PLINEWID
 40
0.0
  9
$SPLFRAME
 70
     0
  9
$SPLINETYPE
 70
     6
  9
$SPLINESEGS
 70
     8
  9
$HANDSEED
  5
45E3
  9
$SURFTAB1
 70
     6
  9
$SURFTAB2
 70
     6
  9
$SURFTYPE
 70
     6
  9
$SURFU
 70
     6
  9
$SURFV
 70
     6
  9
$UCSBASE
  2

  9
$UCSNAME
  2

  9
$UCSORG
 10
0.0
 20
0.0
 30
0.0
  9
$UCSXDIR
 10
1.0
 20
0.0
 30
0.0
  9
$UCSYDIR
 10
0.0
 20
1.0
 30
0.0
  9
$UCSORTHOREF
  2

  9
$UCSORTHOVIEW
 70
     0
  9
$UCSORGTOP
 10
0.0
 20
0.0
 30
0.0
  9
$UCSORGBOTTOM
 10
0.0
 20
0.0
 30
0.0
  9
$UCSORGLEFT
 10
0.0
 20
0.0
 30
0.0
  9
$UCSORGRIGHT
 10
0.0
 20
0.0
 30
0.0
  9
$UCSORGFRONT
 10
0.0
 20
0.0
 30
0.0
  9
$UCSORGBACK
 10
0.0
 20
0.0
 30
0.0
  9
$PUCSBASE
  2

  9
$PUCSNAME
  2

  9
$PUCSORG
 10
0.0
 20
0.0
 30
0.0
  9
$PUCSXDIR
 10
1.0
 20
0.0
 30
0.0
  9
$PUCSYDIR
 10
0.0
 20
1.0
 30
0.0
  9
$PUCSORTHOREF
  2

  9
$PUCSORTHOVIEW
 70
     0
  9
$PUCSORGTOP
 10
0.0
 20
0.0
 30
0.0
  9
$PUCSORGBOTTOM
 10
0.0
 20
0.0
 30
0.0
  9
$PUCSORGLEFT
 10
0.0
 20
0.0
 30
0.0
  9
$PUCSORGRIGHT
 10
0.0
 20
0.0
 30
0.0
  9
$PUCSORGFRONT
 10
0.0
 20
0.0
 30
0.0
  9
$PUCSORGBACK
 10
0.0
 20
0.0
 30
0.0
  9
$USERI1
 70
     0
  9
$USERI2
 70
     0
  9
$USERI3
 70
     0
  9
$USERI4
 70
     0
  9
$USERI5
 70
     0
  9
$USERR1
 40
0.0
  9
$USERR2
 40
0.0
  9
$USERR3
 40
0.0
  9
$USERR4
 40
0.0
  9
$USERR5
 40
0.0
  9
$WORLDVIEW
 70
     1
  9
$SHADEDGE
 70
     3
  9
$SHADEDIF
 70
    70
  9
$TILEMODE
 70
     1
  9
$MAXACTVP
 70
    64
  9
$PINSBASE
 10
0.0
 20
0.0
 30
0.0
  9
$PLIMCHECK
 70
     0
  9
$PEXTMIN
 10
1.000000000000000E+20
 20
1.000000000000000E+20
 30
1.000000000000000E+20
  9
$PEXTMAX
 10
-1.000000000000000E+20
 20
-1.000000000000000E+20
 30
-1.000000000000000E+20
  9
$PLIMMIN
 10
-0.2500002402958907
 20
-0.2499999962453767
  9
$PLIMMAX
 10
10.74999951940821
 20
8.249999763458731
  9
$UNITMODE
 70
     0
  9
$VISRETAIN
 70
     1
  9
$PLINEGEN
 70
     0
  9
$PSLTSCALE
 70
     1
  9
$TREEDEPTH
 70
  3020
  9
$CMLSTYLE
  2
Standard
  9
$CMLJUST
 70
     0
  9
$CMLSCALE
 40
1.0
  9
$PROXYGRAPHICS
 70
     1
  9
$MEASUREMENT
 70
     1
  9
$CELWEIGHT
370
    -1
  9
$ENDCAPS
280
     0
  9
$JOINSTYLE
280
     0
  9
$LWDISPLAY
290
     0
  9
$INSUNITS
 70
     4
  9
$HYPERLINKBASE
  1

  9
$STYLESHEET
  1
takachi-2.ctb
  9
$XEDIT
290
     1
  9
$CEPSNTYPE
380
     0
  9
$PSTYLEMODE
290
     1
  9
$FINGERPRINTGUID
  2
{4C04C66C-6307-4C11-B2CD-108B7D68641F}
  9
$VERSIONGUID
  2
{1D7746A5-B924-4D4E-8193-3D35EF363A1F}
  9
$EXTNAMES
290
     1
  9
$PSVPSCALE
 40
0.0
  9
$OLESTARTUP
290
     0
  0
ENDSEC
  0
SECTION
  2
CLASSES
  0
CLASS
  1
ACDBDICTIONARYWDFLT
  2
AcDbDictionaryWithDefault
  3
ObjectDBX Classes
 90
        0
280
     0
281
     0
  0
CLASS
  1
ACDBPLACEHOLDER
  2
AcDbPlaceHolder
  3
ObjectDBX Classes
 90
        0
280
     0
281
     0
  0
CLASS
  1
LAYOUT
  2
AcDbLayout
  3
ObjectDBX Classes
 90
        0
280
     0
281
     0
  0
CLASS
  1
ACME_DOCUMENT
  2
AcMeDbDoc
  3
AcMeServices
 90
     1024
280
     0
281
     0
  0
CLASS
  1
AMGSETTINGSOBJ
  2
AmgSettingsObj
  3
"AcadM|Product Description: AutoCAD Mechanical|Company: Autodesk, Inc."
 90
     1024
280
     0
281
     0
  0
CLASS
  1
ACMESCOPE
  2
AcMeScope
  3
AcMeServices
 90
     1024
280
     0
281
     0
  0
CLASS
  1
ACMECOMMANDHISTORY
  2
AcMeCommandHistory
  3
AcMeServices
 90
     1024
280
     0
281
     0
  0
CLASS
  1
ACIMSYSVARMAN
  2
AcImSysVarManager
  3
AcMeServices
 90
     1024
280
     0
281
     0
  0
CLASS
  1
ACIMREALSYSVAR
  2
AcImRealSysVar
  3
AcMeServices
 90
     1024
280
     0
281
     0
  0
CLASS
  1
ACIMINTSYSVAR
  2
AcImIntSysVar
  3
AcMeServices
 90
     1024
280
     0
281
     0
  0
CLASS
  1
ACMEDRAWINGMAN
  2
AcMeDrawingMan
  3
AcMeServices
 90
     1024
280
     0
281
     0
  0
CLASS
  1
ACMEVIEW
  2
AcMeView
  3
AcMeServices
 90
     1024
280
     0
281
     0
  0
CLASS
  1
ACDBENTITYCACHE
  2
AcMeEntityCache
  3
AcMeServices
 90
     1024
280
     0
281
     0
  0
CLASS
  1
GSMANAGER
  2
AcMeGSManager
  3
AcMeServices
 90
     1024
280
     0
281
     0
  0
CLASS
  1
AMDTINTERNALREACTOR
  2
AmdtInternalReactor
  3
AcMeServices
 90
     1024
280
     0
281
     0
  0
CLASS
  1
ACMESTATEMGR
  2
AcMeStateMgr
  3
AcMeServices
 90
     1024
280
     0
281
     0
  0
CLASS
  1
ACGREFMASTER
  2
AcGrefMaster
  3
AcAttribServices
 90
     1024
280
     0
281
     0
  0
CLASS
  1
ACME_DATABASE
  2
AcMeDbDatabase
  3
AcMeServices
 90
     1024
280
     0
281
     0
  0
CLASS
  1
ACRFINSADJUSTERMGR
  2
AcRfInsAdjusterMgr
  3
AcMeServices
 90
     1024
280
     0
281
     0
  0
CLASS
  1
ACGREFACADMASTER
  2
AcGrefacadMaster
  3
AcGrefServices
 90
     1024
280
     0
281
     0
  0
CLASS
  1
AMIMASTER
  2
AmiMaster
  3
AmiServices
 90
     1024
280
     0
281
     0
  0
CLASS
  1
ACMDATADICTIONARY
  2
AcmDataDictionary
  3
"AcmSymBB|Product Description: AutoCAD Mechanical|Company: Autodesk, Inc."
 90
     1024
280
     0
281
     0
  0
CLASS
  1
ACMDATAENTRYBLOCK
  2
AcmDataEntryBlock
  3
AcmSymBB|Product Description: AutoCAD Mechanical|Company: Autodesk, Inc.
 90
     1024
280
     0
281
     0
  0
CLASS
  1
ACIMSTRSYSVAR
  2
AcImStrSysVar
  3
AcMeServices
 90
     1024
280
     0
281
     0
  0
CLASS
  1
ACMSTANDARDANSI
  2
AcmStandardANSI
  3
"Amdt_StdImp|Product Description: AutoCAD Mechanical|Company: Autodesk, Inc."
 90
     1024
280
     0
281
     0
  0
CLASS
  1
AMGOBJPROPCFG
  2
AmgObjPropCfg
  3
"AmgLay|Product Description: AutoCAD Mechanical|Company: Autodesk, Inc."
 90
     1025
280
     0
281
     0
  0
CLASS
  1
ACMSURFSTANDARDANSI
  2
AcmSurfTextStdANSI
  3
"Amdt_StdImp|Product Description: AutoCAD Mechanical|Company: Autodesk, Inc."
 90
     1024
280
     0
281
     0
  0
CLASS
  1
ACMFCFSTANDARDANSI
  2
AcmFCFStdANSI
  3
"Amdt_StdImp|Product Description: AutoCAD Mechanical|Company: Autodesk, Inc."
 90
     1024
280
     0
281
     0
  0
CLASS
  1
ACMWELDSTANDARDANSI
  2
AcmWeldingStdANSI
  3
"Amdt_StdImp|Product Description: AutoCAD Mechanical|Company: Autodesk, Inc."
 90
     1024
280
     0
281
     0
  0
CLASS
  1
ACMIDSTANDARDANSI
  2
AcmIdStdANSI
  3
"Amdt_StdImp|Product Description: AutoCAD Mechanical|Company: Autodesk, Inc."
 90
     1024
280
     0
281
     0
  0
CLASS
  1
ACMDATUMSTANDARDANSI
  2
AcmDatumStdANSI
  3
"Amdt_StdImp|Product Description: AutoCAD Mechanical|Company: Autodesk, Inc."
 90
     1024
280
     0
281
     0
  0
CLASS
  1
ACMBOMSTANDARDANSI
  2
AcmBOMStdANSI
  3
"Amdt_StdImp|Product Description: AutoCAD Mechanical|Company: Autodesk, Inc."
 90
     1024
280
     0
281
     0
  0
CLASS
  1
ACMDETAILSTANDARDANSI
  2
AmdtDetailSymStdANSI
  3
"Amdt_StdImp|Product Description: AutoCAD Mechanical|Company: Autodesk, Inc."
 90
     1024
280
     0
281
     0
  0
CLASS
  1
ACMSECTIONSTANDARDANSI
  2
AmdtSectionSymStdANSI
  3
"Amdt_StdImp|Product Description: AutoCAD Mechanical|Company: Autodesk, Inc."
 90
     1024
280
     0
281
     0
  0
CLASS
  1
ACMCENTERLINESTANDARDANSI
  2
AmdtCenterLineStdANSI
  3
"Amdt_StdImp|Product Description: AutoCAD Mechanical|Company: Autodesk, Inc."
 90
     1024
280
     0
281
     0
  0
CLASS
  1
ACMNOTESTANDARDANSI
  2
AmdtNoteStdANSI
  3
"Amdt_StdImp|Product Description: AutoCAD Mechanical|Company: Autodesk, Inc."
 90
     1024
280
     0
281
     0
  0
CLASS
  1
ACAMGLAYSTD
  2
AcAmgLayStd
  3
"AmgLay|Product Description: AutoCAD Mechanical|Company: Autodesk, Inc."
 90
     1024
280
     0
281
     0
  0
CLASS
  1
ACAMGDIMSTD
  2
AcAmgDimStd
  3
"AmgDim|Product Description: AutoCAD Mechanical|Company: Autodesk, Inc."
 90
     1024
280
     0
281
     0
  0
CLASS
  1
ACAMGHOLECHARTSTDANSI
  2
AcAmgHoleChartStdANSI
  3
AmgDim|Product Description: AutoCAD Mechanical|Company: Autodesk, Inc.
 90
     1024
280
     0
281
     0
  0
CLASS
  1
ACAMGTITLESTD
  2
AcAmgTitleStd
  3
"AmgTitle|Product Description: AutoCAD Mechanical|Company: Autodesk, Inc."
 90
     4095
280
     0
281
     0
  0
CLASS
  1
LAYER_INDEX
  2
AcDbLayerIndex
  3
ObjectDBX Classes
 90
    32768
280
     0
281
     0
  0
CLASS
  1
IDBUFFER
  2
AcDbIdBuffer
  3
ObjectDBX Classes
 90
    32768
280
     0
281
     0
  0
CLASS
  1
DICTIONARYVAR
  2
AcDbDictionaryVar
  3
ObjectDBX Classes
 90
        0
280
     0
281
     0
  0
CLASS
  1
AM_DRAWING_MGR
  2
AcDmDwgMgr
  3
AcMechDwgViewMgmt
 90
     1024
280
     0
281
     0
  0
CLASS
  1
AM_DWG_DOCUMENT
  2
AcDmDwgDocument
  3
AcMechDwgViewMgmt
 90
     1024
280
     0
281
     0
  0
CLASS
  1
AM_DWG_SHEET
  2
AcDmSheet
  3
AcMechDwgViewMgmt
 90
     1024
280
     0
281
     0
  0
CLASS
  1
AM_VIEWDIMPARMAP
  2
AcDmViewDimParMap
  3
AcMechDwgViewMgmt
 90
     1024
280
     0
281
     0
  0
CLASS
  1
AM_DWGMGR_NAME
  2
AcDmDwgMgrName
  3
AcMechDwgViewMgmt
 90
     1024
280
     0
281
     0
  0
CLASS
  1
AMDTMENUSTATEMGR
  2
AmdtMenuStateMgr
  3
McadcomServices
 90
     1024
280
     0
281
     0
  0
CLASS
  1
AMDTMCOMMENUSTATE
  2
AmdtMcomMenuState
  3
McadcomServices
 90
     1024
280
     0
281
     0
  0
CLASS
  1
MAPIAMMOUDLE
  2
MApiAmModule
  3
MApiAmServices
 90
     1024
280
     0
281
     0
  0
CLASS
  1
AMDTADMENUSTATE
  2
AmdtAdMenuState
  3
DesignerServices
 90
     1024
280
     0
281
     0
  0
CLASS
  1
ADAPPL
  2
AcAdAppl
  3
DesignerServices
 90
     1024
280
     0
281
     0
  0
CLASS
  1
DEPMGR
  2
AcAdDepMgr
  3
DesignerServices
 90
     1024
280
     0
281
     0
  0
CLASS
  1
PARAMMGR
  2
AcAdParamMgr
  3
DesignerServices
 90
     1024
280
     0
281
     0
  0
CLASS
  1
PARAMSCOPE
  2
AcAdParamScope
  3
DesignerServices
 90
     1024
280
     0
281
     0
  0
CLASS
  1
NAMEDAPPL
  2
AcAdNamedAppl
  3
DesignerServices
 90
     1024
280
     0
281
     0
  0
CLASS
  1
AMDTDMMENUSTATE
  2
AmdtDmMenuState
  3
AcMechDwgViewMgmt
 90
     1024
280
     0
281
     0
  0
CLASS
  1
AMDTAMMENUSTATE
  2
AmdtAmMenuState
  3
DesignerAssemblies
 90
     1024
280
     0
281
     0
  0
CLASS
  1
ACAMPROJECT
  2
AcAmProject
  3
DesignerAssemblies
 90
     1024
280
     0
281
     0
  0
CLASS
  1
ACAMGRCOMPDEF
  2
AcAmGrCompDef
  3
DesignerAssemblies
 90
     1024
280
     0
281
     0
  0
CLASS
  1
ACCMCONTEXT
  2
AcCmContext
  3
DesignerAssemblies
 90
     1024
280
     0
281
     0
  0
CLASS
  1
ACAMCOMPDEF
  2
AcAmCompDef
  3
DesignerAssemblies
 90
     1024
280
     0
281
     0
  0
CLASS
  1
ACAMCOMPDEFMGR
  2
AcAmCompDefMgr
  3
DesignerAssemblies
 90
     1024
280
     0
281
     0
  0
CLASS
  1
AMCONTEXTMGR
  2
AcAmContextMgr
  3
DesignerAssemblies
 90
     1024
280
     0
281
     0
  0
CLASS
  1
ACAMCONTEXTMODELER
  2
AcAmContextModeler
  3
DesignerAssemblies
 90
     1024
280
     0
281
     0
  0
CLASS
  1
ACMTHREADLINESTANDARDANSI
  2
AmdtThreadLineStdANSI
  3
"Amdt_StdImp|Product Description: AutoCAD Mechanical|Company: Autodesk, Inc."
 90
     1024
280
     0
281
     0
  0
CLASS
  1
CATALOGSTATE
  2
AcAmCatalogState
  3
DesignerAssemblies
 90
     1024
280
     0
281
     0
  0
CLASS
  1
ACAMGRCOMPDEFSET
  2
AcAmGrCompDefSet
  3
DesignerAssemblies
 90
     1024
280
     0
281
     0
  0
CLASS
  1
AMDTBROWSERDBTAB
  2
AmdtBrowserDbTab
  3
McadcomServices
 90
     1024
280
     0
281
     0
  0
CLASS
  1
CBROWSERAPPOBJECT
  2
CBrowserAppObject
  3
McadcomServices
 90
     1024
280
     0
281
     0
  0
CLASS
  1
DM_PLACEHOLDER
  2
AcDmSelsetPlaceholder
  3
AcMechDwgViewMgmt
 90
     1024
280
     0
281
     0
  0
CLASS
  1
AMDTNOTETEMPLATEDB
  2
AmdtNoteTemplateDB
  3
AcmSymBB|Product Description: AutoCAD Mechanical|Company: Autodesk, Inc.
 90
     1024
280
     0
281
     0
  0
CLASS
  1
ACMSTANDARDISO
  2
AcmStandardISO
  3
"Amdt_StdImp|Product Description: AutoCAD Mechanical|Company: Autodesk, Inc."
 90
     1024
280
     0
281
     0
  0
CLASS
  1
AMDTEDGESTANDARDISO
  2
AmdtEdgeStdISO
  3
"Amdt_StdImp|Product Description: AutoCAD Mechanical|Company: Autodesk, Inc."
 90
     1024
280
     0
281
     0
  0
CLASS
  1
ACMSURFSTANDARDISO
  2
AcmSurfTextStdISO
  3
"Amdt_StdImp|Product Description: AutoCAD Mechanical|Company: Autodesk, Inc."
 90
     1024
280
     0
281
     0
  0
CLASS
  1
ACMFCFSTANDARDISO
  2
AcmFCFStdISO
  3
"Amdt_StdImp|Product Description: AutoCAD Mechanical|Company: Autodesk, Inc."
 90
     1024
280
     0
281
     0
  0
CLASS
  1
ACMWELDSTANDARDISO
  2
AcmWeldingStdISO
  3
"Amdt_StdImp|Product Description: AutoCAD Mechanical|Company: Autodesk, Inc."
 90
     1024
280
     0
281
     0
  0
CLASS
  1
ACMIDSTANDARDISO
  2
AcmIdStdISO
  3
"Amdt_StdImp|Product Description: AutoCAD Mechanical|Company: Autodesk, Inc."
 90
     1024
280
     0
281
     0
  0
CLASS
  1
ACMDATUMSTANDARDISO
  2
AcmDatumStdISO
  3
"Amdt_StdImp|Product Description: AutoCAD Mechanical|Company: Autodesk, Inc."
 90
     1024
280
     0
281
     0
  0
CLASS
  1
ACMBOMSTANDARDISO
  2
AcmBOMStdISO
  3
"Amdt_StdImp|Product Description: AutoCAD Mechanical|Company: Autodesk, Inc."
 90
     1024
280
     0
281
     0
  0
CLASS
  1
ACMDETAILSTANDARDISO
  2
AmdtDetailSymStdISO
  3
"Amdt_StdImp|Product Description: AutoCAD Mechanical|Company: Autodesk, Inc."
 90
     1024
280
     0
281
     0
  0
CLASS
  1
ACMSECTIONSTANDARDISO
  2
AmdtSectionSymStdISO
  3
"Amdt_StdImp|Product Description: AutoCAD Mechanical|Company: Autodesk, Inc."
 90
     1024
280
     0
281
     0
  0
CLASS
  1
ACMCENTERLINESTANDARDISO
  2
AmdtCenterLineStdISO
  3
"Amdt_StdImp|Product Description: AutoCAD Mechanical|Company: Autodesk, Inc."
 90
     1024
280
     0
281
     0
  0
CLASS
  1
ACMTHREADLINESTANDARDISO
  2
AmdtThreadLineStdISO
  3
"Amdt_StdImp|Product Description: AutoCAD Mechanical|Company: Autodesk, Inc."
 90
     1024
280
     0
281
     0
  0
CLASS
  1
ACMNOTESTANDARDISO
  2
AmdtNoteStdISO
  3
"Amdt_StdImp|Product Description: AutoCAD Mechanical|Company: Autodesk, Inc."
 90
     1024
280
     0
281
     0
  0
CLASS
  1
ACAMGHOLECHARTSTDISO
  2
AcAmgHoleChartStdISO
  3
AmgDim|Product Description: AutoCAD Mechanical|Company: Autodesk, Inc.
 90
     1024
280
     0
281
     0
  0
CLASS
  1
ACAMGFILTERDAT
  2
AcAmgFilterDat
  3
"AcadM|Product Description: AutoCAD Mechanical|Company: Autodesk, Inc."
 90
     1024
280
     0
281
     0
  0
CLASS
  1
ACMBOM
  2
AcmBom
  3
"AcmSymBB|Product Description: AutoCAD Mechanical|Company: Autodesk, Inc."
 90
     1024
280
     0
281
     0
  0
CLASS
  1
AMDTFORMULAUPDATEDISPATCHER
  2
AmdtFormulaUpdateDispatcher
  3
AcMeServices
 90
     1024
280
     0
281
     0
  0
CLASS
  1
ACMPARTLIST
  2
AcmPartList
  3
"AcmSymBB|Product Description: AutoCAD Mechanical|Company: Autodesk, Inc."
 90
     4095
280
     0
281
     1
  0
CLASS
  1
ACDBOPPOLYLINERES
  2
AcDbOpPolylineRes
  3
AcGrefServices
 90
    33792
280
     0
281
     0
  0
CLASS
  1
ACRFINSADJ
  2
AcRfInsAdjuster
  3
AcMeServices
 90
    33792
280
     0
281
     0
  0
CLASS
  1
TABLESTYLE
  2
AcDbTableStyle
  3
ObjectDBX Classes
 90
     4095
280
     0
281
     0
  0
CLASS
  1
VAACXREFPANELOBJECT
  2
VaAcXREFPanelObject
  3
VAAC_ADDIN
 90
    32768
280
     0
281
     0
  0
CLASS
  1
VAACIMAGEINVENTORY
  2
VaAcImageInventory
  3
VAAC_ADDIN
 90
    32768
280
     0
281
     0
  0
CLASS
  1
SORTENTSTABLE
  2
AcDbSortentsTable
  3
ObjectDBX Classes
 90
        0
280
     0
281
     0
  0
CLASS
  1
ACMDATAENTRYPART
  2
AcmDataEntryPart
  3
AcmSymBB|Product Description: AutoCAD Mechanical|Company: Autodesk, Inc.
 90
     1024
280
     0
281
     0
  0
CLASS
  1
ACMPARTREF
  2
AcmPartRef
  3
"AcmSymBB|Product Description: AutoCAD Mechanical|Company: Autodesk, Inc."
 90
     4095
280
     0
281
     1
  0
CLASS
  1
ACMBOMROW
  2
AcmBomRow
  3
"AcmSymBB|Product Description: AutoCAD Mechanical|Company: Autodesk, Inc."
 90
     1024
280
     0
281
     0
  0
CLASS
  1
ACMDATAENTRY
  2
AcmDataEntry
  3
AcmSymBB|Product Description: AutoCAD Mechanical|Company: Autodesk, Inc.
 90
     1024
280
     0
281
     0
  0
CLASS
  1
ACMBALLOON
  2
AcmBalloon
  3
"AcmSymBB|Product Description: AutoCAD Mechanical|Company: Autodesk, Inc."
 90
     4095
280
     0
281
     1
  0
CLASS
  1
MATERIAL
  2
AcDbMaterial
  3
ObjectDBX Classes
 90
     1153
280
     0
281
     0
  0
CLASS
  1
VISUALSTYLE
  2
AcDbVisualStyle
  3
ObjectDBX Classes
 90
     4095
280
     0
281
     0
  0
CLASS
  1
SCALE
  2
AcDbScale
  3
ObjectDBX Classes
 90
     1153
280
     0
281
     0
  0
CLASS
  1
MLEADERSTYLE
  2
AcDbMLeaderStyle
  3
ACDB_MLEADERSTYLE_CLASS
 90
     4095
280
     0
281
     0
  0
CLASS
  1
ACRFATTGENMGR
  2
AcRfAttGeneralMgr
  3
AcAttribServices
 90
     1024
280
     0
281
     0
  0
CLASS
  1
ACRFOBJATTMGR
  2
AcRfObjAttGroupMgr
  3
AcAttribServices
 90
     1024
280
     0
281
     0
  0
CLASS
  1
ACRFMCADAPIATTHOLDER
  2
AcRfMCADAPIAttHolder
  3
AcAttribServices
 90
     1024
280
     0
281
     0
  0
CLASS
  1
AMDTSYSATTR
  2
AmdtSystemAttribute
  3
AcAttribServices
 90
     1024
280
     0
281
     0
  0
CLASS
  1
ACMTAPERSTANDARDISO
  2
AcmTaperStdISO
  3
"Amdt_StdImp|Product Description: AutoCAD Mechanical|Company: Autodesk, Inc."
 90
     1024
280
     0
281
     0
  0
CLASS
  1
ACMANOOTATIONVIEWSTANDARDISO
  2
AmdtAnViewStdISO
  3
"Amdt_StdImp|Product Description: AutoCAD Mechanical|Company: Autodesk, Inc."
 90
     1024
280
     0
281
     0
  0
CLASS
  1
ACMTAPERSTANDARDANSI
  2
AcmTaperStdANSI
  3
"Amdt_StdImp|Product Description: AutoCAD Mechanical|Company: Autodesk, Inc."
 90
     1024
280
     0
281
     0
  0
CLASS
  1
ACMANOOTATIONVIEWSTANDARDANSI
  2
AmdtAnViewStdANSI
  3
"Amdt_StdImp|Product Description: AutoCAD Mechanical|Company: Autodesk, Inc."
 90
     1024
280
     0
281
     0
  0
CLASS
  1
EXACXREFPANELOBJECT
  2
ExAcXREFPanelObject
  3
EXAC_ESW
 90
     1025
280
     0
281
     0
  0
CLASS
  1
NPOCOLLECTION
  2
AcDbImpNonPersistentObjectsCollection
  3
ObjectDBX Classes
 90
     1153
280
     0
281
     0
  0
CLASS
  1
CELLSTYLEMAP
  2
AcDbCellStyleMap
  3
ObjectDBX Classes
 90
     1152
280
     0
281
     0
  0
ENDSEC
  0
SECTION
  2
TABLES
  0
TABLE
  2
VPORT
  5
8
102
{ACAD_XDICTIONARY
360
4457
102
}
330
0
100
AcDbSymbolTable
 70
     1
  0
VPORT
  5
43AA
330
8
100
AcDbSymbolTableRecord
100
AcDbViewportTableRecord
  2
*Active
 70
     0
 10
0.0
 20
0.0
 11
1.0
 21
1.0
 12
604.5369067773162
 22
420.0256424259266
 13
0.0
 23
0.0
 14
7.5
 24
7.5
 15
30.0
 25
30.0
 16
0.0
 26
0.0
 36
1.0
 17
0.0
 27
0.0
 37
0.0
 40
845.9670104448155
 41
1.766554433221099
 42
50.0
 43
0.0
 44
0.0
 50
0.0
 51
0.0
 71
    16
 72
   100
 73
     1
 74
     3
 75
     0
 76
     0
 77
     0
 78
     0
281
     0
 65
     1
110
0.0
120
0.0
130
0.0
111
1.0
121
0.0
131
0.0
112
0.0
122
1.0
132
0.0
 79
     0
146
0.0
  0
ENDTAB
  0
TABLE
  2
LTYPE
  5
5
330
0
100
AcDbSymbolTable
 70
    20
  0
LTYPE
  5
14
330
5
100
AcDbSymbolTableRecord
100
AcDbLinetypeTableRecord
  2
ByBlock
 70
     0
  3

 72
    65
 73
     0
 40
0.0
  0
LTYPE
  5
15
330
5
100
AcDbSymbolTableRecord
100
AcDbLinetypeTableRecord
  2
ByLayer
 70
     0
  3

 72
    65
 73
     0
 40
0.0
  0
LTYPE
  5
16
330
5
100
AcDbSymbolTableRecord
100
AcDbLinetypeTableRecord
  2
Continuous
 70
     0
  3
Solid line
 72
    65
 73
     0
 40
0.0
  0
LTYPE
  5
6C
330
5
100
AcDbSymbolTableRecord
100
AcDbLinetypeTableRecord
  2
AM_ISO02W050
 70
     0
  3
__ __ __ __ __ __ __ __ __ __ __ __ __ __ __
 72
    65
 73
     2
 40
7.5
 49
6.0
 74
     0
 49
-1.5
 74
     0
  0
LTYPE
  5
6D
330
5
100
AcDbSymbolTableRecord
100
AcDbLinetypeTableRecord
  2
AM_ISO08W050
 70
     0
  3
____ . ____ . ____ . ____ . ____ . ____ . ____
 72
    65
 73
     4
 40
18.0
 49
12.0
 74
     0
 49
-1.5
 74
     0
 49
3.0
 74
     0
 49
-1.5
 74
     0
  0
LTYPE
  5
6E
330
5
100
AcDbSymbolTableRecord
100
AcDbLinetypeTableRecord
  2
AM_ISO09W050
 70
     0
  3
_____ . . _____ . . _____ . . ____ .. ____
 72
    65
 73
     6
 40
22.5
 49
12.0
 74
     0
 49
-1.5
 74
     0
 49
3.0
 74
     0
 49
-1.5
 74
     0
 49
3.0
 74
     0
 49
-1.5
 74
     0
  0
LTYPE
  5
6F
330
5
100
AcDbSymbolTableRecord
100
AcDbLinetypeTableRecord
  2
Amconstr
 70
     0
  3
_______________________
 72
    65
 73
     2
 40
9999.0
 49
9999.0
 74
     0
 49
0.0
 74
     0
  0
LTYPE
  5
70
330
5
100
AcDbSymbolTableRecord
100
AcDbLinetypeTableRecord
  2
AM_ISO08W050x2
 70
     0
  3
__ . __ . __ . __ . __ . __
 72
    65
 73
     4
 40
9.0
 49
6.0
 74
     0
 49
-0.75
 74
     0
 49
1.5
 74
     0
 49
-0.75
 74
     0
  0
LTYPE
  5
71
330
5
100
AcDbSymbolTableRecord
100
AcDbLinetypeTableRecord
  2
AM_ISO02W050x2
 70
     0
  3
 _ _ _ _ _ _ _ _ _ _ _ _
 72
    65
 73
     2
 40
3.75
 49
3.0
 74
     0
 49
-0.75
 74
     0
  0
LTYPE
  5
74
330
5
100
AcDbSymbolTableRecord
100
AcDbLinetypeTableRecord
  2
Amzigzag
 70
     0
  3
/\/-/\/-/\/-/\/-/\/-/\/
 72
    65
 73
     2
 40
11.0001
 49
0.0001
 74
     4
 75
   135
340
73
 46
0.04
 50
0.0
 44
0.0
 45
0.0
 49
-11.0
 74
     0
  0
LTYPE
  5
75
330
5
100
AcDbSymbolTableRecord
100
AcDbLinetypeTableRecord
  2
HIDDEN
 70
     0
  3
Hidden __ __ __ __ __ __ __ __ __ __ __ __ __ _
 72
    65
 73
     2
 40
0.375
 49
0.25
 74
     0
 49
-0.125
 74
     0
  0
LTYPE
  5
76
330
5
100
AcDbSymbolTableRecord
100
AcDbLinetypeTableRecord
  2
CENTER
 70
     0
  3
Center ____ _ ____ _ ____ _ ____ _ ____ _ ____
 72
    65
 73
     4
 40
2.0
 49
1.25
 74
     0
 49
-0.25
 74
     0
 49
0.25
 74
     0
 49
-0.25
 74
     0
  0
LTYPE
  5
77
330
5
100
AcDbSymbolTableRecord
100
AcDbLinetypeTableRecord
  2
PHANTOM2
 70
     0
  3
Phantom (.5x) ___ _ _ ___ _ _ ___ _ _ ___ _ _
 72
    65
 73
     6
 40
1.25
 49
0.625
 74
     0
 49
-0.125
 74
     0
 49
0.125
 74
     0
 49
-0.125
 74
     0
 49
0.125
 74
     0
 49
-0.125
 74
     0
  0
LTYPE
  5
78
330
5
100
AcDbSymbolTableRecord
100
AcDbLinetypeTableRecord
  2
CENTER2
 70
     0
  3
Center (.5x) ___ _ ___ _ ___ _ ___ _ ___ _ ___
 72
    65
 73
     4
 40
1.125
 49
0.75
 74
     0
 49
-0.125
 74
     0
 49
0.125
 74
     0
 49
-0.125
 74
     0
  0
LTYPE
  5
79
330
5
100
AcDbSymbolTableRecord
100
AcDbLinetypeTableRecord
  2
HIDDEN2
 70
     0
  3
Hidden (.5x) _ _ _ _ _ _ _ _ _ _ _ _ _ _ _ _ _
 72
    65
 73
     2
 40
0.1875
 49
0.125
 74
     0
 49
-0.0625
 74
     0
  0
LTYPE
  5
7A
330
5
100
AcDbSymbolTableRecord
100
AcDbLinetypeTableRecord
  2
Amzigzag2
 70
     0
  3
/\/-/\/-/\/-/\/-/\/-/\/
 72
    65
 73
     2
 40
0.4401
 49
0.0001
 74
     4
 75
   135
340
73
 46
0.0016
 50
0.0
 44
0.0
 45
0.0
 49
-0.4400000000000001
 74
     0
  0
LTYPE
  5
87
330
5
100
AcDbSymbolTableRecord
100
AcDbLinetypeTableRecord
  2
ACANSTGB
 70
     0
  3
__ . . __ . .
 72
    65
 73
     6
 40
0.35433070866
 49
0.15748031496
 74
     0
 49
-0.03937007874
 74
     0
 49
0.03937007874
 74
     0
 49
-0.03937007874
 74
     0
 49
0.03937007874
 74
     0
 49
-0.03937007874
 74
     0
  0
LTYPE
  5
88
330
5
100
AcDbSymbolTableRecord
100
AcDbLinetypeTableRecord
  2
ACANSTGL
 70
     0
  3
_ _ _ _ _
 72
    65
 73
     2
 40
0.11811023622
 49
0.07874015748
 74
     0
 49
-0.03937007874
 74
     0
  0
LTYPE
  5
1DE
330
5
100
AcDbSymbolTableRecord
100
AcDbLinetypeTableRecord
  2
ACISOWELD
 70
     0
  3
_ _ _ _ _
 72
    65
 73
     2
 40
2.0
 49
2.0
 74
     0
 49
-1.0
 74
     0
  0
LTYPE
  5
1DF
330
5
100
AcDbSymbolTableRecord
100
AcDbLinetypeTableRecord
  2
ACISOTGB
 70
     0
  3
__ . . __ . .
 72
    65
 73
     6
 40
9.0
 49
4.0
 74
     0
 49
-1.0
 74
     0
 49
1.0
 74
     0
 49
-1.0
 74
     0
 49
1.0
 74
     0
 49
-1.0
 74
     0
  0
LTYPE
  5
1E0
330
5
100
AcDbSymbolTableRecord
100
AcDbLinetypeTableRecord
  2
ACISOTGL
 70
     0
  3
_ _ _ _ _
 72
    65
 73
     2
 40
3.0
 49
2.0
 74
     0
 49
-1.0
 74
     0
  0
LTYPE
  5
201
330
5
100
AcDbSymbolTableRecord
100
AcDbLinetypeTableRecord
  2
gen7a
 70
     0
  3
__ . __ . __
 72
    65
 73
     4
 40
6.875
 49
4.75
 74
     0
 49
-0.875
 74
     0
 49
0.375
 74
     0
 49
-0.875
 74
     0
  0
ENDTAB
  0
TABLE
  2
LAYER
  5
2
102
{ACAD_XDICTIONARY
360
2C1
102
}
330
0
100
AcDbSymbolTable
 70
    11
  0
LAYER
  5
10
102
{ACAD_XDICTIONARY
360
4440
102
}
330
2
100
AcDbSymbolTableRecord
100
AcDbLayerTableRecord
  2
0
 70
     0
 62
     7
  6
Continuous
370
    -3
390
F
  0
LAYER
  5
1F0
102
{ACAD_XDICTIONARY
360
4442
102
}
330
2
100
AcDbSymbolTableRecord
100
AcDbLayerTableRecord
  2
AM_5
 70
     0
 62
     3
  6
Continuous
370
    25
390
F
  0
LAYER
  5
204
330
2
100
AcDbSymbolTableRecord
100
AcDbLayerTableRecord
  2
Defpoints
 70
     0
 62
     7
  6
Continuous
290
     0
370
    -3
390
F
  0
LAYER
  5
23E
102
{ACAD_XDICTIONARY
360
4444
102
}
330
2
100
AcDbSymbolTableRecord
100
AcDbLayerTableRecord
  2
7A
 70
     0
 62
     4
  6
gen7a
370
    -3
390
F
  0
LAYER
  5
23F
102
{ACAD_XDICTIONARY
360
4446
102
}
330
2
100
AcDbSymbolTableRecord
100
AcDbLayerTableRecord
  2
RAHM2
 70
     0
 62
     1
  6
Continuous
370
    -3
390
F
  0
LAYER
  5
2AD
102
{ACAD_XDICTIONARY
360
4448
102
}
330
2
100
AcDbSymbolTableRecord
100
AcDbLayerTableRecord
  2
ｴｸｽﾃﾝｼｮﾝﾌﾚｰﾑ
 70
     0
 62
     7
  6
Continuous
370
    25
390
F
  0
LAYER
  5
3A72
102
{ACAD_XDICTIONARY
360
444A
102
}
330
2
100
AcDbSymbolTableRecord
100
AcDbLayerTableRecord
  2
AM_12
 70
     0
 62
     7
  6
Continuous
290
     0
370
    50
390
F
  0
LAYER
  5
3A73
102
{ACAD_XDICTIONARY
360
444C
102
}
330
2
100
AcDbSymbolTableRecord
100
AcDbLayerTableRecord
  2
AM_PAREF
 70
     0
 62
     4
  6
Continuous
290
     0
370
    25
390
F
  0
LAYER
  5
3BDA
102
{ACAD_XDICTIONARY
360
444E
102
}
330
2
100
AcDbSymbolTableRecord
100
AcDbLayerTableRecord
  2
AM_8
 70
     0
 62
     1
  6
Continuous
370
    25
390
F
  0
LAYER
  5
3BE4
102
{ACAD_XDICTIONARY
360
4450
102
}
330
2
100
AcDbSymbolTableRecord
100
AcDbLayerTableRecord
  2
ｶﾞｽｹｯﾄ
 70
     0
 62
     5
  6
Continuous
370
    25
390
F
1001
AcAecLayerStandard
1000

1000

  0
LAYER
  5
4369
102
{ACAD_XDICTIONARY
360
4452
102
}
330
2
100
AcDbSymbolTableRecord
100
AcDbLayerTableRecord
  2
AM_CL
 70
     0
 62
     1
  6
Amconstr
370
    25
390
F
  0
ENDTAB
  0
TABLE
  2
STYLE
  5
3
330
0
100
AcDbSymbolTable
 70
     7
  0
STYLE
  5
11
330
3
100
AcDbSymbolTableRecord
100
AcDbTextStyleTableRecord
  2
STANDARD
 70
     0
 40
0.0
 41
1.0
 50
0.0
 71
     0
 42
0.2
  3
ISOCP.SHX
  4
EXTFONT.SHX
  0
STYLE
  5
73
330
3
100
AcDbSymbolTableRecord
100
AcDbTextStyleTableRecord
  2

 70
     1
 40
0.0
 41
1.0
 50
0.0
 71
     0
 42
0.2
  3
ltypeshp.shx
  4

  0
STYLE
  5
7B
330
3
100
AcDbSymbolTableRecord
100
AcDbTextStyleTableRecord
  2
ACANSTS
 70
     0
 40
1.0
 41
1.0
 50
0.0
 71
     0
 42
0.2
  3
isoct.shx
  4
extfont.shx
  0
STYLE
  5
86
330
3
100
AcDbSymbolTableRecord
100
AcDbTextStyleTableRecord
  2
ACANSGDT
 70
     0
 40
0.0
 41
1.0
 50
0.0
 71
     0
 42
0.2
  3
amgdtans.shx
  4

  0
STYLE
  5
1D0
330
3
100
AcDbSymbolTableRecord
100
AcDbTextStyleTableRecord
  2
ACISOTS
 70
     0
 40
1.0
 41
1.0
 50
0.0
 71
     0
 42
0.2
  3
isocp.shx
  4
extfont.shx
  0
STYLE
  5
1DD
330
3
100
AcDbSymbolTableRecord
100
AcDbTextStyleTableRecord
  2
ACISOGDT
 70
     0
 40
0.0
 41
1.0
 50
0.0
 71
     0
 42
0.2
  3
amgdt.shx
  4

  0
STYLE
  5
94C
330
3
100
AcDbSymbolTableRecord
100
AcDbTextStyleTableRecord
  2
takachi1
 70
     0
 40
2.5
 41
1.0
 50
0.0
 71
     0
 42
2.5
  3
MS PGothic.ttf
  4

1001
ACAD
1000
MS PGothic
1071
    32818
  0
ENDTAB
  0
TABLE
  2
VIEW
  5
6
330
0
100
AcDbSymbolTable
 70
     6
  0
VIEW
  5
2A6
330
6
100
AcDbSymbolTableRecord
100
AcDbViewTableRecord
  2
AM_VIEW1
 70
     0
 40
420.0000000000001
 10
335.2777777777779
 20
630.0000000000002
 41
670.5555555555557
 11
0.0
 21
0.0
 31
1.0
 12
0.0
 22
0.0
 32
0.0
 42
50.0
 43
0.0
 44
0.0
 50
0.0
 71
    16
281
     0
 72
     0
  0
VIEW
  5
2A7
330
6
100
AcDbSymbolTableRecord
100
AcDbViewTableRecord
  2
AM_VIEW2
 70
     0
 40
420.0000000000001
 10
873.7222222222222
 20
630.0000000000002
 41
670.5555555555557
 11
0.0
 21
0.0
 31
1.0
 12
0.0
 22
0.0
 32
0.0
 42
50.0
 43
0.0
 44
0.0
 50
0.0
 71
    16
281
     0
 72
     0
  0
VIEW
  5
2A8
330
6
100
AcDbSymbolTableRecord
100
AcDbViewTableRecord
  2
AM_VIEW3
 70
     0
 40
420.0000000000001
 10
335.2777777777779
 20
210.0
 41
670.5555555555557
 11
0.0
 21
0.0
 31
1.0
 12
0.0
 22
0.0
 32
0.0
 42
50.0
 43
0.0
 44
0.0
 50
0.0
 71
    16
281
     0
 72
     0
  0
VIEW
  5
2A9
330
6
100
AcDbSymbolTableRecord
100
AcDbViewTableRecord
  2
AM_VIEW4
 70
     0
 40
420.0000000000001
 10
873.7222222222222
 20
210.0
 41
670.5555555555557
 11
0.0
 21
0.0
 31
1.0
 12
0.0
 22
0.0
 32
0.0
 42
50.0
 43
0.0
 44
0.0
 50
0.0
 71
    16
281
     0
 72
     0
  0
VIEW
  5
2AA
330
6
100
AcDbSymbolTableRecord
100
AcDbViewTableRecord
  2
AM_VIEW5
 70
     0
 40
420.0000000000001
 10
604.4999999999999
 20
420.0000000000001
 41
670.5555555555556
 11
0.0
 21
0.0
 31
1.0
 12
0.0
 22
0.0
 32
0.0
 42
50.0
 43
0.0
 44
0.0
 50
0.0
 71
    16
281
     0
 72
     0
  0
VIEW
  5
2AB
330
6
100
AcDbSymbolTableRecord
100
AcDbViewTableRecord
  2
AM_VIEW6
 70
     0
 40
839.9916000000002
 10
604.4999999999999
 20
420.0000000000001
 41
1341.0977
 11
0.0
 21
0.0
 31
1.0
 12
0.0
 22
0.0
 32
0.0
 42
50.0
 43
0.0
 44
0.0
 50
0.0
 71
    16
281
     0
 72
     0
  0
ENDTAB
  0
TABLE
  2
UCS
  5
7
330
0
100
AcDbSymbolTable
 70
     0
  0
ENDTAB
  0
TABLE
  2
APPID
  5
9
330
0
100
AcDbSymbolTable
 70
    36
  0
APPID
  5
12
330
9
100
AcDbSymbolTableRecord
100
AcDbRegAppTableRecord
  2
ACAD
 70
     0
  0
APPID
  5
4E
330
9
100
AcDbSymbolTableRecord
100
AcDbRegAppTableRecord
  2
MCAD_NO_VIS
 70
     0
  0
APPID
  5
4F
330
9
100
AcDbSymbolTableRecord
100
AcDbRegAppTableRecord
  2
ACAD_TEMP_GRAPHIC
 70
     0
  0
APPID
  5
60
330
9
100
AcDbSymbolTableRecord
100
AcDbRegAppTableRecord
  2
ACATTRIBSERVICES
 70
     0
  0
APPID
  5
F7
330
9
100
AcDbSymbolTableRecord
100
AcDbRegAppTableRecord
  2
AD_DRAW
 70
     0
  0
APPID
  5
115
330
9
100
AcDbSymbolTableRecord
100
AcDbRegAppTableRecord
  2
DESIGNERASSEMBLIES
 70
     0
  0
APPID
  5
11A
330
9
100
AcDbSymbolTableRecord
100
AcDbRegAppTableRecord
  2
ACADM_DIM_EDIT
 70
     0
  0
APPID
  5
11B
330
9
100
AcDbSymbolTableRecord
100
AcDbRegAppTableRecord
  2
AMDT_DM_ADJ
 70
     0
  0
APPID
  5
20C
330
9
100
AcDbSymbolTableRecord
100
AcDbRegAppTableRecord
  2
GENIUS_GENREC_14
 70
     0
  0
APPID
  5
20D
330
9
100
AcDbSymbolTableRecord
100
AcDbRegAppTableRecord
  2
GENIUS_GENODEF_13
 70
     0
  0
APPID
  5
20E
330
9
100
AcDbSymbolTableRecord
100
AcDbRegAppTableRecord
  2
GENIUS_GENOBJ-N-REC_13
 70
     0
  0
APPID
  5
20F
330
9
100
AcDbSymbolTableRecord
100
AcDbRegAppTableRecord
  2
GENIUS_GENCFG_13
 70
     0
  0
APPID
  5
210
330
9
100
AcDbSymbolTableRecord
100
AcDbRegAppTableRecord
  2
GENIUS_GENCFG0_13
 70
     0
  0
APPID
  5
211
330
9
100
AcDbSymbolTableRecord
100
AcDbRegAppTableRecord
  2
GENIUS_GENCFG1_13
 70
     0
  0
APPID
  5
212
330
9
100
AcDbSymbolTableRecord
100
AcDbRegAppTableRecord
  2
GENIUS_GENCFG2_13
 70
     0
  0
APPID
  5
213
330
9
100
AcDbSymbolTableRecord
100
AcDbRegAppTableRecord
  2
GENIUS_GENCFG3_13
 70
     0
  0
APPID
  5
214
330
9
100
AcDbSymbolTableRecord
100
AcDbRegAppTableRecord
  2
GENIUS_GENCFG4_13
 70
     0
  0
APPID
  5
215
330
9
100
AcDbSymbolTableRecord
100
AcDbRegAppTableRecord
  2
GENIUS_GEVCFG0_13
 70
     0
  0
APPID
  5
216
330
9
100
AcDbSymbolTableRecord
100
AcDbRegAppTableRecord
  2
GENIUS_GENOENT_13
 70
     0
  0
APPID
  5
217
330
9
100
AcDbSymbolTableRecord
100
AcDbRegAppTableRecord
  2
GENIUS_GENDIMSH_14
 70
     0
  0
APPID
  5
218
330
9
100
AcDbSymbolTableRecord
100
AcDbRegAppTableRecord
  2
GENIUS_GENOBJ-N-CRS_13
 70
     0
  0
APPID
  5
219
330
9
100
AcDbSymbolTableRecord
100
AcDbRegAppTableRecord
  2
GENIUS_GENOREF_13
 70
     0
  0
APPID
  5
21A
330
9
100
AcDbSymbolTableRecord
100
AcDbRegAppTableRecord
  2
GENIUS_GENOLIS_13
 70
     0
  0
APPID
  5
21B
330
9
100
AcDbSymbolTableRecord
100
AcDbRegAppTableRecord
  2
GENIUS_GENOBJ-N-TIT_13
 70
     0
  0
APPID
  5
21C
330
9
100
AcDbSymbolTableRecord
100
AcDbRegAppTableRecord
  2
GENIUS_GENTITLE_13
 70
     0
  0
APPID
  5
21D
330
9
100
AcDbSymbolTableRecord
100
AcDbRegAppTableRecord
  2
GENIUS_GENSCREG_15
 70
     0
  0
APPID
  5
21E
330
9
100
AcDbSymbolTableRecord
100
AcDbRegAppTableRecord
  2
GENIUS_GENOBJ-N-SDF_13
 70
     0
  0
APPID
  5
21F
330
9
100
AcDbSymbolTableRecord
100
AcDbRegAppTableRecord
  2
GENIUS_GENOBJ-N-CEN_13
 70
     0
  0
APPID
  5
220
330
9
100
AcDbSymbolTableRecord
100
AcDbRegAppTableRecord
  2
GENIUS_GENOBJ-N-HTC_13
 70
     0
  0
APPID
  5
221
330
9
100
AcDbSymbolTableRecord
100
AcDbRegAppTableRecord
  2
GENIUS_GENHATCH_13
 70
     0
  0
APPID
  5
222
330
9
100
AcDbSymbolTableRecord
100
AcDbRegAppTableRecord
  2
GENIUS_GENOBJ-N-ZOO_13
 70
     0
  0
APPID
  5
223
330
9
100
AcDbSymbolTableRecord
100
AcDbRegAppTableRecord
  2
GENIUS_GENZOO_17
 70
     0
  0
APPID
  5
2273
330
9
100
AcDbSymbolTableRecord
100
AcDbRegAppTableRecord
  2
GENIUS_GENOBJ-N-FIL_13
 70
     0
  0
APPID
  5
2287
330
9
100
AcDbSymbolTableRecord
100
AcDbRegAppTableRecord
  2
GENIUS_GENCEN_19
 70
     0
  0
APPID
  5
3BE5
330
9
100
AcDbSymbolTableRecord
100
AcDbRegAppTableRecord
  2
AcAecLayerStandard
 70
     0
  0
APPID
  5
43E9
330
9
100
AcDbSymbolTableRecord
100
AcDbRegAppTableRecord
  2
ACAD_MLEADERVER
 70
     0
  0
ENDTAB
  0
TABLE
  2
DIMSTYLE
  5
A
330
0
100
AcDbSymbolTable
 70
    15
100
AcDbDimStyleTable
 71
     2
340
1E7
340
8C
  0
DIMSTYLE
105
27
330
A
100
AcDbSymbolTableRecord
100
AcDbDimStyleTableRecord
  2
Standard
 70
     0
340
11
  0
DIMSTYLE
105
8C
330
A
100
AcDbSymbolTableRecord
100
AcDbDimStyleTableRecord
  2
AM_ANSI
 70
     0
  4
mm
 41
0.1
 42
0.05
 43
0.5
 44
0.1
 47
0.1
 48
0.1
 78
     7
 79
     2
140
0.12
141
0.0
146
0.71
147
0.06
176
   256
177
   256
178
     2
274
     4
284
     7
340
11
371
    -1
372
    -1
  0
DIMSTYLE
105
8D
330
A
100
AcDbSymbolTableRecord
100
AcDbDimStyleTableRecord
  2
AM_ANSI$3
 70
     0
  4
mm
 41
0.1
 42
0.05
 43
0.5
 44
0.1
 47
0.1
 48
0.1
 78
     7
 79
     2
140
0.12
141
0.0
146
0.71
147
0.06
176
   256
177
   256
178
     2
274
     4
284
     7
288
     1
289
     0
340
11
371
    -1
372
    -1
  0
DIMSTYLE
105
8E
330
A
100
AcDbSymbolTableRecord
100
AcDbDimStyleTableRecord
  2
AM_ANSI$4
 70
     0
  4
mm
 41
0.1
 42
0.05
 43
0.5
 44
0.1
 47
0.1
 48
0.1
 78
     7
 79
     2
140
0.12
141
0.0
146
0.71
147
0.06
176
   256
177
   256
178
     2
274
     4
284
     7
288
     1
289
     0
340
11
371
    -1
372
    -1
  0
DIMSTYLE
105
8F
330
A
100
AcDbSymbolTableRecord
100
AcDbDimStyleTableRecord
  2
AM_ANSI$7
 70
     0
  4
mm
 41
0.1
 42
0.05
 43
0.5
 44
0.1
 47
0.1
 48
0.1
 78
     7
 79
     2
140
0.24
141
0.0
146
0.71
147
0.06
176
   256
177
   256
178
     2
274
     4
284
     7
340
11
371
    -1
372
    -1
  0
DIMSTYLE
105
90
330
A
100
AcDbSymbolTableRecord
100
AcDbDimStyleTableRecord
  2
AM_ANSI$SF
 70
     0
  4
mm
 41
0.1
 42
0.05
 43
0.5
 44
0.1
 47
0.1
 48
0.1
 75
     1
 76
     1
 78
     7
 79
     2
140
0.12
141
0.0
146
0.71
147
0.06
176
   256
177
   256
178
     2
274
     4
284
     7
340
11
371
    -1
372
    -1
  0
DIMSTYLE
105
95
330
A
100
AcDbSymbolTableRecord
100
AcDbDimStyleTableRecord
  2
AM_ANSI$SH
 70
     0
  4
mm
 41
0.1
 42
0.05
 43
0.5
 44
0.1
 47
0.1
 48
0.1
 75
     1
 76
     1
 78
     7
 79
     2
140
0.12
141
0.0
146
0.71
147
0.06
173
     1
176
   256
177
   256
178
     2
274
     4
284
     7
340
11
343
91
371
    -1
372
    -1
  0
DIMSTYLE
105
1E7
330
A
100
AcDbSymbolTableRecord
100
AcDbDimStyleTableRecord
  2
AM_ISO
 70
     0
  4
"
 41
2.5
 42
1.0
 43
10.0
 44
1.0
 47
0.1
 48
0.1
 73
     0
 74
     0
 77
     1
 78
     8
 79
     2
140
3.5
141
0.0
143
0.0393701
146
0.71
147
1.5
172
     1
176
     3
177
     3
178
     2
271
     2
272
     2
283
     0
284
     8
340
11
341
1F8
342
1F8
371
    -1
372
    -1
  0
DIMSTYLE
105
1E8
330
A
100
AcDbSymbolTableRecord
100
AcDbDimStyleTableRecord
  2
AM_ISO$3
 70
     0
  4
"
 41
2.5
 42
1.0
 43
10.0
 44
1.0
 47
0.1
 48
0.1
 73
     0
 77
     1
 78
     8
 79
     2
140
3.5
141
0.0
143
0.0393701
146
0.71
147
1.5
176
     3
177
     3
178
     2
271
     2
272
     2
283
     0
284
     8
288
     1
289
     0
340
11
341
1F8
342
1F8
371
    -1
372
    -1
  0
DIMSTYLE
105
1E9
330
A
100
AcDbSymbolTableRecord
100
AcDbDimStyleTableRecord
  2
AM_ISO$4
 70
     0
  4
"
 41
2.5
 42
1.0
 43
10.0
 44
1.0
 47
0.1
 48
0.1
 73
     0
 77
     1
 78
     8
 79
     2
140
3.5
141
0.0
143
0.0393701
146
0.71
147
1.5
176
     3
177
     3
178
     2
271
     2
272
     2
283
     0
284
     8
288
     1
289
     0
340
11
341
1F8
342
1F8
371
    -1
372
    -1
  0
DIMSTYLE
105
1EA
330
A
100
AcDbSymbolTableRecord
100
AcDbDimStyleTableRecord
  2
AM_ISO$6
 70
     0
  4
"
 41
2.5
 42
1.0
 43
10.0
 44
1.0
 47
0.1
 48
0.1
 73
     0
 74
     0
 78
     8
 79
     2
140
3.5
141
0.0
143
0.0393701
146
0.71
147
1.5
172
     1
176
     3
177
     3
178
     2
271
     2
272
     2
283
     0
284
     8
340
11
341
1F8
342
1F8
371
    -1
372
    -1
  0
DIMSTYLE
105
1EB
330
A
100
AcDbSymbolTableRecord
100
AcDbDimStyleTableRecord
  2
AM_ISO$7
 70
     0
  4
"
 41
2.5
 42
1.0
 43
10.0
 44
1.0
 47
0.1
 48
0.1
 73
     0
 74
     0
 77
     1
 78
     8
 79
     2
140
5.0
141
0.0
143
0.0393701
146
0.71
147
1.5
172
     1
176
     3
177
     3
178
     2
271
     2
272
     2
283
     0
284
     8
340
11
341
1F8
342
1F8
371
    -1
372
    -1
  0
DIMSTYLE
105
1EC
330
A
100
AcDbSymbolTableRecord
100
AcDbDimStyleTableRecord
  2
AM_ISO$SF
 70
     0
  4
"
 41
2.5
 42
1.0
 43
10.0
 44
1.0
 47
0.1
 48
0.1
 73
     0
 74
     0
 75
     1
 76
     1
 77
     1
 78
     8
 79
     2
140
3.5
141
0.0
143
0.0393701
146
0.71
147
1.5
172
     1
176
   256
177
   256
178
     2
271
     2
272
     3
274
     4
283
     0
284
     8
340
11
371
    -1
372
    -1
  0
DIMSTYLE
105
1ED
330
A
100
AcDbSymbolTableRecord
100
AcDbDimStyleTableRecord
  2
AM_ISO$SH
 70
     0
  4
"
 41
2.5
 42
1.0
 43
10.0
 44
1.0
 47
0.1
 48
0.1
 73
     0
 74
     0
 75
     1
 76
     1
 77
     1
 78
     8
 79
     2
140
3.5
141
0.0
143
0.0393701
144
2.0
146
0.71
147
1.5
172
     1
173
     1
176
   256
177
   256
178
     2
271
     2
272
     3
274
     4
283
     0
284
     8
340
11
343
91
371
    -1
372
    -1
  0
DIMSTYLE
105
2334
102
{ACAD_REACTORS
330
42B9
330
3D55
330
42F3
102
}
330
A
100
AcDbSymbolTableRecord
100
AcDbDimStyleTableRecord
  2
AM_ISO$0
 70
     0
  4
"
 41
2.5
 42
1.0
 43
10.0
 44
1.0
 47
0.1
 48
0.1
 73
     0
 74
     0
 77
     1
 78
     8
 79
     2
140
3.5
141
0.0
143
0.0393701
146
0.71
147
1.5
172
     1
176
     3
177
     3
178
     2
271
     2
272
     2
283
     0
284
     8
340
11
341
1F8
342
1F8
371
    -1
372
    -1
  0
ENDTAB
  0
TABLE
  2
BLOCK_RECORD
  5
1
330
0
100
AcDbSymbolTable
 70
    14
  0
BLOCK_RECORD
  5
1F
102
{ACAD_XDICTIONARY
360
99
102
}
330
1
100
AcDbSymbolTableRecord
100
AcDbBlockTableRecord
  2
*Model_Space
340
22
  0
BLOCK_RECORD
  5
23
330
1
100
AcDbSymbolTableRecord
100
AcDbBlockTableRecord
  2
*Paper_Space
340
26
  0
BLOCK_RECORD
  5
1B
330
1
100
AcDbSymbolTableRecord
100
AcDbBlockTableRecord
  2
*Paper_Space0
340
1E
  0
BLOCK_RECORD
  5
91
330
1
100
AcDbSymbolTableRecord
100
AcDbBlockTableRecord
  2
GENAXEH
340
0
  0
BLOCK_RECORD
  5
1F8
330
1
100
AcDbSymbolTableRecord
100
AcDbBlockTableRecord
  2
_Open30
340
0
102
{BLKREFS
331
4322
331
4323
331
432B
331
432C
331
4334
331
4335
102
}
  0
BLOCK_RECORD
  5
AE9
102
{ACAD_XDICTIONARY
360
AF1
102
}
330
1
100
AcDbSymbolTableRecord
100
AcDbBlockTableRecord
  2
TK-A3
340
0
102
{BLKREFS
331
C54
102
}
  0
BLOCK_RECORD
  5
AFC
102
{ACAD_XDICTIONARY
360
B55
102
}
330
1
100
AcDbSymbolTableRecord
100
AcDbBlockTableRecord
  2
TK-TITLE
340
0
102
{BLKREFS
331
C56
102
}
  0
BLOCK_RECORD
  5
3D56
330
1
100
AcDbSymbolTableRecord
100
AcDbBlockTableRecord
  2
*D6
340
0
  0
BLOCK_RECORD
  5
42BA
330
1
100
AcDbSymbolTableRecord
100
AcDbBlockTableRecord
  2
*D7
340
0
  0
BLOCK_RECORD
  5
42F4
330
1
100
AcDbSymbolTableRecord
100
AcDbBlockTableRecord
  2
*D8
340
0
  0
BLOCK_RECORD
  5
4584
330
1
100
AcDbSymbolTableRecord
100
AcDbBlockTableRecord
  2
*S9
340
0
  0
BLOCK_RECORD
  5
458B
330
1
100
AcDbSymbolTableRecord
100
AcDbBlockTableRecord
  2
*S10
340
0
  0
BLOCK_RECORD
  5
4593
330
1
100
AcDbSymbolTableRecord
100
AcDbBlockTableRecord
  2
*S11
340
0
  0
BLOCK_RECORD
  5
459A
330
1
100
AcDbSymbolTableRecord
100
AcDbBlockTableRecord
  2
*S12
340
0
  0
BLOCK_RECORD
  5
45A1
330
1
100
AcDbSymbolTableRecord
100
AcDbBlockTableRecord
  2
*S13
340
0
  0
ENDTAB
  0
ENDSEC
  0
SECTION
  2
BLOCKS
  0
BLOCK
  5
20
330
1F
100
AcDbEntity
  8
0
100
AcDbBlockBegin
  2
*Model_Space
 70
     0
 10
0.0
 20
0.0
 30
0.0
  3
*Model_Space
  1

  0
ENDBLK
  5
21
330
1F
100
AcDbEntity
  8
0
100
AcDbBlockEnd
  0
BLOCK
  5
24
330
23
100
AcDbEntity
 67
     1
  8
0
100
AcDbBlockBegin
  2
*Paper_Space
 70
     0
 10
0.0
 20
0.0
 30
0.0
  3
*Paper_Space
  1

  0
ENDBLK
  5
25
330
23
100
AcDbEntity
 67
     1
  8
0
100
AcDbBlockEnd
  0
BLOCK
  5
1C
330
1B
100
AcDbEntity
 67
     1
  8
0
100
AcDbBlockBegin
  2
*Paper_Space0
 70
     0
 10
0.0
 20
0.0
 30
0.0
  3
*Paper_Space0
  1

  0
VIEWPORT
  5
182
102
{ACAD_XDICTIONARY
360
45DB
102
}
330
1B
100
AcDbEntity
 67
     1
  8
0
100
AcDbViewport
 10
5.249999639556163
 20
3.999999883606677
 30
0.0
 40
14.57585398793907
 41
8.992999745766947
 68
     0
 69
     0
 12
5.249999639556163
 22
3.999999883606677
 13
0.0
 23
0.0
 14
10.0
 24
10.0
 15
10.0
 25
10.0
 16
0.0
 26
0.0
 36
1.0
 17
0.0
 27
0.0
 37
0.0
 42
50.0
 43
0.0
 44
0.0
 45
8.992999745766947
 50
0.0
 51
0.0
 72
   100
 90
    32800
  1

281
     0
 71
     1
 74
     0
110
0.0
120
0.0
130
0.0
111
1.0
121
0.0
131
0.0
112
0.0
122
1.0
132
0.0
 79
     0
146
0.0
  0
ENDBLK
  5
1D
330
1B
100
AcDbEntity
 67
     1
  8
0
100
AcDbBlockEnd
  0
BLOCK
  5
93
330
91
100
AcDbEntity
  8
0
100
AcDbBlockBegin
  2
GENAXEH
 70
     0
 10
0.0
 20
0.0
 30
0.0
  3
GENAXEH
  1

  0
LINE
  5
92
330
91
100
AcDbEntity
  8
0
100
AcDbLine
 10
-1.0
 20
0.0
 30
0.0
 11
1.0
 21
0.0
 31
0.0
  0
ENDBLK
  5
94
330
91
100
AcDbEntity
  8
0
100
AcDbBlockEnd
  0
BLOCK
  5
1F9
330
1F8
100
AcDbEntity
  8
0
100
AcDbBlockBegin
  2
_Open30
 70
     0
 10
0.0
 20
0.0
 30
0.0
  3
_Open30
  1

  0
LINE
  5
1FA
330
1F8
100
AcDbEntity
  8
0
  6
ByBlock
 62
     0
370
    -2
100
AcDbLine
 10
-1.0
 20
0.26794919
 30
0.0
 11
0.0
 21
0.0
 31
0.0
  0
LINE
  5
1FB
330
1F8
100
AcDbEntity
  8
0
  6
ByBlock
 62
     0
370
    -2
100
AcDbLine
 10
0.0
 20
0.0
 30
0.0
 11
-1.0
 21
-0.26794919
 31
0.0
  0
LINE
  5
1FC
330
1F8
100
AcDbEntity
  8
0
  6
ByBlock
 62
     0
370
    -2
100
AcDbLine
 10
0.0
 20
0.0
 30
0.0
 11
-1.0
 21
0.0
 31
0.0
  0
ENDBLK
  5
1FD
330
1F8
100
AcDbEntity
  8
0
100
AcDbBlockEnd
  0
BLOCK
  5
AF2
330
AE9
100
AcDbEntity
  8
0
100
AcDbBlockBegin
  2
TK-A3
 70
     0
 10
0.0
 20
0.0
 30
0.0
  3
TK-A3
  1

  0
LINE
  5
AEA
330
AE9
100
AcDbEntity
  8
0
100
AcDbLine
 10
359.0
 20
280.0
 30
0.0
 11
359.0
 21
275.0
 31
0.0
  0
MTEXT
  5
AEB
330
AE9
100
AcDbEntity
  8
0
100
AcDbMText
 10
402.3592953827349
 20
276.108542987227
 30
0.0
 40
2.5
 41
43.07840397728298
 71
     9
 72
     5
  1
(文書番号：TY-34)2008.02.08
 73
     1
 44
1.0
1001
ACAD
1000
MTEXTBEGIN
1070
    73
1070
     1
1070
    44
1040
1.0
1070
    74
1070
     0
1000
MTEXTEND
  0
LINE
  5
AEC
330
AE9
100
AcDbEntity
  8
0
100
AcDbLine
 10
359.0
 20
275.0
 30
0.0
 11
403.0
 21
275.0
 31
0.0
  0
TEXT
  5
AED
330
AE9
100
AcDbEntity
  8
0
 60
     1
100
AcDbText
 10
403.0
 20
0.0
 30
0.0
 40
2.5
  1
!GENTITLE-INSERT
100
AcDbText
  0
TEXT
  5
AEE
330
AE9
100
AcDbEntity
  8
0
 60
     1
100
AcDbText
 10
0.0
 20
0.0
 30
0.0
 40
2.5
  1
!GENTITLE-LL
100
AcDbText
  0
TEXT
  5
AEF
330
AE9
100
AcDbEntity
  8
0
 60
     1
100
AcDbText
 10
403.0
 20
280.0
 30
0.0
 40
2.5
  1
!GENTITLE-MAX
100
AcDbText
  0
LWPOLYLINE
  5
AF0
330
AE9
100
AcDbEntity
  8
0
100
AcDbPolyline
 90
        4
 70
     1
 43
0.0
 10
0.0
 20
0.0
 10
403.0
 20
0.0
 10
403.0
 20
280.0
 10
0.0
 20
280.0000000000001
1001
GENIUS_GENREC_14
1002
{
1000
PYDIR
1011
0.0000000000000178
1021
280.0
1031
0.0
1002
}
1002
{
1000
PXDIR
1011
403.0
1021
0.0
1031
0.0
1002
}
1002
{
1000
PORI
1011
0.0
1021
0.0
1031
0.0
1002
}
1002
{
1000
PINS
1011
0.0
1021
0.0
1031
0.0
1002
}
1002
{
1000
PINS2
1011
403.0
1021
280.0
1031
0.0
1002
}
1002
{
1000
C
1070
     1
1002
}
1001
GENIUS_GENODEF_13
1002
{
1000
HIER
1070
     0
1002
}
1002
{
1000
MANEDIT
1070
     0
1002
}
1002
{
1000
NOSEL
1070
     0
1002
}
1002
{
1000
BEHIND
1070
     0
1002
}
1002
{
1000
OTHER
1070
     0
1002
}
1002
{
1000
REACTOR
1002
}
1001
GENIUS_GENOBJ-N-REC_13
1002
{
1000
OWNER
1000
GEN
1002
}
  0
ENDBLK
  5
AF3
330
AE9
100
AcDbEntity
  8
0
100
AcDbBlockEnd
  0
BLOCK
  5
B56
330
AFC
100
AcDbEntity
  8
0
100
AcDbBlockBegin
  2
TK-TITLE
 70
     2
 10
0.0
 20
0.0
 30
0.0
  3
TK-TITLE
  1

  0
LINE
  5
AFD
330
AFC
100
AcDbEntity
  8
0
100
AcDbLine
 10
-167.0
 20
12.49999999999996
 30
0.0
 11
-193.0000000000001
 21
12.49999999999996
 31
0.0
  0
LINE
  5
AFE
330
AFC
100
AcDbEntity
  8
0
100
AcDbLine
 10
-167.0
 20
37.49999999999998
 30
0.0
 11
-193.0000000000001
 21
37.49999999999998
 31
0.0
  0
ATTDEF
  5
AFF
330
AFC
100
AcDbEntity
  8
0
100
AcDbText
 10
-180.2171951662138
 20
3.588342537610664
 30
0.0
 40
3.0
  1

 72
     1
 11
-180.2171951662138
 21
3.588342537610664
 31
0.0
100
AcDbAttributeDefinition
  3
日付
  2
GEN-TITLE-DAT
 70
     0
 74
     1
  0
MTEXT
  5
B00
330
AFC
100
AcDbEntity
  8
RAHM2
100
AcDbMText
 10
-191.8002551371315
 20
11.3010354072796
 30
0.0
 40
2.5
 41
60.0
 71
     1
 72
     5
  1
日付
 73
     1
 44
1.0
1001
ACAD
1000
MTEXTBEGIN
1070
    73
1070
     1
1070
    44
1040
1.0
1070
    74
1070
     0
1000
MTEXTEND
  0
ATTDEF
  5
B01
330
AFC
100
AcDbEntity
  8
0
100
AcDbText
 10
-177.824739614424
 20
28.29999999999998
 30
0.0
 40
3.0
  1

 72
     2
 11
-177.824739614424
 21
28.29999999999998
 31
0.0
100
AcDbAttributeDefinition
  3
尺度
  2
GEN-TITLE-SCA
 70
     0
 74
     1
  0
MTEXT
  5
B02
330
AFC
100
AcDbEntity
  8
RAHM2
100
AcDbMText
 10
-191.8002551371315
 20
36.30103540727966
 30
0.0
 40
2.5
 41
20.0
 71
     1
 72
     5
  1
尺度
 73
     1
 44
1.0
1001
ACAD
1000
MTEXTBEGIN
1070
    73
1070
     1
1070
    44
1040
1.0
1070
    74
1070
     0
1000
MTEXTEND
  0
MTEXT
  5
B03
330
AFC
100
AcDbEntity
  8
RAHM2
100
AcDbMText
 10
-191.8002551371315
 20
23.80103540727963
 30
0.0
 40
2.5
 41
20.0
 71
     1
 72
     5
  1
数量
 73
     1
 44
1.0
1001
ACAD
1000
MTEXTBEGIN
1070
    73
1070
     1
1070
    44
1040
1.0
1070
    74
1070
     0
1000
MTEXTEND
  0
ATTDEF
  5
B04
330
AFC
100
AcDbEntity
  8
0
100
AcDbText
 10
-175.6127409126095
 20
15.79999999999994
 30
0.0
 40
3.0
  1

 72
     2
 11
-175.6127409126095
 21
15.79999999999994
 31
0.0
100
AcDbAttributeDefinition
  3
数量
  2
GEN-TITLE-QTY
 70
     0
 74
     1
  0
LINE
  5
B05
330
AFC
100
AcDbEntity
  8
0
100
AcDbLine
 10
-193.0000000000001
 20
49.99999999999999
 30
0.0
 11
-193.0000000000001
 21
-0.0000000000000142
 31
0.0
  0
LINE
  5
B06
330
AFC
100
AcDbEntity
  8
7A
100
AcDbLine
 10
-184.7167418745796
 20
43.74999999999995
 30
0.0
 11
-170.9354334742943
 21
43.74999999999995
 31
0.0
1001
GENIUS_GENOREF_13
1005
B54
  0
LINE
  5
B07
330
AFC
100
AcDbEntity
  8
0
100
AcDbLine
 10
-179.7167418745796
 20
45.74999999999994
 30
0.0
 11
-171.7167418745796
 21
46.74999999999995
 31
0.0
  0
LINE
  5
B08
330
AFC
100
AcDbEntity
  8
0
100
AcDbLine
 10
-171.7167418745796
 20
40.74999999999994
 30
0.0
 11
-179.7167418745796
 21
41.74999999999995
 31
0.0
  0
LINE
  5
B09
330
AFC
100
AcDbEntity
  8
7A
100
AcDbLine
 10
-184.7167418745796
 20
43.74999999999995
 30
0.0
 11
-184.7167418745796
 21
47.32478664473144
 31
0.0
1001
GENIUS_GENOREF_13
1005
B54
  0
CIRCLE
  5
B0A
330
AFC
100
AcDbEntity
  8
0
100
AcDbCircle
 10
-184.7167418745796
 20
43.74999999999995
 30
0.0
 40
2.0
  0
CIRCLE
  5
B0B
330
AFC
100
AcDbEntity
  8
0
100
AcDbCircle
 10
-184.7167418745796
 20
43.74999999999995
 30
0.0
 40
3.0
  0
LINE
  5
B0C
330
AFC
100
AcDbEntity
  8
0
100
AcDbLine
 10
-179.7167418745796
 20
41.74999999999995
 30
0.0
 11
-179.7167418745796
 21
45.74999999999994
 31
0.0
  0
LINE
  5
B0D
330
AFC
100
AcDbEntity
  8
7A
100
AcDbLine
 10
-184.7167418745796
 20
43.74999999999995
 30
0.0
 11
-188.4397792458307
 21
43.74999999999995
 31
0.0
1001
GENIUS_GENOREF_13
1005
B54
  0
LINE
  5
B0E
330
AFC
100
AcDbEntity
  8
7A
100
AcDbLine
 10
-184.7167418745796
 20
43.74999999999995
 30
0.0
 11
-184.7167418745796
 21
40.03991724228473
 31
0.0
1001
GENIUS_GENOREF_13
1005
B54
  0
LINE
  5
B0F
330
AFC
100
AcDbEntity
  8
0
100
AcDbLine
 10
-171.7167418745796
 20
46.74999999999995
 30
0.0
 11
-171.7167418745796
 21
40.74999999999994
 31
0.0
  0
LINE
  5
B10
330
AFC
100
AcDbEntity
  8
0
100
AcDbLine
 10
-167.0
 20
24.99999999999997
 30
0.0
 11
-193.0000000000001
 21
24.99999999999997
 31
0.0
  0
LINE
  5
B11
330
AFC
100
AcDbEntity
  8
0
100
AcDbLine
 10
-167.0
 20
39.99999999999991
 30
0.0
 11
-96.0
 21
39.99999999999992
 31
0.0
  0
MTEXT
  5
B12
330
AFC
100
AcDbEntity
  8
RAHM2
100
AcDbMText
 10
-165.8002551371314
 20
38.80103540727956
 30
0.0
 40
2.5
 41
60.0
 71
     1
 72
     5
  1
表面処理
 73
     1
 44
1.0
1001
ACAD
1000
MTEXTBEGIN
1070
    73
1070
     1
1070
    44
1040
1.0
1070
    74
1070
     0
1000
MTEXTEND
  0
MTEXT
  5
B13
330
AFC
100
AcDbEntity
  8
RAHM2
100
AcDbMText
 10
-165.8002551371314
 20
48.80103540727955
 30
0.0
 40
2.5
 41
60.0
 71
     1
 72
     5
  1
材質
 73
     1
 44
1.0
1001
ACAD
1000
MTEXTBEGIN
1070
    73
1070
     1
1070
    44
1040
1.0
1070
    74
1070
     0
1000
MTEXTEND
  0
ATTDEF
  5
B14
330
AFC
100
AcDbEntity
  8
0
100
AcDbText
 10
-148.9618675835291
 20
33.29999999999991
 30
0.0
 40
3.0
  1

100
AcDbAttributeDefinition
  3
表面処理
  2
GEN-TITLE-MAT2
 70
     0
  0
ATTDEF
  5
B15
330
AFC
100
AcDbEntity
  8
0
100
AcDbText
 10
-148.9618675835291
 20
43.29999999999991
 30
0.0
 40
3.0
  1

100
AcDbAttributeDefinition
  3
材質
  2
GEN-TITLE-MAT1
 70
     0
  0
MTEXT
  5
B16
330
AFC
100
AcDbEntity
  8
0
100
AcDbMText
 10
-131.5000000000001
 20
24.99999999999992
 30
0.0
 40
3.5
 41
60.0
 71
     5
 72
     5
  1
\fＭＳ ゴシック|b0|i0|c128|p49;株式会社タカチ電機工業
 73
     1
 44
1.0
1001
ACAD
1000
MTEXTBEGIN
1070
    73
1070
     1
1070
    44
1040
1.0
1070
    74
1070
     0
1000
MTEXTEND
  0
LINE
  5
B17
330
AFC
100
AcDbEntity
  8
0
100
AcDbLine
 10
-167.0
 20
29.99999999999992
 30
0.0
 11
-96.0
 21
29.99999999999992
 31
0.0
  0
MTEXT
  5
B18
330
AFC
100
AcDbEntity
  8
RAHM2
100
AcDbMText
 10
-158.1250000000001
 20
18.80103540727956
 30
0.0
 40
2.5
 41
17.0
 71
     2
 72
     5
  1
承認
 73
     1
 44
1.0
1001
ACAD
1000
MTEXTBEGIN
1070
    73
1070
     1
1070
    44
1040
1.0
1070
    74
1070
     0
1000
MTEXTEND
  0
MTEXT
  5
B19
330
AFC
100
AcDbEntity
  8
RAHM2
100
AcDbMText
 10
-140.3750000000001
 20
18.80103540727958
 30
0.0
 40
2.5
 41
17.0
 71
     2
 72
     5
  1
承認
 73
     1
 44
1.0
1001
ACAD
1000
MTEXTBEGIN
1070
    73
1070
     1
1070
    44
1040
1.0
1070
    74
1070
     0
1000
MTEXTEND
  0
LINE
  5
B1A
330
AFC
100
AcDbEntity
  8
0
100
AcDbLine
 10
-149.2500000000001
 20
19.99999999999993
 30
0.0
 11
-149.2500000000001
 21
-0.0000000000000462
 31
0.0
  0
LINE
  5
B1B
330
AFC
100
AcDbEntity
  8
0
100
AcDbLine
 10
-167.0
 20
49.99999999999995
 30
0.0
 11
-167.0
 21
-0.0000000000000497
 31
0.0
  0
MTEXT
  5
B1C
330
AFC
100
AcDbEntity
  8
RAHM2
100
AcDbMText
 10
-122.6250000000001
 20
18.80103540727958
 30
0.0
 40
2.5
 41
17.0
 71
     2
 72
     5
  1
検図
 73
     1
 44
1.0
1001
ACAD
1000
MTEXTBEGIN
1070
    73
1070
     1
1070
    44
1040
1.0
1070
    74
1070
     0
1000
MTEXTEND
  0
LINE
  5
B1D
330
AFC
100
AcDbEntity
  8
0
100
AcDbLine
 10
-131.5000000000001
 20
19.99999999999993
 30
0.0
 11
-131.5000000000001
 21
-0.0000000000000533
 31
0.0
  0
LINE
  5
B1E
330
AFC
100
AcDbEntity
  8
0
100
AcDbLine
 10
-113.75
 20
19.99999999999993
 30
0.0
 11
-113.75
 21
-0.0000000000000533
 31
0.0
  0
LINE
  5
B1F
330
AFC
100
AcDbEntity
  8
0
100
AcDbLine
 10
-167.0
 20
19.99999999999993
 30
0.0
 11
-96.0
 21
19.99999999999993
 31
0.0
  0
MTEXT
  5
B20
330
AFC
100
AcDbEntity
  8
RAHM2
100
AcDbMText
 10
-104.875
 20
18.80103540727957
 30
0.0
 40
2.5
 41
17.0
 71
     2
 72
     5
  1
製図
 73
     1
 44
1.0
1001
ACAD
1000
MTEXTBEGIN
1070
    73
1070
     1
1070
    44
1040
1.0
1070
    74
1070
     0
1000
MTEXTEND
  0
MTEXT
  5
B21
330
AFC
100
AcDbEntity
  8
RAHM2
100
AcDbMText
 10
-16.85742592933491
 20
3.434762466565985
 30
0.0
 40
2.5
 41
7.936478436748416
 71
     5
 72
     5
  1
Rev.
 73
     1
 44
1.0
1001
ACAD
1000
MTEXTBEGIN
1070
    73
1070
     1
1070
    44
1040
1.0
1070
    74
1070
     0
1000
MTEXTEND
  0
LINE
  5
B22
330
AFC
100
AcDbEntity
  8
0
100
AcDbLine
 10
-21.17541926625711
 20
0.0
 30
0.0
 11
-21.17541926625734
 21
7.0
 31
0.0
  0
LINE
  5
B23
330
AFC
100
AcDbEntity
  8
RAHM2
100
AcDbLine
 10
-96.0
 20
29.99999999999992
 30
0.0
 11
0.0000000000001137
 21
30.00000000000003
 31
0.0
  0
LINE
  5
B24
330
AFC
100
AcDbEntity
  8
RAHM2
100
AcDbLine
 10
-96.0
 20
35.00000000000003
 30
0.0
 11
0.0000000000001137
 21
35.00000000000003
 31
0.0
  0
LINE
  5
B25
330
AFC
100
AcDbEntity
  8
RAHM2
100
AcDbLine
 10
-96.0
 20
39.99999999999993
 30
0.0
 11
0.0000000000001137
 21
40.00000000000002
 31
0.0
  0
LINE
  5
B26
330
AFC
100
AcDbEntity
  8
RAHM2
100
AcDbLine
 10
-96.0
 20
45.00000000000002
 30
0.0
 11
0.0000000000001137
 21
45.00000000000002
 31
0.0
  0
LINE
  5
B27
330
AFC
100
AcDbEntity
  8
0
100
AcDbLine
 10
-96.0
 20
7.0
 30
0.0
 11
0.0000000000001137
 21
7.0
 31
0.0
  0
LINE
  5
B28
330
AFC
100
AcDbEntity
  8
0
100
AcDbLine
 10
-96.0
 20
19.99999999999997
 30
0.0
 11
0.0000000000001137
 21
19.99999999999997
 31
0.0
  0
MTEXT
  5
B29
330
AFC
100
AcDbEntity
  8
RAHM2
100
AcDbMText
 10
-94.80025513713144
 20
5.801035407279627
 30
0.0
 40
2.5
 41
90.0
 71
     1
 72
     5
  1
図番
 73
     1
 44
1.0
1001
ACAD
1000
MTEXTBEGIN
1070
    73
1070
     1
1070
    44
1040
1.0
1070
    74
1070
     0
1000
MTEXTEND
  0
LINE
  5
B2A
330
AFC
100
AcDbEntity
  8
RAHM2
100
AcDbLine
 10
-88.57512886940355
 20
30.40000000000002
 30
0.0
 11
-91.0
 21
34.60000000000001
 31
0.0
  0
LINE
  5
B2B
330
AFC
100
AcDbEntity
  8
RAHM2
100
AcDbLine
 10
-91.0
 20
34.60000000000001
 30
0.0
 11
-93.42487113059645
 21
30.40000000000002
 31
0.0
  0
LINE
  5
B2C
330
AFC
100
AcDbEntity
  8
RAHM2
100
AcDbLine
 10
-86.0
 20
50.00000000000001
 30
0.0
 11
-86.0
 21
19.99999999999993
 31
0.0
  0
LINE
  5
B2D
330
AFC
100
AcDbEntity
  8
RAHM2
100
AcDbLine
 10
-93.42487113059645
 20
30.40000000000002
 30
0.0
 11
-88.57512886940355
 21
30.40000000000002
 31
0.0
  0
MTEXT
  5
B2E
330
AFC
100
AcDbEntity
  8
RAHM2
100
AcDbMText
 10
-91.0
 20
22.49999999999996
 30
0.0
 40
2.5
 41
10.0
 71
     5
 72
     5
  1
符号
 73
     1
 44
1.0
1001
ACAD
1000
MTEXTBEGIN
1070
    73
1070
     1
1070
    44
1040
1.0
1070
    74
1070
     0
1000
MTEXTEND
  0
MTEXT
  5
B2F
330
AFC
100
AcDbEntity
  8
RAHM2
100
AcDbMText
 10
-94.80025513713144
 20
18.8010354072796
 30
0.0
 40
2.5
 41
90.0
 71
     1
 72
     5
  1
品名
 73
     1
 44
1.0
1001
ACAD
1000
MTEXTBEGIN
1070
    73
1070
     1
1070
    44
1040
1.0
1070
    74
1070
     0
1000
MTEXTEND
  0
LINE
  5
B30
330
AFC
100
AcDbEntity
  8
RAHM2
100
AcDbLine
 10
-93.42487113059645
 20
45.40000000000001
 30
0.0
 11
-88.57512886940355
 21
45.40000000000001
 31
0.0
  0
LINE
  5
B31
330
AFC
100
AcDbEntity
  8
RAHM2
100
AcDbLine
 10
-88.57512886940355
 20
45.40000000000001
 30
0.0
 11
-91.0
 21
49.6
 31
0.0
  0
LINE
  5
B32
330
AFC
100
AcDbEntity
  8
RAHM2
100
AcDbLine
 10
-93.42487113059645
 20
40.40000000000001
 30
0.0
 11
-88.57512886940355
 21
40.40000000000001
 31
0.0
  0
LINE
  5
B33
330
AFC
100
AcDbEntity
  8
RAHM2
100
AcDbLine
 10
-88.57512886940355
 20
40.40000000000001
 30
0.0
 11
-91.0
 21
44.6
 31
0.0
  0
LINE
  5
B34
330
AFC
100
AcDbEntity
  8
RAHM2
100
AcDbLine
 10
-93.42487113059645
 20
35.40000000000002
 30
0.0
 11
-88.57512886940355
 21
35.40000000000002
 31
0.0
  0
LINE
  5
B35
330
AFC
100
AcDbEntity
  8
RAHM2
100
AcDbLine
 10
-88.57512886940355
 20
35.40000000000002
 30
0.0
 11
-91.0
 21
39.60000000000001
 31
0.0
  0
LINE
  5
B36
330
AFC
100
AcDbEntity
  8
RAHM2
100
AcDbLine
 10
-91.0
 20
39.60000000000001
 30
0.0
 11
-93.42487113059645
 21
35.40000000000002
 31
0.0
  0
LINE
  5
B37
330
AFC
100
AcDbEntity
  8
RAHM2
100
AcDbLine
 10
-91.0
 20
44.6
 30
0.0
 11
-93.42487113059645
 21
40.40000000000001
 31
0.0
  0
LINE
  5
B38
330
AFC
100
AcDbEntity
  8
RAHM2
100
AcDbLine
 10
-91.0
 20
49.6
 30
0.0
 11
-93.42487113059645
 21
45.40000000000001
 31
0.0
  0
LINE
  5
B39
330
AFC
100
AcDbEntity
  8
RAHM2
100
AcDbLine
 10
-31.82081941068907
 20
50.00000000000003
 30
0.0
 11
-31.82081941068918
 21
19.99999999999994
 31
0.0
  0
MTEXT
  5
B3A
330
AFC
100
AcDbEntity
  8
RAHM2
100
AcDbMText
 10
-59.0
 20
22.49999999999996
 30
0.0
 40
2.5
 41
45.0
 71
     5
 72
     5
  1
変更記事
 73
     1
 44
1.0
1001
ACAD
1000
MTEXTBEGIN
1070
    73
1070
     1
1070
    44
1040
1.0
1070
    74
1070
     0
1000
MTEXTEND
  0
LINE
  5
B3B
330
AFC
100
AcDbEntity
  8
RAHM2
100
AcDbLine
 10
-11.82081941068907
 20
50.00000000000003
 30
0.0
 11
-11.82081941068907
 21
19.99999999999994
 31
0.0
  0
MTEXT
  5
B3C
330
AFC
100
AcDbEntity
  8
RAHM2
100
AcDbMText
 10
-22.27910888308327
 20
32.50000000000003
 30
0.0
 40
2.5
 41
20.0
 71
     5
 72
     5
  1
・  ・   
 73
     1
 44
1.0
1001
ACAD
1000
MTEXTBEGIN
1070
    73
1070
     1
1070
    44
1040
1.0
1070
    74
1070
     0
1000
MTEXTEND
  0
MTEXT
  5
B3D
330
AFC
100
AcDbEntity
  8
RAHM2
100
AcDbMText
 10
-21.55893921569111
 20
22.49999999999997
 30
0.0
 40
2.5
 41
20.0
 71
     5
 72
     5
  1
年・月・日
 73
     1
 44
1.0
1001
ACAD
1000
MTEXTBEGIN
1070
    73
1070
     1
1070
    44
1040
1.0
1070
    74
1070
     0
1000
MTEXTEND
  0
MTEXT
  5
B3E
330
AFC
100
AcDbEntity
  8
RAHM2
100
AcDbMText
 10
-5.910409705344477
 20
22.49999999999997
 30
0.0
 40
2.5
 41
15.0
 71
     5
 72
     5
  1
担当
 73
     1
 44
1.0
1001
ACAD
1000
MTEXTBEGIN
1070
    73
1070
     1
1070
    44
1040
1.0
1070
    74
1070
     0
1000
MTEXTEND
  0
MTEXT
  5
B3F
330
AFC
100
AcDbEntity
  8
RAHM2
100
AcDbMText
 10
-22.27910888308327
 20
42.50000000000002
 30
0.0
 40
2.5
 41
20.0
 71
     5
 72
     5
  1
・  ・   
 73
     1
 44
1.0
1001
ACAD
1000
MTEXTBEGIN
1070
    73
1070
     1
1070
    44
1040
1.0
1070
    74
1070
     0
1000
MTEXTEND
  0
MTEXT
  5
B40
330
AFC
100
AcDbEntity
  8
RAHM2
100
AcDbMText
 10
-22.27910888308327
 20
37.50000000000003
 30
0.0
 40
2.5
 41
20.0
 71
     5
 72
     5
  1
・  ・   
 73
     1
 44
1.0
1001
ACAD
1000
MTEXTBEGIN
1070
    73
1070
     1
1070
    44
1040
1.0
1070
    74
1070
     0
1000
MTEXTEND
  0
MTEXT
  5
B41
330
AFC
100
AcDbEntity
  8
RAHM2
100
AcDbMText
 10
-22.27910888308327
 20
47.50000000000002
 30
0.0
 40
2.5
 41
20.0
 71
     5
 72
     5
  1
・  ・   
 73
     1
 44
1.0
1001
ACAD
1000
MTEXTBEGIN
1070
    73
1070
     1
1070
    44
1040
1.0
1070
    74
1070
     0
1000
MTEXTEND
  0
LINE
  5
B42
330
AFC
100
AcDbEntity
  8
RAHM2
100
AcDbLine
 10
-91.0
 20
29.60000000000001
 30
0.0
 11
-93.42487113059645
 21
25.40000000000002
 31
0.0
  0
LINE
  5
B43
330
AFC
100
AcDbEntity
  8
RAHM2
100
AcDbLine
 10
-88.57512886940355
 20
25.40000000000002
 30
0.0
 11
-91.0
 21
29.60000000000001
 31
0.0
  0
LINE
  5
B44
330
AFC
100
AcDbEntity
  8
RAHM2
100
AcDbLine
 10
-93.42487113059645
 20
25.40000000000002
 30
0.0
 11
-88.57512886940355
 21
25.40000000000002
 31
0.0
  0
LINE
  5
B45
330
AFC
100
AcDbEntity
  8
RAHM2
100
AcDbLine
 10
-96.0
 20
25.0
 30
0.0
 11
0.0000000000001137
 21
25.00000000000003
 31
0.0
  0
MTEXT
  5
B46
330
AFC
100
AcDbEntity
  8
RAHM2
100
AcDbMText
 10
-22.27910888308327
 20
27.50000000000003
 30
0.0
 40
2.5
 41
20.0
 71
     5
 72
     5
  1
・  ・   
 73
     1
 44
1.0
1001
ACAD
1000
MTEXTBEGIN
1070
    73
1070
     1
1070
    44
1040
1.0
1070
    74
1070
     0
1000
MTEXTEND
  0
TEXT
  5
B47
330
AFC
100
AcDbEntity
  8
RAHM2
100
AcDbText
 10
-91.81558635658019
 20
25.65000000000002
 30
0.0
 40
2.5
  1
1
 72
     1
 11
-91.19058635658019
 21
25.65000000000002
 31
0.0
100
AcDbText
 73
     1
  0
TEXT
  5
B48
330
AFC
100
AcDbEntity
  8
RAHM2
100
AcDbText
 10
-91.91833169291339
 20
30.65000000000002
 30
0.0
 40
2.5
  1
2
 72
     1
 11
-91.0
 21
30.65000000000002
 31
0.0
100
AcDbText
 73
     1
  0
TEXT
  5
B49
330
AFC
100
AcDbEntity
  8
RAHM2
100
AcDbText
 10
-91.92677669529663
 20
35.64999999999999
 30
0.0
 40
2.5
  1
3
 72
     1
 11
-91.0
 21
35.64999999999999
 31
0.0
100
AcDbText
 73
     1
  0
TEXT
  5
B4A
330
AFC
100
AcDbEntity
  8
RAHM2
100
AcDbText
 10
-92.0
 20
40.65000000000002
 30
0.0
 40
2.5
  1
4
 72
     1
 11
-91.0
 21
40.65000000000002
 31
0.0
100
AcDbText
 73
     1
  0
TEXT
  5
B4B
330
AFC
100
AcDbEntity
  8
RAHM2
100
AcDbText
 10
-91.92677669529663
 20
45.65000000000002
 30
0.0
 40
2.5
  1
5
 72
     1
 11
-91.0
 21
45.65000000000002
 31
0.0
100
AcDbText
 73
     1
  0
LINE
  5
B4C
330
AFC
100
AcDbEntity
  8
0
100
AcDbLine
 10
-193.0000000000001
 20
0.0
 30
0.0
 11
0.0
 21
0.0
 31
0.0
1001
GENIUS_GENREC_14
1002
{
1000
PYDIR
1011
-184.0
1021
50.0
1031
0.0
1002
}
1002
{
1000
PXDIR
1011
0.0
1021
0.0
1031
0.0
1002
}
1002
{
1000
PORI
1011
-184.0
1021
0.0
1031
0.0
1002
}
1002
{
1000
PINS
1011
-100.5
1021
25.0
1031
0.0
1002
}
1002
{
1000
HVAL
1000
50
1002
}
1002
{
1000
H
1070
     2
1002
}
1002
{
1000
WVAL
1000
167
1002
}
1002
{
1000
W
1070
     2
1002
}
1002
{
1000
C
1070
     4
1002
}
1001
GENIUS_GENODEF_13
1002
{
1000
HIER
1070
     0
1002
}
1002
{
1000
MANEDIT
1070
     0
1002
}
1002
{
1000
NOSEL
1070
     0
1002
}
1002
{
1000
BEHIND
1070
     0
1002
}
1002
{
1000
REACTOR
1002
}
1001
GENIUS_GENOBJ-N-REC_13
1002
{
1000
OWNER
1000
GEN
1002
}
  0
LINE
  5
B4D
330
AFC
100
AcDbEntity
  8
0
100
AcDbLine
 10
0.0
 20
50.0
 30
0.0
 11
-193.0000000000001
 21
50.00000000000002
 31
0.0
1001
GENIUS_GENREC_14
1002
{
1000
PYDIR
1011
-184.0
1021
50.0
1031
0.0
1002
}
1002
{
1000
PXDIR
1011
0.0
1021
0.0
1031
0.0
1002
}
1002
{
1000
PORI
1011
-184.0
1021
0.0
1031
0.0
1002
}
1002
{
1000
PINS
1011
-100.5
1021
25.0
1031
0.0
1002
}
1002
{
1000
HVAL
1000
50
1002
}
1002
{
1000
H
1070
     2
1002
}
1002
{
1000
WVAL
1000
167
1002
}
1002
{
1000
W
1070
     2
1002
}
1002
{
1000
C
1070
     4
1002
}
1001
GENIUS_GENODEF_13
1002
{
1000
HIER
1070
     0
1002
}
1002
{
1000
MANEDIT
1070
     0
1002
}
1002
{
1000
NOSEL
1070
     0
1002
}
1002
{
1000
BEHIND
1070
     0
1002
}
1002
{
1000
REACTOR
1002
}
1001
GENIUS_GENOBJ-N-REC_13
1002
{
1000
OWNER
1000
GEN
1002
}
  0
LINE
  5
B4E
330
AFC
100
AcDbEntity
  8
0
100
AcDbLine
 10
-96.0
 20
50.00000000000001
 30
0.0
 11
-96.0
 21
-0.0000000000000142
 31
0.0
1001
GENIUS_GENREC_14
1002
{
1000
PYDIR
1011
-96.0
1021
49.99999999999999
1031
0.0
1002
}
1002
{
1000
PXDIR
1011
88.0
1021
-0.0000000000000142
1031
0.0
1002
}
1002
{
1000
PORI
1011
-96.0
1021
-0.0000000000000142
1031
0.0
1002
}
1002
{
1000
PINS
1011
-12.5
1021
24.99999999999999
1031
0.0
1002
}
1002
{
1000
HVAL
1000
50
1002
}
1002
{
1000
H
1070
     2
1002
}
1002
{
1000
WVAL
1000
167
1002
}
1002
{
1000
W
1070
     2
1002
}
1002
{
1000
C
1070
     4
1002
}
1001
GENIUS_GENODEF_13
1002
{
1000
HIER
1070
     0
1002
}
1002
{
1000
MANEDIT
1070
     0
1002
}
1002
{
1000
NOSEL
1070
     0
1002
}
1002
{
1000
BEHIND
1070
     0
1002
}
1002
{
1000
REACTOR
1002
}
1001
GENIUS_GENOBJ-N-REC_13
1002
{
1000
OWNER
1000
GEN
1002
}
  0
ATTDEF
  5
B4F
330
AFC
100
AcDbEntity
  8
0
100
AcDbText
 10
-84.0
 20
1.999999999999957
 30
0.0
 40
3.0
  1

100
AcDbAttributeDefinition
  3
図番
  2
GEN-TITLE-NR1
 70
     0
  0
ATTDEF
  5
B50
330
AFC
100
AcDbEntity
  8
0
100
AcDbText
 10
-84.0
 20
9.149999999999948
 30
0.0
 40
2.5
  1

100
AcDbAttributeDefinition
  3
サブタイトル
  2
GEN-TITLE-DES2
 70
     0
  0
LINE
  5
B51
330
AFC
100
AcDbEntity
  8
0
100
AcDbLine
 10
0.0
 20
0.0
 30
0.0
 11
0.0
 21
50.0
 31
0.0
1001
GENIUS_GENREC_14
1002
{
1000
PYDIR
1011
-414.0
1021
291.0
1031
0.0
1002
}
1002
{
1000
PXDIR
1011
6.0
1021
-6.0
1031
0.0
1002
}
1002
{
1000
PORI
1011
-414.0
1021
-6.0
1031
0.0
1002
}
1002
{
1000
PINS
1011
-414.0
1021
-6.0
1031
0.0
1002
}
1002
{
1000
HVAL
1000
297
1002
}
1002
{
1000
H
1070
     2
1002
}
1002
{
1000
WVAL
1000
420
1002
}
1002
{
1000
W
1070
     2
1002
}
1002
{
1000
C
1070
     1
1002
}
1001
GENIUS_GENODEF_13
1002
{
1000
HIER
1070
     0
1002
}
1002
{
1000
MANEDIT
1070
     0
1002
}
1002
{
1000
NOSEL
1070
     0
1002
}
1002
{
1000
BEHIND
1070
     0
1002
}
1002
{
1000
OTHER
1070
     0
1002
}
1002
{
1000
REACTOR
1002
}
1001
GENIUS_GENOBJ-N-REC_13
1002
{
1000
OWNER
1000
GEN
1002
}
  0
ATTDEF
  5
B52
330
AFC
100
AcDbEntity
  8
0
100
AcDbText
 10
-84.14251901585329
 20
12.82790432564377
 30
0.0
 40
3.5
  1

100
AcDbAttributeDefinition
  3
品名
  2
GEN-TITLE-DES1
 70
     0
  0
ATTDEF
  5
B53
330
AFC
100
AcDbEntity
  8
0
100
AcDbText
 10
-8.002309189545826
 20
1.705189434395036
 30
0.0
 40
2.5
  1

100
AcDbAttributeDefinition
  3
Rev.
  2
GEN-TITLE-NR2
 70
     0
  0
POINT
  5
B54
330
AFC
100
AcDbEntity
  8
0
 60
     1
100
AcDbPoint
 10
-418.5355579819675
 20
-138.1104841268254
 30
0.0
1001
GENIUS_GENODEF_13
1002
{
1000
HIER
1070
    10
1002
}
1002
{
1000
MANEDIT
1070
     0
1002
}
1002
{
1000
NOSEL
1070
     0
1002
}
1002
{
1000
BEHIND
1070
     0
1002
}
1002
{
1000
REACTOR
1002
}
1001
GENIUS_GENOBJ-N-CRS_13
1002
{
1000
OWNER
1000
GEN
1002
}
1001
GENIUS_GENOENT_13
1002
{
1000
MYREF
1005
B54
1002
}
1002
{
1000
GRP
1005
0
1002
}
1001
GENIUS_GENOLIS_13
1002
{
1000
ENT
1005
B0E
1005
B0D
1005
B09
1005
B06
1002
}
  0
ENDBLK
  5
B57
330
AFC
100
AcDbEntity
  8
0
100
AcDbBlockEnd
  0
BLOCK
  5
3D8E
330
3D56
100
AcDbEntity
  8
0
100
AcDbBlockBegin
  2
*D6
 70
     1
 10
0.0
 20
0.0
 30
0.0
  3
*D6
  1

  0
LINE
  5
431F
330
3D56
100
AcDbEntity
  8
AM_5
 62
     3
100
AcDbLine
 10
720.4340422210061
 20
605.7570272146022
 30
0.0
 11
720.4340422210061
 21
642.2570282246024
 31
0.0
  0
LINE
  5
4320
330
3D56
100
AcDbEntity
  8
AM_5
 62
     3
100
AcDbLine
 10
775.4340422210061
 20
605.7927578481344
 30
0.0
 11
775.4340422210061
 21
642.2570282246024
 31
0.0
  0
LINE
  5
4321
330
3D56
100
AcDbEntity
  8
AM_5
 62
     3
100
AcDbLine
 10
727.9340422210061
 20
639.2570282246024
 30
0.0
 11
767.9340422210061
 21
639.2570282246024
 31
0.0
  0
INSERT
  5
4322
330
3D56
100
AcDbEntity
  8
AM_5
 62
     3
100
AcDbBlockReference
  2
_Open30
 10
720.4340422210061
 20
639.2570282246024
 30
0.0
 41
7.5
 42
7.5
 43
7.5
 50
180.0
  0
INSERT
  5
4323
330
3D56
100
AcDbEntity
  8
AM_5
 62
     3
100
AcDbBlockReference
  2
_Open30
 10
775.4340422210061
 20
639.2570282246024
 30
0.0
 41
7.5
 42
7.5
 43
7.5
  0
MTEXT
  5
4324
330
3D56
100
AcDbEntity
  8
AM_5
 62
     2
100
AcDbMText
 10
747.9340422210062
 20
649.0070282246024
 30
0.0
 40
10.5
 41
0.0
 71
     5
 72
     1
  1
55
 73
     1
 44
1.0
1001
ACAD
1000
MTEXTBEGIN
1070
    73
1070
     1
1070
    44
1040
1.0
1070
    74
1070
     0
1000
MTEXTEND
  0
POINT
  5
4325
330
3D56
100
AcDbEntity
  8
Defpoints
 62
     0
100
AcDbPoint
 10
720.4340422210061
 20
602.7570272146022
 30
0.0
  0
POINT
  5
4326
330
3D56
100
AcDbEntity
  8
Defpoints
 62
     0
100
AcDbPoint
 10
775.4340422210061
 20
602.7927578481344
 30
0.0
  0
POINT
  5
4327
330
3D56
100
AcDbEntity
  8
Defpoints
 62
     0
100
AcDbPoint
 10
775.4340422210061
 20
639.2570282246024
 30
0.0
  0
ENDBLK
  5
3D8F
330
3D56
100
AcDbEntity
  8
0
100
AcDbBlockEnd
  0
BLOCK
  5
42D0
330
42BA
100
AcDbEntity
  8
0
100
AcDbBlockBegin
  2
*D7
 70
     1
 10
0.0
 20
0.0
 30
0.0
  3
*D7
  1

  0
LINE
  5
4328
330
42BA
100
AcDbEntity
  8
AM_5
 62
     3
100
AcDbLine
 10
218.8641980684782
 20
603.2570272146025
 30
0.0
 11
172.8641970584781
 21
603.2570272146025
 31
0.0
  0
LINE
  5
4329
330
42BA
100
AcDbEntity
  8
AM_5
 62
     3
100
AcDbLine
 10
218.8641980684782
 20
203.2570272146026
 30
0.0
 11
172.864197058478
 21
203.2570272146026
 31
0.0
  0
LINE
  5
432A
330
42BA
100
AcDbEntity
  8
AM_5
 62
     3
100
AcDbLine
 10
175.8641970584781
 20
595.7570272146025
 30
0.0
 11
175.864197058478
 21
210.7570272146026
 31
0.0
  0
INSERT
  5
432B
330
42BA
100
AcDbEntity
  8
AM_5
 62
     3
100
AcDbBlockReference
  2
_Open30
 10
175.8641970584781
 20
603.2570272146025
 30
0.0
 41
7.5
 42
7.5
 43
7.5
 50
90.0
  0
INSERT
  5
432C
330
42BA
100
AcDbEntity
  8
AM_5
 62
     3
100
AcDbBlockReference
  2
_Open30
 10
175.864197058478
 20
203.2570272146026
 30
0.0
 41
7.5
 42
7.5
 43
7.5
 50
270.0
  0
MTEXT
  5
432D
330
42BA
100
AcDbEntity
  8
AM_5
 62
     2
100
AcDbMText
 10
166.114197058478
 20
403.2570272146026
 30
0.0
 40
10.5
 41
0.0
 71
     5
 72
     1
  1
400
 11
0.0000000000000001
 21
1.0
 31
0.0
 73
     1
 44
1.0
1001
ACAD
1000
MTEXTBEGIN
1070
    73
1070
     1
1070
    44
1040
1.0
1070
    74
1070
     0
1000
MTEXTEND
  0
POINT
  5
432E
330
42BA
100
AcDbEntity
  8
Defpoints
 62
     0
100
AcDbPoint
 10
221.8641980684783
 20
603.2570272146025
 30
0.0
  0
POINT
  5
432F
330
42BA
100
AcDbEntity
  8
Defpoints
 62
     0
100
AcDbPoint
 10
221.8641980684783
 20
203.2570272146026
 30
0.0
  0
POINT
  5
4330
330
42BA
100
AcDbEntity
  8
Defpoints
 62
     0
100
AcDbPoint
 10
175.864197058478
 20
203.2570272146026
 30
0.0
  0
ENDBLK
  5
42D1
330
42BA
100
AcDbEntity
  8
0
100
AcDbBlockEnd
  0
BLOCK
  5
430A
330
42F4
100
AcDbEntity
  8
0
100
AcDbBlockBegin
  2
*D8
 70
     1
 10
0.0
 20
0.0
 30
0.0
  3
*D8
  1

  0
LINE
  5
4331
330
42F4
100
AcDbEntity
  8
AM_5
 62
     3
100
AcDbLine
 10
211.8641980684782
 20
596.2570272146025
 30
0.0
 11
211.8641980684782
 21
642.2570282246024
 31
0.0
  0
LINE
  5
4332
330
42F4
100
AcDbEntity
  8
AM_5
 62
     3
100
AcDbLine
 10
511.8641980684782
 20
596.2570272146025
 30
0.0
 11
511.8641980684782
 21
642.2570282246024
 31
0.0
  0
LINE
  5
4333
330
42F4
100
AcDbEntity
  8
AM_5
 62
     3
100
AcDbLine
 10
219.3641980684782
 20
639.2570282246024
 30
0.0
 11
504.3641980684782
 21
639.2570282246024
 31
0.0
  0
INSERT
  5
4334
330
42F4
100
AcDbEntity
  8
AM_5
 62
     3
100
AcDbBlockReference
  2
_Open30
 10
211.8641980684782
 20
639.2570282246024
 30
0.0
 41
7.5
 42
7.5
 43
7.5
 50
180.0
  0
INSERT
  5
4335
330
42F4
100
AcDbEntity
  8
AM_5
 62
     3
100
AcDbBlockReference
  2
_Open30
 10
511.8641980684782
 20
639.2570282246024
 30
0.0
 41
7.5
 42
7.5
 43
7.5
  0
MTEXT
  5
4336
330
42F4
100
AcDbEntity
  8
AM_5
 62
     2
100
AcDbMText
 10
361.8641980684782
 20
649.0070282246024
 30
0.0
 40
10.5
 41
0.0
 71
     5
 72
     1
  1
300
 73
     1
 44
1.0
1001
ACAD
1000
MTEXTBEGIN
1070
    73
1070
     1
1070
    44
1040
1.0
1070
    74
1070
     0
1000
MTEXTEND
  0
POINT
  5
4337
330
42F4
100
AcDbEntity
  8
Defpoints
 62
     0
100
AcDbPoint
 10
211.8641980684782
 20
593.2570272146025
 30
0.0
  0
POINT
  5
4338
330
42F4
100
AcDbEntity
  8
Defpoints
 62
     0
100
AcDbPoint
 10
511.8641980684782
 20
593.2570272146025
 30
0.0
  0
POINT
  5
4339
330
42F4
100
AcDbEntity
  8
Defpoints
 62
     0
100
AcDbPoint
 10
511.8641980684782
 20
639.2570282246024
 30
0.0
  0
ENDBLK
  5
430B
330
42F4
100
AcDbEntity
  8
0
100
AcDbBlockEnd
  0
BLOCK
  5
4588
330
4584
100
AcDbEntity
  8
0
100
AcDbBlockBegin
  2
*S9
 70
     1
 10
0.0
 20
0.0
 30
0.0
  3
*S9
  1

  0
CIRCLE
  5
4585
330
4584
100
AcDbEntity
  8
AM_12
 62
     4
100
AcDbCircle
 10
747.8027936905191
 20
216.5259535516982
 30
0.0
 40
5.25
  0
LINE
  5
4586
330
4584
100
AcDbEntity
  8
AM_12
 62
     4
100
AcDbLine
 10
742.5527936905191
 20
211.2759535516982
 30
0.0
 11
753.0527936905191
 21
221.7759535516982
 31
0.0
  0
LINE
  5
4587
330
4584
100
AcDbEntity
  8
AM_12
 62
     4
100
AcDbLine
 10
742.5527936905191
 20
221.7759535516982
 30
0.0
 11
753.0527936905191
 21
211.2759535516982
 31
0.0
  0
ENDBLK
  5
4589
330
4584
100
AcDbEntity
  8
0
100
AcDbBlockEnd
  0
BLOCK
  5
4590
330
458B
100
AcDbEntity
  8
0
100
AcDbBlockBegin
  2
*S10
 70
     1
 10
0.0
 20
0.0
 30
0.0
  3
*S10
  1

  0
LINE
  5
458C
330
458B
100
AcDbEntity
  8
AM_5
 62
     3
100
AcDbLine
 10
801.0920680021218
 20
283.4308671304085
 30
0.0
 11
754.3445119333421
 21
224.7391090008248
 31
0.0
  0
TRACE
  5
458D
330
458B
100
AcDbEntity
  8
AM_5
  6
Continuous
 62
     3
100
AcDbTrace
 10
753.2632295102153
 20
225.6003425421629
 30
0.0
 11
755.4257943564687
 21
223.8778754594867
 31
0.0
 12
747.8027936905191
 22
216.5259535516982
 32
0.0
 13
747.8027936905191
 23
216.5259535516982
 33
0.0
  0
MTEXT
  5
458E
330
458B
100
AcDbEntity
  8
AM_5
 62
     7
100
AcDbMText
 10
812.5400749270621
 20
297.80388916638
 30
0.0
 40
10.5
 41
0.0
 71
     5
 72
     5
  1
1
  7
ACISOTS
 73
     1
 44
1.0
1001
ACAD
1000
MTEXTBEGIN
1070
    73
1070
     1
1070
    44
1040
1.0
1070
    74
1070
     0
1000
MTEXTEND
  0
CIRCLE
  5
458F
330
458B
100
AcDbEntity
  8
AM_5
 62
     3
100
AcDbCircle
 10
812.5400749270621
 20
297.80388916638
 30
0.0
 40
18.375
  0
ENDBLK
  5
4591
330
458B
100
AcDbEntity
  8
0
100
AcDbBlockEnd
  0
BLOCK
  5
4597
330
4593
100
AcDbEntity
  8
0
100
AcDbBlockBegin
  2
*S11
 70
     1
 10
0.0
 20
0.0
 30
0.0
  3
*S11
  1

  0
CIRCLE
  5
4594
330
4593
100
AcDbEntity
  8
AM_12
 62
     4
100
AcDbCircle
 10
1196.336685112861
 20
774.6235850496437
 30
0.0
 40
5.25
  0
LINE
  5
4595
330
4593
100
AcDbEntity
  8
AM_12
 62
     4
100
AcDbLine
 10
1191.086685112861
 20
769.3735850496437
 30
0.0
 11
1201.586685112861
 21
779.8735850496436
 31
0.0
  0
LINE
  5
4596
330
4593
100
AcDbEntity
  8
AM_12
 62
     4
100
AcDbLine
 10
1191.086685112861
 20
779.8735850496436
 30
0.0
 11
1201.586685112861
 21
769.3735850496437
 31
0.0
  0
ENDBLK
  5
4598
330
4593
100
AcDbEntity
  8
0
100
AcDbBlockEnd
  0
BLOCK
  5
459E
330
459A
100
AcDbEntity
  8
0
100
AcDbBlockBegin
  2
*S12
 70
     1
 10
0.0
 20
0.0
 30
0.0
  3
*S12
  1

  0
CIRCLE
  5
459B
330
459A
100
AcDbEntity
  8
AM_12
 62
     4
100
AcDbCircle
 10
1196.336685112861
 20
756.3174596115177
 30
0.0
 40
5.25
  0
LINE
  5
459C
330
459A
100
AcDbEntity
  8
AM_12
 62
     4
100
AcDbLine
 10
1191.086685112861
 20
751.0674596115177
 30
0.0
 11
1201.586685112861
 21
761.5674596115177
 31
0.0
  0
LINE
  5
459D
330
459A
100
AcDbEntity
  8
AM_12
 62
     4
100
AcDbLine
 10
1191.086685112861
 20
761.5674596115177
 30
0.0
 11
1201.586685112861
 21
751.0674596115177
 31
0.0
  0
ENDBLK
  5
459F
330
459A
100
AcDbEntity
  8
0
100
AcDbBlockEnd
  0
BLOCK
  5
45CF
330
45A1
100
AcDbEntity
  8
0
100
AcDbBlockBegin
  2
*S13
 70
     1
 10
0.0
 20
0.0
 30
0.0
  3
*S13
  1

  0
LINE
  5
45A2
330
45A1
100
AcDbEntity
  8
0
 62
     1
100
AcDbLine
 10
594.0
 20
784.4249999999999
 30
0.0
 11
1209.0
 21
784.4249999999999
 31
0.0
  0
LINE
  5
45A3
330
45A1
100
AcDbEntity
  8
0
 62
     1
100
AcDbLine
 10
594.0
 20
765.8999999999999
 30
0.0
 11
1209.0
 21
765.8999999999999
 31
0.0
  0
MTEXT
  5
45A4
330
45A1
100
AcDbEntity
  8
0
 62
     2
100
AcDbMText
 10
616.5
 20
798.8999999999999
 30
0.0
 40
10.5
 41
39.59999999999999
 71
     2
 72
     5
  1
1
  7
ACISOTS
 73
     1
 44
1.0
1001
ACAD
1000
MTEXTBEGIN
1070
    73
1070
     1
1070
    44
1040
1.0
1070
    74
1070
     0
1000
MTEXTEND
  0
LINE
  5
45A5
330
45A1
100
AcDbEntity
  8
0
 62
     1
100
AcDbLine
 10
639.0
 20
802.95
 30
0.0
 11
639.0
 21
784.4249999999999
 31
0.0
  0
MTEXT
  5
45A6
330
45A1
100
AcDbEntity
  8
0
 62
     2
100
AcDbMText
 10
641.7
 20
798.8999999999999
 30
0.0
 40
10.5
 41
174.6
 71
     1
 72
     5
  1
エクステンションフレーム
  7
ACISOTS
 73
     1
 44
1.0
1001
ACAD
1000
MTEXTBEGIN
1070
    73
1070
     1
1070
    44
1040
1.0
1070
    74
1070
     0
1000
MTEXTEND
  0
LINE
  5
45A7
330
45A1
100
AcDbEntity
  8
0
 62
     1
100
AcDbLine
 10
819.0
 20
802.95
 30
0.0
 11
819.0
 21
784.4249999999999
 31
0.0
  0
MTEXT
  5
45A8
330
45A1
100
AcDbEntity
  8
0
 62
     2
100
AcDbMText
 10
841.5
 20
798.8999999999999
 30
0.0
 40
10.5
 41
39.59999999999999
 71
     2
 72
     5
  1
1
  7
ACISOTS
 73
     1
 44
1.0
1001
ACAD
1000
MTEXTBEGIN
1070
    73
1070
     1
1070
    44
1040
1.0
1070
    74
1070
     0
1000
MTEXTEND
  0
LINE
  5
45A9
330
45A1
100
AcDbEntity
  8
0
 62
     1
100
AcDbLine
 10
864.0
 20
802.95
 30
0.0
 11
864.0
 21
784.4249999999999
 31
0.0
  0
MTEXT
  5
45AA
330
45A1
100
AcDbEntity
  8
0
 62
     2
100
AcDbMText
 10
866.6999999999999
 20
798.8999999999999
 30
0.0
 40
10.5
 41
204.6
 71
     1
 72
     5
  1
ポリカーボネートグラスファイバー
  7
ACISOTS
 73
     1
 44
1.0
1001
ACAD
1000
MTEXTBEGIN
1070
    73
1070
     1
1070
    44
1040
1.0
1070
    74
1070
     0
1000
MTEXTEND
  0
LINE
  5
45AB
330
45A1
100
AcDbEntity
  8
0
 62
     1
100
AcDbLine
 10
1074.0
 20
802.95
 30
0.0
 11
1074.0
 21
784.4249999999999
 31
0.0
  0
MTEXT
  5
45AC
330
45A1
100
AcDbEntity
  8
0
 62
     2
100
AcDbMText
 10
1076.7
 20
798.8999999999999
 30
0.0
 40
10.5
 41
129.6
 71
     1
 72
     5
  1
ホワイトグレー
  7
ACISOTS
 73
     1
 44
1.0
1001
ACAD
1000
MTEXTBEGIN
1070
    73
1070
     1
1070
    44
1040
1.0
1070
    74
1070
     0
1000
MTEXTEND
  0
MTEXT
  5
45AD
330
45A1
100
AcDbEntity
  8
0
 62
     2
100
AcDbMText
 10
616.5
 20
780.3749999999999
 30
0.0
 40
10.5
 41
39.59999999999999
 71
     2
 72
     5
  1
2
  7
ACISOTS
 73
     1
 44
1.0
1001
ACAD
1000
MTEXTBEGIN
1070
    73
1070
     1
1070
    44
1040
1.0
1070
    74
1070
     0
1000
MTEXTEND
  0
LINE
  5
45AE
330
45A1
100
AcDbEntity
  8
0
 62
     1
100
AcDbLine
 10
639.0
 20
784.4249999999999
 30
0.0
 11
639.0
 21
765.8999999999999
 31
0.0
  0
MTEXT
  5
45AF
330
45A1
100
AcDbEntity
  8
0
 62
     2
100
AcDbMText
 10
641.7
 20
780.3749999999999
 30
0.0
 40
10.5
 41
174.6
 71
     1
 72
     5
  1
フレームスクリュー(専用)
  7
ACISOTS
 73
     1
 44
1.0
1001
ACAD
1000
MTEXTBEGIN
1070
    73
1070
     1
1070
    44
1040
1.0
1070
    74
1070
     0
1000
MTEXTEND
  0
LINE
  5
45B0
330
45A1
100
AcDbEntity
  8
0
 62
     1
100
AcDbLine
 10
819.0
 20
784.4249999999999
 30
0.0
 11
819.0
 21
765.8999999999999
 31
0.0
  0
MTEXT
  5
45B1
330
45A1
100
AcDbEntity
  8
0
 62
     2
100
AcDbMText
 10
841.5
 20
780.3749999999999
 30
0.0
 40
10.5
 41
39.59999999999999
 71
     2
 72
     5
  1
4
  7
ACISOTS
 73
     1
 44
1.0
1001
ACAD
1000
MTEXTBEGIN
1070
    73
1070
     1
1070
    44
1040
1.0
1070
    74
1070
     0
1000
MTEXTEND
  0
LINE
  5
45B2
330
45A1
100
AcDbEntity
  8
0
 62
     1
100
AcDbLine
 10
864.0
 20
784.4249999999999
 30
0.0
 11
864.0
 21
765.8999999999999
 31
0.0
  0
MTEXT
  5
45B3
330
45A1
100
AcDbEntity
  8
0
 62
     2
100
AcDbMText
 10
866.6999999999999
 20
780.3749999999999
 30
0.0
 40
10.5
 41
204.6
 71
     1
 72
     5
  1
-
  7
ACISOTS
 73
     1
 44
1.0
1001
ACAD
1000
MTEXTBEGIN
1070
    73
1070
     1
1070
    44
1040
1.0
1070
    74
1070
     0
1000
MTEXTEND
  0
LINE
  5
45B4
330
45A1
100
AcDbEntity
  8
0
 62
     1
100
AcDbLine
 10
1074.0
 20
784.4249999999999
 30
0.0
 11
1074.0
 21
765.8999999999999
 31
0.0
  0
MTEXT
  5
45B5
330
45A1
100
AcDbEntity
  8
0
 62
     2
100
AcDbMText
 10
1076.7
 20
780.3749999999999
 30
0.0
 40
10.5
 41
129.6
 71
     1
 72
     5
  1
ブラック
  7
ACISOTS
 73
     1
 44
1.0
1001
ACAD
1000
MTEXTBEGIN
1070
    73
1070
     1
1070
    44
1040
1.0
1070
    74
1070
     0
1000
MTEXTEND
  0
MTEXT
  5
45B6
330
45A1
100
AcDbEntity
  8
0
 62
     2
100
AcDbMText
 10
616.5
 20
761.85
 30
0.0
 40
10.5
 41
39.59999999999999
 71
     2
 72
     5
  1
3
  7
ACISOTS
 73
     1
 44
1.0
1001
ACAD
1000
MTEXTBEGIN
1070
    73
1070
     1
1070
    44
1040
1.0
1070
    74
1070
     0
1000
MTEXTEND
  0
LINE
  5
45B7
330
45A1
100
AcDbEntity
  8
0
 62
     1
100
AcDbLine
 10
639.0
 20
765.8999999999999
 30
0.0
 11
639.0
 21
747.3749999999999
 31
0.0
  0
MTEXT
  5
45B8
330
45A1
100
AcDbEntity
  8
0
 62
     2
100
AcDbMText
 10
641.7
 20
761.85
 30
0.0
 40
10.5
 41
174.6
 71
     1
 72
     5
  1
スクリューヘッド(専用)
  7
ACISOTS
 73
     1
 44
1.0
1001
ACAD
1000
MTEXTBEGIN
1070
    73
1070
     1
1070
    44
1040
1.0
1070
    74
1070
     0
1000
MTEXTEND
  0
LINE
  5
45B9
330
45A1
100
AcDbEntity
  8
0
 62
     1
100
AcDbLine
 10
819.0
 20
765.8999999999999
 30
0.0
 11
819.0
 21
747.3749999999999
 31
0.0
  0
MTEXT
  5
45BA
330
45A1
100
AcDbEntity
  8
0
 62
     2
100
AcDbMText
 10
841.5
 20
761.85
 30
0.0
 40
10.5
 41
39.59999999999999
 71
     2
 72
     5
  1
1
  7
ACISOTS
 73
     1
 44
1.0
1001
ACAD
1000
MTEXTBEGIN
1070
    73
1070
     1
1070
    44
1040
1.0
1070
    74
1070
     0
1000
MTEXTEND
  0
LINE
  5
45BB
330
45A1
100
AcDbEntity
  8
0
 62
     1
100
AcDbLine
 10
864.0
 20
765.8999999999999
 30
0.0
 11
864.0
 21
747.3749999999999
 31
0.0
  0
MTEXT
  5
45BC
330
45A1
100
AcDbEntity
  8
0
 62
     2
100
AcDbMText
 10
866.6999999999999
 20
761.85
 30
0.0
 40
10.5
 41
204.6
 71
     1
 72
     5
  1
-
  7
ACISOTS
 73
     1
 44
1.0
1001
ACAD
1000
MTEXTBEGIN
1070
    73
1070
     1
1070
    44
1040
1.0
1070
    74
1070
     0
1000
MTEXTEND
  0
LINE
  5
45BD
330
45A1
100
AcDbEntity
  8
0
 62
     1
100
AcDbLine
 10
1074.0
 20
765.8999999999999
 30
0.0
 11
1074.0
 21
747.3749999999999
 31
0.0
  0
MTEXT
  5
45BE
330
45A1
100
AcDbEntity
  8
0
 62
     2
100
AcDbMText
 10
1076.7
 20
761.85
 30
0.0
 40
10.5
 41
129.6
 71
     1
 72
     5
  1
ホワイトグレー
  7
ACISOTS
 73
     1
 44
1.0
1001
ACAD
1000
MTEXTBEGIN
1070
    73
1070
     1
1070
    44
1040
1.0
1070
    74
1070
     0
1000
MTEXTEND
  0
LINE
  5
45BF
330
45A1
100
AcDbEntity
  8
0
 62
     1
100
AcDbLine
 10
594.0
 20
802.95
 30
0.0
 11
1209.0
 21
802.95
 31
0.0
  0
MTEXT
  5
45C0
330
45A1
100
AcDbEntity
  8
0
 62
     2
100
AcDbMText
 10
616.5
 20
817.4249999999998
 30
0.0
 40
10.5
 41
39.59999999999999
 71
     2
 72
     5
  1
照番
  7
ACISOTS
 73
     1
 44
1.0
1001
ACAD
1000
MTEXTBEGIN
1070
    73
1070
     1
1070
    44
1040
1.0
1070
    74
1070
     0
1000
MTEXTEND
  0
LINE
  5
45C1
330
45A1
100
AcDbEntity
  8
0
 62
     1
100
AcDbLine
 10
639.0
 20
821.475
 30
0.0
 11
639.0
 21
802.95
 31
0.0
  0
MTEXT
  5
45C2
330
45A1
100
AcDbEntity
  8
0
 62
     2
100
AcDbMText
 10
729.0
 20
817.4249999999998
 30
0.0
 40
10.5
 41
174.6
 71
     2
 72
     5
  1
名称
  7
ACISOTS
 73
     1
 44
1.0
1001
ACAD
1000
MTEXTBEGIN
1070
    73
1070
     1
1070
    44
1040
1.0
1070
    74
1070
     0
1000
MTEXTEND
  0
LINE
  5
45C3
330
45A1
100
AcDbEntity
  8
0
 62
     1
100
AcDbLine
 10
819.0
 20
821.475
 30
0.0
 11
819.0
 21
802.95
 31
0.0
  0
MTEXT
  5
45C4
330
45A1
100
AcDbEntity
  8
0
 62
     2
100
AcDbMText
 10
841.5
 20
817.4249999999998
 30
0.0
 40
10.5
 41
39.59999999999999
 71
     2
 72
     5
  1
数量
  7
ACISOTS
 73
     1
 44
1.0
1001
ACAD
1000
MTEXTBEGIN
1070
    73
1070
     1
1070
    44
1040
1.0
1070
    74
1070
     0
1000
MTEXTEND
  0
LINE
  5
45C5
330
45A1
100
AcDbEntity
  8
0
 62
     1
100
AcDbLine
 10
864.0
 20
821.475
 30
0.0
 11
864.0
 21
802.95
 31
0.0
  0
MTEXT
  5
45C6
330
45A1
100
AcDbEntity
  8
0
 62
     2
100
AcDbMText
 10
969.0
 20
817.4249999999998
 30
0.0
 40
10.5
 41
204.6
 71
     2
 72
     5
  1
材質
  7
ACISOTS
 73
     1
 44
1.0
1001
ACAD
1000
MTEXTBEGIN
1070
    73
1070
     1
1070
    44
1040
1.0
1070
    74
1070
     0
1000
MTEXTEND
  0
LINE
  5
45C7
330
45A1
100
AcDbEntity
  8
0
 62
     1
100
AcDbLine
 10
1074.0
 20
821.475
 30
0.0
 11
1074.0
 21
802.95
 31
0.0
  0
MTEXT
  5
45C8
330
45A1
100
AcDbEntity
  8
0
 62
     2
100
AcDbMText
 10
1141.5
 20
817.4249999999998
 30
0.0
 40
10.5
 41
129.6
 71
     2
 72
     5
  1
色・表面処理
  7
ACISOTS
 73
     1
 44
1.0
1001
ACAD
1000
MTEXTBEGIN
1070
    73
1070
     1
1070
    44
1040
1.0
1070
    74
1070
     0
1000
MTEXTEND
  0
MTEXT
  5
45C9
330
45A1
100
AcDbEntity
  8
0
 62
     2
100
AcDbMText
 10
901.5
 20
830.7375
 30
0.0
 40
10.5
 41
0.0
 71
     5
 72
     5
  1
構成内容
  7
ACISOTS
 73
     1
 44
1.0
1001
ACAD
1000
MTEXTBEGIN
1070
    73
1070
     1
1070
    44
1040
1.0
1070
    74
1070
     0
1000
MTEXTEND
  0
LINE
  5
45CA
330
45A1
100
AcDbEntity
  8
0
 62
     1
100
AcDbLine
 10
594.0
 20
821.475
 30
0.0
 11
1209.0
 21
821.475
 31
0.0
  0
LINE
  5
45CB
330
45A1
100
AcDbEntity
  8
0
 62
     7
100
AcDbLine
 10
594.0
 20
840.0
 30
0.0
 11
1209.0
 21
840.0
 31
0.0
  0
LINE
  5
45CC
330
45A1
100
AcDbEntity
  8
0
 62
     7
100
AcDbLine
 10
1209.0
 20
840.0
 30
0.0
 11
1209.0
 21
747.3749999999999
 31
0.0
  0
LINE
  5
45CD
330
45A1
100
AcDbEntity
  8
0
 62
     7
100
AcDbLine
 10
1209.0
 20
747.3749999999999
 30
0.0
 11
594.0
 21
747.3749999999999
 31
0.0
  0
LINE
  5
45CE
330
45A1
100
AcDbEntity
  8
0
 62
     7
100
AcDbLine
 10
594.0
 20
747.3749999999999
 30
0.0
 11
594.0
 21
840.0
 31
0.0
  0
ENDBLK
  5
45D0
330
45A1
100
AcDbEntity
  8
0
100
AcDbBlockEnd
  0
ENDSEC
  0
SECTION
  2
ENTITIES
  0
INSERT
  5
C54
330
1F
100
AcDbEntity
  8
0
370
     0
100
AcDbBlockReference
  2
TK-A3
 10
0.0
 20
0.0
 30
0.0
 41
3.0
 42
3.0
 43
3.0
1001
GENIUS_GENOREF_13
1005
C61
1001
GENIUS_GENODEF_13
1002
{
1000
HIER
1070
     0
1002
}
1002
{
1000
MANEDIT
1070
     0
1002
}
1002
{
1000
NOSEL
1070
     0
1002
}
1002
{
1000
BEHIND
1070
     0
1002
}
1002
{
1000
OTHER
1070
     0
1002
}
1002
{
1000
REACTOR
1002
}
1001
GENIUS_GENOBJ-N-SDF_13
1002
{
1000
OWNER
1000
GEN
1002
}
1001
GENIUS_GENSCREG_15
1040
3.0
1040
1.0
1011
0.0
1021
0.0
1031
0.0
1011
1209.0
1021
840.0000000000002
1031
0.0
1070
     3
  0
INSERT
  5
C56
330
1F
100
AcDbEntity
  8
0
370
     0
100
AcDbBlockReference
 66
     1
  2
TK-TITLE
 10
1209.0
 20
0.0
 30
0.0
 41
3.0
 42
3.0
 43
3.0
1001
GENIUS_GENOREF_13
1005
C61
  0
ATTRIB
  5
4269
330
C56
100
AcDbEntity
  8
0
100
AcDbText
 10
638.7626861549017
 20
10.76502761283199
 30
0.0
 40
9.0
  1
2008/10/31
 72
     1
 11
668.3484145013584
 21
10.76502761283199
 31
0.0
100
AcDbAttribute
  2
GEN-TITLE-DAT
 70
     0
 74
     1
  0
ATTRIB
  5
426A
330
C56
100
AcDbEntity
  8
0
100
AcDbText
 10
663.0029889505919
 20
84.89999999999993
 30
0.0
 40
9.0
  1
1:3
 72
     2
 11
675.5257811567278
 21
84.89999999999993
 31
0.0
100
AcDbAttribute
  2
GEN-TITLE-SCA
 70
     0
 74
     1
  0
ATTRIB
  5
426B
330
C56
100
AcDbEntity
  8
0
100
AcDbText
 10
682.1617772621713
 20
47.39999999999982
 30
0.0
 40
9.0
  1

 72
     2
 11
682.1617772621713
 21
47.39999999999982
 31
0.0
100
AcDbAttribute
  2
GEN-TITLE-QTY
 70
     0
 74
     1
  0
ATTRIB
  5
426C
330
C56
100
AcDbEntity
  8
0
100
AcDbText
 10
762.1143972494125
 20
99.89999999999973
 30
0.0
 40
9.0
  1

100
AcDbAttribute
  2
GEN-TITLE-MAT2
 70
     0
  0
ATTRIB
  5
426D
330
C56
100
AcDbEntity
  8
0
100
AcDbText
 10
762.1143972494125
 20
129.8999999999997
 30
0.0
 40
9.0
  1

100
AcDbAttribute
  2
GEN-TITLE-MAT1
 70
     0
  0
ATTRIB
  5
426E
330
C56
100
AcDbEntity
  8
0
100
AcDbText
 10
957.0
 20
5.999999999999872
 30
0.0
 40
9.0
  1

100
AcDbAttribute
  2
GEN-TITLE-NR1
 70
     0
  0
ATTRIB
  5
426F
330
C56
100
AcDbEntity
  8
0
100
AcDbText
 10
957.0
 20
27.44999999999985
 30
0.0
 40
7.5
  1
OPCE型エクステンションフレーム
100
AcDbAttribute
  2
GEN-TITLE-DES2
 70
     0
  0
ATTRIB
  5
4270
330
C56
100
AcDbEntity
  8
0
100
AcDbText
 10
956.5724429524401
 20
38.48371297693132
 30
0.0
 40
10.5
  1
OPCE3040
100
AcDbAttribute
  2
GEN-TITLE-DES1
 70
     0
  0
ATTRIB
  5
4271
330
C56
100
AcDbEntity
  8
0
100
AcDbText
 10
1184.993072431362
 20
5.115568303185108
 30
0.0
 40
7.5
  1

100
AcDbAttribute
  2
GEN-TITLE-NR2
 70
     0
  0
SEQEND
  5
4268
330
C56
100
AcDbEntity
  8
0
370
     0
  0
POINT
  5
C61
330
1F
100
AcDbEntity
  8
0
 60
     1
100
AcDbPoint
 10
0.0
 20
0.0
 30
0.0
1001
GENIUS_GENOENT_13
1002
{
1000
MYREF
1005
C61
1002
}
1002
{
1000
GRP
1005
0
1002
}
1001
GENIUS_GENOBJ-N-TIT_13
1002
{
1000
OWNER
1000
GEN
1002
}
1001
GENIUS_GENODEF_13
1002
{
1000
HIER
1070
     1
1002
}
1002
{
1000
MANEDIT
1070
     0
1002
}
1002
{
1000
NOSEL
1070
     0
1002
}
1002
{
1000
BEHIND
1070
     0
1002
}
1002
{
1000
OTHER
1070
     0
1002
}
1002
{
1000
REACTOR
1002
}
1001
GENIUS_GENOLIS_13
1002
{
1000
ENT
1005
C56
1005
C54
1005
4267
1002
}
1001
GENIUS_GENTITLE_13
1002
{
1000
BORDER
1000
TK-A3
1002
}
1002
{
1000
TITLE
1000
TK-TITLE
1002
}
1002
{
1000
SCALE
1000
1:3
1002
}
1002
{
1000
TITLESTD
1000
ISO
1002
}
1002
{
1000
HRA
1005
C54
1002
}
1002
{
1000
HTIT
1005
C56
1002
}
1002
{
1000
GENIUSID
1005
C61
1002
}
1002
{
1000
INVTXTID
1005
0
1002
}
1002
{
1000
UNCHG
1002
{
1000
GEN-TITLE-SIZ
1000
GEN-TITLE-SCA
1002
}
1002
}
  0
LINE
  5
16EE
330
1F
100
AcDbEntity
  8
ｴｸｽﾃﾝｼｮﾝﾌﾚｰﾑ
100
AcDbLine
 10
477.3141980684784
 20
603.2570272146026
 30
0.0
 11
246.4141980684783
 21
603.2570272146026
 31
0.0
  0
LINE
  5
16FC
330
1F
100
AcDbEntity
  8
ｴｸｽﾃﾝｼｮﾝﾌﾚｰﾑ
100
AcDbLine
 10
476.8797280684784
 20
599.8725572146026
 30
0.0
 11
246.8486680684781
 21
599.8725572146026
 31
0.0
  0
LINE
  5
1708
330
1F
100
AcDbEntity
  8
ｴｸｽﾃﾝｼｮﾝﾌﾚｰﾑ
100
AcDbLine
 10
246.8137480684782
 20
598.6725572146024
 30
0.0
 11
476.9146480684784
 21
598.6725572146026
 31
0.0
  0
LINE
  5
170B
330
1F
100
AcDbEntity
  8
ｴｸｽﾃﾝｼｮﾝﾌﾚｰﾑ
100
AcDbLine
 10
476.5355080684783
 20
595.3783472146027
 30
0.0
 11
247.1928880684782
 21
595.3783472146024
 31
0.0
  0
LINE
  5
1A7A
330
1F
100
AcDbEntity
  8
ｴｸｽﾃﾝｼｮﾝﾌﾚｰﾑ
100
AcDbLine
 10
242.3141980684782
 20
603.2570272146026
 30
0.0
 11
240.4141980684783
 21
603.2570272146026
 31
0.0
  0
LINE
  5
1A7B
330
1F
100
AcDbEntity
  8
ｴｸｽﾃﾝｼｮﾝﾌﾚｰﾑ
100
AcDbLine
 10
236.3141980684781
 20
603.2570272146026
 30
0.0
 11
221.8641980684783
 21
603.2570272146026
 31
0.0
  0
LINE
  5
1A85
330
1F
100
AcDbEntity
  8
ｴｸｽﾃﾝｼｮﾝﾌﾚｰﾑ
100
AcDbLine
 10
242.8486430685042
 20
600.2725572146025
 30
0.0
 11
231.2712280684782
 21
600.2725572146025
 31
0.0
  0
LINE
  5
1AA7
330
1F
100
AcDbEntity
  8
ｴｸｽﾃﾝｼｮﾝﾌﾚｰﾑ
100
AcDbLine
 10
246.214468752985
 20
590.1821471980368
 30
0.0
 11
244.1932183100528
 21
591.4518326948772
 31
0.0
  0
LINE
  5
1AAF
330
1F
100
AcDbEntity
  8
ｴｸｽﾃﾝｼｮﾝﾌﾚｰﾑ
100
AcDbLine
 10
226.0101780684781
 20
582.8633672146025
 30
0.0
 11
232.2578480684782
 21
589.1110272146026
 31
0.0
  0
LINE
  5
1AB1
330
1F
100
AcDbEntity
  8
ｴｸｽﾃﾝｼｮﾝﾌﾚｰﾑ
100
AcDbLine
 10
246.8928880684781
 20
592.6225572146026
 30
0.0
 11
246.8928880684781
 21
595.0783472146025
 31
0.0
  0
LINE
  5
1ACA
330
1F
100
AcDbEntity
  8
ｴｸｽﾃﾝｼｮﾝﾌﾚｰﾑ
100
AcDbLine
 10
243.1455507223618
 20
589.8225829450958
 30
0.0
 11
245.126315717172
 21
588.4988566750788
 31
0.0
  0
LINE
  5
1AD5
330
1F
100
AcDbEntity
  8
ｴｸｽﾃﾝｼｮﾝﾌﾚｰﾑ
100
AcDbLine
 10
233.0536780684781
 20
590.2725572146025
 30
0.0
 11
240.3486580684781
 21
590.2725572146025
 31
0.0
  0
LINE
  5
1AD6
330
1F
100
AcDbEntity
  8
ｴｸｽﾃﾝｼｮﾝﾌﾚｰﾑ
100
AcDbLine
 10
234.0963380684781
 20
589.8725572146026
 30
0.0
 11
240.3486580684781
 21
589.8725572146026
 31
0.0
  0
LINE
  5
1AD7
330
1F
100
AcDbEntity
  8
ｴｸｽﾃﾝｼｮﾝﾌﾚｰﾑ
100
AcDbLine
 10
240.3486580684781
 20
588.7074572146026
 30
0.0
 11
234.0963380684781
 21
588.7074572146026
 31
0.0
  0
LINE
  5
1AE5
330
1F
100
AcDbEntity
  8
ｴｸｽﾃﾝｼｮﾝﾌﾚｰﾑ
100
AcDbLine
 10
233.0817080684782
 20
588.2871872146025
 30
0.0
 11
226.8340380684781
 21
582.0395172146025
 31
0.0
  0
LINE
  5
1AED
330
1F
100
AcDbEntity
  8
ｴｸｽﾃﾝｼｮﾝﾌﾚｰﾑ
100
AcDbLine
 10
244.4137480684782
 20
596.2725572146025
 30
0.0
 11
244.4137480684782
 21
592.7725572146025
 31
0.0
  0
LINE
  5
1AF1
330
1F
100
AcDbEntity
  8
ｴｸｽﾃﾝｼｮﾝﾌﾚｰﾑ
100
AcDbLine
 10
237.0571280684782
 20
586.3283472146025
 30
0.0
 11
240.5986580684781
 21
586.3283472146025
 31
0.0
  0
LINE
  5
1AF3
330
1F
100
AcDbEntity
  8
ｴｸｽﾃﾝｼｮﾝﾌﾚｰﾑ
100
AcDbLine
 10
229.0254983344576
 20
581.0785272146025
 30
0.0
 11
234.0426980684782
 21
586.0957372146025
 31
0.0
  0
LINE
  5
1B01
330
1F
100
AcDbEntity
  8
ｴｸｽﾃﾝｼｮﾝﾌﾚｰﾑ
100
AcDbLine
 10
243.2486780684782
 20
592.7725572146025
 30
0.0
 11
243.2486780684782
 21
596.2725572146025
 31
0.0
  0
LINE
  5
1B02
330
1F
100
AcDbEntity
  8
ｴｸｽﾃﾝｼｮﾝﾌﾚｰﾑ
100
AcDbLine
 10
242.8486580684781
 20
592.7725572146025
 30
0.0
 11
242.8486580684781
 21
596.2725572146025
 31
0.0
  0
LINE
  5
1B03
330
1F
100
AcDbEntity
  8
ｴｸｽﾃﾝｼｮﾝﾌﾚｰﾑ
100
AcDbLine
 10
238.8571380684781
 20
584.5283372146026
 30
0.0
 11
240.6930780684781
 21
584.5283372146026
 31
0.0
  0
LINE
  5
1B1A
330
1F
100
AcDbEntity
  8
ｴｸｽﾃﾝｼｮﾝﾌﾚｰﾑ
100
AcDbLine
 10
240.6930780684781
 20
584.5283372146026
 30
0.0
 11
241.3259080684782
 21
583.8955172146025
 31
0.0
  0
LINE
  5
1B1D
330
1F
100
AcDbEntity
  8
ｴｸｽﾃﾝｼｮﾝﾌﾚｰﾑ
100
AcDbLine
 10
235.9398403505027
 20
587.4456349325781
 30
0.0
 11
238.8571380684781
 21
584.5283372146026
 31
0.0
  0
LINE
  5
1B2D
330
1F
100
AcDbEntity
  8
ｴｸｽﾃﾝｼｮﾝﾌﾚｰﾑ
100
AcDbLine
 10
238.4974680684782
 20
581.0670972146025
 30
0.0
 11
234.0426980684782
 21
585.5218672146025
 31
0.0
  0
LINE
  5
1B4D
330
1F
100
AcDbEntity
  8
ｴｸｽﾃﾝｼｮﾝﾌﾚｰﾑ
100
AcDbLine
 10
241.3259080684782
 20
583.8955172146025
 30
0.0
 11
238.4974680684782
 21
581.0670972146025
 31
0.0
  0
LINE
  5
1B7C
330
1F
100
AcDbEntity
  8
ｴｸｽﾃﾝｼｮﾝﾌﾚｰﾑ
100
AcDbLine
 10
234.0426980684782
 20
585.5218672146025
 30
0.0
 11
234.0426980684782
 21
588.706464275224
 31
0.0
  0
ARC
  5
1C0C
330
1F
100
AcDbEntity
  8
ｴｸｽﾃﾝｼｮﾝﾌﾚｰﾑ
100
AcDbCircle
 10
240.5986580684781
 20
592.6225572146026
 30
0.0
 40
6.294209999999999
100
AcDbArc
 50
338.2298552169081
 51
0.0
  0
ARC
  5
1C0D
330
1F
100
AcDbEntity
  8
ｴｸｽﾃﾝｼｮﾝﾌﾚｰﾑ
100
AcDbCircle
 10
240.5986580684781
 20
592.6225572146026
 30
0.0
 40
6.294209999999999
100
AcDbArc
 50
269.999989999999
 51
315.9669374407438
  0
ARC
  5
1C22
330
1F
100
AcDbEntity
  8
ｴｸｽﾃﾝｼｮﾝﾌﾚｰﾑ
100
AcDbCircle
 10
240.3486580684781
 20
592.7725572146025
 30
0.0
 40
2.5
100
AcDbArc
 50
269.999989999999
 51
0.0
  0
ARC
  5
1C23
330
1F
100
AcDbEntity
  8
ｴｸｽﾃﾝｼｮﾝﾌﾚｰﾑ
100
AcDbCircle
 10
233.0536780684781
 20
591.2725572146025
 30
0.0
 40
1.0
100
AcDbArc
 50
170.6875499999997
 51
270.0
  0
ARC
  5
1C24
330
1F
100
AcDbEntity
  8
ｴｸｽﾃﾝｼｮﾝﾌﾚｰﾑ
100
AcDbCircle
 10
222.1986780684781
 20
593.0525572146026
 30
0.0
 40
10.0
100
AcDbArc
 50
350.6875599999983
 51
34.43384999999793
  0
ARC
  5
1C25
330
1F
100
AcDbEntity
  8
ｴｸｽﾃﾝｼｮﾝﾌﾚｰﾑ
100
AcDbCircle
 10
231.2712280684782
 20
599.2725572146025
 30
0.0
 40
1.0
100
AcDbArc
 50
89.99998999999899
 51
214.4338600000021
  0
ARC
  5
1C32
330
1F
100
AcDbEntity
  8
ｴｸｽﾃﾝｼｮﾝﾌﾚｰﾑ
100
AcDbCircle
 10
234.0963380684781
 20
587.2725572146025
 30
0.0
 40
1.43491
100
AcDbArc
 50
89.99998999999899
 51
135.0
  0
ARC
  5
1C33
330
1F
100
AcDbEntity
  8
ｴｸｽﾃﾝｼｮﾝﾌﾚｰﾑ
100
AcDbCircle
 10
240.3486580684781
 20
592.7725572146025
 30
0.0
 40
4.06509
100
AcDbArc
 50
269.999989999999
 51
0.0
  0
ARC
  5
1C35
330
1F
100
AcDbEntity
  8
ｴｸｽﾃﾝｼｮﾝﾌﾚｰﾑ
100
AcDbCircle
 10
246.8486680684781
 20
596.2725572146025
 30
0.0
 40
3.6
100
AcDbArc
 50
89.99998999999899
 51
179.999989999999
  0
ARC
  5
1C36
330
1F
100
AcDbEntity
  8
ｴｸｽﾃﾝｼｮﾝﾌﾚｰﾑ
100
AcDbCircle
 10
240.3486580684781
 20
592.7725572146025
 30
0.0
 40
2.9
100
AcDbArc
 50
269.999989999999
 51
0.0
  0
ARC
  5
1C37
330
1F
100
AcDbEntity
  8
ｴｸｽﾃﾝｼｮﾝﾌﾚｰﾑ
100
AcDbCircle
 10
234.0963380684781
 20
587.2725572146025
 30
0.0
 40
2.6
100
AcDbArc
 50
89.99998999999899
 51
135.0
  0
LINE
  5
1E03
330
1F
100
AcDbEntity
  8
ｴｸｽﾃﾝｼｮﾝﾌﾚｰﾑ
100
AcDbLine
 10
505.7648556239517
 20
777.6611486324708
 30
0.0
 11
511.3999286997467
 21
777.6611486324708
 31
0.0
  0
LINE
  5
1E60
330
1F
100
AcDbEntity
  8
ｴｸｽﾃﾝｼｮﾝﾌﾚｰﾑ
100
AcDbLine
 10
511.364198066215
 20
722.6611486324708
 30
0.0
 11
508.9076540431455
 21
722.6611486324708
 31
0.0
  0
LINE
  5
1E67
330
1F
100
AcDbEntity
  8
ｴｸｽﾃﾝｼｮﾝﾌﾚｰﾑ
100
AcDbLine
 10
511.364198066215
 20
724.1611486324708
 30
0.0
 11
511.8641980662149
 21
724.461148632471
 31
0.0
  0
LINE
  5
1E6D
330
1F
100
AcDbEntity
  8
ｴｸｽﾃﾝｼｮﾝﾌﾚｰﾑ
100
AcDbLine
 10
218.1776023638445
 20
780.0611486324709
 30
0.0
 11
505.5507937708488
 21
780.0611486324709
 31
0.0
  0
LINE
  5
1EBE
330
1F
100
AcDbEntity
  8
ｴｸｽﾃﾝｼｮﾝﾌﾚｰﾑ
100
AcDbLine
 10
215.2486680684781
 20
718.6611486324708
 30
0.0
 11
508.479728066215
 21
718.6611486324708
 31
0.0
  0
LINE
  5
27A3
330
1F
100
AcDbEntity
  8
ｴｸｽﾃﾝｼｮﾝﾌﾚｰﾑ
100
AcDbLine
 10
235.9398403505027
 20
587.4456349325781
 30
0.0
 11
235.9393481829751
 21
588.7074572146026
 31
0.0
  0
CIRCLE
  5
27A8
330
1F
100
AcDbEntity
  8
ｴｸｽﾃﾝｼｮﾝﾌﾚｰﾑ
100
AcDbCircle
 10
247.1986680684781
 20
588.3525572146026
 30
0.0
 40
2.077509999999989
  0
ARC
  5
27DA
330
1F
100
AcDbEntity
  8
ｴｸｽﾃﾝｼｮﾝﾌﾚｰﾑ
100
AcDbCircle
 10
247.1928880684782
 20
595.0783472146025
 30
0.0
 40
0.3
100
AcDbArc
 50
90.0
 51
180.0
1001
GENIUS_GENODEF_13
1002
{
1000
HIER
1070
     0
1002
}
1002
{
1000
MANEDIT
1070
     0
1002
}
1002
{
1000
NOSEL
1070
     0
1002
}
1002
{
1000
BEHIND
1070
     0
1002
}
1002
{
1000
OTHER
1070
     0
1002
}
1002
{
1000
REACTOR
1002
}
1001
GENIUS_GENOBJ-N-FIL_13
1002
{
1000
OWNER
1000
GEN
1002
}
  0
ARC
  5
2806
330
1F
100
AcDbEntity
  8
ｴｸｽﾃﾝｼｮﾝﾌﾚｰﾑ
100
AcDbCircle
 10
246.8137480684782
 20
596.2725572146025
 30
0.0
 40
2.399999999999999
100
AcDbArc
 50
90.0
 51
180.0
1001
GENIUS_GENODEF_13
1002
{
1000
HIER
1070
     0
1002
}
1002
{
1000
MANEDIT
1070
     0
1002
}
1002
{
1000
NOSEL
1070
     0
1002
}
1002
{
1000
BEHIND
1070
     0
1002
}
1002
{
1000
OTHER
1070
     0
1002
}
1002
{
1000
REACTOR
1002
}
1001
GENIUS_GENOBJ-N-FIL_13
1002
{
1000
OWNER
1000
GEN
1002
}
  0
ARC
  5
2841
330
1F
100
AcDbEntity
  8
ｴｸｽﾃﾝｼｮﾝﾌﾚｰﾑ
100
AcDbCircle
 10
246.8486680684781
 20
596.2725572146025
 30
0.0
 40
4.000020000000096
100
AcDbArc
 50
143.1302742406297
 51
179.999989999999
  0
ARC
  5
2870
330
1F
100
AcDbEntity
  8
ｴｸｽﾃﾝｼｮﾝﾌﾚｰﾑ
100
AcDbCircle
 10
242.8486430685041
 20
599.2725572146025
 30
0.0
 40
1.0
100
AcDbArc
 50
323.1302742406252
 51
89.99999999999674
1001
GENIUS_GENOBJ-N-FIL_13
1002
{
1000
OWNER
1000
GEN
1002
}
1001
GENIUS_GENODEF_13
1002
{
1000
HIER
1070
     0
1002
}
1002
{
1000
MANEDIT
1070
     0
1002
}
1002
{
1000
NOSEL
1070
     0
1002
}
1002
{
1000
BEHIND
1070
     0
1002
}
1002
{
1000
OTHER
1070
     0
1002
}
1002
{
1000
REACTOR
1002
}
  0
ARC
  5
28A3
330
1F
100
AcDbEntity
  8
ｴｸｽﾃﾝｼｮﾝﾌﾚｰﾑ
100
AcDbCircle
 10
221.8641980684783
 20
593.2570272146025
 30
0.0
 40
10.0
100
AcDbArc
 50
90.0
 51
180.0
1001
GENIUS_GENOBJ-N-FIL_13
1002
{
1000
OWNER
1000
GEN
1002
}
1001
GENIUS_GENODEF_13
1002
{
1000
HIER
1070
     0
1002
}
1002
{
1000
MANEDIT
1070
     0
1002
}
1002
{
1000
NOSEL
1070
     0
1002
}
1002
{
1000
BEHIND
1070
     0
1002
}
1002
{
1000
OTHER
1070
     0
1002
}
1002
{
1000
REACTOR
1002
}
  0
LINE
  5
28AD
330
1F
100
AcDbEntity
  8
ｴｸｽﾃﾝｼｮﾝﾌﾚｰﾑ
100
AcDbLine
 10
501.8641980684782
 20
602.7570272146026
 30
0.0
 11
221.8641980684783
 21
602.7570272146026
 31
0.0
  0
ARC
  5
28B3
330
1F
100
AcDbEntity
  8
ｴｸｽﾃﾝｼｮﾝﾌﾚｰﾑ
100
AcDbCircle
 10
221.8641980684783
 20
593.2570272146025
 30
0.0
 40
9.5
100
AcDbArc
 50
90.0
 51
180.0
1001
GENIUS_GENOBJ-N-FIL_13
1002
{
1000
OWNER
1000
GEN
1002
}
1001
GENIUS_GENODEF_13
1002
{
1000
HIER
1070
     0
1002
}
1002
{
1000
MANEDIT
1070
     0
1002
}
1002
{
1000
NOSEL
1070
     0
1002
}
1002
{
1000
BEHIND
1070
     0
1002
}
1002
{
1000
OTHER
1070
     0
1002
}
1002
{
1000
REACTOR
1002
}
  0
LINE
  5
28E7
330
1F
100
AcDbEntity
  8
ｴｸｽﾃﾝｼｮﾝﾌﾚｰﾑ
100
AcDbLine
 10
246.1141980684782
 20
602.9570272146024
 30
0.0
 11
242.6141980684782
 21
602.9570272146024
 31
0.0
  0
ARC
  5
2977
330
1F
100
AcDbEntity
  8
ｴｸｽﾃﾝｼｮﾝﾌﾚｰﾑ
100
AcDbCircle
 10
246.4141980684781
 20
602.9570272146027
 30
0.0
 40
0.3
100
AcDbArc
 50
89.9999999999772
 51
180.0000000000227
1001
GENIUS_GENOBJ-N-FIL_13
1002
{
1000
OWNER
1000
GEN
1002
}
1001
GENIUS_GENODEF_13
1002
{
1000
HIER
1070
     0
1002
}
1002
{
1000
MANEDIT
1070
     0
1002
}
1002
{
1000
NOSEL
1070
     0
1002
}
1002
{
1000
BEHIND
1070
     0
1002
}
1002
{
1000
OTHER
1070
     0
1002
}
1002
{
1000
REACTOR
1002
}
  0
ARC
  5
2979
330
1F
100
AcDbEntity
  8
ｴｸｽﾃﾝｼｮﾝﾌﾚｰﾑ
100
AcDbCircle
 10
242.3141980684783
 20
602.9570272146027
 30
0.0
 40
0.3
100
AcDbArc
 50
359.9999999999675
 51
90.00000000000978
1001
GENIUS_GENOBJ-N-FIL_13
1002
{
1000
OWNER
1000
GEN
1002
}
1001
GENIUS_GENODEF_13
1002
{
1000
HIER
1070
     0
1002
}
1002
{
1000
MANEDIT
1070
     0
1002
}
1002
{
1000
NOSEL
1070
     0
1002
}
1002
{
1000
BEHIND
1070
     0
1002
}
1002
{
1000
OTHER
1070
     0
1002
}
1002
{
1000
REACTOR
1002
}
  0
ARC
  5
297B
330
1F
100
AcDbEntity
  8
ｴｸｽﾃﾝｼｮﾝﾌﾚｰﾑ
100
AcDbCircle
 10
240.4141980684782
 20
602.9570272146027
 30
0.0
 40
0.3
100
AcDbArc
 50
89.99999999998697
 51
180.0000000000227
1001
GENIUS_GENOBJ-N-FIL_13
1002
{
1000
OWNER
1000
GEN
1002
}
1001
GENIUS_GENODEF_13
1002
{
1000
HIER
1070
     0
1002
}
1002
{
1000
MANEDIT
1070
     0
1002
}
1002
{
1000
NOSEL
1070
     0
1002
}
1002
{
1000
BEHIND
1070
     0
1002
}
1002
{
1000
OTHER
1070
     0
1002
}
1002
{
1000
REACTOR
1002
}
  0
ARC
  5
297D
330
1F
100
AcDbEntity
  8
ｴｸｽﾃﾝｼｮﾝﾌﾚｰﾑ
100
AcDbCircle
 10
236.3141980684783
 20
602.9570272146027
 30
0.0
 40
0.3
100
AcDbArc
 50
359.9999999999675
 51
90.00000000000978
1001
GENIUS_GENOBJ-N-FIL_13
1002
{
1000
OWNER
1000
GEN
1002
}
1001
GENIUS_GENODEF_13
1002
{
1000
HIER
1070
     0
1002
}
1002
{
1000
MANEDIT
1070
     0
1002
}
1002
{
1000
NOSEL
1070
     0
1002
}
1002
{
1000
BEHIND
1070
     0
1002
}
1002
{
1000
OTHER
1070
     0
1002
}
1002
{
1000
REACTOR
1002
}
  0
LINE
  5
297E
330
1F
100
AcDbEntity
  8
ｴｸｽﾃﾝｼｮﾝﾌﾚｰﾑ
100
AcDbLine
 10
240.1141980684782
 20
602.9570272146024
 30
0.0
 11
236.6141980684782
 21
602.9570272146024
 31
0.0
  0
LINE
  5
2B3C
330
1F
100
AcDbEntity
  8
ｴｸｽﾃﾝｼｮﾝﾌﾚｰﾑ
100
AcDbLine
 10
211.8641980684783
 20
237.8070272146024
 30
0.0
 11
211.8641980684782
 21
568.7070272146026
 31
0.0
  0
LINE
  5
2B3D
330
1F
100
AcDbEntity
  8
ｴｸｽﾃﾝｼｮﾝﾌﾚｰﾑ
100
AcDbLine
 10
212.3641980684782
 20
213.2570272146026
 30
0.0
 11
212.3641980684782
 21
593.2570272146025
 31
0.0
  0
LINE
  5
2B3E
330
1F
100
AcDbEntity
  8
ｴｸｽﾃﾝｼｮﾝﾌﾚｰﾑ
100
AcDbLine
 10
215.2486680684784
 20
238.2414972146023
 30
0.0
 11
215.2486680684783
 21
568.2725572146027
 31
0.0
  0
LINE
  5
2B3F
330
1F
100
AcDbEntity
  8
ｴｸｽﾃﾝｼｮﾝﾌﾚｰﾑ
100
AcDbLine
 10
216.4486680684784
 20
568.3074772146027
 30
0.0
 11
216.4486680684782
 21
238.2065772146025
 31
0.0
  0
LINE
  5
2B40
330
1F
100
AcDbEntity
  8
ｴｸｽﾃﾝｼｮﾝﾌﾚｰﾑ
100
AcDbLine
 10
219.7428780684782
 20
238.5857172146022
 30
0.0
 11
219.7428780684782
 21
567.9283372146027
 31
0.0
  0
LINE
  5
2B41
330
1F
100
AcDbEntity
  8
ｴｸｽﾃﾝｼｮﾝﾌﾚｰﾑ
100
AcDbLine
 10
211.8641980684782
 20
572.8070272146026
 30
0.0
 11
211.8641980684782
 21
574.7070272146025
 31
0.0
  0
LINE
  5
2B42
330
1F
100
AcDbEntity
  8
ｴｸｽﾃﾝｼｮﾝﾌﾚｰﾑ
100
AcDbLine
 10
211.8641980684782
 20
578.8070272146025
 30
0.0
 11
211.8641980684782
 21
593.2570272146025
 31
0.0
  0
LINE
  5
2B43
330
1F
100
AcDbEntity
  8
ｴｸｽﾃﾝｼｮﾝﾌﾚｰﾑ
100
AcDbLine
 10
214.8486680684782
 20
572.2725822145766
 30
0.0
 11
214.8486680684782
 21
583.8499972146027
 31
0.0
  0
LINE
  5
2B44
330
1F
100
AcDbEntity
  8
ｴｸｽﾃﾝｼｮﾝﾌﾚｰﾑ
100
AcDbLine
 10
224.939078085044
 20
568.9067565300957
 30
0.0
 11
223.6693925882037
 21
570.9280069730281
 31
0.0
  0
LINE
  5
2B45
330
1F
100
AcDbEntity
  8
ｴｸｽﾃﾝｼｮﾝﾌﾚｰﾑ
100
AcDbLine
 10
222.4986680684783
 20
568.2283372146026
 30
0.0
 11
220.0428780684783
 21
568.2283372146026
 31
0.0
  0
ARC
  5
2B46
330
1F
100
AcDbEntity
  8
ｴｸｽﾃﾝｼｮﾝﾌﾚｰﾑ
100
AcDbCircle
 10
220.0428780684783
 20
567.9283372146027
 30
0.0
 40
0.3
100
AcDbArc
 50
90.0
 51
180.0
1001
GENIUS_GENODEF_13
1002
{
1000
HIER
1070
     0
1002
}
1002
{
1000
MANEDIT
1070
     0
1002
}
1002
{
1000
NOSEL
1070
     0
1002
}
1002
{
1000
BEHIND
1070
     0
1002
}
1002
{
1000
OTHER
1070
     0
1002
}
1002
{
1000
REACTOR
1002
}
1001
GENIUS_GENOBJ-N-FIL_13
1002
{
1000
OWNER
1000
GEN
1002
}
  0
LINE
  5
2B47
330
1F
100
AcDbEntity
  8
ｴｸｽﾃﾝｼｮﾝﾌﾚｰﾑ
100
AcDbLine
 10
225.2986423379849
 20
571.9756745607189
 30
0.0
 11
226.6223686080019
 21
569.9949095659088
 31
0.0
  0
LINE
  5
2B48
330
1F
100
AcDbEntity
  8
ｴｸｽﾃﾝｼｮﾝﾌﾚｰﾑ
100
AcDbLine
 10
224.8486680684782
 20
582.0675472146027
 30
0.0
 11
224.8486680684782
 21
574.7725672146026
 31
0.0
  0
LINE
  5
2B49
330
1F
100
AcDbEntity
  8
ｴｸｽﾃﾝｼｮﾝﾌﾚｰﾑ
100
AcDbLine
 10
225.2486680684783
 20
581.0248872146027
 30
0.0
 11
225.2486680684783
 21
574.7725672146026
 31
0.0
  0
LINE
  5
2B4A
330
1F
100
AcDbEntity
  8
ｴｸｽﾃﾝｼｮﾝﾌﾚｰﾑ
100
AcDbLine
 10
226.4137680684783
 20
574.7725672146026
 30
0.0
 11
226.4137680684783
 21
581.0248872146027
 31
0.0
  0
LINE
  5
2B4B
330
1F
100
AcDbEntity
  8
ｴｸｽﾃﾝｼｮﾝﾌﾚｰﾑ
100
AcDbLine
 10
218.8486680684782
 20
570.7074772146025
 30
0.0
 11
222.3486680684782
 21
570.7074772146025
 31
0.0
  0
ARC
  5
2B4C
330
1F
100
AcDbEntity
  8
ｴｸｽﾃﾝｼｮﾝﾌﾚｰﾑ
100
AcDbCircle
 10
218.8486680684782
 20
568.3074772146027
 30
0.0
 40
2.399999999999999
100
AcDbArc
 50
90.0
 51
180.0
1001
GENIUS_GENODEF_13
1002
{
1000
HIER
1070
     0
1002
}
1002
{
1000
MANEDIT
1070
     0
1002
}
1002
{
1000
NOSEL
1070
     0
1002
}
1002
{
1000
BEHIND
1070
     0
1002
}
1002
{
1000
OTHER
1070
     0
1002
}
1002
{
1000
REACTOR
1002
}
1001
GENIUS_GENOBJ-N-FIL_13
1002
{
1000
OWNER
1000
GEN
1002
}
  0
LINE
  5
2B4D
330
1F
100
AcDbEntity
  8
ｴｸｽﾃﾝｼｮﾝﾌﾚｰﾑ
100
AcDbLine
 10
228.7928780684782
 20
578.0640972146025
 30
0.0
 11
228.7928780684782
 21
574.5225672146026
 31
0.0
  0
LINE
  5
2B4E
330
1F
100
AcDbEntity
  8
ｴｸｽﾃﾝｼｮﾝﾌﾚｰﾑ
100
AcDbLine
 10
222.3486680684782
 20
571.8725472146026
 30
0.0
 11
218.8486680684782
 21
571.8725472146026
 31
0.0
  0
LINE
  5
2B4F
330
1F
100
AcDbEntity
  8
ｴｸｽﾃﾝｼｮﾝﾌﾚｰﾑ
100
AcDbLine
 10
222.3486680684782
 20
572.2725672146026
 30
0.0
 11
218.8486680684782
 21
572.2725672146026
 31
0.0
  0
LINE
  5
2B50
330
1F
100
AcDbEntity
  8
ｴｸｽﾃﾝｼｮﾝﾌﾚｰﾑ
100
AcDbLine
 10
230.5928880684783
 20
576.2640872146026
 30
0.0
 11
230.5928880684783
 21
574.4281472146027
 31
0.0
  0
LINE
  5
2B51
330
1F
100
AcDbEntity
  8
ｴｸｽﾃﾝｼｮﾝﾌﾚｰﾑ
100
AcDbLine
 10
230.5928880684783
 20
574.4281472146027
 30
0.0
 11
231.2257080684783
 21
573.7953172146027
 31
0.0
  0
LINE
  5
2B52
330
1F
100
AcDbEntity
  8
ｴｸｽﾃﾝｼｮﾝﾌﾚｰﾑ
100
AcDbLine
 10
227.6755903505027
 20
579.1813849325782
 30
0.0
 11
230.5928880684783
 21
576.2640872146026
 31
0.0
  0
LINE
  5
2B53
330
1F
100
AcDbEntity
  8
ｴｸｽﾃﾝｼｮﾝﾌﾚｰﾑ
100
AcDbLine
 10
234.0541280684782
 20
576.6237572146027
 30
0.0
 11
229.5993580684783
 21
581.0785272146025
 31
0.0
  0
LINE
  5
2B54
330
1F
100
AcDbEntity
  8
ｴｸｽﾃﾝｼｮﾝﾌﾚｰﾑ
100
AcDbLine
 10
231.2257080684783
 20
573.7953172146027
 30
0.0
 11
234.0541280684782
 21
576.6237572146027
 31
0.0
  0
LINE
  5
2B55
330
1F
100
AcDbEntity
  8
ｴｸｽﾃﾝｼｮﾝﾌﾚｰﾑ
100
AcDbLine
 10
227.6755903505027
 20
579.1813849325782
 30
0.0
 11
226.4137680684783
 21
579.1818771001056
 31
0.0
  0
LINE
  5
2B56
330
1F
100
AcDbEntity
  8
ｴｸｽﾃﾝｼｮﾝﾌﾚｰﾑ
100
AcDbLine
 10
229.5993580684783
 20
581.0785272146025
 30
0.0
 11
226.4147610078569
 21
581.0785272146025
 31
0.0
  0
ARC
  5
2B57
330
1F
100
AcDbEntity
  8
ｴｸｽﾃﾝｼｮﾝﾌﾚｰﾑ
100
AcDbCircle
 10
222.4986680684783
 20
574.5225672146026
 30
0.0
 40
6.294209999999999
100
AcDbArc
 50
270.0
 51
291.770144783092
  0
ARC
  5
2B58
330
1F
100
AcDbEntity
  8
ｴｸｽﾃﾝｼｮﾝﾌﾚｰﾑ
100
AcDbCircle
 10
222.4986680684783
 20
574.5225672146026
 30
0.0
 40
6.294209999999999
100
AcDbArc
 50
314.0330625592539
 51
0.0000100000010064
  0
ARC
  5
2B59
330
1F
100
AcDbEntity
  8
ｴｸｽﾃﾝｼｮﾝﾌﾚｰﾑ
100
AcDbCircle
 10
222.3486680684782
 20
574.7725672146026
 30
0.0
 40
2.5
100
AcDbArc
 50
270.0
 51
0.0000100000010064
  0
ARC
  5
2B5A
330
1F
100
AcDbEntity
  8
ｴｸｽﾃﾝｼｮﾝﾌﾚｰﾑ
100
AcDbCircle
 10
223.8486680684782
 20
582.0675472146027
 30
0.0
 40
1.0
100
AcDbArc
 50
0.0
 51
99.3124500000003
  0
ARC
  5
2B5B
330
1F
100
AcDbEntity
  8
ｴｸｽﾃﾝｼｮﾝﾌﾚｰﾑ
100
AcDbCircle
 10
222.0686680684782
 20
592.9225472146027
 30
0.0
 40
10.0
100
AcDbArc
 50
235.5661500000021
 51
279.3124399999985
  0
ARC
  5
2B5C
330
1F
100
AcDbEntity
  8
ｴｸｽﾃﾝｼｮﾝﾌﾚｰﾑ
100
AcDbCircle
 10
215.8486680684782
 20
583.8499972146027
 30
0.0
 40
1.0
100
AcDbArc
 50
55.56613999999793
 51
180.0000100000009
  0
ARC
  5
2B5D
330
1F
100
AcDbEntity
  8
ｴｸｽﾃﾝｼｮﾝﾌﾚｰﾑ
100
AcDbCircle
 10
227.8486680684782
 20
581.0248872146027
 30
0.0
 40
1.43491
100
AcDbArc
 50
135.0
 51
180.0000100000009
  0
ARC
  5
2B5E
330
1F
100
AcDbEntity
  8
ｴｸｽﾃﾝｼｮﾝﾌﾚｰﾑ
100
AcDbCircle
 10
222.3486680684782
 20
574.7725672146026
 30
0.0
 40
4.06509
100
AcDbArc
 50
270.0
 51
0.0000100000010064
  0
ARC
  5
2B5F
330
1F
100
AcDbEntity
  8
ｴｸｽﾃﾝｼｮﾝﾌﾚｰﾑ
100
AcDbCircle
 10
218.8486680684782
 20
568.2725572146027
 30
0.0
 40
3.6
100
AcDbArc
 50
90.00000999999775
 51
180.0000100000009
  0
ARC
  5
2B60
330
1F
100
AcDbEntity
  8
ｴｸｽﾃﾝｼｮﾝﾌﾚｰﾑ
100
AcDbCircle
 10
218.8486680684782
 20
568.2725572146027
 30
0.0
 40
4.000020000000096
100
AcDbArc
 50
90.00000999999775
 51
126.8697257593702
  0
ARC
  5
2B61
330
1F
100
AcDbEntity
  8
ｴｸｽﾃﾝｼｮﾝﾌﾚｰﾑ
100
AcDbCircle
 10
215.8486680684782
 20
572.2725822145767
 30
0.0
 40
1.0
100
AcDbArc
 50
180.0000000000032
 51
306.8697257593748
1001
GENIUS_GENOBJ-N-FIL_13
1002
{
1000
OWNER
1000
GEN
1002
}
1001
GENIUS_GENODEF_13
1002
{
1000
HIER
1070
     0
1002
}
1002
{
1000
MANEDIT
1070
     0
1002
}
1002
{
1000
NOSEL
1070
     0
1002
}
1002
{
1000
BEHIND
1070
     0
1002
}
1002
{
1000
OTHER
1070
     0
1002
}
1002
{
1000
REACTOR
1002
}
  0
ARC
  5
2B62
330
1F
100
AcDbEntity
  8
ｴｸｽﾃﾝｼｮﾝﾌﾚｰﾑ
100
AcDbCircle
 10
222.3486680684782
 20
574.7725672146026
 30
0.0
 40
2.9
100
AcDbArc
 50
270.0
 51
0.0000100000010064
  0
ARC
  5
2B63
330
1F
100
AcDbEntity
  8
ｴｸｽﾃﾝｼｮﾝﾌﾚｰﾑ
100
AcDbCircle
 10
227.8486680684782
 20
581.0248872146027
 30
0.0
 40
2.6
100
AcDbArc
 50
135.0
 51
180.0000100000009
  0
CIRCLE
  5
2B6C
330
1F
100
AcDbEntity
  8
ｴｸｽﾃﾝｼｮﾝﾌﾚｰﾑ
100
AcDbCircle
 10
226.7686680684783
 20
567.9225572146028
 30
0.0
 40
2.077509999999989
  0
LINE
  5
2B6D
330
1F
100
AcDbEntity
  8
ｴｸｽﾃﾝｼｮﾝﾌﾚｰﾑ
100
AcDbLine
 10
212.1641980684783
 20
569.0070272146025
 30
0.0
 11
212.1641980684783
 21
572.5070272146025
 31
0.0
  0
LINE
  5
2B6E
330
1F
100
AcDbEntity
  8
ｴｸｽﾃﾝｼｮﾝﾌﾚｰﾑ
100
AcDbLine
 10
212.1641980684783
 20
575.0070272146025
 30
0.0
 11
212.1641980684783
 21
578.5070272146025
 31
0.0
  0
ARC
  5
2B6F
330
1F
100
AcDbEntity
  8
ｴｸｽﾃﾝｼｮﾝﾌﾚｰﾑ
100
AcDbCircle
 10
212.1641980684781
 20
568.7070272146026
 30
0.0
 40
0.3
100
AcDbArc
 50
89.9999999999772
 51
180.0000000000227
1001
GENIUS_GENOBJ-N-FIL_13
1002
{
1000
OWNER
1000
GEN
1002
}
1001
GENIUS_GENODEF_13
1002
{
1000
HIER
1070
     0
1002
}
1002
{
1000
MANEDIT
1070
     0
1002
}
1002
{
1000
NOSEL
1070
     0
1002
}
1002
{
1000
BEHIND
1070
     0
1002
}
1002
{
1000
OTHER
1070
     0
1002
}
1002
{
1000
REACTOR
1002
}
  0
ARC
  5
2B70
330
1F
100
AcDbEntity
  8
ｴｸｽﾃﾝｼｮﾝﾌﾚｰﾑ
100
AcDbCircle
 10
212.1641980684781
 20
572.8070272146025
 30
0.0
 40
0.3
100
AcDbArc
 50
179.9999999999902
 51
270.0000000000326
1001
GENIUS_GENOBJ-N-FIL_13
1002
{
1000
OWNER
1000
GEN
1002
}
1001
GENIUS_GENODEF_13
1002
{
1000
HIER
1070
     0
1002
}
1002
{
1000
MANEDIT
1070
     0
1002
}
1002
{
1000
NOSEL
1070
     0
1002
}
1002
{
1000
BEHIND
1070
     0
1002
}
1002
{
1000
OTHER
1070
     0
1002
}
1002
{
1000
REACTOR
1002
}
  0
ARC
  5
2B71
330
1F
100
AcDbEntity
  8
ｴｸｽﾃﾝｼｮﾝﾌﾚｰﾑ
100
AcDbCircle
 10
212.1641980684781
 20
574.7070272146025
 30
0.0
 40
0.3
100
AcDbArc
 50
89.9999999999772
 51
180.0000000000097
1001
GENIUS_GENOBJ-N-FIL_13
1002
{
1000
OWNER
1000
GEN
1002
}
1001
GENIUS_GENODEF_13
1002
{
1000
HIER
1070
     0
1002
}
1002
{
1000
MANEDIT
1070
     0
1002
}
1002
{
1000
NOSEL
1070
     0
1002
}
1002
{
1000
BEHIND
1070
     0
1002
}
1002
{
1000
OTHER
1070
     0
1002
}
1002
{
1000
REACTOR
1002
}
  0
ARC
  5
2B72
330
1F
100
AcDbEntity
  8
ｴｸｽﾃﾝｼｮﾝﾌﾚｰﾑ
100
AcDbCircle
 10
212.1641980684781
 20
578.8070272146025
 30
0.0
 40
0.3
100
AcDbArc
 50
179.9999999999902
 51
270.0000000000326
1001
GENIUS_GENOBJ-N-FIL_13
1002
{
1000
OWNER
1000
GEN
1002
}
1001
GENIUS_GENODEF_13
1002
{
1000
HIER
1070
     0
1002
}
1002
{
1000
MANEDIT
1070
     0
1002
}
1002
{
1000
NOSEL
1070
     0
1002
}
1002
{
1000
BEHIND
1070
     0
1002
}
1002
{
1000
OTHER
1070
     0
1002
}
1002
{
1000
REACTOR
1002
}
  0
LINE
  5
2C6D
330
1F
100
AcDbEntity
  8
ｴｸｽﾃﾝｼｮﾝﾌﾚｰﾑ
100
AcDbLine
 10
477.3141980684786
 20
203.2570272146023
 30
0.0
 11
246.4141980684783
 21
203.2570272146025
 31
0.0
  0
LINE
  5
2C6E
330
1F
100
AcDbEntity
  8
ｴｸｽﾃﾝｼｮﾝﾌﾚｰﾑ
100
AcDbLine
 10
501.8641980684783
 20
203.7570272146023
 30
0.0
 11
221.8641980684783
 21
203.7570272146025
 31
0.0
  0
LINE
  5
2C6F
330
1F
100
AcDbEntity
  8
ｴｸｽﾃﾝｼｮﾝﾌﾚｰﾑ
100
AcDbLine
 10
476.8797280684784
 20
206.6414972146023
 30
0.0
 11
246.8486680684781
 21
206.6414972146025
 31
0.0
  0
LINE
  5
2C70
330
1F
100
AcDbEntity
  8
ｴｸｽﾃﾝｼｮﾝﾌﾚｰﾑ
100
AcDbLine
 10
246.8137480684782
 20
207.8414972146028
 30
0.0
 11
476.9146480684785
 21
207.8414972146021
 31
0.0
  0
LINE
  5
2C71
330
1F
100
AcDbEntity
  8
ｴｸｽﾃﾝｼｮﾝﾌﾚｰﾑ
100
AcDbLine
 10
476.5355080684785
 20
211.1357072146023
 30
0.0
 11
247.1928880684782
 21
211.1357072146026
 31
0.0
  0
LINE
  5
2C72
330
1F
100
AcDbEntity
  8
ｴｸｽﾃﾝｼｮﾝﾌﾚｰﾑ
100
AcDbLine
 10
242.3141980684782
 20
203.2570272146025
 30
0.0
 11
240.4141980684783
 21
203.2570272146025
 31
0.0
  0
LINE
  5
2C73
330
1F
100
AcDbEntity
  8
ｴｸｽﾃﾝｼｮﾝﾌﾚｰﾑ
100
AcDbLine
 10
236.3141980684781
 20
203.2570272146025
 30
0.0
 11
221.8641980684783
 21
203.2570272146025
 31
0.0
  0
LINE
  5
2C74
330
1F
100
AcDbEntity
  8
ｴｸｽﾃﾝｼｮﾝﾌﾚｰﾑ
100
AcDbLine
 10
242.8486430685042
 20
206.2414972146026
 30
0.0
 11
231.2712280684782
 21
206.2414972146026
 31
0.0
  0
LINE
  5
2C75
330
1F
100
AcDbEntity
  8
ｴｸｽﾃﾝｼｮﾝﾌﾚｰﾑ
100
AcDbLine
 10
246.214468752985
 20
216.3319072311684
 30
0.0
 11
244.1932183100528
 21
215.0622217343279
 31
0.0
  0
LINE
  5
2C76
330
1F
100
AcDbEntity
  8
ｴｸｽﾃﾝｼｮﾝﾌﾚｰﾑ
100
AcDbLine
 10
226.0101780684781
 20
223.6506872146027
 30
0.0
 11
232.2578480684782
 21
217.4030272146027
 31
0.0
  0
LINE
  5
2C77
330
1F
100
AcDbEntity
  8
ｴｸｽﾃﾝｼｮﾝﾌﾚｰﾑ
100
AcDbLine
 10
246.8928880684781
 20
213.8914972146025
 30
0.0
 11
246.8928880684781
 21
211.4357072146025
 31
0.0
  0
ARC
  5
2C78
330
1F
100
AcDbEntity
  8
ｴｸｽﾃﾝｼｮﾝﾌﾚｰﾑ
100
AcDbCircle
 10
247.1928880684782
 20
211.4357072146024
 30
0.0
 40
0.3
100
AcDbArc
 50
180.0
 51
270.0
1001
GENIUS_GENODEF_13
1002
{
1000
HIER
1070
     0
1002
}
1002
{
1000
MANEDIT
1070
     0
1002
}
1002
{
1000
NOSEL
1070
     0
1002
}
1002
{
1000
BEHIND
1070
     0
1002
}
1002
{
1000
OTHER
1070
     0
1002
}
1002
{
1000
REACTOR
1002
}
1001
GENIUS_GENOBJ-N-FIL_13
1002
{
1000
OWNER
1000
GEN
1002
}
  0
LINE
  5
2C79
330
1F
100
AcDbEntity
  8
ｴｸｽﾃﾝｼｮﾝﾌﾚｰﾑ
100
AcDbLine
 10
243.1455507223618
 20
216.6914714841092
 30
0.0
 11
245.126315717172
 21
218.0151977541262
 31
0.0
  0
LINE
  5
2C7A
330
1F
100
AcDbEntity
  8
ｴｸｽﾃﾝｼｮﾝﾌﾚｰﾑ
100
AcDbLine
 10
233.0536780684781
 20
216.2414972146026
 30
0.0
 11
240.3486580684781
 21
216.2414972146026
 31
0.0
  0
LINE
  5
2C7B
330
1F
100
AcDbEntity
  8
ｴｸｽﾃﾝｼｮﾝﾌﾚｰﾑ
100
AcDbLine
 10
234.0963380684781
 20
216.6414972146025
 30
0.0
 11
240.3486580684781
 21
216.6414972146025
 31
0.0
  0
LINE
  5
2C7C
330
1F
100
AcDbEntity
  8
ｴｸｽﾃﾝｼｮﾝﾌﾚｰﾑ
100
AcDbLine
 10
240.3486580684781
 20
217.8065972146027
 30
0.0
 11
234.0963380684781
 21
217.8065972146027
 31
0.0
  0
LINE
  5
2C7D
330
1F
100
AcDbEntity
  8
ｴｸｽﾃﾝｼｮﾝﾌﾚｰﾑ
100
AcDbLine
 10
233.0817080684782
 20
218.2268672146027
 30
0.0
 11
226.8340380684781
 21
224.4745372146025
 31
0.0
  0
LINE
  5
2C7E
330
1F
100
AcDbEntity
  8
ｴｸｽﾃﾝｼｮﾝﾌﾚｰﾑ
100
AcDbLine
 10
244.4137480684782
 20
210.2414972146026
 30
0.0
 11
244.4137480684782
 21
213.7414972146026
 31
0.0
  0
ARC
  5
2C7F
330
1F
100
AcDbEntity
  8
ｴｸｽﾃﾝｼｮﾝﾌﾚｰﾑ
100
AcDbCircle
 10
246.8137480684782
 20
210.2414972146025
 30
0.0
 40
2.399999999999999
100
AcDbArc
 50
180.0
 51
270.0
1001
GENIUS_GENODEF_13
1002
{
1000
HIER
1070
     0
1002
}
1002
{
1000
MANEDIT
1070
     0
1002
}
1002
{
1000
NOSEL
1070
     0
1002
}
1002
{
1000
BEHIND
1070
     0
1002
}
1002
{
1000
OTHER
1070
     0
1002
}
1002
{
1000
REACTOR
1002
}
1001
GENIUS_GENOBJ-N-FIL_13
1002
{
1000
OWNER
1000
GEN
1002
}
  0
LINE
  5
2C80
330
1F
100
AcDbEntity
  8
ｴｸｽﾃﾝｼｮﾝﾌﾚｰﾑ
100
AcDbLine
 10
237.0571280684782
 20
220.1857072146025
 30
0.0
 11
240.5986580684781
 21
220.1857072146025
 31
0.0
  0
LINE
  5
2C81
330
1F
100
AcDbEntity
  8
ｴｸｽﾃﾝｼｮﾝﾌﾚｰﾑ
100
AcDbLine
 10
229.0254983344576
 20
225.4355272146025
 30
0.0
 11
234.0426980684782
 21
220.4183172146025
 31
0.0
  0
LINE
  5
2C82
330
1F
100
AcDbEntity
  8
ｴｸｽﾃﾝｼｮﾝﾌﾚｰﾑ
100
AcDbLine
 10
243.2486780684782
 20
213.7414972146026
 30
0.0
 11
243.2486780684782
 21
210.2414972146026
 31
0.0
  0
LINE
  5
2C83
330
1F
100
AcDbEntity
  8
ｴｸｽﾃﾝｼｮﾝﾌﾚｰﾑ
100
AcDbLine
 10
242.8486580684781
 20
213.7414972146026
 30
0.0
 11
242.8486580684781
 21
210.2414972146026
 31
0.0
  0
LINE
  5
2C84
330
1F
100
AcDbEntity
  8
ｴｸｽﾃﾝｼｮﾝﾌﾚｰﾑ
100
AcDbLine
 10
238.8571380684781
 20
221.9857172146025
 30
0.0
 11
240.6930780684781
 21
221.9857172146025
 31
0.0
  0
LINE
  5
2C85
330
1F
100
AcDbEntity
  8
ｴｸｽﾃﾝｼｮﾝﾌﾚｰﾑ
100
AcDbLine
 10
240.6930780684781
 20
221.9857172146025
 30
0.0
 11
241.3259080684782
 21
222.6185372146027
 31
0.0
  0
LINE
  5
2C86
330
1F
100
AcDbEntity
  8
ｴｸｽﾃﾝｼｮﾝﾌﾚｰﾑ
100
AcDbLine
 10
235.9398403505027
 20
219.0684194966272
 30
0.0
 11
238.8571380684781
 21
221.9857172146025
 31
0.0
  0
LINE
  5
2C87
330
1F
100
AcDbEntity
  8
ｴｸｽﾃﾝｼｮﾝﾌﾚｰﾑ
100
AcDbLine
 10
238.4974680684782
 20
225.4469572146025
 30
0.0
 11
234.0426980684782
 21
220.9921872146027
 31
0.0
  0
LINE
  5
2C88
330
1F
100
AcDbEntity
  8
ｴｸｽﾃﾝｼｮﾝﾌﾚｰﾑ
100
AcDbLine
 10
241.3259080684782
 20
222.6185372146027
 30
0.0
 11
238.4974680684782
 21
225.4469572146025
 31
0.0
  0
LINE
  5
2C89
330
1F
100
AcDbEntity
  8
ｴｸｽﾃﾝｼｮﾝﾌﾚｰﾑ
100
AcDbLine
 10
235.9398403505027
 20
219.0684194966272
 30
0.0
 11
235.9393481829751
 21
217.8065972146027
 31
0.0
  0
LINE
  5
2C8A
330
1F
100
AcDbEntity
  8
ｴｸｽﾃﾝｼｮﾝﾌﾚｰﾑ
100
AcDbLine
 10
234.0426980684782
 20
220.9921872146027
 30
0.0
 11
234.0426980684782
 21
217.8075901539813
 31
0.0
  0
ARC
  5
2C8B
330
1F
100
AcDbEntity
  8
ｴｸｽﾃﾝｼｮﾝﾌﾚｰﾑ
100
AcDbCircle
 10
221.8641980684783
 20
213.2570272146024
 30
0.0
 40
10.0
100
AcDbArc
 50
180.0
 51
270.0
1001
GENIUS_GENOBJ-N-FIL_13
1002
{
1000
OWNER
1000
GEN
1002
}
1001
GENIUS_GENODEF_13
1002
{
1000
HIER
1070
     0
1002
}
1002
{
1000
MANEDIT
1070
     0
1002
}
1002
{
1000
NOSEL
1070
     0
1002
}
1002
{
1000
BEHIND
1070
     0
1002
}
1002
{
1000
OTHER
1070
     0
1002
}
1002
{
1000
REACTOR
1002
}
  0
ARC
  5
2C8C
330
1F
100
AcDbEntity
  8
ｴｸｽﾃﾝｼｮﾝﾌﾚｰﾑ
100
AcDbCircle
 10
221.8641980684783
 20
213.2570272146024
 30
0.0
 40
9.5
100
AcDbArc
 50
180.0
 51
270.0
1001
GENIUS_GENOBJ-N-FIL_13
1002
{
1000
OWNER
1000
GEN
1002
}
1001
GENIUS_GENODEF_13
1002
{
1000
HIER
1070
     0
1002
}
1002
{
1000
MANEDIT
1070
     0
1002
}
1002
{
1000
NOSEL
1070
     0
1002
}
1002
{
1000
BEHIND
1070
     0
1002
}
1002
{
1000
OTHER
1070
     0
1002
}
1002
{
1000
REACTOR
1002
}
  0
ARC
  5
2C8D
330
1F
100
AcDbEntity
  8
ｴｸｽﾃﾝｼｮﾝﾌﾚｰﾑ
100
AcDbCircle
 10
240.5986580684781
 20
213.8914972146024
 30
0.0
 40
6.294209999999999
100
AcDbArc
 50
0.0
 51
21.77014478309193
  0
ARC
  5
2C8E
330
1F
100
AcDbEntity
  8
ｴｸｽﾃﾝｼｮﾝﾌﾚｰﾑ
100
AcDbCircle
 10
240.5986580684781
 20
213.8914972146024
 30
0.0
 40
6.294209999999999
100
AcDbArc
 50
44.03306255925617
 51
90.00001000000102
  0
ARC
  5
2C90
330
1F
100
AcDbEntity
  8
ｴｸｽﾃﾝｼｮﾝﾌﾚｰﾑ
100
AcDbCircle
 10
240.3486580684781
 20
213.7414972146025
 30
0.0
 40
2.5
100
AcDbArc
 50
0.0
 51
90.00001000000102
  0
ARC
  5
2C91
330
1F
100
AcDbEntity
  8
ｴｸｽﾃﾝｼｮﾝﾌﾚｰﾑ
100
AcDbCircle
 10
233.0536780684781
 20
215.2414972146025
 30
0.0
 40
1.0
100
AcDbArc
 50
90.0
 51
189.3124500000003
  0
ARC
  5
2C92
330
1F
100
AcDbEntity
  8
ｴｸｽﾃﾝｼｮﾝﾌﾚｰﾑ
100
AcDbCircle
 10
222.1986780684781
 20
213.4614972146025
 30
0.0
 40
10.0
100
AcDbArc
 50
325.5661500000021
 51
9.312440000001712
  0
ARC
  5
2C93
330
1F
100
AcDbEntity
  8
ｴｸｽﾃﾝｼｮﾝﾌﾚｰﾑ
100
AcDbCircle
 10
231.2712280684782
 20
207.2414972146025
 30
0.0
 40
1.0
100
AcDbArc
 50
145.5661399999979
 51
270.000010000001
  0
ARC
  5
2C95
330
1F
100
AcDbEntity
  8
ｴｸｽﾃﾝｼｮﾝﾌﾚｰﾑ
100
AcDbCircle
 10
234.0963380684781
 20
219.2414972146025
 30
0.0
 40
1.43491
100
AcDbArc
 50
225.0
 51
270.000010000001
  0
ARC
  5
2C96
330
1F
100
AcDbEntity
  8
ｴｸｽﾃﾝｼｮﾝﾌﾚｰﾑ
100
AcDbCircle
 10
240.3486580684781
 20
213.7414972146025
 30
0.0
 40
4.06509
100
AcDbArc
 50
0.0
 51
90.00001000000102
  0
ARC
  5
2C97
330
1F
100
AcDbEntity
  8
ｴｸｽﾃﾝｼｮﾝﾌﾚｰﾑ
100
AcDbCircle
 10
246.8486680684781
 20
210.2414972146025
 30
0.0
 40
3.6
100
AcDbArc
 50
180.0000099999977
 51
270.000010000001
  0
ARC
  5
2C98
330
1F
100
AcDbEntity
  8
ｴｸｽﾃﾝｼｮﾝﾌﾚｰﾑ
100
AcDbCircle
 10
246.8486680684781
 20
210.2414972146025
 30
0.0
 40
4.000020000000096
100
AcDbArc
 50
180.0000099999977
 51
216.8697257593703
  0
ARC
  5
2C99
330
1F
100
AcDbEntity
  8
ｴｸｽﾃﾝｼｮﾝﾌﾚｰﾑ
100
AcDbCircle
 10
242.8486430685041
 20
207.2414972146025
 30
0.0
 40
1.0
100
AcDbArc
 50
270.0000000000033
 51
36.86972575937485
1001
GENIUS_GENOBJ-N-FIL_13
1002
{
1000
OWNER
1000
GEN
1002
}
1001
GENIUS_GENODEF_13
1002
{
1000
HIER
1070
     0
1002
}
1002
{
1000
MANEDIT
1070
     0
1002
}
1002
{
1000
NOSEL
1070
     0
1002
}
1002
{
1000
BEHIND
1070
     0
1002
}
1002
{
1000
OTHER
1070
     0
1002
}
1002
{
1000
REACTOR
1002
}
  0
ARC
  5
2C9A
330
1F
100
AcDbEntity
  8
ｴｸｽﾃﾝｼｮﾝﾌﾚｰﾑ
100
AcDbCircle
 10
240.3486580684781
 20
213.7414972146025
 30
0.0
 40
2.9
100
AcDbArc
 50
0.0
 51
90.00001000000102
  0
ARC
  5
2C9B
330
1F
100
AcDbEntity
  8
ｴｸｽﾃﾝｼｮﾝﾌﾚｰﾑ
100
AcDbCircle
 10
234.0963380684781
 20
219.2414972146025
 30
0.0
 40
2.6
100
AcDbArc
 50
225.0
 51
270.000010000001
  0
CIRCLE
  5
2CC2
330
1F
100
AcDbEntity
  8
ｴｸｽﾃﾝｼｮﾝﾌﾚｰﾑ
100
AcDbCircle
 10
247.1986680684781
 20
218.1614972146024
 30
0.0
 40
2.077509999999989
  0
LINE
  5
2CC3
330
1F
100
AcDbEntity
  8
ｴｸｽﾃﾝｼｮﾝﾌﾚｰﾑ
100
AcDbLine
 10
246.1141980684782
 20
203.5570272146027
 30
0.0
 11
242.6141980684782
 21
203.5570272146027
 31
0.0
  0
LINE
  5
2CC4
330
1F
100
AcDbEntity
  8
ｴｸｽﾃﾝｼｮﾝﾌﾚｰﾑ
100
AcDbLine
 10
240.1141980684782
 20
203.5570272146027
 30
0.0
 11
236.6141980684782
 21
203.5570272146027
 31
0.0
  0
ARC
  5
2CC5
330
1F
100
AcDbEntity
  8
ｴｸｽﾃﾝｼｮﾝﾌﾚｰﾑ
100
AcDbCircle
 10
246.4141980684781
 20
203.5570272146024
 30
0.0
 40
0.3
100
AcDbArc
 50
179.9999999999772
 51
270.0000000000196
1001
GENIUS_GENOBJ-N-FIL_13
1002
{
1000
OWNER
1000
GEN
1002
}
1001
GENIUS_GENODEF_13
1002
{
1000
HIER
1070
     0
1002
}
1002
{
1000
MANEDIT
1070
     0
1002
}
1002
{
1000
NOSEL
1070
     0
1002
}
1002
{
1000
BEHIND
1070
     0
1002
}
1002
{
1000
OTHER
1070
     0
1002
}
1002
{
1000
REACTOR
1002
}
  0
ARC
  5
2CC6
330
1F
100
AcDbEntity
  8
ｴｸｽﾃﾝｼｮﾝﾌﾚｰﾑ
100
AcDbCircle
 10
242.3141980684783
 20
203.5570272146024
 30
0.0
 40
0.3
100
AcDbArc
 50
269.999999999987
 51
0.0000000000325689
1001
GENIUS_GENOBJ-N-FIL_13
1002
{
1000
OWNER
1000
GEN
1002
}
1001
GENIUS_GENODEF_13
1002
{
1000
HIER
1070
     0
1002
}
1002
{
1000
MANEDIT
1070
     0
1002
}
1002
{
1000
NOSEL
1070
     0
1002
}
1002
{
1000
BEHIND
1070
     0
1002
}
1002
{
1000
OTHER
1070
     0
1002
}
1002
{
1000
REACTOR
1002
}
  0
ARC
  5
2CC7
330
1F
100
AcDbEntity
  8
ｴｸｽﾃﾝｼｮﾝﾌﾚｰﾑ
100
AcDbCircle
 10
240.4141980684782
 20
203.5570272146024
 30
0.0
 40
0.3
100
AcDbArc
 50
179.9999999999772
 51
270.0000000000098
1001
GENIUS_GENOBJ-N-FIL_13
1002
{
1000
OWNER
1000
GEN
1002
}
1001
GENIUS_GENODEF_13
1002
{
1000
HIER
1070
     0
1002
}
1002
{
1000
MANEDIT
1070
     0
1002
}
1002
{
1000
NOSEL
1070
     0
1002
}
1002
{
1000
BEHIND
1070
     0
1002
}
1002
{
1000
OTHER
1070
     0
1002
}
1002
{
1000
REACTOR
1002
}
  0
ARC
  5
2CC8
330
1F
100
AcDbEntity
  8
ｴｸｽﾃﾝｼｮﾝﾌﾚｰﾑ
100
AcDbCircle
 10
236.3141980684783
 20
203.5570272146024
 30
0.0
 40
0.3
100
AcDbArc
 50
269.999999999987
 51
0.0000000000325689
1001
GENIUS_GENOBJ-N-FIL_13
1002
{
1000
OWNER
1000
GEN
1002
}
1001
GENIUS_GENODEF_13
1002
{
1000
HIER
1070
     0
1002
}
1002
{
1000
MANEDIT
1070
     0
1002
}
1002
{
1000
NOSEL
1070
     0
1002
}
1002
{
1000
BEHIND
1070
     0
1002
}
1002
{
1000
OTHER
1070
     0
1002
}
1002
{
1000
REACTOR
1002
}
  0
LINE
  5
2CCD
330
1F
100
AcDbEntity
  8
ｴｸｽﾃﾝｼｮﾝﾌﾚｰﾑ
100
AcDbLine
 10
211.8641980684782
 20
233.7070272146026
 30
0.0
 11
211.8641980684782
 21
231.8070272146027
 31
0.0
  0
LINE
  5
2CCE
330
1F
100
AcDbEntity
  8
ｴｸｽﾃﾝｼｮﾝﾌﾚｰﾑ
100
AcDbLine
 10
211.8641980684782
 20
227.7070272146026
 30
0.0
 11
211.8641980684782
 21
213.2570272146026
 31
0.0
  0
LINE
  5
2CCF
330
1F
100
AcDbEntity
  8
ｴｸｽﾃﾝｼｮﾝﾌﾚｰﾑ
100
AcDbLine
 10
214.8486680684782
 20
234.2414722146285
 30
0.0
 11
214.8486680684782
 21
222.6640572146026
 31
0.0
  0
LINE
  5
2CD0
330
1F
100
AcDbEntity
  8
ｴｸｽﾃﾝｼｮﾝﾌﾚｰﾑ
100
AcDbLine
 10
224.939078085044
 20
237.6072978991093
 30
0.0
 11
223.6693925882037
 21
235.5860474561772
 31
0.0
  0
LINE
  5
2CD1
330
1F
100
AcDbEntity
  8
ｴｸｽﾃﾝｼｮﾝﾌﾚｰﾑ
100
AcDbLine
 10
222.4986680684783
 20
238.2857172146024
 30
0.0
 11
220.0428780684783
 21
238.2857172146024
 31
0.0
  0
ARC
  5
2CD2
330
1F
100
AcDbEntity
  8
ｴｸｽﾃﾝｼｮﾝﾌﾚｰﾑ
100
AcDbCircle
 10
220.0428780684783
 20
238.5857172146022
 30
0.0
 40
0.3
100
AcDbArc
 50
180.0
 51
270.0
1001
GENIUS_GENODEF_13
1002
{
1000
HIER
1070
     0
1002
}
1002
{
1000
MANEDIT
1070
     0
1002
}
1002
{
1000
NOSEL
1070
     0
1002
}
1002
{
1000
BEHIND
1070
     0
1002
}
1002
{
1000
OTHER
1070
     0
1002
}
1002
{
1000
REACTOR
1002
}
1001
GENIUS_GENOBJ-N-FIL_13
1002
{
1000
OWNER
1000
GEN
1002
}
  0
LINE
  5
2CD3
330
1F
100
AcDbEntity
  8
ｴｸｽﾃﾝｼｮﾝﾌﾚｰﾑ
100
AcDbLine
 10
225.2986423379849
 20
234.5383798684862
 30
0.0
 11
226.6223686080019
 21
236.5191448632962
 31
0.0
  0
LINE
  5
2CD4
330
1F
100
AcDbEntity
  8
ｴｸｽﾃﾝｼｮﾝﾌﾚｰﾑ
100
AcDbLine
 10
224.8486680684782
 20
224.4465072146025
 30
0.0
 11
224.8486680684782
 21
231.7414872146025
 31
0.0
  0
LINE
  5
2CD5
330
1F
100
AcDbEntity
  8
ｴｸｽﾃﾝｼｮﾝﾌﾚｰﾑ
100
AcDbLine
 10
225.2486680684783
 20
225.4891672146024
 30
0.0
 11
225.2486680684783
 21
231.7414872146025
 31
0.0
  0
LINE
  5
2CD6
330
1F
100
AcDbEntity
  8
ｴｸｽﾃﾝｼｮﾝﾌﾚｰﾑ
100
AcDbLine
 10
226.4137680684783
 20
231.7414872146025
 30
0.0
 11
226.4137680684783
 21
225.4891672146024
 31
0.0
  0
LINE
  5
2CD7
330
1F
100
AcDbEntity
  8
ｴｸｽﾃﾝｼｮﾝﾌﾚｰﾑ
100
AcDbLine
 10
218.8486680684782
 20
235.8065772146025
 30
0.0
 11
222.3486680684782
 21
235.8065772146025
 31
0.0
  0
ARC
  5
2CD8
330
1F
100
AcDbEntity
  8
ｴｸｽﾃﾝｼｮﾝﾌﾚｰﾑ
100
AcDbCircle
 10
218.8486680684782
 20
238.2065772146025
 30
0.0
 40
2.399999999999999
100
AcDbArc
 50
180.0
 51
270.0
1001
GENIUS_GENODEF_13
1002
{
1000
HIER
1070
     0
1002
}
1002
{
1000
MANEDIT
1070
     0
1002
}
1002
{
1000
NOSEL
1070
     0
1002
}
1002
{
1000
BEHIND
1070
     0
1002
}
1002
{
1000
OTHER
1070
     0
1002
}
1002
{
1000
REACTOR
1002
}
1001
GENIUS_GENOBJ-N-FIL_13
1002
{
1000
OWNER
1000
GEN
1002
}
  0
LINE
  5
2CD9
330
1F
100
AcDbEntity
  8
ｴｸｽﾃﾝｼｮﾝﾌﾚｰﾑ
100
AcDbLine
 10
228.7928780684782
 20
228.4499572146025
 30
0.0
 11
228.7928780684782
 21
231.9914872146024
 31
0.0
  0
LINE
  5
2CDA
330
1F
100
AcDbEntity
  8
ｴｸｽﾃﾝｼｮﾝﾌﾚｰﾑ
100
AcDbLine
 10
222.3486680684782
 20
234.6415072146025
 30
0.0
 11
218.8486680684782
 21
234.6415072146025
 31
0.0
  0
LINE
  5
2CDB
330
1F
100
AcDbEntity
  8
ｴｸｽﾃﾝｼｮﾝﾌﾚｰﾑ
100
AcDbLine
 10
222.3486680684782
 20
234.2414872146024
 30
0.0
 11
218.8486680684782
 21
234.2414872146024
 31
0.0
  0
LINE
  5
2CDC
330
1F
100
AcDbEntity
  8
ｴｸｽﾃﾝｼｮﾝﾌﾚｰﾑ
100
AcDbLine
 10
230.5928880684783
 20
230.2499672146024
 30
0.0
 11
230.5928880684783
 21
232.0859072146026
 31
0.0
  0
LINE
  5
2CDD
330
1F
100
AcDbEntity
  8
ｴｸｽﾃﾝｼｮﾝﾌﾚｰﾑ
100
AcDbLine
 10
230.5928880684783
 20
232.0859072146026
 30
0.0
 11
231.2257080684783
 21
232.7187372146026
 31
0.0
  0
LINE
  5
2CDE
330
1F
100
AcDbEntity
  8
ｴｸｽﾃﾝｼｮﾝﾌﾚｰﾑ
100
AcDbLine
 10
227.6755903505027
 20
227.3326694966271
 30
0.0
 11
230.5928880684783
 21
230.2499672146024
 31
0.0
  0
LINE
  5
2CDF
330
1F
100
AcDbEntity
  8
ｴｸｽﾃﾝｼｮﾝﾌﾚｰﾑ
100
AcDbLine
 10
234.0541280684782
 20
229.8902972146026
 30
0.0
 11
229.5993580684783
 21
225.4355272146025
 31
0.0
  0
LINE
  5
2CE0
330
1F
100
AcDbEntity
  8
ｴｸｽﾃﾝｼｮﾝﾌﾚｰﾑ
100
AcDbLine
 10
231.2257080684783
 20
232.7187372146026
 30
0.0
 11
234.0541280684782
 21
229.8902972146026
 31
0.0
  0
LINE
  5
2CE1
330
1F
100
AcDbEntity
  8
ｴｸｽﾃﾝｼｮﾝﾌﾚｰﾑ
100
AcDbLine
 10
227.6755903505027
 20
227.3326694966271
 30
0.0
 11
226.4137680684783
 21
227.3321773290994
 31
0.0
  0
LINE
  5
2CE2
330
1F
100
AcDbEntity
  8
ｴｸｽﾃﾝｼｮﾝﾌﾚｰﾑ
100
AcDbLine
 10
229.5993580684783
 20
225.4355272146025
 30
0.0
 11
226.4147610078569
 21
225.4355272146025
 31
0.0
  0
ARC
  5
2CE3
330
1F
100
AcDbEntity
  8
ｴｸｽﾃﾝｼｮﾝﾌﾚｰﾑ
100
AcDbCircle
 10
222.4986680684783
 20
231.9914872146023
 30
0.0
 40
6.294209999999999
100
AcDbArc
 50
68.22985521690807
 51
90.0
  0
ARC
  5
2CE4
330
1F
100
AcDbEntity
  8
ｴｸｽﾃﾝｼｮﾝﾌﾚｰﾑ
100
AcDbCircle
 10
222.4986680684783
 20
231.9914872146023
 30
0.0
 40
6.294209999999999
100
AcDbArc
 50
359.999989999999
 51
45.96693744074609
  0
ARC
  5
2CE5
330
1F
100
AcDbEntity
  8
ｴｸｽﾃﾝｼｮﾝﾌﾚｰﾑ
100
AcDbCircle
 10
222.3486680684782
 20
231.7414872146023
 30
0.0
 40
2.5
100
AcDbArc
 50
359.999989999999
 51
90.0
  0
ARC
  5
2CE6
330
1F
100
AcDbEntity
  8
ｴｸｽﾃﾝｼｮﾝﾌﾚｰﾑ
100
AcDbCircle
 10
223.8486680684782
 20
224.4465072146024
 30
0.0
 40
1.0
100
AcDbArc
 50
260.6875499999997
 51
0.0
  0
ARC
  5
2CE7
330
1F
100
AcDbEntity
  8
ｴｸｽﾃﾝｼｮﾝﾌﾚｰﾑ
100
AcDbCircle
 10
222.0686680684782
 20
213.5915072146024
 30
0.0
 40
10.0
100
AcDbArc
 50
80.68755999999829
 51
124.4338499999979
  0
ARC
  5
2CE8
330
1F
100
AcDbEntity
  8
ｴｸｽﾃﾝｼｮﾝﾌﾚｰﾑ
100
AcDbCircle
 10
215.8486680684782
 20
222.6640572146025
 30
0.0
 40
1.0
100
AcDbArc
 50
179.999989999999
 51
304.4338600000021
  0
ARC
  5
2CE9
330
1F
100
AcDbEntity
  8
ｴｸｽﾃﾝｼｮﾝﾌﾚｰﾑ
100
AcDbCircle
 10
227.8486680684782
 20
225.4891672146023
 30
0.0
 40
1.43491
100
AcDbArc
 50
179.999989999999
 51
225.0
  0
ARC
  5
2CEA
330
1F
100
AcDbEntity
  8
ｴｸｽﾃﾝｼｮﾝﾌﾚｰﾑ
100
AcDbCircle
 10
222.3486680684782
 20
231.7414872146023
 30
0.0
 40
4.06509
100
AcDbArc
 50
359.999989999999
 51
90.0
  0
ARC
  5
2CEB
330
1F
100
AcDbEntity
  8
ｴｸｽﾃﾝｼｮﾝﾌﾚｰﾑ
100
AcDbCircle
 10
218.8486680684782
 20
238.2414972146023
 30
0.0
 40
3.6
100
AcDbArc
 50
179.999989999999
 51
269.999989999999
  0
ARC
  5
2CEC
330
1F
100
AcDbEntity
  8
ｴｸｽﾃﾝｼｮﾝﾌﾚｰﾑ
100
AcDbCircle
 10
218.8486680684782
 20
238.2414972146023
 30
0.0
 40
4.000020000000096
100
AcDbArc
 50
233.1302742406297
 51
269.999989999999
  0
ARC
  5
2CED
330
1F
100
AcDbEntity
  8
ｴｸｽﾃﾝｼｮﾝﾌﾚｰﾑ
100
AcDbCircle
 10
215.8486680684782
 20
234.2414722146284
 30
0.0
 40
1.0
100
AcDbArc
 50
53.13027424062514
 51
179.9999999999967
1001
GENIUS_GENOBJ-N-FIL_13
1002
{
1000
OWNER
1000
GEN
1002
}
1001
GENIUS_GENODEF_13
1002
{
1000
HIER
1070
     0
1002
}
1002
{
1000
MANEDIT
1070
     0
1002
}
1002
{
1000
NOSEL
1070
     0
1002
}
1002
{
1000
BEHIND
1070
     0
1002
}
1002
{
1000
OTHER
1070
     0
1002
}
1002
{
1000
REACTOR
1002
}
  0
ARC
  5
2CEE
330
1F
100
AcDbEntity
  8
ｴｸｽﾃﾝｼｮﾝﾌﾚｰﾑ
100
AcDbCircle
 10
222.3486680684782
 20
231.7414872146023
 30
0.0
 40
2.9
100
AcDbArc
 50
359.999989999999
 51
90.0
  0
ARC
  5
2CEF
330
1F
100
AcDbEntity
  8
ｴｸｽﾃﾝｼｮﾝﾌﾚｰﾑ
100
AcDbCircle
 10
227.8486680684782
 20
225.4891672146023
 30
0.0
 40
2.6
100
AcDbArc
 50
179.999989999999
 51
225.0
  0
CIRCLE
  5
2CF8
330
1F
100
AcDbEntity
  8
ｴｸｽﾃﾝｼｮﾝﾌﾚｰﾑ
100
AcDbCircle
 10
226.7686680684783
 20
238.5914972146025
 30
0.0
 40
2.077509999999989
  0
LINE
  5
2CF9
330
1F
100
AcDbEntity
  8
ｴｸｽﾃﾝｼｮﾝﾌﾚｰﾑ
100
AcDbLine
 10
212.1641980684783
 20
237.5070272146025
 30
0.0
 11
212.1641980684783
 21
234.0070272146026
 31
0.0
  0
LINE
  5
2CFA
330
1F
100
AcDbEntity
  8
ｴｸｽﾃﾝｼｮﾝﾌﾚｰﾑ
100
AcDbLine
 10
212.1641980684783
 20
231.5070272146026
 30
0.0
 11
212.1641980684783
 21
228.0070272146025
 31
0.0
  0
ARC
  5
2CFB
330
1F
100
AcDbEntity
  8
ｴｸｽﾃﾝｼｮﾝﾌﾚｰﾑ
100
AcDbCircle
 10
212.1641980684781
 20
237.8070272146024
 30
0.0
 40
0.3
100
AcDbArc
 50
179.9999999999772
 51
270.0000000000196
1001
GENIUS_GENOBJ-N-FIL_13
1002
{
1000
OWNER
1000
GEN
1002
}
1001
GENIUS_GENODEF_13
1002
{
1000
HIER
1070
     0
1002
}
1002
{
1000
MANEDIT
1070
     0
1002
}
1002
{
1000
NOSEL
1070
     0
1002
}
1002
{
1000
BEHIND
1070
     0
1002
}
1002
{
1000
OTHER
1070
     0
1002
}
1002
{
1000
REACTOR
1002
}
  0
ARC
  5
2CFC
330
1F
100
AcDbEntity
  8
ｴｸｽﾃﾝｼｮﾝﾌﾚｰﾑ
100
AcDbCircle
 10
212.1641980684781
 20
233.7070272146025
 30
0.0
 40
0.3
100
AcDbArc
 50
89.99999999996743
 51
180.0000000000097
1001
GENIUS_GENOBJ-N-FIL_13
1002
{
1000
OWNER
1000
GEN
1002
}
1001
GENIUS_GENODEF_13
1002
{
1000
HIER
1070
     0
1002
}
1002
{
1000
MANEDIT
1070
     0
1002
}
1002
{
1000
NOSEL
1070
     0
1002
}
1002
{
1000
BEHIND
1070
     0
1002
}
1002
{
1000
OTHER
1070
     0
1002
}
1002
{
1000
REACTOR
1002
}
  0
ARC
  5
2CFD
330
1F
100
AcDbEntity
  8
ｴｸｽﾃﾝｼｮﾝﾌﾚｰﾑ
100
AcDbCircle
 10
212.1641980684781
 20
231.8070272146024
 30
0.0
 40
0.3
100
AcDbArc
 50
179.9999999999902
 51
270.0000000000196
1001
GENIUS_GENOBJ-N-FIL_13
1002
{
1000
OWNER
1000
GEN
1002
}
1001
GENIUS_GENODEF_13
1002
{
1000
HIER
1070
     0
1002
}
1002
{
1000
MANEDIT
1070
     0
1002
}
1002
{
1000
NOSEL
1070
     0
1002
}
1002
{
1000
BEHIND
1070
     0
1002
}
1002
{
1000
OTHER
1070
     0
1002
}
1002
{
1000
REACTOR
1002
}
  0
ARC
  5
2CFE
330
1F
100
AcDbEntity
  8
ｴｸｽﾃﾝｼｮﾝﾌﾚｰﾑ
100
AcDbCircle
 10
212.1641980684781
 20
227.7070272146025
 30
0.0
 40
0.3
100
AcDbArc
 50
89.99999999996743
 51
180.0000000000097
1001
GENIUS_GENOBJ-N-FIL_13
1002
{
1000
OWNER
1000
GEN
1002
}
1001
GENIUS_GENODEF_13
1002
{
1000
HIER
1070
     0
1002
}
1002
{
1000
MANEDIT
1070
     0
1002
}
1002
{
1000
NOSEL
1070
     0
1002
}
1002
{
1000
BEHIND
1070
     0
1002
}
1002
{
1000
OTHER
1070
     0
1002
}
1002
{
1000
REACTOR
1002
}
  0
LINE
  5
2E57
330
1F
100
AcDbEntity
  8
ｴｸｽﾃﾝｼｮﾝﾌﾚｰﾑ
100
AcDbLine
 10
481.4141980684784
 20
603.2570272146026
 30
0.0
 11
483.3141980684782
 21
603.2570272146026
 31
0.0
  0
LINE
  5
2E58
330
1F
100
AcDbEntity
  8
ｴｸｽﾃﾝｼｮﾝﾌﾚｰﾑ
100
AcDbLine
 10
487.4141980684783
 20
603.2570272146026
 30
0.0
 11
501.8641980684782
 21
603.2570272146026
 31
0.0
  0
LINE
  5
2E59
330
1F
100
AcDbEntity
  8
ｴｸｽﾃﾝｼｮﾝﾌﾚｰﾑ
100
AcDbLine
 10
480.8797530684522
 20
600.2725572146025
 30
0.0
 11
492.4571680684784
 21
600.2725572146025
 31
0.0
  0
LINE
  5
2E5A
330
1F
100
AcDbEntity
  8
ｴｸｽﾃﾝｼｮﾝﾌﾚｰﾑ
100
AcDbLine
 10
477.5139273839717
 20
590.1821471980368
 30
0.0
 11
479.5351778269037
 21
591.4518326948772
 31
0.0
  0
LINE
  5
2E5B
330
1F
100
AcDbEntity
  8
ｴｸｽﾃﾝｼｮﾝﾌﾚｰﾑ
100
AcDbLine
 10
497.7182180684784
 20
582.8633672146025
 30
0.0
 11
491.4705480684782
 21
589.1110272146026
 31
0.0
  0
LINE
  5
2E5C
330
1F
100
AcDbEntity
  8
ｴｸｽﾃﾝｼｮﾝﾌﾚｰﾑ
100
AcDbLine
 10
476.8355080684785
 20
592.6225572146026
 30
0.0
 11
476.8355080684785
 21
595.0783472146025
 31
0.0
  0
ARC
  5
2E5D
330
1F
100
AcDbEntity
  8
ｴｸｽﾃﾝｼｮﾝﾌﾚｰﾑ
100
AcDbCircle
 10
476.5355080684783
 20
595.0783472146024
 30
0.0
 40
0.3
100
AcDbArc
 50
0.0
 51
90.0
1001
GENIUS_GENODEF_13
1002
{
1000
HIER
1070
     0
1002
}
1002
{
1000
MANEDIT
1070
     0
1002
}
1002
{
1000
NOSEL
1070
     0
1002
}
1002
{
1000
BEHIND
1070
     0
1002
}
1002
{
1000
OTHER
1070
     0
1002
}
1002
{
1000
REACTOR
1002
}
1001
GENIUS_GENOBJ-N-FIL_13
1002
{
1000
OWNER
1000
GEN
1002
}
  0
LINE
  5
2E5E
330
1F
100
AcDbEntity
  8
ｴｸｽﾃﾝｼｮﾝﾌﾚｰﾑ
100
AcDbLine
 10
480.5828454145947
 20
589.8225829450958
 30
0.0
 11
478.6020804197845
 21
588.4988566750788
 31
0.0
  0
LINE
  5
2E5F
330
1F
100
AcDbEntity
  8
ｴｸｽﾃﾝｼｮﾝﾌﾚｰﾑ
100
AcDbLine
 10
490.6747180684784
 20
590.2725572146025
 30
0.0
 11
483.3797380684785
 21
590.2725572146025
 31
0.0
  0
LINE
  5
2E60
330
1F
100
AcDbEntity
  8
ｴｸｽﾃﾝｼｮﾝﾌﾚｰﾑ
100
AcDbLine
 10
489.6320580684785
 20
589.8725572146026
 30
0.0
 11
483.3797380684785
 21
589.8725572146026
 31
0.0
  0
LINE
  5
2E61
330
1F
100
AcDbEntity
  8
ｴｸｽﾃﾝｼｮﾝﾌﾚｰﾑ
100
AcDbLine
 10
483.3797380684785
 20
588.7074572146026
 30
0.0
 11
489.6320580684785
 21
588.7074572146026
 31
0.0
  0
LINE
  5
2E62
330
1F
100
AcDbEntity
  8
ｴｸｽﾃﾝｼｮﾝﾌﾚｰﾑ
100
AcDbLine
 10
490.6466880684782
 20
588.2871872146025
 30
0.0
 11
496.8943580684785
 21
582.0395172146025
 31
0.0
  0
LINE
  5
2E63
330
1F
100
AcDbEntity
  8
ｴｸｽﾃﾝｼｮﾝﾌﾚｰﾑ
100
AcDbLine
 10
479.3146480684785
 20
596.2725572146025
 30
0.0
 11
479.3146480684785
 21
592.7725572146025
 31
0.0
  0
ARC
  5
2E64
330
1F
100
AcDbEntity
  8
ｴｸｽﾃﾝｼｮﾝﾌﾚｰﾑ
100
AcDbCircle
 10
476.9146480684784
 20
596.2725572146024
 30
0.0
 40
2.399999999999999
100
AcDbArc
 50
0.0
 51
90.0
1001
GENIUS_GENODEF_13
1002
{
1000
HIER
1070
     0
1002
}
1002
{
1000
MANEDIT
1070
     0
1002
}
1002
{
1000
NOSEL
1070
     0
1002
}
1002
{
1000
BEHIND
1070
     0
1002
}
1002
{
1000
OTHER
1070
     0
1002
}
1002
{
1000
REACTOR
1002
}
1001
GENIUS_GENOBJ-N-FIL_13
1002
{
1000
OWNER
1000
GEN
1002
}
  0
LINE
  5
2E65
330
1F
100
AcDbEntity
  8
ｴｸｽﾃﾝｼｮﾝﾌﾚｰﾑ
100
AcDbLine
 10
486.6712680684785
 20
586.3283472146025
 30
0.0
 11
483.1297380684786
 21
586.3283472146025
 31
0.0
  0
LINE
  5
2E66
330
1F
100
AcDbEntity
  8
ｴｸｽﾃﾝｼｮﾝﾌﾚｰﾑ
100
AcDbLine
 10
494.702897802499
 20
581.0785272146025
 30
0.0
 11
489.6856980684782
 21
586.0957372146025
 31
0.0
  0
LINE
  5
2E67
330
1F
100
AcDbEntity
  8
ｴｸｽﾃﾝｼｮﾝﾌﾚｰﾑ
100
AcDbLine
 10
480.4797180684785
 20
592.7725572146025
 30
0.0
 11
480.4797180684785
 21
596.2725572146025
 31
0.0
  0
LINE
  5
2E68
330
1F
100
AcDbEntity
  8
ｴｸｽﾃﾝｼｮﾝﾌﾚｰﾑ
100
AcDbLine
 10
480.8797380684786
 20
592.7725572146025
 30
0.0
 11
480.8797380684786
 21
596.2725572146025
 31
0.0
  0
LINE
  5
2E69
330
1F
100
AcDbEntity
  8
ｴｸｽﾃﾝｼｮﾝﾌﾚｰﾑ
100
AcDbLine
 10
484.8712580684786
 20
584.5283372146026
 30
0.0
 11
483.0353180684784
 21
584.5283372146026
 31
0.0
  0
LINE
  5
2E6A
330
1F
100
AcDbEntity
  8
ｴｸｽﾃﾝｼｮﾝﾌﾚｰﾑ
100
AcDbLine
 10
483.0353180684784
 20
584.5283372146026
 30
0.0
 11
482.4024880684784
 21
583.8955172146025
 31
0.0
  0
LINE
  5
2E6B
330
1F
100
AcDbEntity
  8
ｴｸｽﾃﾝｼｮﾝﾌﾚｰﾑ
100
AcDbLine
 10
487.7885557864539
 20
587.4456349325781
 30
0.0
 11
484.8712580684786
 21
584.5283372146026
 31
0.0
  0
LINE
  5
2E6C
330
1F
100
AcDbEntity
  8
ｴｸｽﾃﾝｼｮﾝﾌﾚｰﾑ
100
AcDbLine
 10
485.2309280684784
 20
581.0670972146025
 30
0.0
 11
489.6856980684782
 21
585.5218672146025
 31
0.0
  0
LINE
  5
2E6D
330
1F
100
AcDbEntity
  8
ｴｸｽﾃﾝｼｮﾝﾌﾚｰﾑ
100
AcDbLine
 10
482.4024880684784
 20
583.8955172146025
 30
0.0
 11
485.2309280684784
 21
581.0670972146025
 31
0.0
  0
LINE
  5
2E6E
330
1F
100
AcDbEntity
  8
ｴｸｽﾃﾝｼｮﾝﾌﾚｰﾑ
100
AcDbLine
 10
487.7885557864539
 20
587.4456349325781
 30
0.0
 11
487.7890479539813
 21
588.7074572146026
 31
0.0
  0
LINE
  5
2E6F
330
1F
100
AcDbEntity
  8
ｴｸｽﾃﾝｼｮﾝﾌﾚｰﾑ
100
AcDbLine
 10
489.6856980684782
 20
585.5218672146025
 30
0.0
 11
489.6856980684782
 21
588.706464275224
 31
0.0
  0
ARC
  5
2E70
330
1F
100
AcDbEntity
  8
ｴｸｽﾃﾝｼｮﾝﾌﾚｰﾑ
100
AcDbCircle
 10
501.8641980684784
 20
593.2570272146024
 30
0.0
 40
10.0
100
AcDbArc
 50
0.0
 51
90.0
1001
GENIUS_GENOBJ-N-FIL_13
1002
{
1000
OWNER
1000
GEN
1002
}
1001
GENIUS_GENODEF_13
1002
{
1000
HIER
1070
     0
1002
}
1002
{
1000
MANEDIT
1070
     0
1002
}
1002
{
1000
NOSEL
1070
     0
1002
}
1002
{
1000
BEHIND
1070
     0
1002
}
1002
{
1000
OTHER
1070
     0
1002
}
1002
{
1000
REACTOR
1002
}
  0
ARC
  5
2E71
330
1F
100
AcDbEntity
  8
ｴｸｽﾃﾝｼｮﾝﾌﾚｰﾑ
100
AcDbCircle
 10
501.8641980684784
 20
593.2570272146024
 30
0.0
 40
9.5
100
AcDbArc
 50
0.0
 51
90.0
1001
GENIUS_GENOBJ-N-FIL_13
1002
{
1000
OWNER
1000
GEN
1002
}
1001
GENIUS_GENODEF_13
1002
{
1000
HIER
1070
     0
1002
}
1002
{
1000
MANEDIT
1070
     0
1002
}
1002
{
1000
NOSEL
1070
     0
1002
}
1002
{
1000
BEHIND
1070
     0
1002
}
1002
{
1000
OTHER
1070
     0
1002
}
1002
{
1000
REACTOR
1002
}
  0
ARC
  5
2E72
330
1F
100
AcDbEntity
  8
ｴｸｽﾃﾝｼｮﾝﾌﾚｰﾑ
100
AcDbCircle
 10
483.1297380684786
 20
592.6225572146024
 30
0.0
 40
6.294209999999999
100
AcDbArc
 50
180.0
 51
201.7701447830919
  0
ARC
  5
2E73
330
1F
100
AcDbEntity
  8
ｴｸｽﾃﾝｼｮﾝﾌﾚｰﾑ
100
AcDbCircle
 10
483.1297380684786
 20
592.6225572146024
 30
0.0
 40
6.294209999999999
100
AcDbArc
 50
224.0330625592561
 51
270.000010000001
  0
ARC
  5
2E75
330
1F
100
AcDbEntity
  8
ｴｸｽﾃﾝｼｮﾝﾌﾚｰﾑ
100
AcDbCircle
 10
483.3797380684785
 20
592.7725572146024
 30
0.0
 40
2.5
100
AcDbArc
 50
180.0
 51
270.000010000001
  0
ARC
  5
2E76
330
1F
100
AcDbEntity
  8
ｴｸｽﾃﾝｼｮﾝﾌﾚｰﾑ
100
AcDbCircle
 10
490.6747180684784
 20
591.2725572146024
 30
0.0
 40
1.0
100
AcDbArc
 50
270.0
 51
9.312450000000309
  0
ARC
  5
2E77
330
1F
100
AcDbEntity
  8
ｴｸｽﾃﾝｼｮﾝﾌﾚｰﾑ
100
AcDbCircle
 10
501.5297180684784
 20
593.0525572146025
 30
0.0
 40
10.0
100
AcDbArc
 50
145.5661500000021
 51
189.3124400000017
  0
ARC
  5
2E78
330
1F
100
AcDbEntity
  8
ｴｸｽﾃﾝｼｮﾝﾌﾚｰﾑ
100
AcDbCircle
 10
492.4571680684784
 20
599.2725572146025
 30
0.0
 40
1.0
100
AcDbArc
 50
325.5661399999979
 51
90.00001000000102
  0
ARC
  5
2E7A
330
1F
100
AcDbEntity
  8
ｴｸｽﾃﾝｼｮﾝﾌﾚｰﾑ
100
AcDbCircle
 10
489.6320580684785
 20
587.2725572146024
 30
0.0
 40
1.43491
100
AcDbArc
 50
45.0
 51
90.00001000000102
  0
ARC
  5
2E7B
330
1F
100
AcDbEntity
  8
ｴｸｽﾃﾝｼｮﾝﾌﾚｰﾑ
100
AcDbCircle
 10
483.3797380684785
 20
592.7725572146024
 30
0.0
 40
4.06509
100
AcDbArc
 50
180.0
 51
270.000010000001
  0
ARC
  5
2E7C
330
1F
100
AcDbEntity
  8
ｴｸｽﾃﾝｼｮﾝﾌﾚｰﾑ
100
AcDbCircle
 10
476.8797280684785
 20
596.2725572146024
 30
0.0
 40
3.6
100
AcDbArc
 50
0.0000100000010064
 51
90.00001000000102
  0
ARC
  5
2E7D
330
1F
100
AcDbEntity
  8
ｴｸｽﾃﾝｼｮﾝﾌﾚｰﾑ
100
AcDbCircle
 10
476.8797280684785
 20
596.2725572146024
 30
0.0
 40
4.000020000000096
100
AcDbArc
 50
0.0000100000010064
 51
36.8697257593703
  0
ARC
  5
2E7E
330
1F
100
AcDbEntity
  8
ｴｸｽﾃﾝｼｮﾝﾌﾚｰﾑ
100
AcDbCircle
 10
480.8797530684524
 20
599.2725572146025
 30
0.0
 40
1.0
100
AcDbArc
 50
90.00000000000325
 51
216.8697257593748
1001
GENIUS_GENOBJ-N-FIL_13
1002
{
1000
OWNER
1000
GEN
1002
}
1001
GENIUS_GENODEF_13
1002
{
1000
HIER
1070
     0
1002
}
1002
{
1000
MANEDIT
1070
     0
1002
}
1002
{
1000
NOSEL
1070
     0
1002
}
1002
{
1000
BEHIND
1070
     0
1002
}
1002
{
1000
OTHER
1070
     0
1002
}
1002
{
1000
REACTOR
1002
}
  0
ARC
  5
2E7F
330
1F
100
AcDbEntity
  8
ｴｸｽﾃﾝｼｮﾝﾌﾚｰﾑ
100
AcDbCircle
 10
483.3797380684785
 20
592.7725572146024
 30
0.0
 40
2.9
100
AcDbArc
 50
180.0
 51
270.000010000001
  0
ARC
  5
2E80
330
1F
100
AcDbEntity
  8
ｴｸｽﾃﾝｼｮﾝﾌﾚｰﾑ
100
AcDbCircle
 10
489.6320580684785
 20
587.2725572146024
 30
0.0
 40
2.6
100
AcDbArc
 50
45.0
 51
90.00001000000102
  0
CIRCLE
  5
2EAA
330
1F
100
AcDbEntity
  8
ｴｸｽﾃﾝｼｮﾝﾌﾚｰﾑ
100
AcDbCircle
 10
476.5297280684784
 20
588.3525572146025
 30
0.0
 40
2.077509999999989
  0
LINE
  5
2EAB
330
1F
100
AcDbEntity
  8
ｴｸｽﾃﾝｼｮﾝﾌﾚｰﾑ
100
AcDbLine
 10
477.6141980684782
 20
602.9570272146024
 30
0.0
 11
481.1141980684782
 21
602.9570272146024
 31
0.0
  0
LINE
  5
2EAC
330
1F
100
AcDbEntity
  8
ｴｸｽﾃﾝｼｮﾝﾌﾚｰﾑ
100
AcDbLine
 10
483.6141980684782
 20
602.9570272146024
 30
0.0
 11
487.1141980684781
 21
602.9570272146024
 31
0.0
  0
ARC
  5
2EAD
330
1F
100
AcDbEntity
  8
ｴｸｽﾃﾝｼｮﾝﾌﾚｰﾑ
100
AcDbCircle
 10
477.3141980684784
 20
602.9570272146027
 30
0.0
 40
0.3
100
AcDbArc
 50
359.9999999999772
 51
90.00000000001953
1001
GENIUS_GENOBJ-N-FIL_13
1002
{
1000
OWNER
1000
GEN
1002
}
1001
GENIUS_GENODEF_13
1002
{
1000
HIER
1070
     0
1002
}
1002
{
1000
MANEDIT
1070
     0
1002
}
1002
{
1000
NOSEL
1070
     0
1002
}
1002
{
1000
BEHIND
1070
     0
1002
}
1002
{
1000
OTHER
1070
     0
1002
}
1002
{
1000
REACTOR
1002
}
  0
ARC
  5
2EAE
330
1F
100
AcDbEntity
  8
ｴｸｽﾃﾝｼｮﾝﾌﾚｰﾑ
100
AcDbCircle
 10
481.4141980684784
 20
602.9570272146027
 30
0.0
 40
0.3
100
AcDbArc
 50
89.99999999998697
 51
180.0000000000325
1001
GENIUS_GENOBJ-N-FIL_13
1002
{
1000
OWNER
1000
GEN
1002
}
1001
GENIUS_GENODEF_13
1002
{
1000
HIER
1070
     0
1002
}
1002
{
1000
MANEDIT
1070
     0
1002
}
1002
{
1000
NOSEL
1070
     0
1002
}
1002
{
1000
BEHIND
1070
     0
1002
}
1002
{
1000
OTHER
1070
     0
1002
}
1002
{
1000
REACTOR
1002
}
  0
ARC
  5
2EAF
330
1F
100
AcDbEntity
  8
ｴｸｽﾃﾝｼｮﾝﾌﾚｰﾑ
100
AcDbCircle
 10
483.3141980684785
 20
602.9570272146027
 30
0.0
 40
0.3
100
AcDbArc
 50
359.9999999999772
 51
90.00000000000978
1001
GENIUS_GENOBJ-N-FIL_13
1002
{
1000
OWNER
1000
GEN
1002
}
1001
GENIUS_GENODEF_13
1002
{
1000
HIER
1070
     0
1002
}
1002
{
1000
MANEDIT
1070
     0
1002
}
1002
{
1000
NOSEL
1070
     0
1002
}
1002
{
1000
BEHIND
1070
     0
1002
}
1002
{
1000
OTHER
1070
     0
1002
}
1002
{
1000
REACTOR
1002
}
  0
ARC
  5
2EB0
330
1F
100
AcDbEntity
  8
ｴｸｽﾃﾝｼｮﾝﾌﾚｰﾑ
100
AcDbCircle
 10
487.4141980684783
 20
602.9570272146027
 30
0.0
 40
0.3
100
AcDbArc
 50
89.99999999998697
 51
180.0000000000325
1001
GENIUS_GENOBJ-N-FIL_13
1002
{
1000
OWNER
1000
GEN
1002
}
1001
GENIUS_GENODEF_13
1002
{
1000
HIER
1070
     0
1002
}
1002
{
1000
MANEDIT
1070
     0
1002
}
1002
{
1000
NOSEL
1070
     0
1002
}
1002
{
1000
BEHIND
1070
     0
1002
}
1002
{
1000
OTHER
1070
     0
1002
}
1002
{
1000
REACTOR
1002
}
  0
LINE
  5
2EB1
330
1F
100
AcDbEntity
  8
ｴｸｽﾃﾝｼｮﾝﾌﾚｰﾑ
100
AcDbLine
 10
511.8641980684783
 20
237.8070272146023
 30
0.0
 11
511.8641980684782
 21
568.7070272146025
 31
0.0
  0
LINE
  5
2EB2
330
1F
100
AcDbEntity
  8
ｴｸｽﾃﾝｼｮﾝﾌﾚｰﾑ
100
AcDbLine
 10
511.3641980684783
 20
213.2570272146023
 30
0.0
 11
511.3641980684782
 21
593.2570272146024
 31
0.0
  0
LINE
  5
2EB3
330
1F
100
AcDbEntity
  8
ｴｸｽﾃﾝｼｮﾝﾌﾚｰﾑ
100
AcDbLine
 10
508.4797280684783
 20
238.2414972146022
 30
0.0
 11
508.4797280684782
 21
568.2725572146025
 31
0.0
  0
LINE
  5
2EB4
330
1F
100
AcDbEntity
  8
ｴｸｽﾃﾝｼｮﾝﾌﾚｰﾑ
100
AcDbLine
 10
507.2797280684782
 20
568.3074772146027
 30
0.0
 11
507.2797280684788
 21
238.2065772146024
 31
0.0
  0
LINE
  5
2EB5
330
1F
100
AcDbEntity
  8
ｴｸｽﾃﾝｼｮﾝﾌﾚｰﾑ
100
AcDbLine
 10
503.9855180684785
 20
238.5857172146021
 30
0.0
 11
503.9855180684784
 21
567.9283372146027
 31
0.0
  0
LINE
  5
2EB6
330
1F
100
AcDbEntity
  8
ｴｸｽﾃﾝｼｮﾝﾌﾚｰﾑ
100
AcDbLine
 10
511.8641980684782
 20
572.8070272146025
 30
0.0
 11
511.8641980684782
 21
574.7070272146024
 31
0.0
  0
LINE
  5
2EB7
330
1F
100
AcDbEntity
  8
ｴｸｽﾃﾝｼｮﾝﾌﾚｰﾑ
100
AcDbLine
 10
511.8641980684782
 20
578.8070272146025
 30
0.0
 11
511.8641980684782
 21
593.2570272146024
 31
0.0
  0
LINE
  5
2EB8
330
1F
100
AcDbEntity
  8
ｴｸｽﾃﾝｼｮﾝﾌﾚｰﾑ
100
AcDbLine
 10
508.8797280684783
 20
572.2725822145764
 30
0.0
 11
508.8797280684783
 21
583.8499972146025
 31
0.0
  0
LINE
  5
2EB9
330
1F
100
AcDbEntity
  8
ｴｸｽﾃﾝｼｮﾝﾌﾚｰﾑ
100
AcDbLine
 10
498.7893180519125
 20
568.9067565300957
 30
0.0
 11
500.0590035487529
 21
570.9280069730281
 31
0.0
  0
LINE
  5
2EBA
330
1F
100
AcDbEntity
  8
ｴｸｽﾃﾝｼｮﾝﾌﾚｰﾑ
100
AcDbLine
 10
501.2297280684783
 20
568.2283372146026
 30
0.0
 11
503.6855180684782
 21
568.2283372146026
 31
0.0
  0
ARC
  5
2EBB
330
1F
100
AcDbEntity
  8
ｴｸｽﾃﾝｼｮﾝﾌﾚｰﾑ
100
AcDbCircle
 10
503.6855180684782
 20
567.9283372146025
 30
0.0
 40
0.3
100
AcDbArc
 50
0.0
 51
90.0
1001
GENIUS_GENODEF_13
1002
{
1000
HIER
1070
     0
1002
}
1002
{
1000
MANEDIT
1070
     0
1002
}
1002
{
1000
NOSEL
1070
     0
1002
}
1002
{
1000
BEHIND
1070
     0
1002
}
1002
{
1000
OTHER
1070
     0
1002
}
1002
{
1000
REACTOR
1002
}
1001
GENIUS_GENOBJ-N-FIL_13
1002
{
1000
OWNER
1000
GEN
1002
}
  0
LINE
  5
2EBC
330
1F
100
AcDbEntity
  8
ｴｸｽﾃﾝｼｮﾝﾌﾚｰﾑ
100
AcDbLine
 10
498.4297537989717
 20
571.9756745607189
 30
0.0
 11
497.1060275289545
 21
569.9949095659088
 31
0.0
  0
LINE
  5
2EBD
330
1F
100
AcDbEntity
  8
ｴｸｽﾃﾝｼｮﾝﾌﾚｰﾑ
100
AcDbLine
 10
498.8797280684783
 20
582.0675472146027
 30
0.0
 11
498.8797280684783
 21
574.7725672146026
 31
0.0
  0
LINE
  5
2EBE
330
1F
100
AcDbEntity
  8
ｴｸｽﾃﾝｼｮﾝﾌﾚｰﾑ
100
AcDbLine
 10
498.4797280684782
 20
581.0248872146027
 30
0.0
 11
498.4797280684782
 21
574.7725672146026
 31
0.0
  0
LINE
  5
2EBF
330
1F
100
AcDbEntity
  8
ｴｸｽﾃﾝｼｮﾝﾌﾚｰﾑ
100
AcDbLine
 10
497.3146280684783
 20
574.7725672146026
 30
0.0
 11
497.3146280684783
 21
581.0248872146027
 31
0.0
  0
LINE
  5
2EC0
330
1F
100
AcDbEntity
  8
ｴｸｽﾃﾝｼｮﾝﾌﾚｰﾑ
100
AcDbLine
 10
504.8797280684783
 20
570.7074772146025
 30
0.0
 11
501.3797280684783
 21
570.7074772146025
 31
0.0
  0
ARC
  5
2EC1
330
1F
100
AcDbEntity
  8
ｴｸｽﾃﾝｼｮﾝﾌﾚｰﾑ
100
AcDbCircle
 10
504.8797280684783
 20
568.3074772146026
 30
0.0
 40
2.399999999999999
100
AcDbArc
 50
0.0
 51
90.0
1001
GENIUS_GENODEF_13
1002
{
1000
HIER
1070
     0
1002
}
1002
{
1000
MANEDIT
1070
     0
1002
}
1002
{
1000
NOSEL
1070
     0
1002
}
1002
{
1000
BEHIND
1070
     0
1002
}
1002
{
1000
OTHER
1070
     0
1002
}
1002
{
1000
REACTOR
1002
}
1001
GENIUS_GENOBJ-N-FIL_13
1002
{
1000
OWNER
1000
GEN
1002
}
  0
LINE
  5
2EC2
330
1F
100
AcDbEntity
  8
ｴｸｽﾃﾝｼｮﾝﾌﾚｰﾑ
100
AcDbLine
 10
494.9355180684782
 20
578.0640972146025
 30
0.0
 11
494.9355180684782
 21
574.5225672146026
 31
0.0
  0
LINE
  5
2EC3
330
1F
100
AcDbEntity
  8
ｴｸｽﾃﾝｼｮﾝﾌﾚｰﾑ
100
AcDbLine
 10
501.3797280684783
 20
571.8725472146026
 30
0.0
 11
504.8797280684783
 21
571.8725472146026
 31
0.0
  0
LINE
  5
2EC4
330
1F
100
AcDbEntity
  8
ｴｸｽﾃﾝｼｮﾝﾌﾚｰﾑ
100
AcDbLine
 10
501.3797280684783
 20
572.2725672146026
 30
0.0
 11
504.8797280684783
 21
572.2725672146026
 31
0.0
  0
LINE
  5
2EC5
330
1F
100
AcDbEntity
  8
ｴｸｽﾃﾝｼｮﾝﾌﾚｰﾑ
100
AcDbLine
 10
493.1355080684783
 20
576.2640872146026
 30
0.0
 11
493.1355080684783
 21
574.4281472146027
 31
0.0
  0
LINE
  5
2EC6
330
1F
100
AcDbEntity
  8
ｴｸｽﾃﾝｼｮﾝﾌﾚｰﾑ
100
AcDbLine
 10
493.1355080684783
 20
574.4281472146027
 30
0.0
 11
492.5026880684782
 21
573.7953172146027
 31
0.0
  0
LINE
  5
2EC7
330
1F
100
AcDbEntity
  8
ｴｸｽﾃﾝｼｮﾝﾌﾚｰﾑ
100
AcDbLine
 10
496.0528057864538
 20
579.1813849325782
 30
0.0
 11
493.1355080684783
 21
576.2640872146026
 31
0.0
  0
LINE
  5
2EC8
330
1F
100
AcDbEntity
  8
ｴｸｽﾃﾝｼｮﾝﾌﾚｰﾑ
100
AcDbLine
 10
489.6742680684782
 20
576.6237572146027
 30
0.0
 11
494.1290380684782
 21
581.0785272146025
 31
0.0
  0
LINE
  5
2EC9
330
1F
100
AcDbEntity
  8
ｴｸｽﾃﾝｼｮﾝﾌﾚｰﾑ
100
AcDbLine
 10
492.5026880684782
 20
573.7953172146027
 30
0.0
 11
489.6742680684782
 21
576.6237572146027
 31
0.0
  0
LINE
  5
2ECA
330
1F
100
AcDbEntity
  8
ｴｸｽﾃﾝｼｮﾝﾌﾚｰﾑ
100
AcDbLine
 10
496.0528057864538
 20
579.1813849325782
 30
0.0
 11
497.3146280684783
 21
579.1818771001056
 31
0.0
  0
LINE
  5
2ECB
330
1F
100
AcDbEntity
  8
ｴｸｽﾃﾝｼｮﾝﾌﾚｰﾑ
100
AcDbLine
 10
494.1290380684782
 20
581.0785272146025
 30
0.0
 11
497.3136351290996
 21
581.0785272146025
 31
0.0
  0
ARC
  5
2ECC
330
1F
100
AcDbEntity
  8
ｴｸｽﾃﾝｼｮﾝﾌﾚｰﾑ
100
AcDbCircle
 10
501.2297280684783
 20
574.5225672146025
 30
0.0
 40
6.294209999999999
100
AcDbArc
 50
248.2298552169081
 51
270.0
  0
ARC
  5
2ECD
330
1F
100
AcDbEntity
  8
ｴｸｽﾃﾝｼｮﾝﾌﾚｰﾑ
100
AcDbCircle
 10
501.2297280684783
 20
574.5225672146025
 30
0.0
 40
6.294209999999999
100
AcDbArc
 50
179.999989999999
 51
225.9669374407461
  0
ARC
  5
2ECE
330
1F
100
AcDbEntity
  8
ｴｸｽﾃﾝｼｮﾝﾌﾚｰﾑ
100
AcDbCircle
 10
501.3797280684783
 20
574.7725672146025
 30
0.0
 40
2.5
100
AcDbArc
 50
179.999989999999
 51
270.0
  0
ARC
  5
2ECF
330
1F
100
AcDbEntity
  8
ｴｸｽﾃﾝｼｮﾝﾌﾚｰﾑ
100
AcDbCircle
 10
499.8797280684783
 20
582.0675472146026
 30
0.0
 40
1.0
100
AcDbArc
 50
80.68754999999969
 51
180.0
  0
ARC
  5
2ED0
330
1F
100
AcDbEntity
  8
ｴｸｽﾃﾝｼｮﾝﾌﾚｰﾑ
100
AcDbCircle
 10
501.6597280684783
 20
592.9225472146026
 30
0.0
 40
10.0
100
AcDbArc
 50
260.6875599999983
 51
304.4338499999979
  0
ARC
  5
2ED1
330
1F
100
AcDbEntity
  8
ｴｸｽﾃﾝｼｮﾝﾌﾚｰﾑ
100
AcDbCircle
 10
507.8797280684783
 20
583.8499972146025
 30
0.0
 40
1.0
100
AcDbArc
 50
359.999989999999
 51
124.433860000002
  0
ARC
  5
2ED2
330
1F
100
AcDbEntity
  8
ｴｸｽﾃﾝｼｮﾝﾌﾚｰﾑ
100
AcDbCircle
 10
495.8797280684783
 20
581.0248872146026
 30
0.0
 40
1.43491
100
AcDbArc
 50
359.999989999999
 51
45.0
  0
ARC
  5
2ED3
330
1F
100
AcDbEntity
  8
ｴｸｽﾃﾝｼｮﾝﾌﾚｰﾑ
100
AcDbCircle
 10
501.3797280684783
 20
574.7725672146025
 30
0.0
 40
4.06509
100
AcDbArc
 50
179.999989999999
 51
270.0
  0
ARC
  5
2ED4
330
1F
100
AcDbEntity
  8
ｴｸｽﾃﾝｼｮﾝﾌﾚｰﾑ
100
AcDbCircle
 10
504.8797280684783
 20
568.2725572146025
 30
0.0
 40
3.6
100
AcDbArc
 50
359.999989999999
 51
89.99998999999899
  0
ARC
  5
2ED5
330
1F
100
AcDbEntity
  8
ｴｸｽﾃﾝｼｮﾝﾌﾚｰﾑ
100
AcDbCircle
 10
504.8797280684783
 20
568.2725572146025
 30
0.0
 40
4.000020000000096
100
AcDbArc
 50
53.13027424062971
 51
89.99998999999899
  0
ARC
  5
2ED6
330
1F
100
AcDbEntity
  8
ｴｸｽﾃﾝｼｮﾝﾌﾚｰﾑ
100
AcDbCircle
 10
507.8797280684783
 20
572.2725822145766
 30
0.0
 40
1.0
100
AcDbArc
 50
233.1302742406251
 51
359.9999999999968
1001
GENIUS_GENOBJ-N-FIL_13
1002
{
1000
OWNER
1000
GEN
1002
}
1001
GENIUS_GENODEF_13
1002
{
1000
HIER
1070
     0
1002
}
1002
{
1000
MANEDIT
1070
     0
1002
}
1002
{
1000
NOSEL
1070
     0
1002
}
1002
{
1000
BEHIND
1070
     0
1002
}
1002
{
1000
OTHER
1070
     0
1002
}
1002
{
1000
REACTOR
1002
}
  0
ARC
  5
2ED7
330
1F
100
AcDbEntity
  8
ｴｸｽﾃﾝｼｮﾝﾌﾚｰﾑ
100
AcDbCircle
 10
501.3797280684783
 20
574.7725672146025
 30
0.0
 40
2.9
100
AcDbArc
 50
179.999989999999
 51
270.0
  0
ARC
  5
2ED8
330
1F
100
AcDbEntity
  8
ｴｸｽﾃﾝｼｮﾝﾌﾚｰﾑ
100
AcDbCircle
 10
495.8797280684783
 20
581.0248872146026
 30
0.0
 40
2.6
100
AcDbArc
 50
359.999989999999
 51
45.0
  0
CIRCLE
  5
2EE1
330
1F
100
AcDbEntity
  8
ｴｸｽﾃﾝｼｮﾝﾌﾚｰﾑ
100
AcDbCircle
 10
496.9597280684783
 20
567.9225572146026
 30
0.0
 40
2.077509999999989
  0
LINE
  5
2EE2
330
1F
100
AcDbEntity
  8
ｴｸｽﾃﾝｼｮﾝﾌﾚｰﾑ
100
AcDbLine
 10
511.5641980684783
 20
569.0070272146024
 30
0.0
 11
511.5641980684783
 21
572.5070272146024
 31
0.0
  0
LINE
  5
2EE3
330
1F
100
AcDbEntity
  8
ｴｸｽﾃﾝｼｮﾝﾌﾚｰﾑ
100
AcDbLine
 10
511.5641980684783
 20
575.0070272146024
 30
0.0
 11
511.5641980684783
 21
578.5070272146024
 31
0.0
  0
ARC
  5
2EE4
330
1F
100
AcDbEntity
  8
ｴｸｽﾃﾝｼｮﾝﾌﾚｰﾑ
100
AcDbCircle
 10
511.5641980684785
 20
568.7070272146026
 30
0.0
 40
0.3
100
AcDbArc
 50
359.9999999999772
 51
90.00000000001953
1001
GENIUS_GENOBJ-N-FIL_13
1002
{
1000
OWNER
1000
GEN
1002
}
1001
GENIUS_GENODEF_13
1002
{
1000
HIER
1070
     0
1002
}
1002
{
1000
MANEDIT
1070
     0
1002
}
1002
{
1000
NOSEL
1070
     0
1002
}
1002
{
1000
BEHIND
1070
     0
1002
}
1002
{
1000
OTHER
1070
     0
1002
}
1002
{
1000
REACTOR
1002
}
  0
ARC
  5
2EE5
330
1F
100
AcDbEntity
  8
ｴｸｽﾃﾝｼｮﾝﾌﾚｰﾑ
100
AcDbCircle
 10
511.5641980684785
 20
572.8070272146023
 30
0.0
 40
0.3
100
AcDbArc
 50
269.9999999999674
 51
0.0000000000097707
1001
GENIUS_GENOBJ-N-FIL_13
1002
{
1000
OWNER
1000
GEN
1002
}
1001
GENIUS_GENODEF_13
1002
{
1000
HIER
1070
     0
1002
}
1002
{
1000
MANEDIT
1070
     0
1002
}
1002
{
1000
NOSEL
1070
     0
1002
}
1002
{
1000
BEHIND
1070
     0
1002
}
1002
{
1000
OTHER
1070
     0
1002
}
1002
{
1000
REACTOR
1002
}
  0
ARC
  5
2EE6
330
1F
100
AcDbEntity
  8
ｴｸｽﾃﾝｼｮﾝﾌﾚｰﾑ
100
AcDbCircle
 10
511.5641980684785
 20
574.7070272146024
 30
0.0
 40
0.3
100
AcDbArc
 50
359.9999999999902
 51
90.00000000001953
1001
GENIUS_GENOBJ-N-FIL_13
1002
{
1000
OWNER
1000
GEN
1002
}
1001
GENIUS_GENODEF_13
1002
{
1000
HIER
1070
     0
1002
}
1002
{
1000
MANEDIT
1070
     0
1002
}
1002
{
1000
NOSEL
1070
     0
1002
}
1002
{
1000
BEHIND
1070
     0
1002
}
1002
{
1000
OTHER
1070
     0
1002
}
1002
{
1000
REACTOR
1002
}
  0
ARC
  5
2EE7
330
1F
100
AcDbEntity
  8
ｴｸｽﾃﾝｼｮﾝﾌﾚｰﾑ
100
AcDbCircle
 10
511.5641980684785
 20
578.8070272146024
 30
0.0
 40
0.3
100
AcDbArc
 50
269.9999999999674
 51
0.0000000000097707
1001
GENIUS_GENOBJ-N-FIL_13
1002
{
1000
OWNER
1000
GEN
1002
}
1001
GENIUS_GENODEF_13
1002
{
1000
HIER
1070
     0
1002
}
1002
{
1000
MANEDIT
1070
     0
1002
}
1002
{
1000
NOSEL
1070
     0
1002
}
1002
{
1000
BEHIND
1070
     0
1002
}
1002
{
1000
OTHER
1070
     0
1002
}
1002
{
1000
REACTOR
1002
}
  0
LINE
  5
2EFA
330
1F
100
AcDbEntity
  8
ｴｸｽﾃﾝｼｮﾝﾌﾚｰﾑ
100
AcDbLine
 10
481.4141980684785
 20
203.2570272146023
 30
0.0
 11
483.3141980684781
 21
203.2570272146023
 31
0.0
  0
LINE
  5
2EFB
330
1F
100
AcDbEntity
  8
ｴｸｽﾃﾝｼｮﾝﾌﾚｰﾑ
100
AcDbLine
 10
487.4141980684785
 20
203.2570272146023
 30
0.0
 11
501.8641980684783
 21
203.2570272146023
 31
0.0
  0
LINE
  5
2EFC
330
1F
100
AcDbEntity
  8
ｴｸｽﾃﾝｼｮﾝﾌﾚｰﾑ
100
AcDbLine
 10
480.8797530684524
 20
206.2414972146024
 30
0.0
 11
492.4571680684785
 21
206.2414972146024
 31
0.0
  0
LINE
  5
2EFD
330
1F
100
AcDbEntity
  8
ｴｸｽﾃﾝｼｮﾝﾌﾚｰﾑ
100
AcDbLine
 10
477.5139273839715
 20
216.3319072311682
 30
0.0
 11
479.5351778269036
 21
215.0622217343276
 31
0.0
  0
LINE
  5
2EFE
330
1F
100
AcDbEntity
  8
ｴｸｽﾃﾝｼｮﾝﾌﾚｰﾑ
100
AcDbLine
 10
497.7182180684785
 20
223.6506872146025
 30
0.0
 11
491.4705480684784
 21
217.4030272146025
 31
0.0
  0
LINE
  5
2EFF
330
1F
100
AcDbEntity
  8
ｴｸｽﾃﾝｼｮﾝﾌﾚｰﾑ
100
AcDbLine
 10
476.8355080684784
 20
213.8914972146023
 30
0.0
 11
476.8355080684784
 21
211.4357072146023
 31
0.0
  0
ARC
  5
2F00
330
1F
100
AcDbEntity
  8
ｴｸｽﾃﾝｼｮﾝﾌﾚｰﾑ
100
AcDbCircle
 10
476.5355080684782
 20
211.4357072146023
 30
0.0
 40
0.3
100
AcDbArc
 50
270.0
 51
0.0
1001
GENIUS_GENODEF_13
1002
{
1000
HIER
1070
     0
1002
}
1002
{
1000
MANEDIT
1070
     0
1002
}
1002
{
1000
NOSEL
1070
     0
1002
}
1002
{
1000
BEHIND
1070
     0
1002
}
1002
{
1000
OTHER
1070
     0
1002
}
1002
{
1000
REACTOR
1002
}
1001
GENIUS_GENOBJ-N-FIL_13
1002
{
1000
OWNER
1000
GEN
1002
}
  0
LINE
  5
2F01
330
1F
100
AcDbEntity
  8
ｴｸｽﾃﾝｼｮﾝﾌﾚｰﾑ
100
AcDbLine
 10
480.5828454145949
 20
216.691471484109
 30
0.0
 11
478.6020804197846
 21
218.015197754126
 31
0.0
  0
LINE
  5
2F02
330
1F
100
AcDbEntity
  8
ｴｸｽﾃﾝｼｮﾝﾌﾚｰﾑ
100
AcDbLine
 10
490.6747180684783
 20
216.2414972146024
 30
0.0
 11
483.3797380684784
 21
216.2414972146024
 31
0.0
  0
LINE
  5
2F03
330
1F
100
AcDbEntity
  8
ｴｸｽﾃﾝｼｮﾝﾌﾚｰﾑ
100
AcDbLine
 10
489.6320580684784
 20
216.6414972146023
 30
0.0
 11
483.3797380684784
 21
216.6414972146023
 31
0.0
  0
LINE
  5
2F04
330
1F
100
AcDbEntity
  8
ｴｸｽﾃﾝｼｮﾝﾌﾚｰﾑ
100
AcDbLine
 10
483.3797380684784
 20
217.8065972146025
 30
0.0
 11
489.6320580684784
 21
217.8065972146025
 31
0.0
  0
LINE
  5
2F05
330
1F
100
AcDbEntity
  8
ｴｸｽﾃﾝｼｮﾝﾌﾚｰﾑ
100
AcDbLine
 10
490.6466880684783
 20
218.2268672146025
 30
0.0
 11
496.8943580684785
 21
224.4745372146023
 31
0.0
  0
LINE
  5
2F06
330
1F
100
AcDbEntity
  8
ｴｸｽﾃﾝｼｮﾝﾌﾚｰﾑ
100
AcDbLine
 10
479.3146480684783
 20
210.2414972146024
 30
0.0
 11
479.3146480684783
 21
213.7414972146024
 31
0.0
  0
ARC
  5
2F07
330
1F
100
AcDbEntity
  8
ｴｸｽﾃﾝｼｮﾝﾌﾚｰﾑ
100
AcDbCircle
 10
476.9146480684782
 20
210.2414972146024
 30
0.0
 40
2.399999999999999
100
AcDbArc
 50
270.0
 51
0.0
1001
GENIUS_GENODEF_13
1002
{
1000
HIER
1070
     0
1002
}
1002
{
1000
MANEDIT
1070
     0
1002
}
1002
{
1000
NOSEL
1070
     0
1002
}
1002
{
1000
BEHIND
1070
     0
1002
}
1002
{
1000
OTHER
1070
     0
1002
}
1002
{
1000
REACTOR
1002
}
1001
GENIUS_GENOBJ-N-FIL_13
1002
{
1000
OWNER
1000
GEN
1002
}
  0
LINE
  5
2F08
330
1F
100
AcDbEntity
  8
ｴｸｽﾃﾝｼｮﾝﾌﾚｰﾑ
100
AcDbLine
 10
486.6712680684783
 20
220.1857072146023
 30
0.0
 11
483.1297380684784
 21
220.1857072146023
 31
0.0
  0
LINE
  5
2F09
330
1F
100
AcDbEntity
  8
ｴｸｽﾃﾝｼｮﾝﾌﾚｰﾑ
100
AcDbLine
 10
494.7028978024991
 20
225.4355272146023
 30
0.0
 11
489.6856980684783
 21
220.4183172146023
 31
0.0
  0
LINE
  5
2F0A
330
1F
100
AcDbEntity
  8
ｴｸｽﾃﾝｼｮﾝﾌﾚｰﾑ
100
AcDbLine
 10
480.4797180684784
 20
213.7414972146024
 30
0.0
 11
480.4797180684784
 21
210.2414972146024
 31
0.0
  0
LINE
  5
2F0B
330
1F
100
AcDbEntity
  8
ｴｸｽﾃﾝｼｮﾝﾌﾚｰﾑ
100
AcDbLine
 10
480.8797380684784
 20
213.7414972146024
 30
0.0
 11
480.8797380684784
 21
210.2414972146024
 31
0.0
  0
LINE
  5
2F0C
330
1F
100
AcDbEntity
  8
ｴｸｽﾃﾝｼｮﾝﾌﾚｰﾑ
100
AcDbLine
 10
484.8712580684784
 20
221.9857172146022
 30
0.0
 11
483.0353180684783
 21
221.9857172146022
 31
0.0
  0
LINE
  5
2F0D
330
1F
100
AcDbEntity
  8
ｴｸｽﾃﾝｼｮﾝﾌﾚｰﾑ
100
AcDbLine
 10
483.0353180684783
 20
221.9857172146022
 30
0.0
 11
482.4024880684783
 21
222.6185372146025
 31
0.0
  0
LINE
  5
2F0E
330
1F
100
AcDbEntity
  8
ｴｸｽﾃﾝｼｮﾝﾌﾚｰﾑ
100
AcDbLine
 10
487.7885557864537
 20
219.0684194966269
 30
0.0
 11
484.8712580684784
 21
221.9857172146022
 31
0.0
  0
LINE
  5
2F0F
330
1F
100
AcDbEntity
  8
ｴｸｽﾃﾝｼｮﾝﾌﾚｰﾑ
100
AcDbLine
 10
485.2309280684785
 20
225.4469572146023
 30
0.0
 11
489.6856980684783
 21
220.9921872146025
 31
0.0
  0
LINE
  5
2F10
330
1F
100
AcDbEntity
  8
ｴｸｽﾃﾝｼｮﾝﾌﾚｰﾑ
100
AcDbLine
 10
482.4024880684783
 20
222.6185372146025
 30
0.0
 11
485.2309280684785
 21
225.4469572146023
 31
0.0
  0
LINE
  5
2F11
330
1F
100
AcDbEntity
  8
ｴｸｽﾃﾝｼｮﾝﾌﾚｰﾑ
100
AcDbLine
 10
487.7885557864537
 20
219.0684194966269
 30
0.0
 11
487.7890479539814
 21
217.8065972146025
 31
0.0
  0
LINE
  5
2F12
330
1F
100
AcDbEntity
  8
ｴｸｽﾃﾝｼｮﾝﾌﾚｰﾑ
100
AcDbLine
 10
489.6856980684783
 20
220.9921872146025
 30
0.0
 11
489.6856980684783
 21
217.8075901539811
 31
0.0
  0
ARC
  5
2F13
330
1F
100
AcDbEntity
  8
ｴｸｽﾃﾝｼｮﾝﾌﾚｰﾑ
100
AcDbCircle
 10
501.8641980684783
 20
213.2570272146023
 30
0.0
 40
10.0
100
AcDbArc
 50
270.0
 51
0.0
1001
GENIUS_GENOBJ-N-FIL_13
1002
{
1000
OWNER
1000
GEN
1002
}
1001
GENIUS_GENODEF_13
1002
{
1000
HIER
1070
     0
1002
}
1002
{
1000
MANEDIT
1070
     0
1002
}
1002
{
1000
NOSEL
1070
     0
1002
}
1002
{
1000
BEHIND
1070
     0
1002
}
1002
{
1000
OTHER
1070
     0
1002
}
1002
{
1000
REACTOR
1002
}
  0
ARC
  5
2F14
330
1F
100
AcDbEntity
  8
ｴｸｽﾃﾝｼｮﾝﾌﾚｰﾑ
100
AcDbCircle
 10
501.8641980684783
 20
213.2570272146023
 30
0.0
 40
9.5
100
AcDbArc
 50
270.0
 51
0.0
1001
GENIUS_GENOBJ-N-FIL_13
1002
{
1000
OWNER
1000
GEN
1002
}
1001
GENIUS_GENODEF_13
1002
{
1000
HIER
1070
     0
1002
}
1002
{
1000
MANEDIT
1070
     0
1002
}
1002
{
1000
NOSEL
1070
     0
1002
}
1002
{
1000
BEHIND
1070
     0
1002
}
1002
{
1000
OTHER
1070
     0
1002
}
1002
{
1000
REACTOR
1002
}
  0
ARC
  5
2F15
330
1F
100
AcDbEntity
  8
ｴｸｽﾃﾝｼｮﾝﾌﾚｰﾑ
100
AcDbCircle
 10
483.1297380684784
 20
213.8914972146023
 30
0.0
 40
6.294209999999999
100
AcDbArc
 50
158.2298552169081
 51
180.0
  0
ARC
  5
2F16
330
1F
100
AcDbEntity
  8
ｴｸｽﾃﾝｼｮﾝﾌﾚｰﾑ
100
AcDbCircle
 10
483.1297380684784
 20
213.8914972146023
 30
0.0
 40
6.294209999999999
100
AcDbArc
 50
89.99998999999899
 51
135.9669374407438
  0
ARC
  5
2F18
330
1F
100
AcDbEntity
  8
ｴｸｽﾃﾝｼｮﾝﾌﾚｰﾑ
100
AcDbCircle
 10
483.3797380684784
 20
213.7414972146024
 30
0.0
 40
2.5
100
AcDbArc
 50
89.99998999999899
 51
180.0
  0
ARC
  5
2F19
330
1F
100
AcDbEntity
  8
ｴｸｽﾃﾝｼｮﾝﾌﾚｰﾑ
100
AcDbCircle
 10
490.6747180684783
 20
215.2414972146024
 30
0.0
 40
1.0
100
AcDbArc
 50
350.6875499999997
 51
90.0
  0
ARC
  5
2F1A
330
1F
100
AcDbEntity
  8
ｴｸｽﾃﾝｼｮﾝﾌﾚｰﾑ
100
AcDbCircle
 10
501.5297180684783
 20
213.4614972146025
 30
0.0
 40
10.0
100
AcDbArc
 50
170.6875599999983
 51
214.4338499999979
  0
ARC
  5
2F1B
330
1F
100
AcDbEntity
  8
ｴｸｽﾃﾝｼｮﾝﾌﾚｰﾑ
100
AcDbCircle
 10
492.4571680684782
 20
207.2414972146024
 30
0.0
 40
1.0
100
AcDbArc
 50
269.999989999999
 51
34.43386000000207
  0
ARC
  5
2F1D
330
1F
100
AcDbEntity
  8
ｴｸｽﾃﾝｼｮﾝﾌﾚｰﾑ
100
AcDbCircle
 10
489.6320580684784
 20
219.2414972146024
 30
0.0
 40
1.43491
100
AcDbArc
 50
269.999989999999
 51
315.0
  0
ARC
  5
2F1E
330
1F
100
AcDbEntity
  8
ｴｸｽﾃﾝｼｮﾝﾌﾚｰﾑ
100
AcDbCircle
 10
483.3797380684784
 20
213.7414972146024
 30
0.0
 40
4.06509
100
AcDbArc
 50
89.99998999999899
 51
180.0
  0
ARC
  5
2F1F
330
1F
100
AcDbEntity
  8
ｴｸｽﾃﾝｼｮﾝﾌﾚｰﾑ
100
AcDbCircle
 10
476.8797280684784
 20
210.2414972146024
 30
0.0
 40
3.6
100
AcDbArc
 50
269.999989999999
 51
359.9999900000022
  0
ARC
  5
2F20
330
1F
100
AcDbEntity
  8
ｴｸｽﾃﾝｼｮﾝﾌﾚｰﾑ
100
AcDbCircle
 10
476.8797280684784
 20
210.2414972146024
 30
0.0
 40
4.000020000000096
100
AcDbArc
 50
323.1302742406297
 51
359.9999900000022
  0
ARC
  5
2F21
330
1F
100
AcDbEntity
  8
ｴｸｽﾃﾝｼｮﾝﾌﾚｰﾑ
100
AcDbCircle
 10
480.8797530684524
 20
207.2414972146024
 30
0.0
 40
1.0
100
AcDbArc
 50
143.1302742406251
 51
269.9999999999968
1001
GENIUS_GENOBJ-N-FIL_13
1002
{
1000
OWNER
1000
GEN
1002
}
1001
GENIUS_GENODEF_13
1002
{
1000
HIER
1070
     0
1002
}
1002
{
1000
MANEDIT
1070
     0
1002
}
1002
{
1000
NOSEL
1070
     0
1002
}
1002
{
1000
BEHIND
1070
     0
1002
}
1002
{
1000
OTHER
1070
     0
1002
}
1002
{
1000
REACTOR
1002
}
  0
ARC
  5
2F22
330
1F
100
AcDbEntity
  8
ｴｸｽﾃﾝｼｮﾝﾌﾚｰﾑ
100
AcDbCircle
 10
483.3797380684784
 20
213.7414972146024
 30
0.0
 40
2.9
100
AcDbArc
 50
89.99998999999899
 51
180.0
  0
ARC
  5
2F23
330
1F
100
AcDbEntity
  8
ｴｸｽﾃﾝｼｮﾝﾌﾚｰﾑ
100
AcDbCircle
 10
489.6320580684784
 20
219.2414972146024
 30
0.0
 40
2.6
100
AcDbArc
 50
269.999989999999
 51
315.0
  0
CIRCLE
  5
2F4A
330
1F
100
AcDbEntity
  8
ｴｸｽﾃﾝｼｮﾝﾌﾚｰﾑ
100
AcDbCircle
 10
476.5297280684783
 20
218.1614972146022
 30
0.0
 40
2.077509999999989
  0
LINE
  5
2F4B
330
1F
100
AcDbEntity
  8
ｴｸｽﾃﾝｼｮﾝﾌﾚｰﾑ
100
AcDbLine
 10
477.6141980684783
 20
203.5570272146025
 30
0.0
 11
481.1141980684783
 21
203.5570272146025
 31
0.0
  0
LINE
  5
2F4C
330
1F
100
AcDbEntity
  8
ｴｸｽﾃﾝｼｮﾝﾌﾚｰﾑ
100
AcDbLine
 10
483.6141980684783
 20
203.5570272146025
 30
0.0
 11
487.1141980684783
 21
203.5570272146025
 31
0.0
  0
ARC
  5
2F4D
330
1F
100
AcDbEntity
  8
ｴｸｽﾃﾝｼｮﾝﾌﾚｰﾑ
100
AcDbCircle
 10
477.3141980684783
 20
203.5570272146023
 30
0.0
 40
0.3
100
AcDbArc
 50
269.9999999999772
 51
0.0000000000227982
1001
GENIUS_GENOBJ-N-FIL_13
1002
{
1000
OWNER
1000
GEN
1002
}
1001
GENIUS_GENODEF_13
1002
{
1000
HIER
1070
     0
1002
}
1002
{
1000
MANEDIT
1070
     0
1002
}
1002
{
1000
NOSEL
1070
     0
1002
}
1002
{
1000
BEHIND
1070
     0
1002
}
1002
{
1000
OTHER
1070
     0
1002
}
1002
{
1000
REACTOR
1002
}
  0
ARC
  5
2F4E
330
1F
100
AcDbEntity
  8
ｴｸｽﾃﾝｼｮﾝﾌﾚｰﾑ
100
AcDbCircle
 10
481.4141980684783
 20
203.5570272146023
 30
0.0
 40
0.3
100
AcDbArc
 50
179.9999999999674
 51
270.0000000000098
1001
GENIUS_GENOBJ-N-FIL_13
1002
{
1000
OWNER
1000
GEN
1002
}
1001
GENIUS_GENODEF_13
1002
{
1000
HIER
1070
     0
1002
}
1002
{
1000
MANEDIT
1070
     0
1002
}
1002
{
1000
NOSEL
1070
     0
1002
}
1002
{
1000
BEHIND
1070
     0
1002
}
1002
{
1000
OTHER
1070
     0
1002
}
1002
{
1000
REACTOR
1002
}
  0
ARC
  5
2F4F
330
1F
100
AcDbEntity
  8
ｴｸｽﾃﾝｼｮﾝﾌﾚｰﾑ
100
AcDbCircle
 10
483.3141980684784
 20
203.5570272146023
 30
0.0
 40
0.3
100
AcDbArc
 50
269.999999999987
 51
0.0000000000227982
1001
GENIUS_GENOBJ-N-FIL_13
1002
{
1000
OWNER
1000
GEN
1002
}
1001
GENIUS_GENODEF_13
1002
{
1000
HIER
1070
     0
1002
}
1002
{
1000
MANEDIT
1070
     0
1002
}
1002
{
1000
NOSEL
1070
     0
1002
}
1002
{
1000
BEHIND
1070
     0
1002
}
1002
{
1000
OTHER
1070
     0
1002
}
1002
{
1000
REACTOR
1002
}
  0
ARC
  5
2F50
330
1F
100
AcDbEntity
  8
ｴｸｽﾃﾝｼｮﾝﾌﾚｰﾑ
100
AcDbCircle
 10
487.4141980684782
 20
203.5570272146023
 30
0.0
 40
0.3
100
AcDbArc
 50
179.9999999999674
 51
270.0000000000098
1001
GENIUS_GENOBJ-N-FIL_13
1002
{
1000
OWNER
1000
GEN
1002
}
1001
GENIUS_GENODEF_13
1002
{
1000
HIER
1070
     0
1002
}
1002
{
1000
MANEDIT
1070
     0
1002
}
1002
{
1000
NOSEL
1070
     0
1002
}
1002
{
1000
BEHIND
1070
     0
1002
}
1002
{
1000
OTHER
1070
     0
1002
}
1002
{
1000
REACTOR
1002
}
  0
LINE
  5
2F55
330
1F
100
AcDbEntity
  8
ｴｸｽﾃﾝｼｮﾝﾌﾚｰﾑ
100
AcDbLine
 10
511.8641980684783
 20
233.7070272146024
 30
0.0
 11
511.8641980684783
 21
231.8070272146025
 31
0.0
  0
LINE
  5
2F56
330
1F
100
AcDbEntity
  8
ｴｸｽﾃﾝｼｮﾝﾌﾚｰﾑ
100
AcDbLine
 10
511.8641980684783
 20
227.7070272146024
 30
0.0
 11
511.8641980684783
 21
213.2570272146023
 31
0.0
  0
LINE
  5
2F57
330
1F
100
AcDbEntity
  8
ｴｸｽﾃﾝｼｮﾝﾌﾚｰﾑ
100
AcDbLine
 10
508.8797280684785
 20
234.2414722146283
 30
0.0
 11
508.8797280684785
 21
222.6640572146024
 31
0.0
  0
LINE
  5
2F58
330
1F
100
AcDbEntity
  8
ｴｸｽﾃﾝｼｮﾝﾌﾚｰﾑ
100
AcDbLine
 10
498.7893180519127
 20
237.6072978991091
 30
0.0
 11
500.059003548753
 21
235.586047456177
 31
0.0
  0
LINE
  5
2F59
330
1F
100
AcDbEntity
  8
ｴｸｽﾃﾝｼｮﾝﾌﾚｰﾑ
100
AcDbLine
 10
501.2297280684784
 20
238.2857172146022
 30
0.0
 11
503.6855180684783
 21
238.2857172146022
 31
0.0
  0
ARC
  5
2F5A
330
1F
100
AcDbEntity
  8
ｴｸｽﾃﾝｼｮﾝﾌﾚｰﾑ
100
AcDbCircle
 10
503.685518068478
 20
238.5857172146021
 30
0.0
 40
0.3
100
AcDbArc
 50
270.0
 51
0.0
1001
GENIUS_GENODEF_13
1002
{
1000
HIER
1070
     0
1002
}
1002
{
1000
MANEDIT
1070
     0
1002
}
1002
{
1000
NOSEL
1070
     0
1002
}
1002
{
1000
BEHIND
1070
     0
1002
}
1002
{
1000
OTHER
1070
     0
1002
}
1002
{
1000
REACTOR
1002
}
1001
GENIUS_GENOBJ-N-FIL_13
1002
{
1000
OWNER
1000
GEN
1002
}
  0
LINE
  5
2F5B
330
1F
100
AcDbEntity
  8
ｴｸｽﾃﾝｼｮﾝﾌﾚｰﾑ
100
AcDbLine
 10
498.4297537989716
 20
234.538379868486
 30
0.0
 11
497.1060275289546
 21
236.519144863296
 31
0.0
  0
LINE
  5
2F5C
330
1F
100
AcDbEntity
  8
ｴｸｽﾃﾝｼｮﾝﾌﾚｰﾑ
100
AcDbLine
 10
498.8797280684784
 20
224.4465072146023
 30
0.0
 11
498.8797280684784
 21
231.7414872146022
 31
0.0
  0
LINE
  5
2F5D
330
1F
100
AcDbEntity
  8
ｴｸｽﾃﾝｼｮﾝﾌﾚｰﾑ
100
AcDbLine
 10
498.4797280684784
 20
225.4891672146022
 30
0.0
 11
498.4797280684784
 21
231.7414872146022
 31
0.0
  0
LINE
  5
2F5E
330
1F
100
AcDbEntity
  8
ｴｸｽﾃﾝｼｮﾝﾌﾚｰﾑ
100
AcDbLine
 10
497.3146280684781
 20
231.7414872146022
 30
0.0
 11
497.3146280684781
 21
225.4891672146022
 31
0.0
  0
LINE
  5
2F5F
330
1F
100
AcDbEntity
  8
ｴｸｽﾃﾝｼｮﾝﾌﾚｰﾑ
100
AcDbLine
 10
504.8797280684785
 20
235.8065772146023
 30
0.0
 11
501.3797280684785
 21
235.8065772146023
 31
0.0
  0
ARC
  5
2F60
330
1F
100
AcDbEntity
  8
ｴｸｽﾃﾝｼｮﾝﾌﾚｰﾑ
100
AcDbCircle
 10
504.8797280684782
 20
238.2065772146024
 30
0.0
 40
2.399999999999999
100
AcDbArc
 50
270.0
 51
0.0
1001
GENIUS_GENODEF_13
1002
{
1000
HIER
1070
     0
1002
}
1002
{
1000
MANEDIT
1070
     0
1002
}
1002
{
1000
NOSEL
1070
     0
1002
}
1002
{
1000
BEHIND
1070
     0
1002
}
1002
{
1000
OTHER
1070
     0
1002
}
1002
{
1000
REACTOR
1002
}
1001
GENIUS_GENOBJ-N-FIL_13
1002
{
1000
OWNER
1000
GEN
1002
}
  0
LINE
  5
2F61
330
1F
100
AcDbEntity
  8
ｴｸｽﾃﾝｼｮﾝﾌﾚｰﾑ
100
AcDbLine
 10
494.9355180684783
 20
228.4499572146022
 30
0.0
 11
494.9355180684783
 21
231.9914872146022
 31
0.0
  0
LINE
  5
2F62
330
1F
100
AcDbEntity
  8
ｴｸｽﾃﾝｼｮﾝﾌﾚｰﾑ
100
AcDbLine
 10
501.3797280684785
 20
234.6415072146022
 30
0.0
 11
504.8797280684785
 21
234.6415072146022
 31
0.0
  0
LINE
  5
2F63
330
1F
100
AcDbEntity
  8
ｴｸｽﾃﾝｼｮﾝﾌﾚｰﾑ
100
AcDbLine
 10
501.3797280684785
 20
234.2414872146022
 30
0.0
 11
504.8797280684785
 21
234.2414872146022
 31
0.0
  0
LINE
  5
2F64
330
1F
100
AcDbEntity
  8
ｴｸｽﾃﾝｼｮﾝﾌﾚｰﾑ
100
AcDbLine
 10
493.1355080684784
 20
230.2499672146022
 30
0.0
 11
493.1355080684784
 21
232.0859072146023
 31
0.0
  0
LINE
  5
2F65
330
1F
100
AcDbEntity
  8
ｴｸｽﾃﾝｼｮﾝﾌﾚｰﾑ
100
AcDbLine
 10
493.1355080684784
 20
232.0859072146023
 30
0.0
 11
492.5026880684781
 21
232.7187372146024
 31
0.0
  0
LINE
  5
2F66
330
1F
100
AcDbEntity
  8
ｴｸｽﾃﾝｼｮﾝﾌﾚｰﾑ
100
AcDbLine
 10
496.0528057864539
 20
227.3326694966268
 30
0.0
 11
493.1355080684784
 21
230.2499672146022
 31
0.0
  0
LINE
  5
2F67
330
1F
100
AcDbEntity
  8
ｴｸｽﾃﾝｼｮﾝﾌﾚｰﾑ
100
AcDbLine
 10
489.6742680684783
 20
229.8902972146024
 30
0.0
 11
494.1290380684781
 21
225.4355272146023
 31
0.0
  0
LINE
  5
2F68
330
1F
100
AcDbEntity
  8
ｴｸｽﾃﾝｼｮﾝﾌﾚｰﾑ
100
AcDbLine
 10
492.5026880684781
 20
232.7187372146024
 30
0.0
 11
489.6742680684783
 21
229.8902972146024
 31
0.0
  0
LINE
  5
2F69
330
1F
100
AcDbEntity
  8
ｴｸｽﾃﾝｼｮﾝﾌﾚｰﾑ
100
AcDbLine
 10
496.0528057864539
 20
227.3326694966268
 30
0.0
 11
497.3146280684781
 21
227.3321773290992
 31
0.0
  0
LINE
  5
2F6A
330
1F
100
AcDbEntity
  8
ｴｸｽﾃﾝｼｮﾝﾌﾚｰﾑ
100
AcDbLine
 10
494.1290380684781
 20
225.4355272146023
 30
0.0
 11
497.3136351290995
 21
225.4355272146023
 31
0.0
  0
ARC
  5
2F6B
330
1F
100
AcDbEntity
  8
ｴｸｽﾃﾝｼｮﾝﾌﾚｰﾑ
100
AcDbCircle
 10
501.2297280684781
 20
231.9914872146022
 30
0.0
 40
6.294209999999999
100
AcDbArc
 50
90.0
 51
111.7701447830919
  0
ARC
  5
2F6C
330
1F
100
AcDbEntity
  8
ｴｸｽﾃﾝｼｮﾝﾌﾚｰﾑ
100
AcDbCircle
 10
501.2297280684781
 20
231.9914872146022
 30
0.0
 40
6.294209999999999
100
AcDbArc
 50
134.0330625592539
 51
180.0000100000009
  0
ARC
  5
2F6D
330
1F
100
AcDbEntity
  8
ｴｸｽﾃﾝｼｮﾝﾌﾚｰﾑ
100
AcDbCircle
 10
501.3797280684782
 20
231.7414872146022
 30
0.0
 40
2.5
100
AcDbArc
 50
90.0
 51
180.0000100000009
  0
ARC
  5
2F6E
330
1F
100
AcDbEntity
  8
ｴｸｽﾃﾝｼｮﾝﾌﾚｰﾑ
100
AcDbCircle
 10
499.8797280684782
 20
224.4465072146023
 30
0.0
 40
1.0
100
AcDbArc
 50
180.0
 51
279.3124500000003
  0
ARC
  5
2F6F
330
1F
100
AcDbEntity
  8
ｴｸｽﾃﾝｼｮﾝﾌﾚｰﾑ
100
AcDbCircle
 10
501.6597280684782
 20
213.5915072146023
 30
0.0
 40
10.0
100
AcDbArc
 50
55.56615000000207
 51
99.3124400000017
  0
ARC
  5
2F70
330
1F
100
AcDbEntity
  8
ｴｸｽﾃﾝｼｮﾝﾌﾚｰﾑ
100
AcDbCircle
 10
507.8797280684782
 20
222.6640572146024
 30
0.0
 40
1.0
100
AcDbArc
 50
235.5661399999979
 51
0.0000100000010064
  0
ARC
  5
2F71
330
1F
100
AcDbEntity
  8
ｴｸｽﾃﾝｼｮﾝﾌﾚｰﾑ
100
AcDbCircle
 10
495.8797280684782
 20
225.4891672146022
 30
0.0
 40
1.43491
100
AcDbArc
 50
315.0
 51
0.0000100000010064
  0
ARC
  5
2F72
330
1F
100
AcDbEntity
  8
ｴｸｽﾃﾝｼｮﾝﾌﾚｰﾑ
100
AcDbCircle
 10
501.3797280684782
 20
231.7414872146022
 30
0.0
 40
4.06509
100
AcDbArc
 50
90.0
 51
180.0000100000009
  0
ARC
  5
2F73
330
1F
100
AcDbEntity
  8
ｴｸｽﾃﾝｼｮﾝﾌﾚｰﾑ
100
AcDbCircle
 10
504.8797280684782
 20
238.2414972146022
 30
0.0
 40
3.6
100
AcDbArc
 50
270.0000099999978
 51
0.0000100000010064
  0
ARC
  5
2F74
330
1F
100
AcDbEntity
  8
ｴｸｽﾃﾝｼｮﾝﾌﾚｰﾑ
100
AcDbCircle
 10
504.8797280684782
 20
238.2414972146022
 30
0.0
 40
4.000020000000096
100
AcDbArc
 50
270.0000099999978
 51
306.8697257593703
  0
ARC
  5
2F75
330
1F
100
AcDbEntity
  8
ｴｸｽﾃﾝｼｮﾝﾌﾚｰﾑ
100
AcDbCircle
 10
507.8797280684782
 20
234.2414722146283
 30
0.0
 40
1.0
100
AcDbArc
 50
0.0000000000032569
 51
126.8697257593748
1001
GENIUS_GENOBJ-N-FIL_13
1002
{
1000
OWNER
1000
GEN
1002
}
1001
GENIUS_GENODEF_13
1002
{
1000
HIER
1070
     0
1002
}
1002
{
1000
MANEDIT
1070
     0
1002
}
1002
{
1000
NOSEL
1070
     0
1002
}
1002
{
1000
BEHIND
1070
     0
1002
}
1002
{
1000
OTHER
1070
     0
1002
}
1002
{
1000
REACTOR
1002
}
  0
ARC
  5
2F76
330
1F
100
AcDbEntity
  8
ｴｸｽﾃﾝｼｮﾝﾌﾚｰﾑ
100
AcDbCircle
 10
501.3797280684782
 20
231.7414872146022
 30
0.0
 40
2.9
100
AcDbArc
 50
90.0
 51
180.0000100000009
  0
ARC
  5
2F77
330
1F
100
AcDbEntity
  8
ｴｸｽﾃﾝｼｮﾝﾌﾚｰﾑ
100
AcDbCircle
 10
495.8797280684782
 20
225.4891672146022
 30
0.0
 40
2.6
100
AcDbArc
 50
315.0
 51
0.0000100000010064
  0
CIRCLE
  5
2F80
330
1F
100
AcDbEntity
  8
ｴｸｽﾃﾝｼｮﾝﾌﾚｰﾑ
100
AcDbCircle
 10
496.9597280684781
 20
238.5914972146023
 30
0.0
 40
2.077509999999989
  0
LINE
  5
2F81
330
1F
100
AcDbEntity
  8
ｴｸｽﾃﾝｼｮﾝﾌﾚｰﾑ
100
AcDbLine
 10
511.5641980684781
 20
237.5070272146023
 30
0.0
 11
511.5641980684781
 21
234.0070272146023
 31
0.0
  0
LINE
  5
2F82
330
1F
100
AcDbEntity
  8
ｴｸｽﾃﾝｼｮﾝﾌﾚｰﾑ
100
AcDbLine
 10
511.5641980684781
 20
231.5070272146023
 30
0.0
 11
511.5641980684781
 21
228.0070272146023
 31
0.0
  0
ARC
  5
2F83
330
1F
100
AcDbEntity
  8
ｴｸｽﾃﾝｼｮﾝﾌﾚｰﾑ
100
AcDbCircle
 10
511.5641980684784
 20
237.8070272146023
 30
0.0
 40
0.3
100
AcDbArc
 50
269.9999999999772
 51
0.0000000000227982
1001
GENIUS_GENOBJ-N-FIL_13
1002
{
1000
OWNER
1000
GEN
1002
}
1001
GENIUS_GENODEF_13
1002
{
1000
HIER
1070
     0
1002
}
1002
{
1000
MANEDIT
1070
     0
1002
}
1002
{
1000
NOSEL
1070
     0
1002
}
1002
{
1000
BEHIND
1070
     0
1002
}
1002
{
1000
OTHER
1070
     0
1002
}
1002
{
1000
REACTOR
1002
}
  0
ARC
  5
2F84
330
1F
100
AcDbEntity
  8
ｴｸｽﾃﾝｼｮﾝﾌﾚｰﾑ
100
AcDbCircle
 10
511.5641980684784
 20
233.7070272146024
 30
0.0
 40
0.3
100
AcDbArc
 50
359.9999999999902
 51
90.00000000003257
1001
GENIUS_GENOBJ-N-FIL_13
1002
{
1000
OWNER
1000
GEN
1002
}
1001
GENIUS_GENODEF_13
1002
{
1000
HIER
1070
     0
1002
}
1002
{
1000
MANEDIT
1070
     0
1002
}
1002
{
1000
NOSEL
1070
     0
1002
}
1002
{
1000
BEHIND
1070
     0
1002
}
1002
{
1000
OTHER
1070
     0
1002
}
1002
{
1000
REACTOR
1002
}
  0
ARC
  5
2F85
330
1F
100
AcDbEntity
  8
ｴｸｽﾃﾝｼｮﾝﾌﾚｰﾑ
100
AcDbCircle
 10
511.5641980684784
 20
231.8070272146023
 30
0.0
 40
0.3
100
AcDbArc
 50
269.9999999999772
 51
0.0000000000097707
1001
GENIUS_GENOBJ-N-FIL_13
1002
{
1000
OWNER
1000
GEN
1002
}
1001
GENIUS_GENODEF_13
1002
{
1000
HIER
1070
     0
1002
}
1002
{
1000
MANEDIT
1070
     0
1002
}
1002
{
1000
NOSEL
1070
     0
1002
}
1002
{
1000
BEHIND
1070
     0
1002
}
1002
{
1000
OTHER
1070
     0
1002
}
1002
{
1000
REACTOR
1002
}
  0
ARC
  5
2F86
330
1F
100
AcDbEntity
  8
ｴｸｽﾃﾝｼｮﾝﾌﾚｰﾑ
100
AcDbCircle
 10
511.5641980684784
 20
227.7070272146024
 30
0.0
 40
0.3
100
AcDbArc
 50
359.9999999999902
 51
90.00000000003257
1001
GENIUS_GENOBJ-N-FIL_13
1002
{
1000
OWNER
1000
GEN
1002
}
1001
GENIUS_GENODEF_13
1002
{
1000
HIER
1070
     0
1002
}
1002
{
1000
MANEDIT
1070
     0
1002
}
1002
{
1000
NOSEL
1070
     0
1002
}
1002
{
1000
BEHIND
1070
     0
1002
}
1002
{
1000
OTHER
1070
     0
1002
}
1002
{
1000
REACTOR
1002
}
  0
LINE
  5
30AF
330
1F
100
AcDbEntity
  8
ｴｸｽﾃﾝｼｮﾝﾌﾚｰﾑ
100
AcDbLine
 10
511.8641980662149
 20
724.461148632471
 30
0.0
 11
511.3999286997467
 21
777.6611486324708
 31
0.0
  0
LINE
  5
30C7
330
1F
100
AcDbEntity
  8
ｴｸｽﾃﾝｼｮﾝﾌﾚｰﾑ
100
AcDbLine
 10
504.073385228606
 20
769.9925691033716
 30
0.0
 11
503.9855180662151
 21
780.0611486324709
 31
0.0
  0
LINE
  5
316D
330
1F
100
AcDbEntity
  8
ｴｸｽﾃﾝｼｮﾝﾌﾚｰﾑ
100
AcDbLine
 10
506.8797280662151
 20
719.461148632471
 30
0.0
 11
506.457209085161
 21
767.8770283254474
 31
0.0
  0
LINE
  5
31A0
330
1F
100
AcDbEntity
  8
ｴｸｽﾃﾝｼｮﾝﾌﾚｰﾑ
100
AcDbLine
 10
508.879728066215
 20
719.461148632471
 30
0.0
 11
508.479728066215
 21
718.6611486324708
 31
0.0
  0
LINE
  5
31A2
330
1F
100
AcDbEntity
  8
ｴｸｽﾃﾝｼｮﾝﾌﾚｰﾑ
100
AcDbLine
 10
507.2797280662147
 20
718.6611486324708
 30
0.0
 11
506.8797280662151
 21
719.461148632471
 31
0.0
  0
LINE
  5
321E
330
1F
100
AcDbEntity
  8
ｴｸｽﾃﾝｼｮﾝﾌﾚｰﾑ
100
AcDbLine
 10
508.9076540431455
 20
722.6611486324708
 30
0.0
 11
508.879728066215
 21
719.461148632471
 31
0.0
  0
LINE
  5
3317
330
1F
100
AcDbEntity
  8
ｴｸｽﾃﾝｼｮﾝﾌﾚｰﾑ
100
AcDbLine
 10
504.5733471516785
 20
769.1352702350858
 30
0.0
 11
506.3072205082415
 21
768.1342179859333
 31
0.0
  0
ARC
  5
331D
330
1F
100
AcDbEntity
  8
ｴｸｽﾃﾝｼｮﾝﾌﾚｰﾑ
100
AcDbCircle
 10
505.0733471516788
 20
770.0012956388704
 30
0.0
 40
1.0
100
AcDbArc
 50
180.5000000000078
 51
239.9999999999995
1001
GENIUS_GENODEF_13
1002
{
1000
HIER
1070
     0
1002
}
1002
{
1000
MANEDIT
1070
     0
1002
}
1002
{
1000
NOSEL
1070
     0
1002
}
1002
{
1000
BEHIND
1070
     0
1002
}
1002
{
1000
OTHER
1070
     0
1002
}
1002
{
1000
REACTOR
1002
}
1001
GENIUS_GENOBJ-N-FIL_13
1002
{
1000
OWNER
1000
GEN
1002
}
  0
LINE
  5
3321
330
1F
100
AcDbEntity
  8
ｴｸｽﾃﾝｼｮﾝﾌﾚｰﾑ
100
AcDbLine
 10
511.364198066215
 20
724.1611486324708
 30
0.0
 11
511.364198066215
 21
722.6611486324708
 31
0.0
  0
LINE
  5
33DA
330
1F
100
AcDbEntity
  8
ｴｸｽﾃﾝｼｮﾝﾌﾚｰﾑ
100
AcDbLine
 10
509.452666534098
 20
772.3454408685742
 30
0.0
 11
509.4973258704738
 21
777.4628939395705
 31
0.0
  0
LINE
  5
33F6
330
1F
100
AcDbEntity
  8
ｴｸｽﾃﾝｼｮﾝﾌﾚｰﾑ
100
AcDbLine
 10
505.8163899745353
 20
772.3454408685742
 30
0.0
 11
505.7507861554617
 21
779.8628939395706
 31
0.0
  0
LINE
  5
3401
330
1F
100
AcDbEntity
  8
ｴｸｽﾃﾝｼｮﾝﾌﾚｰﾑ
100
AcDbLine
 10
507.6527350725826
 20
770.5611486324709
 30
0.0
 11
507.6163214360502
 21
770.5611486324709
 31
0.0
  0
ARC
  5
342D
330
1F
100
AcDbEntity
  8
ｴｸｽﾃﾝｼｮﾝﾌﾚｰﾑ
100
AcDbCircle
 10
507.6527350725829
 20
772.3611486324711
 30
0.0
 40
1.8
100
AcDbArc
 50
270.0
 51
359.4999999999987
1001
GENIUS_GENODEF_13
1002
{
1000
HIER
1070
     0
1002
}
1002
{
1000
MANEDIT
1070
     0
1002
}
1002
{
1000
NOSEL
1070
     0
1002
}
1002
{
1000
BEHIND
1070
     0
1002
}
1002
{
1000
OTHER
1070
     0
1002
}
1002
{
1000
REACTOR
1002
}
1001
GENIUS_GENOBJ-N-FIL_13
1002
{
1000
OWNER
1000
GEN
1002
}
  0
ARC
  5
342F
330
1F
100
AcDbEntity
  8
ｴｸｽﾃﾝｼｮﾝﾌﾚｰﾑ
100
AcDbCircle
 10
507.6163214360504
 20
772.3611486324711
 30
0.0
 40
1.8
100
AcDbArc
 50
180.5000000000013
 51
270.0
1001
GENIUS_GENODEF_13
1002
{
1000
HIER
1070
     0
1002
}
1002
{
1000
MANEDIT
1070
     0
1002
}
1002
{
1000
NOSEL
1070
     0
1002
}
1002
{
1000
BEHIND
1070
     0
1002
}
1002
{
1000
OTHER
1070
     0
1002
}
1002
{
1000
REACTOR
1002
}
1001
GENIUS_GENOBJ-N-FIL_13
1002
{
1000
OWNER
1000
GEN
1002
}
  0
ARC
  5
3433
330
1F
100
AcDbEntity
  8
ｴｸｽﾃﾝｼｮﾝﾌﾚｰﾑ
100
AcDbCircle
 10
509.6973182550867
 20
777.461148632471
 30
0.0
 40
0.2
100
AcDbArc
 50
90.0
 51
179.4999999999987
1001
GENIUS_GENODEF_13
1002
{
1000
HIER
1070
     0
1002
}
1002
{
1000
MANEDIT
1070
     0
1002
}
1002
{
1000
NOSEL
1070
     0
1002
}
1002
{
1000
BEHIND
1070
     0
1002
}
1002
{
1000
OTHER
1070
     0
1002
}
1002
{
1000
REACTOR
1002
}
1001
GENIUS_GENOBJ-N-FIL_13
1002
{
1000
OWNER
1000
GEN
1002
}
  0
ARC
  5
3435
330
1F
100
AcDbEntity
  8
ｴｸｽﾃﾝｼｮﾝﾌﾚｰﾑ
100
AcDbCircle
 10
505.5507937708488
 20
779.8611486324711
 30
0.0
 40
0.2
100
AcDbArc
 50
0.500000000001317
 51
90.0
1001
GENIUS_GENOBJ-N-FIL_13
1002
{
1000
OWNER
1000
GEN
1002
}
1001
GENIUS_GENODEF_13
1002
{
1000
HIER
1070
     0
1002
}
1002
{
1000
MANEDIT
1070
     0
1002
}
1002
{
1000
NOSEL
1070
     0
1002
}
1002
{
1000
BEHIND
1070
     0
1002
}
1002
{
1000
OTHER
1070
     0
1002
}
1002
{
1000
REACTOR
1002
}
  0
LINE
  5
3495
330
1F
100
AcDbEntity
  8
ｴｸｽﾃﾝｼｮﾝﾌﾚｰﾑ
100
AcDbLine
 10
478.6072380662152
 20
727.161138632471
 30
0.0
 11
479.068889459615
 21
780.0611486324709
 31
0.0
  0
LINE
  5
349B
330
1F
100
AcDbEntity
  8
ｴｸｽﾃﾝｼｮﾝﾌﾚｰﾑ
100
AcDbLine
 10
482.4024880662149
 20
727.161138632471
 30
0.0
 11
481.9408366728151
 21
780.0611486324709
 31
0.0
  0
LINE
  5
34A1
330
1F
100
AcDbEntity
  8
ｴｸｽﾃﾝｼｮﾝﾌﾚｰﾑ
100
AcDbLine
 10
485.2309280662151
 20
727.161138632471
 30
0.0
 11
485.2309280662151
 21
780.0611486324709
 31
0.0
  0
LINE
  5
34A7
330
1F
100
AcDbEntity
  8
ｴｸｽﾃﾝｼｮﾝﾌﾚｰﾑ
100
AcDbLine
 10
489.6742680662149
 20
727.161138632471
 30
0.0
 11
489.2126166728152
 21
780.0611486324709
 31
0.0
  0
LINE
  5
34AD
330
1F
100
AcDbEntity
  8
ｴｸｽﾃﾝｼｮﾝﾌﾚｰﾑ
100
AcDbLine
 10
492.5026880662147
 20
727.161138632471
 30
0.0
 11
492.5026880662147
 21
780.0611486324709
 31
0.0
  0
LINE
  5
34B3
330
1F
100
AcDbEntity
  8
ｴｸｽﾃﾝｼｮﾝﾌﾚｰﾑ
100
AcDbLine
 10
493.135508066215
 20
727.161138632471
 30
0.0
 11
493.5971594596147
 21
780.0611486324709
 31
0.0
  0
LINE
  5
34B9
330
1F
100
AcDbEntity
  8
ｴｸｽﾃﾝｼｮﾝﾌﾚｰﾑ
100
AcDbLine
 10
494.8822180662149
 20
727.161138632471
 30
0.0
 11
494.4205666728151
 21
780.0611486324709
 31
0.0
  0
LINE
  5
34BF
330
1F
100
AcDbEntity
  8
ｴｸｽﾃﾝｼｮﾝﾌﾚｰﾑ
100
AcDbLine
 10
499.037238066215
 20
727.161138632471
 30
0.0
 11
499.4988894596148
 21
780.0611486324709
 31
0.0
  0
LINE
  5
34CF
330
1F
100
AcDbEntity
  8
ｴｸｽﾃﾝｼｮﾝﾌﾚｰﾑ
100
AcDbLine
 10
474.452218066215
 20
727.161138632471
 30
0.0
 11
500.0590035464896
 21
727.161138632471
 31
0.0
  0
LINE
  5
34D4
330
1F
100
AcDbEntity
  8
ｴｸｽﾃﾝｼｮﾝﾌﾚｰﾑ
100
AcDbLine
 10
473.9905666728153
 20
780.0611486324709
 30
0.0
 11
474.452218066215
 21
727.161138632471
 31
0.0
  0
LINE
  5
34EB
330
1F
100
AcDbEntity
  8
ｴｸｽﾃﾝｼｮﾝﾌﾚｰﾑ
100
AcDbLine
 10
500.0590035464896
 20
727.161138632471
 30
0.0
 11
500.5206549398893
 21
780.0611486324709
 31
0.0
  0
LINE
  5
352B
330
1F
100
AcDbEntity
  8
ｴｸｽﾃﾝｼｮﾝﾌﾚｰﾑ
100
AcDbLine
 10
496.9146280662151
 20
719.461148632471
 30
0.0
 11
496.8474312714946
 21
727.161138632471
 31
0.0
  0
LINE
  5
352C
330
1F
100
AcDbEntity
  8
ｴｸｽﾃﾝｼｮﾝﾌﾚｰﾑ
100
AcDbLine
 10
497.3146280662148
 20
718.6611486324708
 30
0.0
 11
496.9146280662151
 21
719.461148632471
 31
0.0
  0
LINE
  5
352D
330
1F
100
AcDbEntity
  8
ｴｸｽﾃﾝｼｮﾝﾌﾚｰﾑ
100
AcDbLine
 10
478.9146480662151
 20
719.461148632471
 30
0.0
 11
478.847451271495
 21
727.161138632471
 31
0.0
  0
LINE
  5
352E
330
1F
100
AcDbEntity
  8
ｴｸｽﾃﾝｼｮﾝﾌﾚｰﾑ
100
AcDbLine
 10
479.3146480662151
 20
718.6611486324708
 30
0.0
 11
478.9146480662151
 21
719.461148632471
 31
0.0
  0
LINE
  5
36F9
330
1F
100
AcDbEntity
  8
ｴｸｽﾃﾝｼｮﾝﾌﾚｰﾑ
100
AcDbLine
 10
212.3641980684783
 20
722.6611486324708
 30
0.0
 11
242.7858220915474
 21
722.6611486324708
 31
0.0
  0
LINE
  5
36FA
330
1F
100
AcDbEntity
  8
ｴｸｽﾃﾝｼｮﾝﾌﾚｰﾑ
100
AcDbLine
 10
212.3641980684783
 20
724.1611486324708
 30
0.0
 11
211.8641980684781
 21
724.461148632471
 31
0.0
  0
LINE
  5
36FB
330
1F
100
AcDbEntity
  8
ｴｸｽﾃﾝｼｮﾝﾌﾚｰﾑ
100
AcDbLine
 10
211.8641980684781
 20
724.461148632471
 30
0.0
 11
212.3284674349463
 21
777.6611486324708
 31
0.0
  0
LINE
  5
36FC
330
1F
100
AcDbEntity
  8
ｴｸｽﾃﾝｼｮﾝﾌﾚｰﾑ
100
AcDbLine
 10
212.3641980684783
 20
724.1611486324708
 30
0.0
 11
212.3641980684783
 21
722.6611486324708
 31
0.0
  0
LINE
  5
36FD
330
1F
100
AcDbEntity
  8
ｴｸｽﾃﾝｼｮﾝﾌﾚｰﾑ
100
AcDbLine
 10
214.8207420915478
 20
722.6611486324708
 30
0.0
 11
214.8486680684782
 21
719.461148632471
 31
0.0
  0
LINE
  5
36FE
330
1F
100
AcDbEntity
  8
ｴｸｽﾃﾝｼｮﾝﾌﾚｰﾑ
100
AcDbLine
 10
214.8486680684782
 20
719.461148632471
 30
0.0
 11
215.2486680684781
 21
718.6611486324708
 31
0.0
  0
ARC
  5
3728
330
1F
100
AcDbEntity
  8
ｴｸｽﾃﾝｼｮﾝﾌﾚｰﾑ
100
AcDbCircle
 10
218.1776023638445
 20
779.8611486324711
 30
0.0
 40
0.2
100
AcDbArc
 50
90.0
 51
179.4999999999987
1001
GENIUS_GENOBJ-N-FIL_13
1002
{
1000
OWNER
1000
GEN
1002
}
1001
GENIUS_GENODEF_13
1002
{
1000
HIER
1070
     0
1002
}
1002
{
1000
MANEDIT
1070
     0
1002
}
1002
{
1000
NOSEL
1070
     0
1002
}
1002
{
1000
BEHIND
1070
     0
1002
}
1002
{
1000
OTHER
1070
     0
1002
}
1002
{
1000
REACTOR
1002
}
  0
LINE
  5
3729
330
1F
100
AcDbEntity
  8
ｴｸｽﾃﾝｼｮﾝﾌﾚｰﾑ
100
AcDbLine
 10
217.9583956390277
 20
777.6611486324708
 30
0.0
 11
217.9776099792316
 21
779.8628939395706
 31
0.0
  0
ARC
  5
37DB
330
1F
100
AcDbEntity
  8
ｴｸｽﾃﾝｼｮﾝﾌﾚｰﾑ
100
AcDbCircle
 10
506.1572205082417
 20
767.874410364798
 30
0.0
 40
0.3
100
AcDbArc
 50
0.500000000001317
 51
59.99999999999946
1001
GENIUS_GENODEF_13
1002
{
1000
HIER
1070
     0
1002
}
1002
{
1000
MANEDIT
1070
     0
1002
}
1002
{
1000
NOSEL
1070
     0
1002
}
1002
{
1000
BEHIND
1070
     0
1002
}
1002
{
1000
OTHER
1070
     0
1002
}
1002
{
1000
REACTOR
1002
}
1001
GENIUS_GENOBJ-N-FIL_13
1002
{
1000
OWNER
1000
GEN
1002
}
  0
LINE
  5
39A5
330
1F
100
AcDbEntity
  8
ｴｸｽﾃﾝｼｮﾝﾌﾚｰﾑ
100
AcDbLine
 10
218.1776023638445
 20
59.93885136752908
 30
0.0
 11
505.5507937708487
 21
59.93885136752886
 31
0.0
  0
LINE
  5
39A6
330
1F
100
AcDbEntity
  8
ｴｸｽﾃﾝｼｮﾝﾌﾚｰﾑ
100
AcDbLine
 10
212.3284674349463
 20
62.33885136752917
 30
0.0
 11
511.399928699747
 21
62.33885136752895
 31
0.0
  0
LINE
  5
39A7
330
1F
100
AcDbEntity
  8
ｴｸｽﾃﾝｼｮﾝﾌﾚｰﾑ
100
AcDbLine
 10
211.8641980684781
 20
115.538851367529
 30
0.0
 11
236.6141980684783
 21
115.538851367529
 31
0.0
  0
LINE
  5
39A8
330
1F
100
AcDbEntity
  8
ｴｸｽﾃﾝｼｮﾝﾌﾚｰﾑ
100
AcDbLine
 10
240.1141880684781
 20
115.538851367529
 30
0.0
 11
242.6141980684783
 21
115.538851367529
 31
0.0
  0
LINE
  5
39A9
330
1F
100
AcDbEntity
  8
ｴｸｽﾃﾝｼｮﾝﾌﾚｰﾑ
100
AcDbLine
 10
246.1141980684781
 20
115.538851367529
 30
0.0
 11
477.6141980662153
 21
115.5388513675287
 31
0.0
  0
LINE
  5
39AA
330
1F
100
AcDbEntity
  8
ｴｸｽﾃﾝｼｮﾝﾌﾚｰﾑ
100
AcDbLine
 10
212.3641980684783
 20
115.8388513675292
 30
0.0
 11
511.364198066215
 21
115.8388513675289
 31
0.0
  0
LINE
  5
39AB
330
1F
100
AcDbEntity
  8
ｴｸｽﾃﾝｼｮﾝﾌﾚｰﾑ
100
AcDbLine
 10
215.2486680684781
 20
121.3388513675291
 30
0.0
 11
508.4797280662151
 21
121.3388513675289
 31
0.0
  0
LINE
  5
39AC
330
1F
100
AcDbEntity
  8
ｴｸｽﾃﾝｼｮﾝﾌﾚｰﾑ
100
AcDbLine
 10
246.1141980684781
 20
62.33885136752917
 30
0.0
 11
246.1141980684781
 21
115.8388513675292
 31
0.0
  0
LINE
  5
39AD
330
1F
100
AcDbEntity
  8
ｴｸｽﾃﾝｼｮﾝﾌﾚｰﾑ
100
AcDbLine
 10
242.6141980684783
 20
62.33885136752917
 30
0.0
 11
242.6141980684783
 21
115.8388513675292
 31
0.0
  0
LINE
  5
39AE
330
1F
100
AcDbEntity
  8
ｴｸｽﾃﾝｼｮﾝﾌﾚｰﾑ
100
AcDbLine
 10
240.1141880684781
 20
62.33885136752917
 30
0.0
 11
240.1141880684781
 21
115.8388513675292
 31
0.0
  0
LINE
  5
39AF
330
1F
100
AcDbEntity
  8
ｴｸｽﾃﾝｼｮﾝﾌﾚｰﾑ
100
AcDbLine
 10
236.6141980684783
 20
62.33885136752917
 30
0.0
 11
236.6141980684783
 21
115.8388513675292
 31
0.0
  0
LINE
  5
39B0
330
1F
100
AcDbEntity
  8
ｴｸｽﾃﾝｼｮﾝﾌﾚｰﾑ
100
AcDbLine
 10
224.8207345338108
 20
117.3388513675291
 30
0.0
 11
224.8486605107412
 21
120.5388513675292
 31
0.0
  0
LINE
  5
39B1
330
1F
100
AcDbEntity
  8
ｴｸｽﾃﾝｼｮﾝﾌﾚｰﾑ
100
AcDbLine
 10
224.8486605107412
 20
120.5388513675292
 30
0.0
 11
225.2486605107411
 21
121.3388513675291
 31
0.0
  0
LINE
  5
39B2
330
1F
100
AcDbEntity
  8
ｴｸｽﾃﾝｼｮﾝﾌﾚｰﾑ
100
AcDbLine
 10
242.8207445338106
 20
117.3388513675291
 30
0.0
 11
242.8486705107411
 21
120.5388513675292
 31
0.0
  0
LINE
  5
39B3
330
1F
100
AcDbEntity
  8
ｴｸｽﾃﾝｼｮﾝﾌﾚｰﾑ
100
AcDbLine
 10
242.8486705107411
 20
120.5388513675292
 30
0.0
 11
243.248670510741
 21
121.3388513675291
 31
0.0
  0
LINE
  5
39B4
330
1F
100
AcDbEntity
  8
ｴｸｽﾃﾝｼｮﾝﾌﾚｰﾑ
100
AcDbLine
 10
212.3641980684783
 20
117.3388513675291
 30
0.0
 11
511.364198066215
 21
117.3388513675246
 31
0.0
  0
LINE
  5
39B5
330
1F
100
AcDbEntity
  8
ｴｸｽﾃﾝｼｮﾝﾌﾚｰﾑ
100
AcDbLine
 10
212.3641980684783
 20
115.8388513675292
 30
0.0
 11
211.8641980684781
 21
115.5388513675292
 31
0.0
  0
LINE
  5
39B6
330
1F
100
AcDbEntity
  8
ｴｸｽﾃﾝｼｮﾝﾌﾚｰﾑ
100
AcDbLine
 10
211.8641980684781
 20
115.5388513675292
 30
0.0
 11
212.3284674349463
 21
62.33885136752917
 31
0.0
  0
LINE
  5
39B7
330
1F
100
AcDbEntity
  8
ｴｸｽﾃﾝｼｮﾝﾌﾚｰﾑ
100
AcDbLine
 10
212.3641980684783
 20
115.8388513675292
 30
0.0
 11
212.3641980684783
 21
117.3388513675291
 31
0.0
  0
LINE
  5
39B8
330
1F
100
AcDbEntity
  8
ｴｸｽﾃﾝｼｮﾝﾌﾚｰﾑ
100
AcDbLine
 10
214.8207420915478
 20
117.3388513675291
 30
0.0
 11
214.8486680684782
 21
120.5388513675292
 31
0.0
  0
LINE
  5
39B9
330
1F
100
AcDbEntity
  8
ｴｸｽﾃﾝｼｮﾝﾌﾚｰﾑ
100
AcDbLine
 10
214.8486680684782
 20
120.5388513675292
 30
0.0
 11
215.2486680684781
 21
121.3388513675291
 31
0.0
  0
ARC
  5
39BA
330
1F
100
AcDbEntity
  8
ｴｸｽﾃﾝｼｮﾝﾌﾚｰﾑ
100
AcDbCircle
 10
218.1776023638444
 20
60.13885136752901
 30
0.0
 40
0.2
100
AcDbArc
 50
180.5000000000013
 51
270.0
1001
GENIUS_GENOBJ-N-FIL_13
1002
{
1000
OWNER
1000
GEN
1002
}
1001
GENIUS_GENODEF_13
1002
{
1000
HIER
1070
     0
1002
}
1002
{
1000
MANEDIT
1070
     0
1002
}
1002
{
1000
NOSEL
1070
     0
1002
}
1002
{
1000
BEHIND
1070
     0
1002
}
1002
{
1000
OTHER
1070
     0
1002
}
1002
{
1000
REACTOR
1002
}
  0
LINE
  5
39BB
330
1F
100
AcDbEntity
  8
ｴｸｽﾃﾝｼｮﾝﾌﾚｰﾑ
100
AcDbLine
 10
217.9583956390277
 20
62.33885136752917
 30
0.0
 11
217.9776099792316
 21
60.13710606042934
 31
0.0
  0
ARC
  5
39BC
330
1F
100
AcDbEntity
  8
ｴｸｽﾃﾝｼｮﾝﾌﾚｰﾑ
100
AcDbCircle
 10
228.1752981879551
 20
60.13885136752901
 30
0.0
 40
0.2
100
AcDbArc
 50
180.5000000000013
 51
270.0
1001
GENIUS_GENOBJ-N-FIL_13
1002
{
1000
OWNER
1000
GEN
1002
}
1001
GENIUS_GENODEF_13
1002
{
1000
HIER
1070
     0
1002
}
1002
{
1000
MANEDIT
1070
     0
1002
}
1002
{
1000
NOSEL
1070
     0
1002
}
1002
{
1000
BEHIND
1070
     0
1002
}
1002
{
1000
OTHER
1070
     0
1002
}
1002
{
1000
REACTOR
1002
}
  0
LINE
  5
39BD
330
1F
100
AcDbEntity
  8
ｴｸｽﾃﾝｼｮﾝﾌﾚｰﾑ
100
AcDbLine
 10
227.9560914631383
 20
62.33885136752917
 30
0.0
 11
227.9753058033423
 21
60.13710606042934
 31
0.0
  0
ARC
  5
39BE
330
1F
100
AcDbEntity
  8
ｴｸｽﾃﾝｼｮﾝﾌﾚｰﾑ
100
AcDbCircle
 10
246.175308187955
 20
60.13885136752901
 30
0.0
 40
0.2
100
AcDbArc
 50
180.5000000000013
 51
270.0
1001
GENIUS_GENOBJ-N-FIL_13
1002
{
1000
OWNER
1000
GEN
1002
}
1001
GENIUS_GENODEF_13
1002
{
1000
HIER
1070
     0
1002
}
1002
{
1000
MANEDIT
1070
     0
1002
}
1002
{
1000
NOSEL
1070
     0
1002
}
1002
{
1000
BEHIND
1070
     0
1002
}
1002
{
1000
OTHER
1070
     0
1002
}
1002
{
1000
REACTOR
1002
}
  0
LINE
  5
39BF
330
1F
100
AcDbEntity
  8
ｴｸｽﾃﾝｼｮﾝﾌﾚｰﾑ
100
AcDbLine
 10
245.9561014631383
 20
62.33885136752917
 30
0.0
 11
245.9753158033422
 21
60.13710606042934
 31
0.0
  0
LINE
  5
39C1
330
1F
100
AcDbEntity
  8
ｴｸｽﾃﾝｼｮﾝﾌﾚｰﾑ
100
AcDbLine
 10
511.864198066215
 20
115.5388513675287
 30
0.0
 11
487.1141980662151
 21
115.5388513675287
 31
0.0
  0
LINE
  5
39C2
330
1F
100
AcDbEntity
  8
ｴｸｽﾃﾝｼｮﾝﾌﾚｰﾑ
100
AcDbLine
 10
483.6142080662153
 20
115.5388513675287
 30
0.0
 11
481.114198066215
 21
115.5388513675287
 31
0.0
  0
LINE
  5
39C3
330
1F
100
AcDbEntity
  8
ｴｸｽﾃﾝｼｮﾝﾌﾚｰﾑ
100
AcDbLine
 10
477.6141980662153
 20
62.33885136752895
 30
0.0
 11
477.6141980662153
 21
115.8388513675289
 31
0.0
  0
LINE
  5
39C4
330
1F
100
AcDbEntity
  8
ｴｸｽﾃﾝｼｮﾝﾌﾚｰﾑ
100
AcDbLine
 10
481.114198066215
 20
62.33885136752895
 30
0.0
 11
481.114198066215
 21
115.8388513675289
 31
0.0
  0
LINE
  5
39C5
330
1F
100
AcDbEntity
  8
ｴｸｽﾃﾝｼｮﾝﾌﾚｰﾑ
100
AcDbLine
 10
483.6142080662153
 20
62.33885136752895
 30
0.0
 11
483.6142080662153
 21
115.8388513675289
 31
0.0
  0
LINE
  5
39C6
330
1F
100
AcDbEntity
  8
ｴｸｽﾃﾝｼｮﾝﾌﾚｰﾑ
100
AcDbLine
 10
487.1141980662151
 20
62.33885136752895
 30
0.0
 11
487.1141980662151
 21
115.8388513675289
 31
0.0
  0
LINE
  5
39C7
330
1F
100
AcDbEntity
  8
ｴｸｽﾃﾝｼｮﾝﾌﾚｰﾑ
100
AcDbLine
 10
498.9076616008826
 20
117.3388513675289
 30
0.0
 11
498.8797356239522
 21
120.538851367529
 31
0.0
  0
LINE
  5
39C8
330
1F
100
AcDbEntity
  8
ｴｸｽﾃﾝｼｮﾝﾌﾚｰﾑ
100
AcDbLine
 10
498.8797356239522
 20
120.538851367529
 30
0.0
 11
498.4797356239523
 21
121.3388513675289
 31
0.0
  0
LINE
  5
39C9
330
1F
100
AcDbEntity
  8
ｴｸｽﾃﾝｼｮﾝﾌﾚｰﾑ
100
AcDbLine
 10
480.9076516008826
 20
117.3388513675289
 30
0.0
 11
480.8797256239522
 21
120.538851367529
 31
0.0
  0
LINE
  5
39CA
330
1F
100
AcDbEntity
  8
ｴｸｽﾃﾝｼｮﾝﾌﾚｰﾑ
100
AcDbLine
 10
480.8797256239522
 20
120.538851367529
 30
0.0
 11
480.4797256239523
 21
121.3388513675289
 31
0.0
  0
LINE
  5
39CB
330
1F
100
AcDbEntity
  8
ｴｸｽﾃﾝｼｮﾝﾌﾚｰﾑ
100
AcDbLine
 10
511.364198066215
 20
115.8388513675289
 30
0.0
 11
511.8641980662153
 21
115.538851367529
 31
0.0
  0
LINE
  5
39CC
330
1F
100
AcDbEntity
  8
ｴｸｽﾃﾝｼｮﾝﾌﾚｰﾑ
100
AcDbLine
 10
511.8641980662153
 20
115.538851367529
 30
0.0
 11
511.399928699747
 21
62.33885136752895
 31
0.0
  0
LINE
  5
39CD
330
1F
100
AcDbEntity
  8
ｴｸｽﾃﾝｼｮﾝﾌﾚｰﾑ
100
AcDbLine
 10
511.364198066215
 20
115.8388513675289
 30
0.0
 11
511.364198066215
 21
117.3388513675289
 31
0.0
  0
LINE
  5
39CE
330
1F
100
AcDbEntity
  8
ｴｸｽﾃﾝｼｮﾝﾌﾚｰﾑ
100
AcDbLine
 10
508.9076540431456
 20
117.3388513675289
 30
0.0
 11
508.8797280662151
 21
120.538851367529
 31
0.0
  0
LINE
  5
39CF
330
1F
100
AcDbEntity
  8
ｴｸｽﾃﾝｼｮﾝﾌﾚｰﾑ
100
AcDbLine
 10
508.8797280662151
 20
120.538851367529
 30
0.0
 11
508.4797280662153
 21
121.3388513675289
 31
0.0
  0
ARC
  5
39D0
330
1F
100
AcDbEntity
  8
ｴｸｽﾃﾝｼｮﾝﾌﾚｰﾑ
100
AcDbCircle
 10
505.5507937708489
 20
60.1388513675289
 30
0.0
 40
0.2
100
AcDbArc
 50
270.0
 51
359.4999999999987
1001
GENIUS_GENOBJ-N-FIL_13
1002
{
1000
OWNER
1000
GEN
1002
}
1001
GENIUS_GENODEF_13
1002
{
1000
HIER
1070
     0
1002
}
1002
{
1000
MANEDIT
1070
     0
1002
}
1002
{
1000
NOSEL
1070
     0
1002
}
1002
{
1000
BEHIND
1070
     0
1002
}
1002
{
1000
OTHER
1070
     0
1002
}
1002
{
1000
REACTOR
1002
}
  0
LINE
  5
39D1
330
1F
100
AcDbEntity
  8
ｴｸｽﾃﾝｼｮﾝﾌﾚｰﾑ
100
AcDbLine
 10
505.7700004956656
 20
62.33885136752895
 30
0.0
 11
505.7507861554618
 21
60.13710606042912
 31
0.0
  0
ARC
  5
39D2
330
1F
100
AcDbEntity
  8
ｴｸｽﾃﾝｼｮﾝﾌﾚｰﾑ
100
AcDbCircle
 10
495.553097946738
 20
60.1388513675289
 30
0.0
 40
0.2
100
AcDbArc
 50
270.0
 51
359.4999999999987
1001
GENIUS_GENOBJ-N-FIL_13
1002
{
1000
OWNER
1000
GEN
1002
}
1001
GENIUS_GENODEF_13
1002
{
1000
HIER
1070
     0
1002
}
1002
{
1000
MANEDIT
1070
     0
1002
}
1002
{
1000
NOSEL
1070
     0
1002
}
1002
{
1000
BEHIND
1070
     0
1002
}
1002
{
1000
OTHER
1070
     0
1002
}
1002
{
1000
REACTOR
1002
}
  0
LINE
  5
39D3
330
1F
100
AcDbEntity
  8
ｴｸｽﾃﾝｼｮﾝﾌﾚｰﾑ
100
AcDbLine
 10
495.772304671555
 20
62.33885136752895
 30
0.0
 11
495.7530903313509
 21
60.13710606042912
 31
0.0
  0
ARC
  5
39D4
330
1F
100
AcDbEntity
  8
ｴｸｽﾃﾝｼｮﾝﾌﾚｰﾑ
100
AcDbCircle
 10
477.553087946738
 20
60.1388513675289
 30
0.0
 40
0.2
100
AcDbArc
 50
270.0
 51
359.4999999999987
1001
GENIUS_GENOBJ-N-FIL_13
1002
{
1000
OWNER
1000
GEN
1002
}
1001
GENIUS_GENODEF_13
1002
{
1000
HIER
1070
     0
1002
}
1002
{
1000
MANEDIT
1070
     0
1002
}
1002
{
1000
NOSEL
1070
     0
1002
}
1002
{
1000
BEHIND
1070
     0
1002
}
1002
{
1000
OTHER
1070
     0
1002
}
1002
{
1000
REACTOR
1002
}
  0
LINE
  5
39D5
330
1F
100
AcDbEntity
  8
ｴｸｽﾃﾝｼｮﾝﾌﾚｰﾑ
100
AcDbLine
 10
477.7722946715551
 20
62.33885136752895
 30
0.0
 11
477.7530803313511
 21
60.13710606042912
 31
0.0
  0
LINE
  5
39E9
330
1F
100
AcDbEntity
  8
ｴｸｽﾃﾝｼｮﾝﾌﾚｰﾑ
100
AcDbLine
 10
777.8340422210062
 20
596.9436229192361
 30
0.0
 11
777.8340422210062
 21
209.5704315099689
 31
0.0
  0
LINE
  5
39EA
330
1F
100
AcDbEntity
  8
ｴｸｽﾃﾝｼｮﾝﾌﾚｰﾑ
100
AcDbLine
 10
775.4340422210061
 20
602.7927578481344
 30
0.0
 11
775.4340422210059
 21
203.7212965810705
 31
0.0
  0
LINE
  5
39EB
330
1F
100
AcDbEntity
  8
ｴｸｽﾃﾝｼｮﾝﾌﾚｰﾑ
100
AcDbLine
 10
722.2340422210063
 20
603.2570272146024
 30
0.0
 11
722.2340422210063
 21
578.5070272146023
 31
0.0
  0
LINE
  5
39EC
330
1F
100
AcDbEntity
  8
ｴｸｽﾃﾝｼｮﾝﾌﾚｰﾑ
100
AcDbLine
 10
722.2340422210063
 20
575.0070372146025
 30
0.0
 11
722.2340422210063
 21
572.5070272146023
 31
0.0
  0
LINE
  5
39ED
330
1F
100
AcDbEntity
  8
ｴｸｽﾃﾝｼｮﾝﾌﾚｰﾑ
100
AcDbLine
 10
722.2340422210063
 20
569.0070272146025
 30
0.0
 11
722.2340422210063
 21
237.5070272146025
 31
0.0
  0
LINE
  5
39EE
330
1F
100
AcDbEntity
  8
ｴｸｽﾃﾝｼｮﾝﾌﾚｰﾑ
100
AcDbLine
 10
721.9340422210061
 20
602.7570272146022
 30
0.0
 11
721.9340422210061
 21
203.7570272146032
 31
0.0
  0
LINE
  5
39EF
330
1F
100
AcDbEntity
  8
ｴｸｽﾃﾝｼｮﾝﾌﾚｰﾑ
100
AcDbLine
 10
716.4340422210061
 20
599.8725572146026
 30
0.0
 11
716.4340422210061
 21
206.6414972146025
 31
0.0
  0
LINE
  5
39F0
330
1F
100
AcDbEntity
  8
ｴｸｽﾃﾝｼｮﾝﾌﾚｰﾑ
100
AcDbLine
 10
775.4340422210061
 20
569.0070272146025
 30
0.0
 11
721.9340422210061
 21
569.0070272146025
 31
0.0
  0
LINE
  5
39F1
330
1F
100
AcDbEntity
  8
ｴｸｽﾃﾝｼｮﾝﾌﾚｰﾑ
100
AcDbLine
 10
775.4340422210061
 20
572.5070272146023
 30
0.0
 11
721.9340422210061
 21
572.5070272146023
 31
0.0
  0
LINE
  5
39F2
330
1F
100
AcDbEntity
  8
ｴｸｽﾃﾝｼｮﾝﾌﾚｰﾑ
100
AcDbLine
 10
775.4340422210061
 20
575.0070372146025
 30
0.0
 11
721.9340422210061
 21
575.0070372146025
 31
0.0
  0
LINE
  5
39F3
330
1F
100
AcDbEntity
  8
ｴｸｽﾃﾝｼｮﾝﾌﾚｰﾑ
100
AcDbLine
 10
775.4340422210061
 20
578.5070272146023
 30
0.0
 11
721.9340422210061
 21
578.5070272146023
 31
0.0
  0
LINE
  5
39F4
330
1F
100
AcDbEntity
  8
ｴｸｽﾃﾝｼｮﾝﾌﾚｰﾑ
100
AcDbLine
 10
720.4340422210061
 20
590.3004907492698
 30
0.0
 11
717.2340422210063
 21
590.2725647723395
 31
0.0
  0
LINE
  5
39F5
330
1F
100
AcDbEntity
  8
ｴｸｽﾃﾝｼｮﾝﾌﾚｰﾑ
100
AcDbLine
 10
717.2340422210063
 20
590.2725647723395
 30
0.0
 11
716.4340422210061
 21
589.8725647723394
 31
0.0
  0
LINE
  5
39F6
330
1F
100
AcDbEntity
  8
ｴｸｽﾃﾝｼｮﾝﾌﾚｰﾑ
100
AcDbLine
 10
720.4340422210061
 20
572.3004807492698
 30
0.0
 11
717.2340422210063
 21
572.2725547723395
 31
0.0
  0
LINE
  5
39F7
330
1F
100
AcDbEntity
  8
ｴｸｽﾃﾝｼｮﾝﾌﾚｰﾑ
100
AcDbLine
 10
717.2340422210063
 20
572.2725547723395
 30
0.0
 11
716.4340422210061
 21
571.8725547723396
 31
0.0
  0
LINE
  5
39F8
330
1F
100
AcDbEntity
  8
ｴｸｽﾃﾝｼｮﾝﾌﾚｰﾑ
100
AcDbLine
 10
720.4340422210061
 20
602.7570272146022
 30
0.0
 11
720.434042221013
 21
203.7570272146028
 31
0.0
  0
LINE
  5
39F9
330
1F
100
AcDbEntity
  8
ｴｸｽﾃﾝｼｮﾝﾌﾚｰﾑ
100
AcDbLine
 10
721.9340422210061
 20
602.7570272146022
 30
0.0
 11
722.2340422210063
 21
603.2570272146026
 31
0.0
  0
LINE
  5
39FA
330
1F
100
AcDbEntity
  8
ｴｸｽﾃﾝｼｮﾝﾌﾚｰﾑ
100
AcDbLine
 10
722.2340422210063
 20
603.2570272146026
 30
0.0
 11
775.4340422210061
 21
602.7927578481344
 31
0.0
  0
LINE
  5
39FB
330
1F
100
AcDbEntity
  8
ｴｸｽﾃﾝｼｮﾝﾌﾚｰﾑ
100
AcDbLine
 10
721.9340422210061
 20
602.7570272146022
 30
0.0
 11
720.4340422210061
 21
602.7570272146022
 31
0.0
  0
LINE
  5
39FC
330
1F
100
AcDbEntity
  8
ｴｸｽﾃﾝｼｮﾝﾌﾚｰﾑ
100
AcDbLine
 10
720.4340422210061
 20
600.3004831915327
 30
0.0
 11
717.2340422210063
 21
600.2725572146023
 31
0.0
  0
LINE
  5
39FD
330
1F
100
AcDbEntity
  8
ｴｸｽﾃﾝｼｮﾝﾌﾚｰﾑ
100
AcDbLine
 10
717.2340422210063
 20
600.2725572146023
 30
0.0
 11
716.4340422210061
 21
599.8725572146026
 31
0.0
  0
ARC
  5
39FE
330
1F
100
AcDbEntity
  8
ｴｸｽﾃﾝｼｮﾝﾌﾚｰﾑ
100
AcDbCircle
 10
777.634042221006
 20
596.9436229192362
 30
0.0
 40
0.2
100
AcDbArc
 50
0.0
 51
89.50000000000192
1001
GENIUS_GENOBJ-N-FIL_13
1002
{
1000
OWNER
1000
GEN
1002
}
1001
GENIUS_GENODEF_13
1002
{
1000
HIER
1070
     0
1002
}
1002
{
1000
MANEDIT
1070
     0
1002
}
1002
{
1000
NOSEL
1070
     0
1002
}
1002
{
1000
BEHIND
1070
     0
1002
}
1002
{
1000
OTHER
1070
     0
1002
}
1002
{
1000
REACTOR
1002
}
  0
LINE
  5
39FF
330
1F
100
AcDbEntity
  8
ｴｸｽﾃﾝｼｮﾝﾌﾚｰﾑ
100
AcDbLine
 10
775.4340422210061
 20
597.162829644053
 30
0.0
 11
777.6357875281055
 21
597.1436153038489
 31
0.0
  0
ARC
  5
3A00
330
1F
100
AcDbEntity
  8
ｴｸｽﾃﾝｼｮﾝﾌﾚｰﾑ
100
AcDbCircle
 10
777.634042221006
 20
586.9459270951254
 30
0.0
 40
0.2
100
AcDbArc
 50
0.0
 51
89.50000000000192
1001
GENIUS_GENOBJ-N-FIL_13
1002
{
1000
OWNER
1000
GEN
1002
}
1001
GENIUS_GENODEF_13
1002
{
1000
HIER
1070
     0
1002
}
1002
{
1000
MANEDIT
1070
     0
1002
}
1002
{
1000
NOSEL
1070
     0
1002
}
1002
{
1000
BEHIND
1070
     0
1002
}
1002
{
1000
OTHER
1070
     0
1002
}
1002
{
1000
REACTOR
1002
}
  0
LINE
  5
3A01
330
1F
100
AcDbEntity
  8
ｴｸｽﾃﾝｼｮﾝﾌﾚｰﾑ
100
AcDbLine
 10
775.4340422210061
 20
587.1651338199423
 30
0.0
 11
777.6357875281055
 21
587.1459194797382
 31
0.0
  0
ARC
  5
3A02
330
1F
100
AcDbEntity
  8
ｴｸｽﾃﾝｼｮﾝﾌﾚｰﾑ
100
AcDbCircle
 10
777.634042221006
 20
568.9459170951254
 30
0.0
 40
0.2
100
AcDbArc
 50
0.0
 51
89.50000000000192
1001
GENIUS_GENOBJ-N-FIL_13
1002
{
1000
OWNER
1000
GEN
1002
}
1001
GENIUS_GENODEF_13
1002
{
1000
HIER
1070
     0
1002
}
1002
{
1000
MANEDIT
1070
     0
1002
}
1002
{
1000
NOSEL
1070
     0
1002
}
1002
{
1000
BEHIND
1070
     0
1002
}
1002
{
1000
OTHER
1070
     0
1002
}
1002
{
1000
REACTOR
1002
}
  0
LINE
  5
3A03
330
1F
100
AcDbEntity
  8
ｴｸｽﾃﾝｼｮﾝﾌﾚｰﾑ
100
AcDbLine
 10
775.4340422210061
 20
569.1651238199423
 30
0.0
 11
777.6357875281055
 21
569.1459094797383
 31
0.0
  0
LINE
  5
3A05
330
1F
100
AcDbEntity
  8
ｴｸｽﾃﾝｼｮﾝﾌﾚｰﾑ
100
AcDbLine
 10
722.2340422210063
 20
203.2570272146025
 30
0.0
 11
722.2340422210063
 21
228.0070272146028
 31
0.0
  0
LINE
  5
3A06
330
1F
100
AcDbEntity
  8
ｴｸｽﾃﾝｼｮﾝﾌﾚｰﾑ
100
AcDbLine
 10
722.2340422210063
 20
231.5070172146026
 30
0.0
 11
722.2340422210063
 21
234.0070272146028
 31
0.0
  0
LINE
  5
3A07
330
1F
100
AcDbEntity
  8
ｴｸｽﾃﾝｼｮﾝﾌﾚｰﾑ
100
AcDbLine
 10
775.4340422210064
 20
237.5070272146025
 30
0.0
 11
721.9340422210064
 21
237.5070272146025
 31
0.0
  0
LINE
  5
3A08
330
1F
100
AcDbEntity
  8
ｴｸｽﾃﾝｼｮﾝﾌﾚｰﾑ
100
AcDbLine
 10
775.4340422210064
 20
234.0070272146028
 30
0.0
 11
721.9340422210064
 21
234.0070272146028
 31
0.0
  0
LINE
  5
3A09
330
1F
100
AcDbEntity
  8
ｴｸｽﾃﾝｼｮﾝﾌﾚｰﾑ
100
AcDbLine
 10
775.4340422210064
 20
231.5070172146026
 30
0.0
 11
721.9340422210064
 21
231.5070172146026
 31
0.0
  0
LINE
  5
3A0A
330
1F
100
AcDbEntity
  8
ｴｸｽﾃﾝｼｮﾝﾌﾚｰﾑ
100
AcDbLine
 10
775.4340422210064
 20
228.0070272146028
 30
0.0
 11
721.9340422210064
 21
228.0070272146028
 31
0.0
  0
LINE
  5
3A0B
330
1F
100
AcDbEntity
  8
ｴｸｽﾃﾝｼｮﾝﾌﾚｰﾑ
100
AcDbLine
 10
720.4340422210064
 20
216.2135636799352
 30
0.0
 11
717.2340422210063
 21
216.2414896568656
 31
0.0
  0
LINE
  5
3A0C
330
1F
100
AcDbEntity
  8
ｴｸｽﾃﾝｼｮﾝﾌﾚｰﾑ
100
AcDbLine
 10
717.2340422210063
 20
216.2414896568656
 30
0.0
 11
716.4340422210061
 21
216.6414896568657
 31
0.0
  0
LINE
  5
3A0D
330
1F
100
AcDbEntity
  8
ｴｸｽﾃﾝｼｮﾝﾌﾚｰﾑ
100
AcDbLine
 10
720.4340422210064
 20
234.2135736799352
 30
0.0
 11
717.2340422210063
 21
234.2414996568656
 31
0.0
  0
LINE
  5
3A0E
330
1F
100
AcDbEntity
  8
ｴｸｽﾃﾝｼｮﾝﾌﾚｰﾑ
100
AcDbLine
 10
717.2340422210063
 20
234.2414996568656
 30
0.0
 11
716.4340422210061
 21
234.6414996568654
 31
0.0
  0
LINE
  5
3A0F
330
1F
100
AcDbEntity
  8
ｴｸｽﾃﾝｼｮﾝﾌﾚｰﾑ
100
AcDbLine
 10
721.9340422210064
 20
203.7570272146028
 30
0.0
 11
722.2340422210063
 21
203.2570272146025
 31
0.0
  0
LINE
  5
3A10
330
1F
100
AcDbEntity
  8
ｴｸｽﾃﾝｼｮﾝﾌﾚｰﾑ
100
AcDbLine
 10
722.2340422210063
 20
203.2570272146025
 30
0.0
 11
775.4340422210064
 21
203.7212965810708
 31
0.0
  0
LINE
  5
3A11
330
1F
100
AcDbEntity
  8
ｴｸｽﾃﾝｼｮﾝﾌﾚｰﾑ
100
AcDbLine
 10
721.9340422210064
 20
203.7570272146028
 30
0.0
 11
720.4340422210064
 21
203.7570272146028
 31
0.0
  0
LINE
  5
3A12
330
1F
100
AcDbEntity
  8
ｴｸｽﾃﾝｼｮﾝﾌﾚｰﾑ
100
AcDbLine
 10
720.4340422210064
 20
206.2135712376722
 30
0.0
 11
717.2340422210063
 21
206.2414972146026
 31
0.0
  0
LINE
  5
3A13
330
1F
100
AcDbEntity
  8
ｴｸｽﾃﾝｼｮﾝﾌﾚｰﾑ
100
AcDbLine
 10
717.2340422210063
 20
206.2414972146026
 30
0.0
 11
716.4340422210061
 21
206.6414972146025
 31
0.0
  0
ARC
  5
3A14
330
1F
100
AcDbEntity
  8
ｴｸｽﾃﾝｼｮﾝﾌﾚｰﾑ
100
AcDbCircle
 10
777.6340422210064
 20
209.5704315099688
 30
0.0
 40
0.2
100
AcDbArc
 50
270.499999999998
 51
0.0
1001
GENIUS_GENOBJ-N-FIL_13
1002
{
1000
OWNER
1000
GEN
1002
}
1001
GENIUS_GENODEF_13
1002
{
1000
HIER
1070
     0
1002
}
1002
{
1000
MANEDIT
1070
     0
1002
}
1002
{
1000
NOSEL
1070
     0
1002
}
1002
{
1000
BEHIND
1070
     0
1002
}
1002
{
1000
OTHER
1070
     0
1002
}
1002
{
1000
REACTOR
1002
}
  0
LINE
  5
3A15
330
1F
100
AcDbEntity
  8
ｴｸｽﾃﾝｼｮﾝﾌﾚｰﾑ
100
AcDbLine
 10
775.4340422210064
 20
209.3512247851521
 30
0.0
 11
777.635787528106
 21
209.370439125356
 31
0.0
  0
ARC
  5
3A16
330
1F
100
AcDbEntity
  8
ｴｸｽﾃﾝｼｮﾝﾌﾚｰﾑ
100
AcDbCircle
 10
777.6340422210064
 20
219.5681273340795
 30
0.0
 40
0.2
100
AcDbArc
 50
270.499999999998
 51
0.0
1001
GENIUS_GENOBJ-N-FIL_13
1002
{
1000
OWNER
1000
GEN
1002
}
1001
GENIUS_GENODEF_13
1002
{
1000
HIER
1070
     0
1002
}
1002
{
1000
MANEDIT
1070
     0
1002
}
1002
{
1000
NOSEL
1070
     0
1002
}
1002
{
1000
BEHIND
1070
     0
1002
}
1002
{
1000
OTHER
1070
     0
1002
}
1002
{
1000
REACTOR
1002
}
  0
LINE
  5
3A17
330
1F
100
AcDbEntity
  8
ｴｸｽﾃﾝｼｮﾝﾌﾚｰﾑ
100
AcDbLine
 10
775.4340422210064
 20
219.3489206092628
 30
0.0
 11
777.635787528106
 21
219.3681349494667
 31
0.0
  0
ARC
  5
3A18
330
1F
100
AcDbEntity
  8
ｴｸｽﾃﾝｼｮﾝﾌﾚｰﾑ
100
AcDbCircle
 10
777.6340422210062
 20
237.5681373340797
 30
0.0
 40
0.2
100
AcDbArc
 50
270.499999999998
 51
0.0
1001
GENIUS_GENOBJ-N-FIL_13
1002
{
1000
OWNER
1000
GEN
1002
}
1001
GENIUS_GENODEF_13
1002
{
1000
HIER
1070
     0
1002
}
1002
{
1000
MANEDIT
1070
     0
1002
}
1002
{
1000
NOSEL
1070
     0
1002
}
1002
{
1000
BEHIND
1070
     0
1002
}
1002
{
1000
OTHER
1070
     0
1002
}
1002
{
1000
REACTOR
1002
}
  0
LINE
  5
3A19
330
1F
100
AcDbEntity
  8
ｴｸｽﾃﾝｼｮﾝﾌﾚｰﾑ
100
AcDbLine
 10
775.4340422210064
 20
237.3489306092628
 30
0.0
 11
777.635787528106
 21
237.3681449494669
 31
0.0
  0
INSERT
  5
3A74
102
{ACAD_REACTORS
330
3A71
102
}
330
1F
100
AcDbEntity
  8
AM_12
100
AcDbBlockReference
  2
*S9
 10
0.0
 20
0.0
 30
0.0
  0
INSERT
  5
3A79
102
{ACAD_REACTORS
330
3A78
102
}
330
1F
100
AcDbEntity
  8
AM_5
100
AcDbBlockReference
  2
*S10
 10
0.0
 20
0.0
 30
0.0
  0
INSERT
  5
3A9B
102
{ACAD_REACTORS
330
3A9A
102
}
330
1F
100
AcDbEntity
  8
AM_12
100
AcDbBlockReference
  2
*S11
 10
0.0
 20
0.0
 30
0.0
  0
INSERT
  5
3A9F
102
{ACAD_REACTORS
330
3A9E
102
}
330
1F
100
AcDbEntity
  8
AM_12
100
AcDbBlockReference
  2
*S12
 10
0.0
 20
0.0
 30
0.0
  0
CIRCLE
  5
3B2D
330
1F
100
AcDbEntity
  8
ｴｸｽﾃﾝｼｮﾝﾌﾚｰﾑ
100
AcDbCircle
 10
221.8641980684783
 20
593.2570272146025
 30
0.0
 40
7.504189999999999
  0
CIRCLE
  5
3B2E
330
1F
100
AcDbEntity
  8
ｴｸｽﾃﾝｼｮﾝﾌﾚｰﾑ
100
AcDbCircle
 10
221.8641980684783
 20
593.2570272146025
 30
0.0
 40
8.699999999999999
  0
LINE
  5
3B2F
330
1F
100
AcDbEntity
  8
ｴｸｽﾃﾝｼｮﾝﾌﾚｰﾑ
100
AcDbLine
 10
227.6960490209842
 20
588.5344874292903
 30
0.0
 11
228.6253679331539
 21
587.781939812469
 31
0.0
  0
LINE
  5
3B30
330
1F
100
AcDbEntity
  8
ｴｸｽﾃﾝｼｮﾝﾌﾚｰﾑ
100
AcDbLine
 10
229.327279330482
 20
592.4726257658341
 30
0.0
 11
230.5165385581823
 21
592.3476295841741
 31
0.0
  0
LINE
  5
3B31
330
1F
100
AcDbEntity
  8
ｴｸｽﾃﾝｼｮﾝﾌﾚｰﾑ
100
AcDbLine
 10
229.327279330482
 20
594.0414286633711
 30
0.0
 11
230.5165385581823
 21
594.1664248450312
 31
0.0
  0
LINE
  5
3B32
330
1F
100
AcDbEntity
  8
ｴｸｽﾃﾝｼｮﾝﾌﾚｰﾑ
100
AcDbLine
 10
227.6960490209841
 20
597.9795669999148
 30
0.0
 11
228.6253679331539
 21
598.732114616736
 31
0.0
  0
LINE
  5
3B33
330
1F
100
AcDbEntity
  8
ｴｸｽﾃﾝｼｮﾝﾌﾚｰﾑ
100
AcDbLine
 10
226.5867378537906
 20
599.0888781671083
 30
0.0
 11
227.3392854706119
 21
600.0181970792782
 31
0.0
  0
LINE
  5
3B34
330
1F
100
AcDbEntity
  8
ｴｸｽﾃﾝｼｮﾝﾌﾚｰﾑ
100
AcDbLine
 10
222.6485995172468
 20
600.7201084766061
 30
0.0
 11
222.773595698907
 21
601.9093677043065
 31
0.0
  0
LINE
  5
3B35
330
1F
100
AcDbEntity
  8
ｴｸｽﾃﾝｼｮﾝﾌﾚｰﾑ
100
AcDbLine
 10
221.0797966197098
 20
600.7201084766061
 30
0.0
 11
220.9548004380498
 21
601.9093677043065
 31
0.0
  0
LINE
  5
3B36
330
1F
100
AcDbEntity
  8
ｴｸｽﾃﾝｼｮﾝﾌﾚｰﾑ
100
AcDbLine
 10
217.141658283166
 20
599.0888781671083
 30
0.0
 11
216.3891106663446
 21
600.0181970792782
 31
0.0
  0
LINE
  5
3B37
330
1F
100
AcDbEntity
  8
ｴｸｽﾃﾝｼｮﾝﾌﾚｰﾑ
100
AcDbLine
 10
226.5867378537905
 20
587.4251762620966
 30
0.0
 11
227.3392854706118
 21
586.4958573499268
 31
0.0
  0
LINE
  5
3B38
330
1F
100
AcDbEntity
  8
ｴｸｽﾃﾝｼｮﾝﾌﾚｰﾑ
100
AcDbLine
 10
222.6485995172467
 20
585.7939459525988
 30
0.0
 11
222.7735956989068
 21
584.6046867248984
 31
0.0
  0
LINE
  5
3B39
330
1F
100
AcDbEntity
  8
ｴｸｽﾃﾝｼｮﾝﾌﾚｰﾑ
100
AcDbLine
 10
221.0797966197097
 20
585.7939459525988
 30
0.0
 11
220.9548004380496
 21
584.6046867248984
 31
0.0
  0
LINE
  5
3B3A
330
1F
100
AcDbEntity
  8
ｴｸｽﾃﾝｼｮﾝﾌﾚｰﾑ
100
AcDbLine
 10
217.141658283166
 20
587.4251762620966
 30
0.0
 11
216.3891106663446
 21
586.4958573499268
 31
0.0
  0
LINE
  5
3B3B
330
1F
100
AcDbEntity
  8
ｴｸｽﾃﾝｼｮﾝﾌﾚｰﾑ
100
AcDbLine
 10
216.0323471159725
 20
588.5344874292901
 30
0.0
 11
215.1030282038026
 21
587.781939812469
 31
0.0
  0
LINE
  5
3B3C
330
1F
100
AcDbEntity
  8
ｴｸｽﾃﾝｼｮﾝﾌﾚｰﾑ
100
AcDbLine
 10
214.4011168064746
 20
592.4726257658339
 30
0.0
 11
213.2118575787742
 21
592.3476295841738
 31
0.0
  0
LINE
  5
3B3D
330
1F
100
AcDbEntity
  8
ｴｸｽﾃﾝｼｮﾝﾌﾚｰﾑ
100
AcDbLine
 10
214.4011168064746
 20
594.041428663371
 30
0.0
 11
213.2118575787742
 21
594.1664248450309
 31
0.0
  0
LINE
  5
3B3E
330
1F
100
AcDbEntity
  8
ｴｸｽﾃﾝｼｮﾝﾌﾚｰﾑ
100
AcDbLine
 10
216.0323471159724
 20
597.9795669999148
 30
0.0
 11
215.1030282038025
 21
598.732114616736
 31
0.0
  0
CIRCLE
  5
3B51
330
1F
100
AcDbEntity
  8
ｴｸｽﾃﾝｼｮﾝﾌﾚｰﾑ
100
AcDbCircle
 10
221.8641980684783
 20
213.2570272146024
 30
0.0
 40
7.504189999999999
  0
CIRCLE
  5
3B52
330
1F
100
AcDbEntity
  8
ｴｸｽﾃﾝｼｮﾝﾌﾚｰﾑ
100
AcDbCircle
 10
221.8641980684783
 20
213.2570272146024
 30
0.0
 40
8.699999999999999
  0
LINE
  5
3B53
330
1F
100
AcDbEntity
  8
ｴｸｽﾃﾝｼｮﾝﾌﾚｰﾑ
100
AcDbLine
 10
227.6960490209842
 20
208.5344874292904
 30
0.0
 11
228.6253679331539
 21
207.781939812469
 31
0.0
  0
LINE
  5
3B54
330
1F
100
AcDbEntity
  8
ｴｸｽﾃﾝｼｮﾝﾌﾚｰﾑ
100
AcDbLine
 10
229.327279330482
 20
212.4726257658341
 30
0.0
 11
230.5165385581823
 21
212.3476295841741
 31
0.0
  0
LINE
  5
3B55
330
1F
100
AcDbEntity
  8
ｴｸｽﾃﾝｼｮﾝﾌﾚｰﾑ
100
AcDbLine
 10
229.327279330482
 20
214.0414286633712
 30
0.0
 11
230.5165385581823
 21
214.1664248450312
 31
0.0
  0
LINE
  5
3B56
330
1F
100
AcDbEntity
  8
ｴｸｽﾃﾝｼｮﾝﾌﾚｰﾑ
100
AcDbLine
 10
227.6960490209841
 20
217.9795669999149
 30
0.0
 11
228.6253679331539
 21
218.7321146167361
 31
0.0
  0
LINE
  5
3B57
330
1F
100
AcDbEntity
  8
ｴｸｽﾃﾝｼｮﾝﾌﾚｰﾑ
100
AcDbLine
 10
226.5867378537906
 20
219.0888781671084
 30
0.0
 11
227.3392854706119
 21
220.0181970792781
 31
0.0
  0
LINE
  5
3B58
330
1F
100
AcDbEntity
  8
ｴｸｽﾃﾝｼｮﾝﾌﾚｰﾑ
100
AcDbLine
 10
222.6485995172468
 20
220.7201084766063
 30
0.0
 11
222.773595698907
 21
221.9093677043066
 31
0.0
  0
LINE
  5
3B59
330
1F
100
AcDbEntity
  8
ｴｸｽﾃﾝｼｮﾝﾌﾚｰﾑ
100
AcDbLine
 10
221.0797966197098
 20
220.7201084766063
 30
0.0
 11
220.9548004380498
 21
221.9093677043066
 31
0.0
  0
LINE
  5
3B5A
330
1F
100
AcDbEntity
  8
ｴｸｽﾃﾝｼｮﾝﾌﾚｰﾑ
100
AcDbLine
 10
217.141658283166
 20
219.0888781671084
 30
0.0
 11
216.3891106663446
 21
220.0181970792784
 31
0.0
  0
LINE
  5
3B5B
330
1F
100
AcDbEntity
  8
ｴｸｽﾃﾝｼｮﾝﾌﾚｰﾑ
100
AcDbLine
 10
226.5867378537905
 20
207.4251762620967
 30
0.0
 11
227.3392854706118
 21
206.495857349927
 31
0.0
  0
LINE
  5
3B5C
330
1F
100
AcDbEntity
  8
ｴｸｽﾃﾝｼｮﾝﾌﾚｰﾑ
100
AcDbLine
 10
222.6485995172467
 20
205.7939459525989
 30
0.0
 11
222.7735956989068
 21
204.6046867248985
 31
0.0
  0
LINE
  5
3B5D
330
1F
100
AcDbEntity
  8
ｴｸｽﾃﾝｼｮﾝﾌﾚｰﾑ
100
AcDbLine
 10
221.0797966197097
 20
205.7939459525989
 30
0.0
 11
220.9548004380496
 21
204.6046867248985
 31
0.0
  0
LINE
  5
3B5E
330
1F
100
AcDbEntity
  8
ｴｸｽﾃﾝｼｮﾝﾌﾚｰﾑ
100
AcDbLine
 10
217.141658283166
 20
207.4251762620967
 30
0.0
 11
216.3891106663446
 21
206.495857349927
 31
0.0
  0
LINE
  5
3B5F
330
1F
100
AcDbEntity
  8
ｴｸｽﾃﾝｼｮﾝﾌﾚｰﾑ
100
AcDbLine
 10
216.0323471159725
 20
208.5344874292902
 30
0.0
 11
215.1030282038026
 21
207.781939812469
 31
0.0
  0
LINE
  5
3B60
330
1F
100
AcDbEntity
  8
ｴｸｽﾃﾝｼｮﾝﾌﾚｰﾑ
100
AcDbLine
 10
214.4011168064746
 20
212.4726257658339
 30
0.0
 11
213.2118575787742
 21
212.3476295841739
 31
0.0
  0
LINE
  5
3B61
330
1F
100
AcDbEntity
  8
ｴｸｽﾃﾝｼｮﾝﾌﾚｰﾑ
100
AcDbLine
 10
214.4011168064746
 20
214.041428663371
 30
0.0
 11
213.2118575787742
 21
214.166424845031
 31
0.0
  0
LINE
  5
3B62
330
1F
100
AcDbEntity
  8
ｴｸｽﾃﾝｼｮﾝﾌﾚｰﾑ
100
AcDbLine
 10
216.0323471159724
 20
217.9795669999147
 30
0.0
 11
215.1030282038025
 21
218.7321146167361
 31
0.0
  0
CIRCLE
  5
3B63
330
1F
100
AcDbEntity
  8
ｴｸｽﾃﾝｼｮﾝﾌﾚｰﾑ
100
AcDbCircle
 10
501.8641980684783
 20
213.2570272146023
 30
0.0
 40
7.504189999999999
  0
CIRCLE
  5
3B64
330
1F
100
AcDbEntity
  8
ｴｸｽﾃﾝｼｮﾝﾌﾚｰﾑ
100
AcDbCircle
 10
501.8641980684783
 20
213.2570272146023
 30
0.0
 40
8.699999999999999
  0
LINE
  5
3B65
330
1F
100
AcDbEntity
  8
ｴｸｽﾃﾝｼｮﾝﾌﾚｰﾑ
100
AcDbLine
 10
507.6960490209842
 20
208.5344874292902
 30
0.0
 11
508.6253679331541
 21
207.7819398124688
 31
0.0
  0
LINE
  5
3B66
330
1F
100
AcDbEntity
  8
ｴｸｽﾃﾝｼｮﾝﾌﾚｰﾑ
100
AcDbLine
 10
509.327279330482
 20
212.4726257658339
 30
0.0
 11
510.5165385581824
 21
212.3476295841739
 31
0.0
  0
LINE
  5
3B67
330
1F
100
AcDbEntity
  8
ｴｸｽﾃﾝｼｮﾝﾌﾚｰﾑ
100
AcDbLine
 10
509.327279330482
 20
214.041428663371
 30
0.0
 11
510.5165385581824
 21
214.166424845031
 31
0.0
  0
LINE
  5
3B68
330
1F
100
AcDbEntity
  8
ｴｸｽﾃﾝｼｮﾝﾌﾚｰﾑ
100
AcDbLine
 10
507.6960490209842
 20
217.9795669999147
 30
0.0
 11
508.6253679331541
 21
218.7321146167359
 31
0.0
  0
LINE
  5
3B69
330
1F
100
AcDbEntity
  8
ｴｸｽﾃﾝｼｮﾝﾌﾚｰﾑ
100
AcDbLine
 10
506.5867378537907
 20
219.0888781671082
 30
0.0
 11
507.3392854706121
 21
220.0181970792779
 31
0.0
  0
LINE
  5
3B6A
330
1F
100
AcDbEntity
  8
ｴｸｽﾃﾝｼｮﾝﾌﾚｰﾑ
100
AcDbLine
 10
502.648599517247
 20
220.720108476606
 30
0.0
 11
502.773595698907
 21
221.9093677043064
 31
0.0
  0
LINE
  5
3B6B
330
1F
100
AcDbEntity
  8
ｴｸｽﾃﾝｼｮﾝﾌﾚｰﾑ
100
AcDbLine
 10
501.0797966197099
 20
220.720108476606
 30
0.0
 11
500.9548004380499
 21
221.9093677043064
 31
0.0
  0
LINE
  5
3B6C
330
1F
100
AcDbEntity
  8
ｴｸｽﾃﾝｼｮﾝﾌﾚｰﾑ
100
AcDbLine
 10
497.1416582831661
 20
219.0888781671082
 30
0.0
 11
496.3891106663448
 21
220.0181970792781
 31
0.0
  0
LINE
  5
3B6D
330
1F
100
AcDbEntity
  8
ｴｸｽﾃﾝｼｮﾝﾌﾚｰﾑ
100
AcDbLine
 10
506.5867378537904
 20
207.4251762620964
 30
0.0
 11
507.3392854706119
 21
206.4958573499267
 31
0.0
  0
LINE
  5
3B6E
330
1F
100
AcDbEntity
  8
ｴｸｽﾃﾝｼｮﾝﾌﾚｰﾑ
100
AcDbLine
 10
502.6485995172468
 20
205.7939459525986
 30
0.0
 11
502.7735956989068
 21
204.6046867248982
 31
0.0
  0
LINE
  5
3B6F
330
1F
100
AcDbEntity
  8
ｴｸｽﾃﾝｼｮﾝﾌﾚｰﾑ
100
AcDbLine
 10
501.0797966197096
 20
205.7939459525986
 30
0.0
 11
500.9548004380497
 21
204.6046867248982
 31
0.0
  0
LINE
  5
3B70
330
1F
100
AcDbEntity
  8
ｴｸｽﾃﾝｼｮﾝﾌﾚｰﾑ
100
AcDbLine
 10
497.1416582831661
 20
207.4251762620964
 30
0.0
 11
496.3891106663448
 21
206.4958573499267
 31
0.0
  0
LINE
  5
3B71
330
1F
100
AcDbEntity
  8
ｴｸｽﾃﾝｼｮﾝﾌﾚｰﾑ
100
AcDbLine
 10
496.0323471159724
 20
208.5344874292899
 30
0.0
 11
495.1030282038027
 21
207.7819398124688
 31
0.0
  0
LINE
  5
3B72
330
1F
100
AcDbEntity
  8
ｴｸｽﾃﾝｼｮﾝﾌﾚｰﾑ
100
AcDbLine
 10
494.4011168064746
 20
212.4726257658336
 30
0.0
 11
493.2118575787742
 21
212.3476295841737
 31
0.0
  0
LINE
  5
3B73
330
1F
100
AcDbEntity
  8
ｴｸｽﾃﾝｼｮﾝﾌﾚｰﾑ
100
AcDbLine
 10
494.4011168064746
 20
214.0414286633708
 30
0.0
 11
493.2118575787744
 21
214.1664248450307
 31
0.0
  0
LINE
  5
3B74
330
1F
100
AcDbEntity
  8
ｴｸｽﾃﾝｼｮﾝﾌﾚｰﾑ
100
AcDbLine
 10
496.0323471159724
 20
217.9795669999145
 30
0.0
 11
495.1030282038025
 21
218.7321146167359
 31
0.0
  0
CIRCLE
  5
3B87
330
1F
100
AcDbEntity
  8
ｴｸｽﾃﾝｼｮﾝﾌﾚｰﾑ
100
AcDbCircle
 10
501.8641980684784
 20
593.2570272146024
 30
0.0
 40
7.504189999999999
  0
CIRCLE
  5
3B88
330
1F
100
AcDbEntity
  8
ｴｸｽﾃﾝｼｮﾝﾌﾚｰﾑ
100
AcDbCircle
 10
501.8641980684784
 20
593.2570272146024
 30
0.0
 40
8.699999999999999
  0
LINE
  5
3B89
330
1F
100
AcDbEntity
  8
ｴｸｽﾃﾝｼｮﾝﾌﾚｰﾑ
100
AcDbLine
 10
507.6960490209843
 20
588.5344874292903
 30
0.0
 11
508.6253679331543
 21
587.7819398124688
 31
0.0
  0
LINE
  5
3B8A
330
1F
100
AcDbEntity
  8
ｴｸｽﾃﾝｼｮﾝﾌﾚｰﾑ
100
AcDbLine
 10
509.3272793304821
 20
592.4726257658339
 30
0.0
 11
510.5165385581825
 21
592.347629584174
 31
0.0
  0
LINE
  5
3B8B
330
1F
100
AcDbEntity
  8
ｴｸｽﾃﾝｼｮﾝﾌﾚｰﾑ
100
AcDbLine
 10
509.3272793304821
 20
594.0414286633711
 30
0.0
 11
510.5165385581825
 21
594.1664248450311
 31
0.0
  0
LINE
  5
3B8C
330
1F
100
AcDbEntity
  8
ｴｸｽﾃﾝｼｮﾝﾌﾚｰﾑ
100
AcDbLine
 10
507.6960490209843
 20
597.9795669999148
 30
0.0
 11
508.6253679331543
 21
598.732114616736
 31
0.0
  0
LINE
  5
3B8D
330
1F
100
AcDbEntity
  8
ｴｸｽﾃﾝｼｮﾝﾌﾚｰﾑ
100
AcDbLine
 10
506.5867378537908
 20
599.0888781671083
 30
0.0
 11
507.339285470612
 21
600.0181970792782
 31
0.0
  0
LINE
  5
3B8E
330
1F
100
AcDbEntity
  8
ｴｸｽﾃﾝｼｮﾝﾌﾚｰﾑ
100
AcDbLine
 10
502.6485995172468
 20
600.7201084766061
 30
0.0
 11
502.773595698907
 21
601.9093677043065
 31
0.0
  0
LINE
  5
3B8F
330
1F
100
AcDbEntity
  8
ｴｸｽﾃﾝｼｮﾝﾌﾚｰﾑ
100
AcDbLine
 10
501.07979661971
 20
600.7201084766061
 30
0.0
 11
500.9548004380498
 21
601.9093677043065
 31
0.0
  0
LINE
  5
3B90
330
1F
100
AcDbEntity
  8
ｴｸｽﾃﾝｼｮﾝﾌﾚｰﾑ
100
AcDbLine
 10
497.141658283166
 20
599.0888781671083
 30
0.0
 11
496.3891106663449
 21
600.0181970792782
 31
0.0
  0
LINE
  5
3B91
330
1F
100
AcDbEntity
  8
ｴｸｽﾃﾝｼｮﾝﾌﾚｰﾑ
100
AcDbLine
 10
506.5867378537906
 20
587.4251762620966
 30
0.0
 11
507.339285470612
 21
586.4958573499268
 31
0.0
  0
LINE
  5
3B92
330
1F
100
AcDbEntity
  8
ｴｸｽﾃﾝｼｮﾝﾌﾚｰﾑ
100
AcDbLine
 10
502.6485995172468
 20
585.7939459525988
 30
0.0
 11
502.7735956989069
 21
584.6046867248984
 31
0.0
  0
LINE
  5
3B93
330
1F
100
AcDbEntity
  8
ｴｸｽﾃﾝｼｮﾝﾌﾚｰﾑ
100
AcDbLine
 10
501.0797966197095
 20
585.7939459525988
 30
0.0
 11
500.9548004380498
 21
584.6046867248984
 31
0.0
  0
LINE
  5
3B94
330
1F
100
AcDbEntity
  8
ｴｸｽﾃﾝｼｮﾝﾌﾚｰﾑ
100
AcDbLine
 10
497.141658283166
 20
587.4251762620966
 30
0.0
 11
496.3891106663449
 21
586.4958573499268
 31
0.0
  0
LINE
  5
3B95
330
1F
100
AcDbEntity
  8
ｴｸｽﾃﾝｼｮﾝﾌﾚｰﾑ
100
AcDbLine
 10
496.0323471159726
 20
588.5344874292901
 30
0.0
 11
495.1030282038026
 21
587.781939812469
 31
0.0
  0
LINE
  5
3B96
330
1F
100
AcDbEntity
  8
ｴｸｽﾃﾝｼｮﾝﾌﾚｰﾑ
100
AcDbLine
 10
494.4011168064747
 20
592.4726257658339
 30
0.0
 11
493.2118575787743
 21
592.3476295841738
 31
0.0
  0
LINE
  5
3B97
330
1F
100
AcDbEntity
  8
ｴｸｽﾃﾝｼｮﾝﾌﾚｰﾑ
100
AcDbLine
 10
494.4011168064747
 20
594.041428663371
 30
0.0
 11
493.2118575787743
 21
594.1664248450309
 31
0.0
  0
LINE
  5
3B98
330
1F
100
AcDbEntity
  8
ｴｸｽﾃﾝｼｮﾝﾌﾚｰﾑ
100
AcDbLine
 10
496.0323471159726
 20
597.9795669999148
 30
0.0
 11
495.1030282038026
 21
598.732114616736
 31
0.0
  0
HATCH
  5
3BD9
330
1F
100
AcDbEntity
  8
AM_8
100
AcDbHatch
 10
0.0
 20
0.0
 30
0.0
210
0.0
220
0.0
230
1.0
  2
_U
 70
     0
 71
     0
 91
        1
 92
        1
 93
       22
 72
     2
 10
505.5507937708488
 20
779.8611486324711
 40
0.2000000000000354
 50
0.500000000006101
 51
89.99999999999998
 73
     1
 72
     1
 10
505.5507937708488
 20
780.0611486324709
 11
503.9855180662151
 21
780.0611486324709
 72
     1
 10
503.9855180662151
 20
780.0611486324709
 11
504.0733852286063
 21
769.9925691033716
 72
     2
 10
505.0733471516744
 20
770.0012956388776
 40
1.000000000004107
 50
180.5000000004332
 51
240.0000000004231
 73
     1
 72
     1
 10
504.5733471516785
 20
769.1352702350862
 11
506.3072205082415
 21
768.1342179859337
 72
     2
 10
506.1572205082419
 20
767.874410364798
 40
0.299999999999986
 50
299.9999999999715
 51
359.5000000000019
 73
     0
 72
     1
 10
506.457209085161
 20
767.8770283254474
 11
506.8797280662149
 21
719.4611486324707
 72
     1
 10
506.8797280662151
 20
719.461148632471
 11
507.2797280662149
 21
718.6611486324708
 72
     1
 10
507.2797280662147
 20
718.6611486324708
 11
508.479728066215
 21
718.6611486324708
 72
     1
 10
508.479728066215
 20
718.6611486324708
 11
508.8797280662148
 21
719.4611486324707
 72
     1
 10
508.879728066215
 20
719.461148632471
 11
508.9076540431455
 21
722.661148632471
 72
     1
 10
508.9076540431455
 20
722.6611486324708
 11
511.364198066215
 21
722.6611486324708
 72
     1
 10
511.364198066215
 20
722.6611486324708
 11
511.364198066215
 21
724.1611486324708
 72
     1
 10
511.364198066215
 20
724.1611486324708
 11
511.8641980662151
 21
724.4611486324707
 72
     1
 10
511.8641980662149
 20
724.461148632471
 11
511.3999286997467
 21
777.6611486324711
 72
     1
 10
511.3999286997467
 20
777.6611486324708
 11
509.6973182550865
 21
777.6611486324708
 72
     2
 10
509.6973182550867
 20
777.461148632471
 40
0.200000000000017
 50
89.99999999999998
 51
179.4999999999938
 73
     1
 72
     1
 10
509.4973258704738
 20
777.4628939395705
 11
509.452666534098
 21
772.3454408685739
 72
     2
 10
507.6527350725826
 20
772.3611486324706
 40
1.799999999999859
 50
360.4999999999886
 51
449.9999999999928
 73
     0
 72
     1
 10
507.6527350725826
 20
770.5611486324709
 11
507.6163214360502
 21
770.5611486324709
 72
     2
 10
507.6163214360504
 20
772.3611486324711
 40
1.800000000000082
 50
90.00000000000362
 51
179.5000000000006
 73
     0
 72
     1
 10
505.8163899745348
 20
772.3454408685742
 11
505.7507861554616
 21
779.8628939395708
 97
        0
 75
     0
 76
     0
 52
-45.00000000000001
 41
10.0
 77
     0
 78
     1
 53
315.0
 43
-197.942515135197
 44
871.2903099379941
 45
7.071067811865476
 46
7.071067811865473
 79
     0
 98
        1
 10
-197.942515135197
 20
871.2903099379941
1001
GENIUS_GENOBJ-N-HTC_13
1002
{
1000
OWNER
1000
GEN
1002
}
1001
GENIUS_GENODEF_13
1002
{
1000
HIER
1070
     0
1002
}
1002
{
1000
MANEDIT
1070
     0
1002
}
1002
{
1000
NOSEL
1070
     0
1002
}
1002
{
1000
BEHIND
1070
     0
1002
}
1002
{
1000
OTHER
1070
     0
1002
}
1002
{
1000
REACTOR
1002
}
1001
GENIUS_GENHATCH_13
1002
{
1000
DATA
1040
45.0
1042
2.5
1000
_U
1070
     0
1011
508.8064533485719
1021
657.3453990122906
1031
0.0
1002
}
1002
{
1000
UCS
1010
0.0
1020
0.0
1030
0.0
1010
1.0
1020
0.0
1030
0.0
1010
0.0
1020
1.0
1030
0.0
1002
}
  0
LINE
  5
3BF5
330
1F
100
AcDbEntity
  8
ｶﾞｽｹｯﾄ
100
AcDbLine
 10
507.6756990879961
 20
776.7611486324707
 30
0.0
 11
507.5933574206373
 21
776.7611486324707
 31
0.0
  0
ARC
  5
3BF6
330
1F
100
AcDbEntity
  8
ｶﾞｽｹｯﾄ
100
AcDbCircle
 10
507.6756990879961
 20
774.961148632471
 30
0.0
 40
1.8
100
AcDbArc
 50
0.500000000001317
 51
90.0
1001
GENIUS_GENODEF_13
1002
{
1000
HIER
1070
     0
1002
}
1002
{
1000
MANEDIT
1070
     0
1002
}
1002
{
1000
NOSEL
1070
     0
1002
}
1002
{
1000
BEHIND
1070
     0
1002
}
1002
{
1000
OTHER
1070
     0
1002
}
1002
{
1000
REACTOR
1002
}
1001
GENIUS_GENOBJ-N-FIL_13
1002
{
1000
OWNER
1000
GEN
1002
}
  0
ARC
  5
3BF7
330
1F
100
AcDbEntity
  8
ｶﾞｽｹｯﾄ
100
AcDbCircle
 10
507.5933574206373
 20
774.9611486324705
 30
0.0
 40
1.8
100
AcDbArc
 50
90.0
 51
179.4999999999987
1001
GENIUS_GENODEF_13
1002
{
1000
HIER
1070
     0
1002
}
1002
{
1000
MANEDIT
1070
     0
1002
}
1002
{
1000
NOSEL
1070
     0
1002
}
1002
{
1000
BEHIND
1070
     0
1002
}
1002
{
1000
OTHER
1070
     0
1002
}
1002
{
1000
REACTOR
1002
}
1001
GENIUS_GENOBJ-N-FIL_13
1002
{
1000
OWNER
1000
GEN
1002
}
  0
HATCH
  5
3C06
330
1F
100
AcDbEntity
  8
ｶﾞｽｹｯﾄ
100
AcDbHatch
 10
0.0
 20
0.0
 30
0.0
210
0.0
220
0.0
230
1.0
  2
SOLID
 70
     1
 71
     0
 91
        1
 92
        1
 93
        8
 72
     1
 10
507.6163214360502
 20
770.5611486324714
 11
507.6527350725826
 21
770.5611486324711
 72
     2
 10
507.6527350725826
 20
772.3611486324711
 40
1.799999999999968
 50
-90.00000000000001
 51
-0.5000000000003379
 73
     1
 72
     1
 10
509.4526665340983
 20
772.3454408685737
 11
509.4756305495114
 21
774.9768563963713
 72
     2
 10
507.6756990879961
 20
774.9611486324705
 40
1.800000000000008
 50
0.5000000001188072
 51
89.99999999999998
 73
     1
 72
     1
 10
507.6756990879961
 20
776.7611486324707
 11
507.5933574206374
 21
776.7611486324707
 72
     2
 10
507.5933574206373
 20
774.961148632471
 40
1.800000000000096
 50
90.0000000000036
 51
179.4999999998879
 73
     1
 72
     1
 10
505.7934259591219
 20
774.9768563963715
 11
505.8163899745355
 21
772.3454408685742
 72
     2
 10
507.6163214360507
 20
772.3611486324711
 40
1.799999999999633
 50
180.4999999999923
 51
269.9999999999928
 73
     1
 97
        0
 75
     0
 76
     1
 98
        1
 10
-197.942515135197
 20
871.2903099379941
1001
GENIUS_GENODEF_13
1002
{
1000
HIER
1070
     0
1002
}
1002
{
1000
MANEDIT
1070
     0
1002
}
1002
{
1000
NOSEL
1070
     0
1002
}
1002
{
1000
BEHIND
1070
     0
1002
}
1002
{
1000
OTHER
1070
     0
1002
}
1002
{
1000
REACTOR
1002
}
1001
GENIUS_GENOBJ-N-HTC_13
1002
{
1000
OWNER
1000
GEN
1002
}
1001
GENIUS_GENHATCH_13
1002
{
1000
DATA
1040
0.0
1042
1.0
1000
SOLID
1070
     0
1011
507.0908021888583
1021
673.9552225833794
1031
0.0
1002
}
1002
{
1000
UCS
1010
0.0
1020
0.0
1030
0.0
1010
1.0
1020
0.0
1030
0.0
1010
0.0
1020
1.0
1030
0.0
1002
}
  0
DIMENSION
  5
3D55
330
1F
100
AcDbEntity
  8
AM_5
100
AcDbDimension
  2
*D6
 10
775.4340422210061
 20
639.2570282246024
 30
0.0
 11
747.9340422210062
 21
649.0070282246024
 31
0.0
 70
    32
 71
     5
 42
55.0
  3
AM_ISO$0
100
AcDbAlignedDimension
 13
720.4340422210061
 23
602.7570272146022
 33
0.0
 14
775.4340422210061
 24
602.7927578481344
 34
0.0
100
AcDbRotatedDimension
1001
ACAD
1000
DSTYLE
1002
{
1070
    40
1040
3.0
1002
}
  0
LINE
  5
3EF6
330
1F
100
AcDbEntity
  8
ｴｸｽﾃﾝｼｮﾝﾌﾚｰﾑ
100
AcDbLine
 10
232.6756924926116
 20
773.5611486324708
 30
0.0
 11
232.6285674065415
 21
768.1611486324708
 31
0.0
  0
LINE
  5
3F0D
330
1F
100
AcDbEntity
  8
ｴｸｽﾃﾝｼｮﾝﾌﾚｰﾑ
100
AcDbLine
 10
245.9286205107411
 20
777.6611486324708
 30
0.0
 11
212.3284674349463
 21
777.6611486324708
 31
0.0
  0
ARC
  5
3F0E
330
1F
100
AcDbEntity
  8
ｴｸｽﾃﾝｼｮﾝﾌﾚｰﾑ
100
AcDbCircle
 10
241.9961578796061
 20
777.461148632471
 30
0.0
 40
0.2
100
AcDbArc
 50
0.500000000001317
 51
90.0
1001
GENIUS_GENODEF_13
1002
{
1000
HIER
1070
     0
1002
}
1002
{
1000
MANEDIT
1070
     0
1002
}
1002
{
1000
NOSEL
1070
     0
1002
}
1002
{
1000
BEHIND
1070
     0
1002
}
1002
{
1000
OTHER
1070
     0
1002
}
1002
{
1000
REACTOR
1002
}
1001
GENIUS_GENOBJ-N-FIL_13
1002
{
1000
OWNER
1000
GEN
1002
}
  0
ARC
  5
3F11
330
1F
100
AcDbEntity
  8
ｴｸｽﾃﾝｼｮﾝﾌﾚｰﾑ
100
AcDbCircle
 10
246.1426823638441
 20
779.8611486324711
 30
0.0
 40
0.2
100
AcDbArc
 50
90.0
 51
179.4999999999987
1001
GENIUS_GENOBJ-N-FIL_13
1002
{
1000
OWNER
1000
GEN
1002
}
1001
GENIUS_GENODEF_13
1002
{
1000
HIER
1070
     0
1002
}
1002
{
1000
MANEDIT
1070
     0
1002
}
1002
{
1000
NOSEL
1070
     0
1002
}
1002
{
1000
BEHIND
1070
     0
1002
}
1002
{
1000
OTHER
1070
     0
1002
}
1002
{
1000
REACTOR
1002
}
  0
LINE
  5
3F14
330
1F
100
AcDbEntity
  8
ｴｸｽﾃﾝｼｮﾝﾌﾚｰﾑ
100
AcDbLine
 10
246.8008934127205
 20
769.5196052100621
 30
0.0
 11
246.8928880684781
 21
780.0611486324709
 31
0.0
  0
LINE
  5
3F15
330
1F
100
AcDbEntity
  8
ｴｸｽﾃﾝｼｮﾝﾌﾚｰﾑ
100
AcDbLine
 10
244.8137480684778
 20
719.461148632471
 30
0.0
 11
245.2362670495319
 21
767.8770283254474
 31
0.0
  0
LINE
  5
3F17
330
1F
100
AcDbEntity
  8
ｴｸｽﾃﾝｼｮﾝﾌﾚｰﾑ
100
AcDbLine
 10
242.8137480684778
 20
719.461148632471
 30
0.0
 11
243.2137480684779
 21
718.6611486324708
 31
0.0
  0
LINE
  5
3F18
330
1F
100
AcDbEntity
  8
ｴｸｽﾃﾝｼｮﾝﾌﾚｰﾑ
100
AcDbLine
 10
244.4137480684782
 20
718.6611486324708
 30
0.0
 11
244.8137480684778
 21
719.461148632471
 31
0.0
  0
LINE
  5
3F19
330
1F
100
AcDbEntity
  8
ｴｸｽﾃﾝｼｮﾝﾌﾚｰﾑ
100
AcDbLine
 10
246.3009314896563
 20
768.6623063417759
 30
0.0
 11
245.3862556264513
 21
768.1342179859333
 31
0.0
  0
ARC
  5
3F1A
330
1F
100
AcDbEntity
  8
ｴｸｽﾃﾝｼｮﾝﾌﾚｰﾑ
100
AcDbCircle
 10
245.5362556264512
 20
767.874410364798
 30
0.0
 40
0.3
100
AcDbArc
 50
120.0000000000005
 51
179.4999999999987
1001
GENIUS_GENODEF_13
1002
{
1000
HIER
1070
     0
1002
}
1002
{
1000
MANEDIT
1070
     0
1002
}
1002
{
1000
NOSEL
1070
     0
1002
}
1002
{
1000
BEHIND
1070
     0
1002
}
1002
{
1000
OTHER
1070
     0
1002
}
1002
{
1000
REACTOR
1002
}
1001
GENIUS_GENOBJ-N-FIL_13
1002
{
1000
OWNER
1000
GEN
1002
}
  0
LINE
  5
3F1C
330
1F
100
AcDbEntity
  8
ｴｸｽﾃﾝｼｮﾝﾌﾚｰﾑ
100
AcDbLine
 10
242.2408096005948
 20
772.3454408685742
 30
0.0
 11
242.196150264219
 21
777.4628939395705
 31
0.0
  0
LINE
  5
3F1D
330
1F
100
AcDbEntity
  8
ｴｸｽﾃﾝｼｮﾝﾌﾚｰﾑ
100
AcDbLine
 10
245.8770861601575
 20
772.3454408685742
 30
0.0
 11
245.9426899792312
 21
779.8628939395706
 31
0.0
  0
LINE
  5
3F1E
330
1F
100
AcDbEntity
  8
ｴｸｽﾃﾝｼｮﾝﾌﾚｰﾑ
100
AcDbLine
 10
244.0407410621102
 20
770.5611486324709
 30
0.0
 11
244.0771546986426
 21
770.5611486324709
 31
0.0
  0
ARC
  5
3F1F
330
1F
100
AcDbEntity
  8
ｴｸｽﾃﾝｼｮﾝﾌﾚｰﾑ
100
AcDbCircle
 10
244.04074106211
 20
772.3611486324711
 30
0.0
 40
1.8
100
AcDbArc
 50
180.5000000000013
 51
270.0
1001
GENIUS_GENODEF_13
1002
{
1000
HIER
1070
     0
1002
}
1002
{
1000
MANEDIT
1070
     0
1002
}
1002
{
1000
NOSEL
1070
     0
1002
}
1002
{
1000
BEHIND
1070
     0
1002
}
1002
{
1000
OTHER
1070
     0
1002
}
1002
{
1000
REACTOR
1002
}
1001
GENIUS_GENOBJ-N-FIL_13
1002
{
1000
OWNER
1000
GEN
1002
}
  0
ARC
  5
3F20
330
1F
100
AcDbEntity
  8
ｴｸｽﾃﾝｼｮﾝﾌﾚｰﾑ
100
AcDbCircle
 10
244.0771546986424
 20
772.3611486324711
 30
0.0
 40
1.8
100
AcDbArc
 50
270.0
 51
359.4999999999987
1001
GENIUS_GENODEF_13
1002
{
1000
HIER
1070
     0
1002
}
1002
{
1000
MANEDIT
1070
     0
1002
}
1002
{
1000
NOSEL
1070
     0
1002
}
1002
{
1000
BEHIND
1070
     0
1002
}
1002
{
1000
OTHER
1070
     0
1002
}
1002
{
1000
REACTOR
1002
}
1001
GENIUS_GENOBJ-N-FIL_13
1002
{
1000
OWNER
1000
GEN
1002
}
  0
LINE
  5
3F22
330
1F
100
AcDbEntity
  8
ｶﾞｽｹｯﾄ
100
AcDbLine
 10
244.0177770466968
 20
776.7611486324707
 30
0.0
 11
244.1001187140556
 21
776.7611486324707
 31
0.0
  0
ARC
  5
3F23
330
1F
100
AcDbEntity
  8
ｶﾞｽｹｯﾄ
100
AcDbCircle
 10
244.0177770466968
 20
774.961148632471
 30
0.0
 40
1.8
100
AcDbArc
 50
90.0
 51
179.4999999999987
1001
GENIUS_GENODEF_13
1002
{
1000
HIER
1070
     0
1002
}
1002
{
1000
MANEDIT
1070
     0
1002
}
1002
{
1000
NOSEL
1070
     0
1002
}
1002
{
1000
BEHIND
1070
     0
1002
}
1002
{
1000
OTHER
1070
     0
1002
}
1002
{
1000
REACTOR
1002
}
1001
GENIUS_GENOBJ-N-FIL_13
1002
{
1000
OWNER
1000
GEN
1002
}
  0
ARC
  5
3F24
330
1F
100
AcDbEntity
  8
ｶﾞｽｹｯﾄ
100
AcDbCircle
 10
244.1001187140556
 20
774.9611486324705
 30
0.0
 40
1.8
100
AcDbArc
 50
0.500000000001317
 51
90.0
1001
GENIUS_GENODEF_13
1002
{
1000
HIER
1070
     0
1002
}
1002
{
1000
MANEDIT
1070
     0
1002
}
1002
{
1000
NOSEL
1070
     0
1002
}
1002
{
1000
BEHIND
1070
     0
1002
}
1002
{
1000
OTHER
1070
     0
1002
}
1002
{
1000
REACTOR
1002
}
1001
GENIUS_GENOBJ-N-FIL_13
1002
{
1000
OWNER
1000
GEN
1002
}
  0
HATCH
  5
3F25
330
1F
100
AcDbEntity
  8
ｶﾞｽｹｯﾄ
100
AcDbHatch
 10
0.0
 20
0.0
 30
0.0
210
0.0
220
0.0
230
1.0
  2
SOLID
 70
     1
 71
     0
 91
        1
 92
        1
 93
        8
 72
     1
 10
244.0771546986426
 20
770.5611486324714
 11
244.0407410621102
 21
770.5611486324711
 72
     2
 10
244.0407410621102
 20
772.3611486324711
 40
1.799999999999968
 50
-270.0
 51
-180.5000000000003
 73
     0
 72
     1
 10
242.2408096005946
 20
772.3454408685737
 11
242.2178455851814
 21
774.9768563963713
 72
     2
 10
244.0177770466968
 20
774.9611486324705
 40
1.800000000000008
 50
-179.4999999998812
 51
-90.00000000000001
 73
     0
 72
     1
 10
244.0177770466968
 20
776.7611486324707
 11
244.1001187140555
 21
776.7611486324707
 72
     2
 10
244.1001187140556
 20
774.961148632471
 40
1.800000000000096
 50
-89.99999999999641
 51
-0.5000000001120262
 73
     0
 72
     1
 10
245.900050175571
 20
774.9768563963715
 11
245.8770861601573
 21
772.3454408685742
 72
     2
 10
244.0771546986422
 20
772.3611486324711
 40
1.799999999999633
 50
0.4999999999922847
 51
89.99999999999277
 73
     0
 97
        0
 75
     0
 76
     1
 98
        1
 10
949.6359912698899
 20
871.2903099379941
1001
GENIUS_GENODEF_13
1002
{
1000
HIER
1070
     0
1002
}
1002
{
1000
MANEDIT
1070
     0
1002
}
1002
{
1000
NOSEL
1070
     0
1002
}
1002
{
1000
BEHIND
1070
     0
1002
}
1002
{
1000
OTHER
1070
     0
1002
}
1002
{
1000
REACTOR
1002
}
1001
GENIUS_GENOBJ-N-HTC_13
1002
{
1000
OWNER
1000
GEN
1002
}
1001
GENIUS_GENHATCH_13
1002
{
1000
DATA
1040
0.0
1042
-1.0
1000
SOLID
1070
     0
1011
344.6026739480975
1021
673.9552225833794
1031
0.0
1002
}
1002
{
1000
UCS
1010
0.0
1020
0.0
1030
0.0
1010
1.0
1020
0.0
1030
0.0
1010
0.0
1020
1.0
1030
0.0
1002
}
  0
ARC
  5
3F96
330
1F
100
AcDbEntity
  8
ｴｸｽﾃﾝｼｮﾝﾌﾚｰﾑ
100
AcDbCircle
 10
245.8009314896564
 20
769.5283317455604
 30
0.0
 40
1.0
100
AcDbArc
 50
299.9999999999989
 51
359.500000000002
1001
GENIUS_GENODEF_13
1002
{
1000
HIER
1070
     0
1002
}
1002
{
1000
MANEDIT
1070
     0
1002
}
1002
{
1000
NOSEL
1070
     0
1002
}
1002
{
1000
BEHIND
1070
     0
1002
}
1002
{
1000
OTHER
1070
     0
1002
}
1002
{
1000
REACTOR
1002
}
1001
GENIUS_GENOBJ-N-FIL_13
1002
{
1000
OWNER
1000
GEN
1002
}
  0
LINE
  5
3FAC
330
1F
100
AcDbEntity
  8
ｴｸｽﾃﾝｼｮﾝﾌﾚｰﾑ
100
AcDbLine
 10
241.4928880684783
 20
777.6611486324708
 30
0.0
 11
241.5757933124904
 21
768.1611486324708
 31
0.0
  0
LINE
  5
40AC
330
1F
100
AcDbEntity
  8
ｴｸｽﾃﾝｼｮﾝﾌﾚｰﾑ
100
AcDbLine
 10
232.6756924926116
 20
773.5611486324708
 30
0.0
 11
221.8641980684783
 21
773.5611486324708
 31
0.0
  0
LINE
  5
40BC
330
1F
100
AcDbEntity
  8
ｴｸｽﾃﾝｼｮﾝﾌﾚｰﾑ
100
AcDbLine
 10
230.5641980684783
 20
743.6611486324708
 30
0.0
 11
230.5641980684783
 21
722.6611486324708
 31
0.0
  0
LINE
  5
40C1
330
1F
100
AcDbEntity
  8
ｴｸｽﾃﾝｼｮﾝﾌﾚｰﾑ
100
AcDbLine
 10
230.5641980684783
 20
743.6611486324708
 30
0.0
 11
213.1641980684782
 21
743.6611486324708
 31
0.0
  0
LINE
  5
40C2
330
1F
100
AcDbEntity
  8
ｴｸｽﾃﾝｼｮﾝﾌﾚｰﾑ
100
AcDbLine
 10
229.3683880684782
 20
743.6611486324708
 30
0.0
 11
229.3683880684782
 21
773.5611486324708
 31
0.0
  0
LINE
  5
40CA
330
1F
100
AcDbEntity
  8
ｴｸｽﾃﾝｼｮﾝﾌﾚｰﾑ
100
AcDbLine
 10
213.1641980684782
 20
743.6611486324708
 30
0.0
 11
213.1641980684782
 21
722.6611486324708
 31
0.0
  0
LINE
  5
40D4
330
1F
100
AcDbEntity
  8
ｴｸｽﾃﾝｼｮﾝﾌﾚｰﾑ
100
AcDbLine
 10
214.3600080684783
 20
743.6611486324708
 30
0.0
 11
214.3600080684783
 21
777.6611486324708
 31
0.0
  0
LINE
  5
40E1
330
1F
100
AcDbEntity
  8
ｴｸｽﾃﾝｼｮﾝﾌﾚｰﾑ
100
AcDbLine
 10
241.5757933124904
 20
768.1611486324708
 30
0.0
 11
232.6285674065415
 21
768.1611486324708
 31
0.0
  0
LINE
  5
40F6
330
1F
100
AcDbEntity
  8
ｴｸｽﾃﾝｼｮﾝﾌﾚｰﾑ
100
AcDbLine
 10
232.6198405387507
 20
767.1611486324708
 30
0.0
 11
242.0974764748588
 21
767.1611486324708
 31
0.0
  0
LINE
  5
40F8
330
1F
100
AcDbEntity
  8
ｴｸｽﾃﾝｼｮﾝﾌﾚｰﾑ
100
AcDbLine
 10
232.6198405387507
 20
767.1611486324708
 30
0.0
 11
232.231494922062
 21
722.6611486324708
 31
0.0
  0
HATCH
  5
410F
330
1F
100
AcDbEntity
  8
AM_8
100
AcDbHatch
 10
0.0
 20
0.0
 30
0.0
210
0.0
220
0.0
230
1.0
  2
_U
 70
     0
 71
     0
 91
        1
 92
        1
 93
        8
 72
     1
 10
212.3641980684783
 20
724.1611486324708
 11
212.3641980684783
 21
722.6611486324708
 72
     1
 10
212.3641980684783
 20
722.6611486324708
 11
213.1641980684782
 21
722.6611486324708
 72
     1
 10
213.1641980684782
 20
722.6611486324708
 11
213.1641980684782
 21
743.6611486324708
 72
     1
 10
213.1641980684782
 20
743.6611486324708
 11
214.3600080684783
 21
743.6611486324708
 72
     1
 10
214.3600080684783
 20
743.6611486324708
 11
214.3600080684783
 21
777.6611486324708
 72
     1
 10
214.3600080684783
 20
777.6611486324708
 11
212.3284674349463
 21
777.6611486324708
 72
     1
 10
212.3284674349463
 20
777.6611486324708
 11
211.8641980684781
 21
724.461148632471
 72
     1
 10
211.8641980684781
 20
724.461148632471
 11
212.3641980684783
 21
724.1611486324708
 97
        0
 75
     0
 76
     0
 52
45.0
 41
7.5
 77
     0
 78
     1
 53
45.0
 43
-345.4111121794579
 44
-494.0325382842038
 45
-5.303300858899106
 46
5.303300858899106
 79
     0
 98
        1
 10
-345.4111121794579
 20
-494.0325382842038
1001
GENIUS_GENODEF_13
1002
{
1000
HIER
1070
     0
1002
}
1002
{
1000
MANEDIT
1070
     0
1002
}
1002
{
1000
NOSEL
1070
     0
1002
}
1002
{
1000
BEHIND
1070
     0
1002
}
1002
{
1000
OTHER
1070
     0
1002
}
1002
{
1000
REACTOR
1002
}
1001
GENIUS_GENOBJ-N-HTC_13
1002
{
1000
OWNER
1000
GEN
1002
}
1001
GENIUS_GENHATCH_13
1002
{
1000
DATA
1040
45.0
1042
2.5
1000
_U
1070
     0
1011
313.2894377740204
1021
670.4175555536702
1031
0.0
1002
}
1002
{
1000
UCS
1010
0.0
1020
0.0
1030
0.0
1010
1.0
1020
0.0
1030
0.0
1010
0.0
1020
1.0
1030
0.0
1002
}
  0
LINE
  5
416A
330
1F
100
AcDbEntity
  8
ｴｸｽﾃﾝｼｮﾝﾌﾚｰﾑ
100
AcDbLine
 10
242.0974764748588
 20
767.1611486324708
 30
0.0
 11
242.4858220915474
 21
722.6611486324708
 31
0.0
  0
LINE
  5
4177
330
1F
100
AcDbEntity
  8
ｴｸｽﾃﾝｼｮﾝﾌﾚｰﾑ
100
AcDbLine
 10
242.7858220915474
 20
722.6611486324708
 30
0.0
 11
242.8137480684778
 21
719.461148632471
 31
0.0
  0
HATCH
  5
4182
330
1F
100
AcDbEntity
  8
AM_8
100
AcDbHatch
 10
0.0
 20
0.0
 30
0.0
210
0.0
220
0.0
230
1.0
  2
_U
 70
     0
 71
     0
 91
        1
 92
        1
 93
       30
 72
     2
 10
244.0771546986423
 20
772.3611486324711
 40
1.799999999999749
 50
0.5000000000017501
 51
89.99999999999639
 73
     0
 72
     1
 10
244.0771546986424
 20
770.5611486324714
 11
244.0407410621102
 21
770.5611486324711
 72
     2
 10
244.04074106211
 20
772.3611486324711
 40
1.799999999999954
 50
89.99999999999277
 51
179.4999999999983
 73
     0
 72
     1
 10
242.2408096005945
 20
772.3454408685737
 11
242.196150264219
 21
777.4628939395705
 72
     2
 10
241.9961578796061
 20
777.461148632471
 40
0.2000000000000362
 50
0.5000000000305426
 51
90.0
 73
     1
 72
     1
 10
241.9961578796061
 20
777.6611486324708
 11
241.4928880684783
 21
777.6611486324708
 72
     1
 10
241.4928880684783
 20
777.6611486324708
 11
241.5757933124904
 21
768.1611486324708
 72
     1
 10
241.5757933124904
 20
768.1611486324708
 11
232.6285674065415
 21
768.1611486324708
 72
     1
 10
232.6285674065415
 20
768.1611486324708
 11
232.6756924926116
 21
773.5611486324708
 72
     1
 10
232.6756924926116
 20
773.5611486324708
 11
229.3683880684782
 21
773.5611486324708
 72
     1
 10
229.3683880684782
 20
773.5611486324708
 11
229.3683880684782
 21
743.6611486324708
 72
     1
 10
229.3683880684782
 20
743.6611486324708
 11
230.5641980684783
 21
743.6611486324708
 72
     1
 10
230.5641980684783
 20
743.6611486324708
 11
230.5641980684783
 21
722.6611486324708
 72
     1
 10
230.5641980684783
 20
722.6611486324708
 11
232.231494922062
 21
722.6611486324708
 72
     1
 10
232.231494922062
 20
722.6611486324708
 11
232.6198405387507
 21
767.1611486324708
 72
     1
 10
232.6198405387507
 20
767.1611486324708
 11
242.0974764748588
 21
767.1611486324708
 72
     1
 10
242.0974764748588
 20
767.1611486324708
 11
242.4858220915474
 21
722.6611486324708
 72
     1
 10
242.4858220915474
 20
722.6611486324708
 11
242.7858220915474
 21
722.6611486324708
 72
     1
 10
242.7858220915474
 20
722.6611486324708
 11
242.8137480684778
 21
719.4611486324707
 72
     1
 10
242.8137480684778
 20
719.461148632471
 11
243.2137480684779
 21
718.661148632471
 72
     1
 10
243.2137480684779
 20
718.6611486324708
 11
244.4137480684782
 21
718.6611486324708
 72
     1
 10
244.4137480684782
 20
718.6611486324708
 11
244.8137480684778
 21
719.4611486324707
 72
     1
 10
244.8137480684778
 20
719.461148632471
 11
245.2362670495319
 21
767.8770283254476
 72
     2
 10
245.536255626451
 20
767.8744103647976
 40
0.2999999999999416
 50
180.5000000000524
 51
240.000000000034
 73
     0
 72
     1
 10
245.3862556264512
 20
768.1342179859333
 11
246.3009314896563
 21
768.6623063417761
 72
     2
 10
245.8009314896563
 20
769.5283317455604
 40
1.000000000000138
 50
300.0000000000029
 51
359.4999999999954
 73
     1
 72
     1
 10
246.8008934127205
 20
769.5196052100621
 11
246.8928880684781
 21
780.0611486324712
 72
     1
 10
246.8928880684781
 20
780.0611486324709
 11
246.1426823638441
 21
780.0611486324709
 72
     2
 10
246.1426823638441
 20
779.8611486324711
 40
0.2000000000000455
 50
90.0
 51
179.4999999999694
 73
     1
 72
     1
 10
245.9426899792312
 20
779.8628939395706
 11
245.8770861601575
 21
772.3454408685739
 97
        0
 75
     0
 76
     0
 52
45.0
 41
12.5
 77
     0
 78
     1
 53
45.0
 43
-345.4111121794579
 44
-494.0325382842038
 45
-8.838834764831844
 46
8.838834764831844
 79
     0
 98
        1
 10
-345.4111121794579
 20
-494.0325382842038
1001
GENIUS_GENOBJ-N-HTC_13
1002
{
1000
OWNER
1000
GEN
1002
}
1001
GENIUS_GENODEF_13
1002
{
1000
HIER
1070
     0
1002
}
1002
{
1000
MANEDIT
1070
     0
1002
}
1002
{
1000
NOSEL
1070
     0
1002
}
1002
{
1000
BEHIND
1070
     0
1002
}
1002
{
1000
OTHER
1070
     0
1002
}
1002
{
1000
REACTOR
1002
}
1001
GENIUS_GENHATCH_13
1002
{
1000
DATA
1040
45.0
1042
2.5
1000
_U
1070
     0
1011
330.8342359881854
1021
653.7644401427045
1031
0.0
1002
}
1002
{
1000
UCS
1010
0.0
1020
0.0
1030
0.0
1010
1.0
1020
0.0
1030
0.0
1010
0.0
1020
1.0
1030
0.0
1002
}
  0
DIMENSION
  5
42B9
330
1F
100
AcDbEntity
  8
AM_5
100
AcDbDimension
  2
*D7
 10
175.864197058478
 20
203.2570272146026
 30
0.0
 11
166.114197058478
 21
403.2570272146026
 31
0.0
 70
    32
 71
     5
 42
399.9999999999999
  3
AM_ISO$0
100
AcDbAlignedDimension
 13
221.8641980684783
 23
603.2570272146025
 33
0.0
 14
221.8641980684783
 24
203.2570272146026
 34
0.0
 50
90.0
100
AcDbRotatedDimension
1001
ACAD
1000
DSTYLE
1002
{
1070
    40
1040
3.0
1002
}
  0
DIMENSION
  5
42F3
330
1F
100
AcDbEntity
  8
AM_5
100
AcDbDimension
  2
*D8
 10
511.8641980684782
 20
639.2570282246024
 30
0.0
 11
361.8641980684782
 21
649.0070282246024
 31
0.0
 70
    32
 71
     5
 42
300.0
  3
AM_ISO$0
100
AcDbAlignedDimension
 13
211.8641980684782
 23
593.2570272146025
 33
0.0
 14
511.8641980684782
 24
593.2570272146025
 34
0.0
100
AcDbRotatedDimension
1001
ACAD
1000
DSTYLE
1002
{
1070
    40
1040
3.0
1002
}
  0
INSERT
  5
4521
102
{ACAD_REACTORS
330
9A8
102
}
330
1F
100
AcDbEntity
  8
0
100
AcDbBlockReference
  2
*S13
 10
0.0
 20
0.0
 30
0.0
  0
VIEWPORT
  5
186
102
{ACAD_XDICTIONARY
360
45DD
102
}
330
23
100
AcDbEntity
 67
     1
  8
0
100
AcDbViewport
 10
5.249999639556163
 20
3.999999883606677
 30
0.0
 40
14.57585398793907
 41
8.992999745766947
 68
     1
 69
     1
 12
5.249999639556163
 22
3.999999883606677
 13
0.0
 23
0.0
 14
10.0
 24
10.0
 15
10.0
 25
10.0
 16
0.0
 26
0.0
 36
1.0
 17
0.0
 27
0.0
 37
0.0
 42
50.0
 43
0.0
 44
0.0
 45
8.992999745766947
 50
0.0
 51
0.0
 72
   100
 90
    32800
  1

281
     0
 71
     1
 74
     0
110
0.0
120
0.0
130
0.0
111
1.0
121
0.0
131
0.0
112
0.0
122
1.0
132
0.0
 79
     0
146
0.0
  0
ENDSEC
  0
SECTION
  2
OBJECTS
  0
DICTIONARY
  5
C
330
0
100
AcDbDictionary
281
     1
  3
ACAD_COLOR
350
C9
  3
ACAD_GROUP
350
D
  3
ACAD_LAYOUT
350
1A
  3
ACAD_MATERIAL
350
C8
  3
ACAD_MLEADERSTYLE
350
43E7
  3
ACAD_MLINESTYLE
350
17
  3
ACAD_PLOTSETTINGS
350
19
  3
ACAD_PLOTSTYLENAME
350
E
  3
ACAD_SCALELIST
350
43D5
  3
ACAD_TABLESTYLE
350
BD6
  3
ACAD_VISUALSTYLE
350
43C4
  3
ACDB_RECOMPOSE_DATA
350
4456
  3
AcDbVariableDictionary
350
9E
  3
AcmDictionary
350
63
  3
AMG
350
49
  3
AMGSNAPSETTINGS
350
234
  3
DWGPROPS
350
45D4
  0
DICTIONARY
  5
4457
330
8
100
AcDbDictionary
280
     1
281
     1
  0
DICTIONARY
  5
2C1
330
2
100
AcDbDictionary
280
     1
281
     1
  3
ACAD_LAYERFILTERS
360
3BE7
  3
ACAD_LAYERSTATES
360
2C2
  3
ACLYDICTIONARY
360
3BE6
  3
AMLAYER_GROUPCOLORS
360
3BD6
  0
DICTIONARY
  5
4440
330
10
100
AcDbDictionary
280
     1
281
     1
  3
ADSK_XREC_LAYER_RECONCILED
360
4441
  0
DICTIONARY
  5
4442
330
1F0
100
AcDbDictionary
280
     1
281
     1
  3
ADSK_XREC_LAYER_RECONCILED
360
4443
  0
DICTIONARY
  5
4444
330
23E
100
AcDbDictionary
280
     1
281
     1
  3
ADSK_XREC_LAYER_RECONCILED
360
4445
  0
DICTIONARY
  5
4446
330
23F
100
AcDbDictionary
280
     1
281
     1
  3
ADSK_XREC_LAYER_RECONCILED
360
4447
  0
DICTIONARY
  5
4448
330
2AD
100
AcDbDictionary
280
     1
281
     1
  3
ADSK_XREC_LAYER_RECONCILED
360
4449
  0
DICTIONARY
  5
444A
330
3A72
100
AcDbDictionary
280
     1
281
     1
  3
ADSK_XREC_LAYER_RECONCILED
360
444B
  0
DICTIONARY
  5
444C
330
3A73
100
AcDbDictionary
280
     1
281
     1
  3
ADSK_XREC_LAYER_RECONCILED
360
444D
  0
DICTIONARY
  5
444E
330
3BDA
100
AcDbDictionary
280
     1
281
     1
  3
ADSK_XREC_LAYER_RECONCILED
360
444F
  0
DICTIONARY
  5
4450
330
3BE4
100
AcDbDictionary
280
     1
281
     1
  3
ADSK_XREC_LAYER_RECONCILED
360
4451
  0
DICTIONARY
  5
4452
330
4369
100
AcDbDictionary
280
     1
281
     1
  3
ADSK_XREC_LAYER_RECONCILED
360
4453
  0
DICTIONARY
  5
99
330
1F
100
AcDbDictionary
280
     1
281
     1
  3
ACAD_SORTENTS
360
2272
  0
DICTIONARY
  5
AF1
330
AE9
100
AcDbDictionary
280
     1
281
     1
  0
DICTIONARY
  5
B55
330
AFC
100
AcDbDictionary
280
     1
281
     1
  0
DICTIONARY
  5
45DB
330
182
100
AcDbDictionary
280
     1
281
     1
  3
ACAD_XREC_ROUNDTRIP
360
45DC
  0
DICTIONARY
  5
45DD
330
186
100
AcDbDictionary
280
     1
281
     1
  3
ACAD_XREC_ROUNDTRIP
360
45DE
  0
DICTIONARY
  5
C9
102
{ACAD_REACTORS
330
C
102
}
330
C
100
AcDbDictionary
281
     1
  0
DICTIONARY
  5
D
102
{ACAD_REACTORS
330
C
102
}
330
C
100
AcDbDictionary
281
     1
  0
DICTIONARY
  5
1A
102
{ACAD_REACTORS
330
C
102
}
330
C
100
AcDbDictionary
281
     1
  3
Model
350
22
  3
レイアウト1
350
1E
  3
レイアウト2
350
26
  0
DICTIONARY
  5
C8
102
{ACAD_REACTORS
330
C
102
}
330
C
100
AcDbDictionary
281
     1
  3
ByBlock
350
43B4
  3
ByLayer
350
43AC
  3
Global
350
43BC
  0
DICTIONARY
  5
43E7
102
{ACAD_REACTORS
330
C
102
}
330
C
100
AcDbDictionary
281
     1
  3
Standard
350
43E8
  0
DICTIONARY
  5
17
102
{ACAD_REACTORS
330
C
102
}
330
C
100
AcDbDictionary
281
     1
  3
Standard
350
18
  0
DICTIONARY
  5
19
102
{ACAD_REACTORS
330
C
102
}
330
C
100
AcDbDictionary
281
     1
  0
ACDBDICTIONARYWDFLT
  5
E
102
{ACAD_REACTORS
330
C
102
}
330
C
100
AcDbDictionary
281
     1
  3
Normal
350
F
100
AcDbDictionaryWithDefault
340
F
  0
DICTIONARY
  5
43D5
102
{ACAD_REACTORS
330
C
102
}
330
C
100
AcDbDictionary
281
     1
  3
A0
350
43D6
  3
A1
350
43D7
  3
A2
350
43D8
  3
A3
350
43D9
  3
A4
350
43DA
  3
A5
350
43DB
  3
A6
350
43DC
  3
A7
350
43DD
  3
A8
350
43DE
  3
A9
350
43DF
  3
B0
350
43E0
  3
B1
350
43E1
  3
B2
350
43E2
  3
B3
350
43E3
  3
B4
350
43E4
  3
B5
350
43E5
  3
B6
350
43E6
  0
DICTIONARY
  5
BD6
102
{ACAD_REACTORS
330
C
102
}
330
C
100
AcDbDictionary
281
     1
  3
Standard
350
BD7
  0
DICTIONARY
  5
43C4
102
{ACAD_REACTORS
330
C
102
}
330
C
100
AcDbDictionary
281
     1
  3
2dWireframe
350
43CA
  3
3D Hidden
350
43CC
  3
3dWireframe
350
43CB
  3
Basic
350
43C9
  3
Brighten
350
43D0
  3
ColorChange
350
43D4
  3
Conceptual
350
43CD
  3
Dim
350
43CF
  3
Facepattern
350
43D3
  3
Flat
350
43C5
  3
FlatWithEdges
350
43C6
  3
Gouraud
350
43C7
  3
GouraudWithEdges
350
43C8
  3
Linepattern
350
43D2
  3
Realistic
350
43CE
  3
Thicken
350
43D1
  0
XRECORD
  5
4456
102
{ACAD_REACTORS
330
C
102
}
330
C
100
AcDbXrecord
280
     1
 90
        1
330
BD7
  0
DICTIONARY
  5
9E
102
{ACAD_REACTORS
330
C
102
}
330
C
100
AcDbDictionary
281
     1
  3
CANNOSCALE
350
446F
  3
CMLEADERSTYLE
350
446E
  3
CTABLESTYLE
350
C25
  3
DIMASSOC
350
A0
  3
INDEXCTL
350
9F
  3
SORTENTS
350
45D2
  0
DICTIONARY
  5
63
102
{ACAD_REACTORS
330
C
102
}
330
C
100
AcDbDictionary
281
     1
  3
AcmBOM
350
9A7
  3
AcmStdDictionary
350
69
  3
AMDTSECTSYM_ARROWCOLOR
350
BE7
  0
DICTIONARY
  5
49
102
{ACAD_REACTORS
330
C
102
}
330
C
100
AcDbDictionary
281
     1
  0
DICTIONARY
  5
234
102
{ACAD_REACTORS
330
C
102
}
330
C
100
AcDbDictionary
281
     1
  0
XRECORD
  5
45D4
102
{ACAD_REACTORS
330
C
102
}
330
C
100
AcDbXrecord
280
     1
  1
DWGPROPS COOKIE
  2

  3

  4

  6

  7

  8
Administrator
  9

300
AmdtFileType=84
301
=
302
=
303
=
304
=
305
=
306
=
307
=
308
=
309
=
 40
0.1341891203703704
 41
2454770.465836227
 42
2455068.667029977
  1

 90
        1
  0
DICTIONARY
  5
3BE7
102
{ACAD_REACTORS
330
2C1
102
}
330
2C1
100
AcDbDictionary
281
     1
  0
DICTIONARY
  5
2C2
102
{ACAD_REACTORS
330
2C1
102
}
330
2C1
100
AcDbDictionary
281
     1
  0
DICTIONARY
  5
3BE6
102
{ACAD_REACTORS
330
2C1
102
}
330
2C1
100
AcDbDictionary
281
     1
1001
ACAD
1000
<All
  0
DICTIONARY
  5
3BD6
102
{ACAD_REACTORS
330
2C1
102
}
330
2C1
100
AcDbDictionary
280
     1
281
     1
  0
XRECORD
  5
4441
102
{ACAD_REACTORS
330
4440
102
}
330
4440
100
AcDbXrecord
280
     1
290
     1
  0
XRECORD
  5
4443
102
{ACAD_REACTORS
330
4442
102
}
330
4442
100
AcDbXrecord
280
     1
290
     1
  0
XRECORD
  5
4445
102
{ACAD_REACTORS
330
4444
102
}
330
4444
100
AcDbXrecord
280
     1
290
     1
  0
XRECORD
  5
4447
102
{ACAD_REACTORS
330
4446
102
}
330
4446
100
AcDbXrecord
280
     1
290
     1
  0
XRECORD
  5
4449
102
{ACAD_REACTORS
330
4448
102
}
330
4448
100
AcDbXrecord
280
     1
290
     1
  0
XRECORD
  5
444B
102
{ACAD_REACTORS
330
444A
102
}
330
444A
100
AcDbXrecord
280
     1
290
     1
  0
XRECORD
  5
444D
102
{ACAD_REACTORS
330
444C
102
}
330
444C
100
AcDbXrecord
280
     1
290
     1
  0
XRECORD
  5
444F
102
{ACAD_REACTORS
330
444E
102
}
330
444E
100
AcDbXrecord
280
     1
290
     1
  0
XRECORD
  5
4451
102
{ACAD_REACTORS
330
4450
102
}
330
4450
100
AcDbXrecord
280
     1
290
     1
  0
XRECORD
  5
4453
102
{ACAD_REACTORS
330
4452
102
}
330
4452
100
AcDbXrecord
280
     1
290
     1
  0
SORTENTSTABLE
  5
2272
102
{ACAD_REACTORS
330
99
102
}
330
99
100
AcDbSortentsTable
330
1F
331
170B
  5
1A7A
331
2B6D
  5
2B80
331
1A7B
  5
1A7C
331
2CFB
  5
2CFE
331
2EE1
  5
2EE4
331
36FC
  5
3728
331
34AD
  5
34DC
331
297E
  5
2B40
331
2EAA
  5
2EAD
331
2F50
  5
2F53
331
30C7
  5
32C4
331
39CB
  5
39CD
331
3B88
  5
3B8A
331
39D3
  5
39D5
331
2F58
  5
2F5B
331
2E5B
  5
2E5E
331
2CC4
  5
2CC7
331
2B3E
  5
2B47
331
2C6D
  5
2C70
331
2EB2
  5
2EB5
331
2F01
  5
2F04
331
33F6
  5
3433
331
3A12
  5
3A16
331
3B39
  5
3B3B
331
3F96
  5
3F20
331
39EB
  5
39ED
331
2B46
  5
2B4F
331
2EBA
  5
2EBD
331
2F60
  5
2F63
331
3B51
  5
3B53
331
3B90
  5
3B92
331
3B59
  5
3B5B
331
3B98
  5
3BF5
331
1B02
  5
1B0C
331
C54
  5
C54
331
2F68
  5
2F6B
331
1B1A
  5
1B2D
331
2B4E
  5
2B57
331
2C75
  5
2C78
331
2CD4
  5
2CD7
331
2E63
  5
2E66
331
2EC2
  5
2EC5
331
2F09
  5
2F0C
331
39AC
  5
39AE
331
2F70
  5
2F73
331
2F11
  5
2F14
331
27A8
  5
2B3E
331
2B56
  5
2B5F
331
2C7D
  5
2C80
331
2CDC
  5
2CDF
331
2E6B
  5
2E6E
331
2ECA
  5
2ECD
331
39F3
  5
39F7
331
39B4
  5
39B6
331
2F80
  5
2F83
331
2F19
  5
2F1C
331
2B5E
  5
2B67
331
16FC
  5
1708
331
2C85
  5
2C88
331
2CE4
  5
2CE7
331
2E73
  5
2E77
331
2ED2
  5
2ED5
331
3317
  5
33CC
331
3B61
  5
3B63
331
39FB
  5
39FF
331
39BC
  5
39BE
331
28E7
  5
2B3F
331
2C8D
  5
2C90
331
2CEC
  5
2CEF
331
2E7B
  5
2E7E
331
2F21
  5
2F24
331
3B69
  5
3B6B
331
3F17
  5
3F1D
331
3A03
  5
3A08
331
39C4
  5
39C6
331
352D
  5
3552
331
3B71
  5
3B73
331
3F1F
  5
3F26
331
3A0B
  5
3A0F
331
3B32
  5
3B34
331
2977
  5
2B41
331
2B6E
  5
2B81
331
2C95
  5
2C98
331
2CFC
  5
2CFF
331
2EE2
  5
2EE5
331
36FD
  5
3729
331
2EFA
  5
2EFD
331
1C22
  5
1C2E
331
2870
  5
1E11
331
2EAB
  5
2EAE
331
39CC
  5
39CE
331
3B89
  5
3B8B
331
3A13
  5
3A17
331
39D4
  5
39E9
331
2F59
  5
2F5C
331
2E5C
  5
2E5F
331
2CC5
  5
2CC8
331
2B3F
  5
2B48
331
1AF3
  5
1B02
331
2C6E
  5
2C71
331
2EB3
  5
2EB6
331
2F02
  5
2F05
331
31A0
  5
3321
331
3B3A
  5
3B3C
331
40F6
  5
4109
331
3B52
  5
3B54
331
39EC
  5
39EE
331
2B47
  5
2B50
331
2CCD
  5
2CD0
331
2EBB
  5
2EBE
331
2F61
  5
2F64
331
3B91
  5
3B93
331
3B5A
  5
3B5C
331
39A5
  5
39A7
331
342F
  5
34A1
331
1B03
  5
1B13
331
1C32
  5
1E04
331
2EC3
  5
2EC6
331
2B4F
  5
2B58
331
2C76
  5
2C79
331
2CD5
  5
2CD8
331
2E64
  5
2E67
331
2F0A
  5
2F0D
331
2F69
  5
2F6C
331
39AD
  5
39AF
331
2F12
  5
2F15
331
2ECB
  5
2ECE
331
2B57
  5
2B60
331
2C7E
  5
2C81
331
2CDD
  5
2CE0
331
2E6C
  5
2E6F
331
2F71
  5
2F74
331
39F4
  5
39F8
331
39B5
  5
39B7
331
2F1A
  5
2F1D
331
2B5F
  5
2B68
331
2C86
  5
2C89
331
2CE5
  5
2CE8
331
2ED3
  5
2ED6
331
2F81
  5
2F84
331
3A9B
  5
3B2D
331
3B62
  5
3B64
331
3BD9
  5
3BF6
331
39FC
  5
3A00
331
39BD
  5
39BF
331
2C8E
  5
2C92
331
2CED
  5
2CF0
331
2E7C
  5
2E7F
331
2F22
  5
2F25
331
3B6A
  5
3B6C
331
3F18
  5
3F1E
331
3B72
  5
3B74
331
39C5
  5
39C7
331
352E
  5
3592
331
34A7
  5
34DA
331
3F20
  5
3F32
331
3A0C
  5
3A10
331
3B33
  5
3B35
331
2CFD
  5
2D00
331
2841
  5
1E10
331
2B6F
  5
2B82
331
2C96
  5
2C99
331
2EE3
  5
2EE6
331
2F4A
  5
2F4D
331
36FE
  5
372A
331
1C23
  5
1C30
331
1A85
  5
1A86
331
2EAC
  5
2EAF
331
2EFB
  5
2EFE
331
39CD
  5
39CF
331
3B8A
  5
3B8C
331
3A14
  5
3A18
331
39D5
  5
39EA
331
2F5A
  5
2F5D
331
2E5D
  5
2E60
331
2CC6
  5
2CC9
331
2B40
  5
2B49
331
2C6F
  5
2C72
331
2EB4
  5
2EB7
331
2F03
  5
2F06
331
3B3B
  5
3B3D
331
3B53
  5
3B55
331
39ED
  5
39EF
331
2CCE
  5
2CD1
331
2EBC
  5
2EBF
331
2F62
  5
2F65
331
34BF
  5
34EF
331
3B92
  5
3B94
331
3B5B
  5
3B5D
331
3A74
  5
3A7A
331
39A6
  5
39A8
331
410F
  5
416A
331
1C33
  5
1E0E
331
C56
  5
C56
331
2B48
  5
2B51
331
2CD6
  5
2CD9
331
1E03
  5
1E27
331
2B50
  5
2B59
331
2C77
  5
2C7A
331
2E65
  5
2E68
331
2EC4
  5
2EC7
331
2F0B
  5
2F0E
331
2F6A
  5
2F6D
331
39AE
  5
39B0
331
2F13
  5
2F16
331
2C7F
  5
2C82
331
2B58
  5
2B61
331
16EE
  5
16EE
331
2CDE
  5
2CE1
331
2E6D
  5
2E70
331
2ECC
  5
2ECF
331
2F72
  5
2F75
331
34CF
  5
352B
331
39F5
  5
39F9
331
39B6
  5
39B8
331
2F1B
  5
2F1F
331
2C87
  5
2C8A
331
27DA
  5
1ACA
331
2B60
  5
2B69
331
2CE6
  5
2CE9
331
2E75
  5
2E78
331
2ED4
  5
2ED7
331
2F82
  5
2F85
331
3B63
  5
3B65
331
3F11
  5
3F16
331
39FD
  5
3A01
331
39BE
  5
39C1
331
2CEE
  5
2CF1
331
2E7D
  5
2E80
331
2F23
  5
2F26
331
3321
  5
3256
331
3B6B
  5
3B6D
331
4177
  5
3F1B
331
3F19
  5
3F1F
331
3A05
  5
3A09
331
39C6
  5
39C8
331
3B73
  5
3B75
331
3A0D
  5
3A11
331
3B34
  5
3B36
331
1B7C
  5
1B8A
331
1AD5
  5
1AD7
331
2B70
  5
2B84
331
1AE5
  5
1AED
331
1C0C
  5
1C1B
331
2979
  5
2B42
331
2C97
  5
2C9A
331
2CFE
  5
2D09
331
2EE4
  5
2EE7
331
2F4B
  5
2F4E
331
39CE
  5
39D0
331
1AED
  5
1AF3
331
1C24
  5
1C31
331
2EAD
  5
2EB0
331
2EFC
  5
2EFF
331
3B8B
  5
3B8D
331
3A15
  5
3A19
331
3401
  5
3435
331
2F5B
  5
2F5E
331
2E5E
  5
2E61
331
2CC7
  5
2CCA
331
2B41
  5
2B4A
331
2EB5
  5
2EB8
331
2F04
  5
2F07
331
31A2
  5
3322
331
3B3C
  5
3B3E
331
40F8
  5
3F0F
331
3B54
  5
3B56
331
39EE
  5
39F2
331
2CCF
  5
2CD2
331
2EBD
  5
2EC0
331
2F63
  5
2F66
331
3B93
  5
3B95
331
3B5C
  5
3B5E
331
39A7
  5
39A9
331
2B49
  5
2B52
331
2C70
  5
2C73
331
27A3
  5
1B79
331
1B1D
  5
1B2E
331
2B51
  5
2B5A
331
2C78
  5
2C7B
331
2CD7
  5
2CDA
331
2E66
  5
2E69
331
2EC5
  5
2EC8
331
2F0C
  5
2F0F
331
2F6B
  5
2F6E
331
39AF
  5
39B1
331
2F14
  5
2F17
331
2B59
  5
2B62
331
1B2D
  5
1B30
331
2C80
  5
2C83
331
2CDF
  5
2CE2
331
2E6E
  5
2E71
331
2ECD
  5
2ED0
331
2F73
  5
2F76
331
40C1
  5
40C1
331
39F6
  5
39FA
331
39B7
  5
39B9
331
2CE7
  5
2CEA
331
2B61
  5
2B6A
331
1B4D
  5
1B66
331
2C88
  5
2C8B
331
2E76
  5
2E79
331
2ED5
  5
2ED8
331
2F83
  5
2F86
331
3B64
  5
3B66
331
39FE
  5
3A02
331
39BF
  5
39C2
331
2CEF
  5
2CFA
331
2E7E
  5
2E81
331
34A1
  5
34D7
331
3B6C
  5
3B6E
331
3F1A
  5
3F21
331
3A06
  5
3A0A
331
39C7
  5
39C9
331
3B2D
  5
3B2F
331
3B74
  5
3B76
331
40E1
  5
40F7
331
3F22
  5
3F3C
331
3A0E
  5
3A12
331
3B35
  5
3B37
331
2C90
  5
2C93
331
1AD6
  5
1ADF
331
2EE5
  5
2EE8
331
2B71
  5
2B85
331
1C0D
  5
1C1F
331
2C98
  5
2C9B
331
2F4C
  5
2F4F
331
33DA
  5
3430
331
3728
  5
375B
331
2EAE
  5
2EB1
331
2E57
  5
2E5A
331
1C25
  5
1C33
331
2EFD
  5
2F00
331
39CF
  5
39D1
331
3B8C
  5
3B8E
331
2F5C
  5
2F5F
331
2EB6
  5
2EB9
331
2E5F
  5
2E62
331
2B42
  5
2B4B
331
2CC8
  5
2CCB
331
2F05
  5
2F08
331
34B9
  5
34E4
331
3A16
  5
3A21
331
3B3D
  5
3B3F
331
39EF
  5
39F3
331
2EBE
  5
2EC1
331
2F64
  5
2F67
331
3B55
  5
3B57
331
3B94
  5
3B96
331
3B5D
  5
3B5F
331
28A3
  5
1C15
331
1AA7
  5
1AAF
331
1C35
  5
1E0F
331
2B4A
  5
2B53
331
2C71
  5
2C74
331
2CD0
  5
2CD3
331
39A8
  5
39AA
331
2E67
  5
2E6A
331
2B52
  5
2B5B
331
1AAF
  5
1AB0
331
2C79
  5
2C7C
331
2CD8
  5
2CDB
331
2EC6
  5
2EC9
331
2F0D
  5
2F10
331
2F6C
  5
2F6F
331
39B0
  5
39B2
331
2F15
  5
2F18
331
2E6F
  5
2E72
331
28B3
  5
1C18
331
2B5A
  5
2B63
331
2C81
  5
2C84
331
2CE0
  5
2CE3
331
2ECE
  5
2ED1
331
2F74
  5
2F77
331
40C2
  5
40CA
331
39B8
  5
39BA
331
2F1D
  5
2F20
331
2E77
  5
2E7A
331
2B62
  5
2B6B
331
1E6D
  5
1E91
331
2C89
  5
2C8C
331
2CE8
  5
2CEB
331
2ED6
  5
2ED9
331
2F84
  5
2F87
331
39F7
  5
39FB
331
3B65
  5
3B67
331
40CA
  5
40E1
331
2E7F
  5
2E82
331
39FF
  5
3A03
331
3B6D
  5
3B6F
331
3A07
  5
3A0B
331
3B2E
  5
3B30
331
3F23
  5
3F96
331
3A0F
  5
3A13
331
3B36
  5
3B38
331
1708
  5
170B
331
2C91
  5
2C94
331
1AD7
  5
1AE5
331
2CF8
  5
2CFB
331
36F9
  5
36FC
331
2EE6
  5
2EE9
331
297B
  5
2B43
331
2B72
  5
2C06
331
2C99
  5
2C9C
331
2F4D
  5
2F50
331
39C8
  5
39CA
331
39D0
  5
39D2
331
3729
  5
39A5
331
2EAF
  5
2EB2
331
2E58
  5
2E5B
331
2EFE
  5
2F01
331
2F55
  5
2F58
331
3B8D
  5
3B8F
331
2F5D
  5
2F60
331
2EB7
  5
2EBA
331
2B43
  5
2B4C
331
2F06
  5
2F09
331
3A17
  5
3A27
331
3B3E
  5
3B40
331
2EBF
  5
2EC2
331
2F65
  5
2F68
331
3B56
  5
3B58
331
3B95
  5
3B97
331
3B5E
  5
3B60
331
2E60
  5
2E63
331
2B4B
  5
2B54
331
1C36
  5
1E12
331
2C72
  5
2C75
331
2CD1
  5
2CD4
331
39A9
  5
39AB
331
2E68
  5
2E6B
331
2B53
  5
2B5C
331
2C7A
  5
2C7D
331
2CD9
  5
2CDC
331
2EC7
  5
2ECA
331
2F0E
  5
2F11
331
2F6D
  5
2F70
331
3433
  5
1E3E
331
39B1
  5
39B3
331
2F16
  5
2F1A
331
2E70
  5
2E73
331
2B5B
  5
2B64
331
2C82
  5
2C85
331
2CE1
  5
2CE4
331
2ECF
  5
2ED2
331
2F75
  5
2F78
331
39F0
  5
39F4
331
3A9F
  5
3B2E
331
2F1E
  5
2F21
331
2ED7
  5
2EDA
331
2E78
  5
2E7C
331
2B63
  5
2B7E
331
2C8A
  5
2C8D
331
2CE9
  5
2CEC
331
2F85
  5
2F88
331
349B
  5
34D4
331
39B9
  5
39BB
331
39F8
  5
39FC
331
3B66
  5
3B68
331
416A
  5
4172
331
3B6E
  5
3B70
331
39C1
  5
39C3
331
3A00
  5
3A05
331
3F14
  5
3F18
331
3F1C
  5
3F22
331
3A08
  5
3A0C
331
3B2F
  5
3B31
331
3BF5
  5
3BF7
331
4182
  5
4181
331
3F24
  5
3FB0
331
3B37
  5
3B39
331
2E80
  5
2E83
331
1EBE
  5
1F97
331
2C92
  5
2C95
331
2CF9
  5
2CFC
331
39C9
  5
39CB
331
36FA
  5
36FD
331
2EE7
  5
2EF4
331
2C9A
  5
2C9D
331
2F4E
  5
2F51
331
39D1
  5
39D3
331
34B3
  5
34DF
331
2EB0
  5
2EB3
331
2E59
  5
2E5C
331
2B3C
  5
2B45
331
2CC2
  5
2CC5
331
2EFF
  5
2F02
331
2F56
  5
2F59
331
316D
  5
32C5
331
3A10
  5
3A14
331
3D55
  5
3E0F
331
39E9
  5
39EB
331
2F5E
  5
2F61
331
2EB8
  5
2EBB
331
2B44
  5
2B4D
331
2F07
  5
2F0A
331
3A18
  5
3A51
331
3B8E
  5
3B90
331
3FAC
  5
40AD
331
2F66
  5
2F69
331
3B57
  5
3B59
331
3B96
  5
3B98
331
40AC
  5
40C2
331
3B5F
  5
3B61
331
40BC
  5
40D4
331
2E61
  5
2E64
331
1C37
  5
1E19
331
2B4C
  5
2B55
331
2C73
  5
2C76
331
2CD2
  5
2CD5
331
2EC0
  5
2EC3
331
39AA
  5
39AC
331
2F0F
  5
2F12
331
2E69
  5
2E6C
331
1AB1
  5
1AB8
331
28AD
  5
16FC
331
2B54
  5
2B5D
331
2C7B
  5
2C7E
331
2CDA
  5
2CDD
331
2EC8
  5
2ECB
331
2F6E
  5
2F71
331
39B2
  5
39B4
331
2E71
  5
2E74
331
1E67
  5
1E8E
331
2B5C
  5
2B65
331
2C83
  5
2C86
331
2CE2
  5
2CE5
331
2ED0
  5
2ED3
331
2F76
  5
2F79
331
39F1
  5
39F5
331
3F0D
  5
3F12
331
3B67
  5
3B69
331
39BA
  5
39BC
331
34EB
  5
352C
331
2F1F
  5
2F22
331
2ED8
  5
2EE3
331
2C8B
  5
2C8E
331
2CEA
  5
2CED
331
2F86
  5
2F91
331
331D
  5
342F
331
39F9
  5
39FD
331
3F15
  5
3F19
331
39C2
  5
39C4
331
352B
  5
352D
331
3A01
  5
3A06
331
3B6F
  5
3B71
331
3F1D
  5
3F23
331
3B30
  5
3B32
331
3A09
  5
3A0D
331
3BF6
  5
3C05
331
40D4
  5
40E2
331
3F25
  5
4013
331
3C06
  5
3D77
331
3B87
  5
3B89
331
2806
  5
1AF4
331
1A7A
  5
1A7B
331
2B6C
  5
2B7F
331
2C93
  5
2C97
331
2CFA
  5
2CFD
331
39CA
  5
39CC
331
36FB
  5
36FE
331
2F4F
  5
2F52
331
297D
  5
2B44
331
2C9B
  5
2C9E
331
39D2
  5
39D4
331
2F57
  5
2F5A
331
2EB1
  5
2EB4
331
2B3D
  5
2B46
331
1AF1
  5
1B01
331
2CC3
  5
2CC6
331
2E5A
  5
2E5D
331
2F00
  5
2F03
331
3A11
  5
3A15
331
3B38
  5
3B3A
331
3B8F
  5
3B91
331
39EA
  5
39EC
331
37DB
  5
3401
331
2F5F
  5
2F62
331
2EB9
  5
2EBC
331
2B45
  5
2B4E
331
3A19
  5
3A52
331
2F67
  5
2F6A
331
342D
  5
3495
331
3B58
  5
3B5A
331
3B97
  5
3BD7
331
3EF6
  5
3F02
331
3A79
  5
3A9B
331
1B01
  5
1B0B
331
2E62
  5
2E65
331
2B4D
  5
2B56
331
2C74
  5
2C77
331
2CD3
  5
2CD6
331
2EC1
  5
2EC4
331
2F08
  5
2F0B
331
39AB
  5
39AD
331
2F10
  5
2F13
331
2E6A
  5
2E6D
331
1E60
  5
1E83
331
2B55
  5
2B5E
331
2C7C
  5
2C7F
331
2CDB
  5
2CDE
331
2EC9
  5
2ECC
331
2F6F
  5
2F72
331
321E
  5
331F
331
3435
  5
1E98
331
39B3
  5
39B5
331
34D4
  5
34AD
331
2F18
  5
2F1B
331
2E72
  5
2E75
331
2B5D
  5
2B66
331
1ACA
  5
1AD6
331
2C84
  5
2C87
331
2CE3
  5
2CE6
331
2ED1
  5
2ED4
331
2F77
  5
2F82
331
3495
  5
34BF
331
39F2
  5
39F6
331
3B60
  5
3B62
331
3F0E
  5
3F15
331
39BB
  5
39BD
331
2E7A
  5
2E7D
331
2C8C
  5
2C8F
331
2CEB
  5
2CEE
331
2F20
  5
2F23
331
39FA
  5
39FE
331
3B68
  5
3B6A
331
39C3
  5
39C5
331
30AF
  5
321E
331
352C
  5
352E
331
3A02
  5
3A07
331
3B70
  5
3B72
331
3F1E
  5
3F25
331
3A0A
  5
3A0E
331
3B31
  5
3B33
331
3BF7
  5
3D55
  0
XRECORD
  5
45DC
102
{ACAD_REACTORS
330
45DB
102
}
330
45DB
100
AcDbXrecord
280
     1
102
SHADEPLOT
 70
     0
  0
XRECORD
  5
45DE
102
{ACAD_REACTORS
330
45DD
102
}
330
45DD
100
AcDbXrecord
280
     1
102
SHADEPLOT
 70
     0
  0
LAYOUT
  5
22
102
{ACAD_XDICTIONARY
360
45D7
102
}
102
{ACAD_REACTORS
330
1A
102
}
330
1A
100
AcDbPlotSettings
  1

  2
RICOH IPSiO CX7200 RPCS
  4
A3
  6
AM_VIEW1
 40
5.873749732971191
 41
5.873747825622558
 42
5.873748779296875
 43
5.873748779296875
 44
296.9259948730469
 45
419.9466552734374
 46
2.589999999999999
 47
4.099999999999999
 48
10.00000000000003
 49
0.0
140
410.0
141
280.0
142
1.0
143
1.0
 70
 11956
 72
     1
 73
     1
 74
     4
  7
takachi-2.ctb
 75
    16
147
1.0
148
-10.00000000000003
149
0.0
100
AcDbLayout
  1
Model
 70
     1
 71
     0
 10
0.0
 20
0.0
 11
12.0
 21
9.0
 12
0.0
 22
0.0
 32
0.0
 14
0.0
 24
0.0
 34
0.0
 15
0.0
 25
0.0
 35
0.0
146
0.0
 13
0.0
 23
0.0
 33
0.0
 16
1.0
 26
0.0
 36
0.0
 17
0.0
 27
1.0
 37
0.0
 76
     0
330
1F
331
43AA
  0
LAYOUT
  5
1E
102
{ACAD_XDICTIONARY
360
45D5
102
}
102
{ACAD_REACTORS
330
1A
102
}
330
1A
100
AcDbPlotSettings
  1

  2
none_device
  4
Letter_(8.50_x_11.00_Inches)
  6

 40
6.349999904632568
 41
6.349999904632568
 42
6.350006103515625
 43
6.350006103515625
 44
215.8999938964844
 45
279.3999938964844
 46
0.0
 47
0.0
 48
0.0
 49
0.0
140
0.0
141
0.0
142
1.0
143
1.0
 70
   688
 72
     0
 73
     1
 74
     5
  7
takachi-2.ctb
 75
    16
147
1.0
148
0.0
149
0.0
100
AcDbLayout
  1
レイアウト1
 70
     1
 71
     1
 10
-0.2500002402958907
 20
-0.2499999962453767
 11
10.74999951940821
 21
8.249999763458731
 12
0.0
 22
0.0
 32
0.0
 14
1.000000000000000E+20
 24
1.000000000000000E+20
 34
1.000000000000000E+20
 15
-1.000000000000000E+20
 25
-1.000000000000000E+20
 35
-1.000000000000000E+20
146
0.0
 13
0.0
 23
0.0
 33
0.0
 16
1.0
 26
0.0
 36
0.0
 17
0.0
 27
1.0
 37
0.0
 76
     0
330
1B
331
182
  0
LAYOUT
  5
26
102
{ACAD_XDICTIONARY
360
45D9
102
}
102
{ACAD_REACTORS
330
1A
102
}
330
1A
100
AcDbPlotSettings
  1

  2
none_device
  4
Letter_(8.50_x_11.00_Inches)
  6

 40
6.349999904632568
 41
6.349999904632568
 42
6.350006103515625
 43
6.350006103515625
 44
215.8999938964844
 45
279.3999938964844
 46
0.0
 47
0.0
 48
0.0
 49
0.0
140
0.0
141
0.0
142
1.0
143
1.0
 70
   688
 72
     0
 73
     1
 74
     5
  7
takachi-2.ctb
 75
    16
147
1.0
148
0.0
149
0.0
100
AcDbLayout
  1
レイアウト2
 70
     1
 71
     2
 10
-0.2500002402958907
 20
-0.2499999962453767
 11
10.74999951940821
 21
8.249999763458731
 12
0.0
 22
0.0
 32
0.0
 14
1.000000000000000E+20
 24
1.000000000000000E+20
 34
1.000000000000000E+20
 15
-1.000000000000000E+20
 25
-1.000000000000000E+20
 35
-1.000000000000000E+20
146
0.0
 13
0.0
 23
0.0
 33
0.0
 16
1.0
 26
0.0
 36
0.0
 17
0.0
 27
1.0
 37
0.0
 76
     0
330
23
331
186
  0
MATERIAL
  5
43B4
102
{ACAD_XDICTIONARY
360
43B5
102
}
102
{ACAD_REACTORS
330
C8
102
}
330
C8
100
AcDbMaterial
  1
ByBlock
 72
     0
 43
0.0008202099737533
 43
0.0
 43
0.0
 43
0.0
 43
0.0
 43
0.0008202099737533
 43
0.0
 43
0.0
 43
0.0
 43
0.0
 43
1.0
 43
0.0
 43
0.0
 43
0.0
 43
0.0
 43
1.0
 77
     0
 47
0.0008202099737533
 47
0.0
 47
0.0
 47
0.0
 47
0.0
 47
0.0008202099737533
 47
0.0
 47
0.0
 47
0.0
 47
0.0
 47
1.0
 47
0.0
 47
0.0
 47
0.0
 47
0.0
 47
1.0
171
     0
 49
0.0008202099737533
 49
0.0
 49
0.0
 49
0.0
 49
0.0
 49
0.0008202099737533
 49
0.0
 49
0.0
 49
0.0
 49
0.0
 49
1.0
 49
0.0
 49
0.0
 49
0.0
 49
0.0
 49
1.0
175
     0
142
0.0008202099737533
142
0.0
142
0.0
142
0.0
142
0.0
142
0.0008202099737533
142
0.0
142
0.0
142
0.0
142
0.0
142
1.0
142
0.0
142
0.0
142
0.0
142
0.0
142
1.0
179
     0
144
0.0008202099737533
144
0.0
144
0.0
144
0.0
144
0.0
144
0.0008202099737533
144
0.0
144
0.0
144
0.0
144
0.0
144
1.0
144
0.0
144
0.0
144
0.0
144
0.0
144
1.0
147
0.0008202099737533
147
0.0
147
0.0
147
0.0
147
0.0
147
0.0008202099737533
147
0.0
147
0.0
147
0.0
147
0.0
147
1.0
147
0.0
147
0.0
147
0.0
147
0.0
147
1.0
  0
MATERIAL
  5
43AC
102
{ACAD_XDICTIONARY
360
43AD
102
}
102
{ACAD_REACTORS
330
C8
102
}
330
C8
100
AcDbMaterial
  1
ByLayer
 72
     0
 43
0.0008202099737533
 43
0.0
 43
0.0
 43
0.0
 43
0.0
 43
0.0008202099737533
 43
0.0
 43
0.0
 43
0.0
 43
0.0
 43
1.0
 43
0.0
 43
0.0
 43
0.0
 43
0.0
 43
1.0
 77
     0
 47
0.0008202099737533
 47
0.0
 47
0.0
 47
0.0
 47
0.0
 47
0.0008202099737533
 47
0.0
 47
0.0
 47
0.0
 47
0.0
 47
1.0
 47
0.0
 47
0.0
 47
0.0
 47
0.0
 47
1.0
171
     0
 49
0.0008202099737533
 49
0.0
 49
0.0
 49
0.0
 49
0.0
 49
0.0008202099737533
 49
0.0
 49
0.0
 49
0.0
 49
0.0
 49
1.0
 49
0.0
 49
0.0
 49
0.0
 49
0.0
 49
1.0
175
     0
142
0.0008202099737533
142
0.0
142
0.0
142
0.0
142
0.0
142
0.0008202099737533
142
0.0
142
0.0
142
0.0
142
0.0
142
1.0
142
0.0
142
0.0
142
0.0
142
0.0
142
1.0
179
     0
144
0.0008202099737533
144
0.0
144
0.0
144
0.0
144
0.0
144
0.0008202099737533
144
0.0
144
0.0
144
0.0
144
0.0
144
1.0
144
0.0
144
0.0
144
0.0
144
0.0
144
1.0
147
0.0008202099737533
147
0.0
147
0.0
147
0.0
147
0.0
147
0.0008202099737533
147
0.0
147
0.0
147
0.0
147
0.0
147
1.0
147
0.0
147
0.0
147
0.0
147
0.0
147
1.0
  0
MATERIAL
  5
43BC
102
{ACAD_XDICTIONARY
360
43BD
102
}
102
{ACAD_REACTORS
330
C8
102
}
330
C8
100
AcDbMaterial
  1
Global
 72
     0
 43
0.0008202099737533
 43
0.0
 43
0.0
 43
0.0
 43
0.0
 43
0.0008202099737533
 43
0.0
 43
0.0
 43
0.0
 43
0.0
 43
1.0
 43
0.0
 43
0.0
 43
0.0
 43
0.0
 43
1.0
 77
     0
 47
0.0008202099737533
 47
0.0
 47
0.0
 47
0.0
 47
0.0
 47
0.0008202099737533
 47
0.0
 47
0.0
 47
0.0
 47
0.0
 47
1.0
 47
0.0
 47
0.0
 47
0.0
 47
0.0
 47
1.0
171
     0
 49
0.0008202099737533
 49
0.0
 49
0.0
 49
0.0
 49
0.0
 49
0.0008202099737533
 49
0.0
 49
0.0
 49
0.0
 49
0.0
 49
1.0
 49
0.0
 49
0.0
 49
0.0
 49
0.0
 49
1.0
175
     0
142
0.0008202099737533
142
0.0
142
0.0
142
0.0
142
0.0
142
0.0008202099737533
142
0.0
142
0.0
142
0.0
142
0.0
142
1.0
142
0.0
142
0.0
142
0.0
142
0.0
142
1.0
179
     0
144
0.0008202099737533
144
0.0
144
0.0
144
0.0
144
0.0
144
0.0008202099737533
144
0.0
144
0.0
144
0.0
144
0.0
144
1.0
144
0.0
144
0.0
144
0.0
144
0.0
144
1.0
147
0.0008202099737533
147
0.0
147
0.0
147
0.0
147
0.0
147
0.0008202099737533
147
0.0
147
0.0
147
0.0
147
0.0
147
1.0
147
0.0
147
0.0
147
0.0
147
0.0
147
1.0
  0
MLEADERSTYLE
  5
43E8
102
{ACAD_REACTORS
330
43E7
102
}
330
43E7
100
AcDbMLeaderStyle
170
     2
171
     1
172
     0
 90
        2
 40
0.0
 41
0.0
173
     1
 91
-1056964608
340
14
 92
       -2
290
     1
 42
2.0
291
     1
 43
0.36
  3
Standard
 44
4.0
300

342
11
174
     1
178
     6
175
     1
176
     0
 93
-1056964608
 45
4.0
292
     0
297
     0
 46
4.0
 94
-1056964608
 47
1.0
 49
1.0
140
1.0
293
     1
141
0.0
294
     1
177
     0
142
1.0
295
     0
296
     0
143
0.125
1001
ACAD_MLEADERVER
1070
     2
  0
MLINESTYLE
  5
18
102
{ACAD_REACTORS
330
17
102
}
330
17
100
AcDbMlineStyle
  2
STANDARD
 70
     0
  3

 62
   256
 51
90.0
 52
90.0
 71
     2
 49
0.5
 62
   256
  6
BYLAYER
 49
-0.5
 62
   256
  6
BYLAYER
  0
ACDBPLACEHOLDER
  5
F
102
{ACAD_REACTORS
330
E
102
}
330
E
  0
SCALE
  5
43D6
102
{ACAD_REACTORS
330
43D5
102
}
330
43D5
100
AcDbScale
 70
     0
300
1:1
140
1.0
141
1.0
290
     1
  0
SCALE
  5
43D7
102
{ACAD_REACTORS
330
43D5
102
}
330
43D5
100
AcDbScale
 70
     0
300
1:2
140
1.0
141
2.0
290
     0
  0
SCALE
  5
43D8
102
{ACAD_REACTORS
330
43D5
102
}
330
43D5
100
AcDbScale
 70
     0
300
1:4
140
1.0
141
4.0
290
     0
  0
SCALE
  5
43D9
102
{ACAD_REACTORS
330
43D5
102
}
330
43D5
100
AcDbScale
 70
     0
300
1:5
140
1.0
141
5.0
290
     0
  0
SCALE
  5
43DA
102
{ACAD_REACTORS
330
43D5
102
}
330
43D5
100
AcDbScale
 70
     0
300
1:8
140
1.0
141
8.0
290
     0
  0
SCALE
  5
43DB
102
{ACAD_REACTORS
330
43D5
102
}
330
43D5
100
AcDbScale
 70
     0
300
1:10
140
1.0
141
10.0
290
     0
  0
SCALE
  5
43DC
102
{ACAD_REACTORS
330
43D5
102
}
330
43D5
100
AcDbScale
 70
     0
300
1:16
140
1.0
141
16.0
290
     0
  0
SCALE
  5
43DD
102
{ACAD_REACTORS
330
43D5
102
}
330
43D5
100
AcDbScale
 70
     0
300
1:20
140
1.0
141
20.0
290
     0
  0
SCALE
  5
43DE
102
{ACAD_REACTORS
330
43D5
102
}
330
43D5
100
AcDbScale
 70
     0
300
1:30
140
1.0
141
30.0
290
     0
  0
SCALE
  5
43DF
102
{ACAD_REACTORS
330
43D5
102
}
330
43D5
100
AcDbScale
 70
     0
300
1:40
140
1.0
141
40.0
290
     0
  0
SCALE
  5
43E0
102
{ACAD_REACTORS
330
43D5
102
}
330
43D5
100
AcDbScale
 70
     0
300
1:50
140
1.0
141
50.0
290
     0
  0
SCALE
  5
43E1
102
{ACAD_REACTORS
330
43D5
102
}
330
43D5
100
AcDbScale
 70
     0
300
1:100
140
1.0
141
100.0
290
     0
  0
SCALE
  5
43E2
102
{ACAD_REACTORS
330
43D5
102
}
330
43D5
100
AcDbScale
 70
     0
300
2:1
140
2.0
141
1.0
290
     0
  0
SCALE
  5
43E3
102
{ACAD_REACTORS
330
43D5
102
}
330
43D5
100
AcDbScale
 70
     0
300
4:1
140
4.0
141
1.0
290
     0
  0
SCALE
  5
43E4
102
{ACAD_REACTORS
330
43D5
102
}
330
43D5
100
AcDbScale
 70
     0
300
8:1
140
8.0
141
1.0
290
     0
  0
SCALE
  5
43E5
102
{ACAD_REACTORS
330
43D5
102
}
330
43D5
100
AcDbScale
 70
     0
300
10:1
140
10.0
141
1.0
290
     0
  0
SCALE
  5
43E6
102
{ACAD_REACTORS
330
43D5
102
}
330
43D5
100
AcDbScale
 70
     0
300
100:1
140
100.0
141
1.0
290
     0
  0
TABLESTYLE
  5
BD7
102
{ACAD_XDICTIONARY
360
4454
102
}
102
{ACAD_REACTORS
330
BD6
102
}
330
BD6
100
AcDbTableStyle
  3
Standard
 70
     0
 71
     0
 40
1.5
 41
1.5
280
     0
281
     0
  7
STANDARD
140
4.5
170
     2
 62
     0
 63
     7
283
     0
274
    -2
284
     1
 64
     0
275
    -2
285
     1
 65
     0
276
    -2
286
     1
 66
     0
277
    -2
287
     1
 67
     0
278
    -2
288
     1
 68
     0
279
    -2
289
     1
 69
     0
  7
STANDARD
140
6.0
170
     5
 62
     0
 63
     7
283
     0
274
    -2
284
     1
 64
     0
275
    -2
285
     1
 65
     0
276
    -2
286
     1
 66
     0
277
    -2
287
     1
 67
     0
278
    -2
288
     1
 68
     0
279
    -2
289
     1
 69
     0
  7
STANDARD
140
4.5
170
     5
 62
     0
 63
     7
283
     0
274
    -2
284
     1
 64
     0
275
    -2
285
     1
 65
     0
276
    -2
286
     1
 66
     0
277
    -2
287
     1
 67
     0
278
    -2
288
     1
 68
     0
279
    -2
289
     1
 69
     0
  0
VISUALSTYLE
  5
43CA
102
{ACAD_REACTORS
330
43C4
102
}
330
43C4
100
AcDbVisualStyle
  2
2dWireframe
 70
     4
 71
     0
 72
     2
 73
     0
 90
        0
 40
-0.6
 41
-30.0
 62
     5
 63
     7
 74
     1
 91
        4
 64
     7
 65
   257
 75
     1
175
     1
 42
1.0
 92
        0
 66
   257
 43
1.0
 76
     1
 77
     6
 78
     2
 67
     7
 79
     5
170
     0
171
     0
290
     0
174
     0
 93
        1
 44
0.0
173
     0
291
     0
 45
0.0
1001
ACAD
1000
AcDbSavedByObjectVersion
1070
     0
  0
VISUALSTYLE
  5
43CC
102
{ACAD_REACTORS
330
43C4
102
}
330
43C4
100
AcDbVisualStyle
  2
3D Hidden
 70
     6
 71
     1
 72
     2
 73
     2
 90
        0
 40
-0.6
 41
-30.0
 62
     5
 63
     7
 74
     2
 91
        2
 64
     7
 65
   257
 75
     2
175
     1
 42
40.0
 92
        0
 66
   257
 43
1.0
 76
     1
 77
     6
 78
     2
 67
     7
 79
     3
170
     0
171
     0
290
     0
174
     0
 93
        1
 44
0.0
173
     0
291
     0
 45
0.0
1001
ACAD
1000
AcDbSavedByObjectVersion
1070
     0
  0
VISUALSTYLE
  5
43CB
102
{ACAD_REACTORS
330
43C4
102
}
330
43C4
100
AcDbVisualStyle
  2
3dWireframe
 70
     5
 71
     0
 72
     2
 73
     0
 90
        0
 40
-0.6
 41
-30.0
 62
     5
 63
     7
 74
     1
 91
        4
 64
     7
 65
   257
 75
     1
175
     1
 42
1.0
 92
        0
 66
   257
 43
1.0
 76
     1
 77
     6
 78
     2
 67
     7
 79
     5
170
     0
171
     0
290
     0
174
     0
 93
        1
 44
0.0
173
     0
291
     0
 45
0.0
1001
ACAD
1000
AcDbSavedByObjectVersion
1070
     0
  0
VISUALSTYLE
  5
43C9
102
{ACAD_REACTORS
330
43C4
102
}
330
43C4
100
AcDbVisualStyle
  2
Basic
 70
     7
 71
     1
 72
     0
 73
     1
 90
        0
 40
-0.6
 41
-30.0
 62
     5
 63
     7
 74
     0
 91
        4
 64
     7
 65
   257
 75
     1
175
     1
 42
1.0
 92
        8
 66
     7
 43
1.0
 76
     1
 77
     6
 78
     2
 67
     7
 79
     5
170
     0
171
     0
290
     0
174
     0
 93
        1
 44
0.0
173
     0
291
     1
 45
0.0
1001
ACAD
1000
AcDbSavedByObjectVersion
1070
     0
  0
VISUALSTYLE
  5
43D0
102
{ACAD_REACTORS
330
43C4
102
}
330
43C4
100
AcDbVisualStyle
  2
Brighten
 70
    12
 71
     2
 72
     2
 73
     0
 90
        0
 40
-0.6
 41
-30.0
 62
     5
 63
     7
 74
     1
 91
        4
 64
     7
 65
   257
 75
     1
175
     1
 42
1.0
 92
        8
 66
     7
 43
1.0
 76
     1
 77
     6
 78
     2
 67
     7
 79
     5
170
     0
171
     0
290
     0
174
     0
 93
        1
 44
50.0
173
     0
291
     1
 45
0.0
1001
ACAD
1000
AcDbSavedByObjectVersion
1070
     0
  0
VISUALSTYLE
  5
43D4
102
{ACAD_REACTORS
330
43C4
102
}
330
43C4
100
AcDbVisualStyle
  2
ColorChange
 70
    16
 71
     2
 72
     2
 73
     3
 90
        0
 40
-0.6
 41
-30.0
 62
     5
 63
     8
 74
     1
 91
        4
 64
     7
 65
   257
 75
     1
175
     1
 42
1.0
 92
        8
 66
     8
 43
1.0
 76
     1
 77
     6
 78
     2
 67
     7
 79
     5
170
     0
171
     0
290
     0
174
     0
 93
        1
 44
0.0
173
     0
291
     1
 45
0.0
1001
ACAD
1000
AcDbSavedByObjectVersion
1070
     0
  0
VISUALSTYLE
  5
43CD
102
{ACAD_REACTORS
330
43C4
102
}
330
43C4
100
AcDbVisualStyle
  2
Conceptual
 70
     9
 71
     3
 72
     2
 73
     0
 90
        0
 40
-0.6
 41
-30.0
 62
     5
 63
     7
 74
     2
 91
        2
 64
     7
 65
   257
 75
     1
175
     1
 42
40.0
 92
        8
 66
     7
 43
1.0
 76
     1
 77
     6
 78
     2
 67
     7
 79
     3
170
     0
171
     0
290
     0
174
     0
 93
        1
 44
0.0
173
     0
291
     0
 45
0.0
1001
ACAD
1000
AcDbSavedByObjectVersion
1070
     0
  0
VISUALSTYLE
  5
43CF
102
{ACAD_REACTORS
330
43C4
102
}
330
43C4
100
AcDbVisualStyle
  2
Dim
 70
    11
 71
     2
 72
     2
 73
     0
 90
        0
 40
-0.6
 41
-30.0
 62
     5
 63
     7
 74
     1
 91
        4
 64
     7
 65
   257
 75
     1
175
     1
 42
1.0
 92
        8
 66
     7
 43
1.0
 76
     1
 77
     6
 78
     2
 67
     7
 79
     5
170
     0
171
     0
290
     0
174
     0
 93
        1
 44
-50.0
173
     0
291
     1
 45
0.0
1001
ACAD
1000
AcDbSavedByObjectVersion
1070
     0
  0
VISUALSTYLE
  5
43D3
102
{ACAD_REACTORS
330
43C4
102
}
330
43C4
100
AcDbVisualStyle
  2
Facepattern
 70
    15
 71
     2
 72
     2
 73
     0
 90
        0
 40
-0.6
 41
-30.0
 62
     5
 63
     7
 74
     1
 91
        4
 64
     7
 65
   257
 75
     1
175
     1
 42
1.0
 92
        8
 66
     7
 43
1.0
 76
     1
 77
     6
 78
     2
 67
     7
 79
     5
170
     0
171
     0
290
     0
174
     0
 93
        1
 44
0.0
173
     0
291
     1
 45
0.0
1001
ACAD
1000
AcDbSavedByObjectVersion
1070
     0
  0
VISUALSTYLE
  5
43C5
102
{ACAD_REACTORS
330
43C4
102
}
330
43C4
100
AcDbVisualStyle
  2
Flat
 70
     0
 71
     2
 72
     1
 73
     1
 90
        2
 40
-0.6
 41
30.0
 62
     5
 63
     7
 74
     0
 91
        4
 64
     7
 65
   257
 75
     1
175
     1
 42
1.0
 92
        8
 66
     7
 43
1.0
 76
     1
 77
     6
 78
     2
 67
     7
 79
     5
170
     0
171
     0
290
     0
174
     0
 93
       13
 44
0.0
173
     0
291
     1
 45
0.0
1001
ACAD
1000
AcDbSavedByObjectVersion
1070
     0
  0
VISUALSTYLE
  5
43C6
102
{ACAD_REACTORS
330
43C4
102
}
330
43C4
100
AcDbVisualStyle
  2
FlatWithEdges
 70
     1
 71
     2
 72
     1
 73
     1
 90
        2
 40
-0.6
 41
30.0
 62
     5
 63
     7
 74
     1
 91
        4
 64
     7
 65
   257
 75
     1
175
     1
 42
1.0
 92
        0
 66
   257
 43
1.0
 76
     1
 77
     6
 78
     2
 67
     7
 79
     5
170
     0
171
     0
290
     0
174
     0
 93
       13
 44
0.0
173
     0
291
     1
 45
0.0
1001
ACAD
1000
AcDbSavedByObjectVersion
1070
     0
  0
VISUALSTYLE
  5
43C7
102
{ACAD_REACTORS
330
43C4
102
}
330
43C4
100
AcDbVisualStyle
  2
Gouraud
 70
     2
 71
     2
 72
     2
 73
     1
 90
        2
 40
-0.6
 41
30.0
 62
     5
 63
     7
 74
     0
 91
        4
 64
     7
 65
   257
 75
     1
175
     1
 42
1.0
 92
        0
 66
     7
 43
1.0
 76
     1
 77
     6
 78
     2
 67
     7
 79
     5
170
     0
171
     0
290
     0
174
     0
 93
       13
 44
0.0
173
     0
291
     1
 45
0.0
1001
ACAD
1000
AcDbSavedByObjectVersion
1070
     0
  0
VISUALSTYLE
  5
43C8
102
{ACAD_REACTORS
330
43C4
102
}
330
43C4
100
AcDbVisualStyle
  2
GouraudWithEdges
 70
     3
 71
     2
 72
     2
 73
     1
 90
        2
 40
-0.6
 41
30.0
 62
     5
 63
     7
 74
     1
 91
        4
 64
     7
 65
   257
 75
     1
175
     1
 42
1.0
 92
        0
 66
   257
 43
1.0
 76
     1
 77
     6
 78
     2
 67
     7
 79
     5
170
     0
171
     0
290
     0
174
     0
 93
       13
 44
0.0
173
     0
291
     1
 45
0.0
1001
ACAD
1000
AcDbSavedByObjectVersion
1070
     0
  0
VISUALSTYLE
  5
43D2
102
{ACAD_REACTORS
330
43C4
102
}
330
43C4
100
AcDbVisualStyle
  2
Linepattern
 70
    14
 71
     2
 72
     2
 73
     0
 90
        0
 40
-0.6
 41
-30.0
 62
     5
 63
     7
 74
     1
 91
        4
 64
     7
 65
   257
 75
     7
175
     7
 42
1.0
 92
        8
 66
     7
 43
1.0
 76
     1
 77
     6
 78
     2
 67
     7
 79
     5
170
     0
171
     0
290
     0
174
     0
 93
        1
 44
0.0
173
     0
291
     1
 45
0.0
1001
ACAD
1000
AcDbSavedByObjectVersion
1070
     0
  0
VISUALSTYLE
  5
43CE
102
{ACAD_REACTORS
330
43C4
102
}
330
43C4
100
AcDbVisualStyle
  2
Realistic
 70
     8
 71
     2
 72
     2
 73
     0
 90
        0
 40
-0.6
 41
-30.0
 62
     5
 63
     7
 74
     1
 91
        0
 64
     7
 65
   257
 75
     1
175
     1
 42
1.0
 92
        8
 66
     8
 43
1.0
 76
     1
 77
     6
 78
     2
 67
     7
 79
     5
170
     0
171
     0
290
     0
174
     0
 93
       13
 44
0.0
173
     0
291
     0
 45
0.0
1001
ACAD
1000
AcDbSavedByObjectVersion
1070
     0
  0
VISUALSTYLE
  5
43D1
102
{ACAD_REACTORS
330
43C4
102
}
330
43C4
100
AcDbVisualStyle
  2
Thicken
 70
    13
 71
     2
 72
     2
 73
     0
 90
        0
 40
-0.6
 41
-30.0
 62
     5
 63
     7
 74
     1
 91
        4
 64
     7
 65
   257
 75
     1
175
     1
 42
1.0
 92
       12
 66
     7
 43
1.0
 76
     1
 77
     6
 78
     2
 67
     7
 79
     5
170
     0
171
     0
290
     0
174
     0
 93
        1
 44
0.0
173
     0
291
     1
 45
0.0
1001
ACAD
1000
AcDbSavedByObjectVersion
1070
     0
  0
DICTIONARYVAR
  5
446F
102
{ACAD_REACTORS
330
9E
102
}
330
9E
100
DictionaryVariables
280
     0
  1
1:1
  0
DICTIONARYVAR
  5
446E
102
{ACAD_REACTORS
330
9E
102
}
330
9E
100
DictionaryVariables
280
     0
  1
STANDARD
  0
DICTIONARYVAR
  5
C25
102
{ACAD_REACTORS
330
9E
102
}
330
9E
100
DictionaryVariables
280
     0
  1
STANDARD
  0
DICTIONARYVAR
  5
A0
102
{ACAD_REACTORS
330
9E
102
}
330
9E
100
DictionaryVariables
280
     0
  1
1
  0
DICTIONARYVAR
  5
9F
102
{ACAD_REACTORS
330
9E
102
}
330
9E
100
DictionaryVariables
280
     0
  1
0
  0
DICTIONARYVAR
  5
45D2
102
{ACAD_REACTORS
330
9E
102
}
330
9E
100
DictionaryVariables
280
     0
  1
127
  0
DICTIONARY
  5
9A7
102
{ACAD_REACTORS
330
63
102
}
330
63
100
AcDbDictionary
281
     1
  0
DICTIONARY
  5
69
102
{ACAD_REACTORS
330
63
102
}
330
63
100
AcDbDictionary
281
     1
  0
XRECORD
  5
BE7
102
{ACAD_REACTORS
330
63
102
}
330
63
100
AcDbXrecord
280
     1
 90
-1023410169
  0
DICTIONARY
  5
45D7
330
22
100
AcDbDictionary
280
     1
281
     1
  3
ACAD_XREC_ROUNDTRIP
360
45D8
  0
DICTIONARY
  5
45D5
330
1E
100
AcDbDictionary
280
     1
281
     1
  3
ACAD_XREC_ROUNDTRIP
360
45D6
  0
DICTIONARY
  5
45D9
330
26
100
AcDbDictionary
280
     1
281
     1
  3
ACAD_XREC_ROUNDTRIP
360
45DA
  0
DICTIONARY
  5
43B5
330
43B4
100
AcDbDictionary
280
     1
281
     1
  3
ACAD_XREC_ROUNDTRIP
360
45E1
  3
BUMPTILE
360
43B7
  3
DIFFUSETILE
360
43B6
  3
OPACITYTILE
360
43BA
  3
REFLECTIONTILE
360
43B9
  3
REFRACTIONTILE
360
43BB
  3
SPECULARTILE
360
43B8
  0
DICTIONARY
  5
43AD
330
43AC
100
AcDbDictionary
280
     1
281
     1
  3
ACAD_XREC_ROUNDTRIP
360
45E0
  3
BUMPTILE
360
43AF
  3
DIFFUSETILE
360
43AE
  3
OPACITYTILE
360
43B2
  3
REFLECTIONTILE
360
43B1
  3
REFRACTIONTILE
360
43B3
  3
SPECULARTILE
360
43B0
  0
DICTIONARY
  5
43BD
330
43BC
100
AcDbDictionary
280
     1
281
     1
  3
ACAD_XREC_ROUNDTRIP
360
45E2
  3
BUMPTILE
360
43BF
  3
DIFFUSETILE
360
43BE
  3
OPACITYTILE
360
43C2
  3
REFLECTIONTILE
360
43C1
  3
REFRACTIONTILE
360
43C3
  3
SPECULARTILE
360
43C0
  0
DICTIONARY
  5
4454
330
BD7
100
AcDbDictionary
280
     1
281
     1
  3
ACAD_ROUNDTRIP_2008_TABLESTYLE_CELLSTYLEMAP
360
45D3
  3
ACAD_XREC_ROUNDTRIP
360
45DF
  0
XRECORD
  5
45D8
102
{ACAD_REACTORS
330
45D7
102
}
330
45D7
100
AcDbXrecord
280
     1
102
SHADEPLOT
 70
     0
102
SHADEPLOTRESLEVEL
 70
     2
102
SHADEPLOTCUSTOMDPI
 70
   300
  0
XRECORD
  5
45D6
102
{ACAD_REACTORS
330
45D5
102
}
330
45D5
100
AcDbXrecord
280
     1
102
SHADEPLOT
 70
     1
102
SHADEPLOTRESLEVEL
 70
     2
102
SHADEPLOTCUSTOMDPI
 70
   300
  0
XRECORD
  5
45DA
102
{ACAD_REACTORS
330
45D9
102
}
330
45D9
100
AcDbXrecord
280
     1
102
SHADEPLOT
 70
     1
102
SHADEPLOTRESLEVEL
 70
     2
102
SHADEPLOTCUSTOMDPI
 70
   300
  0
XRECORD
  5
45E1
102
{ACAD_REACTORS
330
43B5
102
}
330
43B5
100
AcDbXrecord
280
     1
102
MATERIAL
148
0.0
149
0.0
149
0.0
 93
        0
 94
      127
282
     0
 72
     0
 77
     0
171
     0
175
     0
179
     0
273
     0
  0
XRECORD
  5
43B7
102
{ACAD_REACTORS
330
43B5
102
}
330
43B5
100
AcDbXrecord
280
     1
270
     1
271
     1
  0
XRECORD
  5
43B6
102
{ACAD_REACTORS
330
43B5
102
}
330
43B5
100
AcDbXrecord
280
     1
270
     1
271
     1
  0
XRECORD
  5
43BA
102
{ACAD_REACTORS
330
43B5
102
}
330
43B5
100
AcDbXrecord
280
     1
270
     1
271
     1
  0
XRECORD
  5
43B9
102
{ACAD_REACTORS
330
43B5
102
}
330
43B5
100
AcDbXrecord
280
     1
270
     1
271
     1
  0
XRECORD
  5
43BB
102
{ACAD_REACTORS
330
43B5
102
}
330
43B5
100
AcDbXrecord
280
     1
270
     1
271
     1
  0
XRECORD
  5
43B8
102
{ACAD_REACTORS
330
43B5
102
}
330
43B5
100
AcDbXrecord
280
     1
270
     1
271
     1
  0
XRECORD
  5
45E0
102
{ACAD_REACTORS
330
43AD
102
}
330
43AD
100
AcDbXrecord
280
     1
102
MATERIAL
148
0.0
149
0.0
149
0.0
 93
        0
 94
      127
282
     0
 72
     0
 77
     0
171
     0
175
     0
179
     0
273
     0
  0
XRECORD
  5
43AF
102
{ACAD_REACTORS
330
43AD
102
}
330
43AD
100
AcDbXrecord
280
     1
270
     1
271
     1
  0
XRECORD
  5
43AE
102
{ACAD_REACTORS
330
43AD
102
}
330
43AD
100
AcDbXrecord
280
     1
270
     1
271
     1
  0
XRECORD
  5
43B2
102
{ACAD_REACTORS
330
43AD
102
}
330
43AD
100
AcDbXrecord
280
     1
270
     1
271
     1
  0
XRECORD
  5
43B1
102
{ACAD_REACTORS
330
43AD
102
}
330
43AD
100
AcDbXrecord
280
     1
270
     1
271
     1
  0
XRECORD
  5
43B3
102
{ACAD_REACTORS
330
43AD
102
}
330
43AD
100
AcDbXrecord
280
     1
270
     1
271
     1
  0
XRECORD
  5
43B0
102
{ACAD_REACTORS
330
43AD
102
}
330
43AD
100
AcDbXrecord
280
     1
270
     1
271
     1
  0
XRECORD
  5
45E2
102
{ACAD_REACTORS
330
43BD
102
}
330
43BD
100
AcDbXrecord
280
     1
102
MATERIAL
148
0.0
149
0.0
149
0.0
 93
        0
 94
      127
282
     0
 72
     0
 77
     0
171
     0
175
     0
179
     0
273
     0
  0
XRECORD
  5
43BF
102
{ACAD_REACTORS
330
43BD
102
}
330
43BD
100
AcDbXrecord
280
     1
270
     1
271
     1
  0
XRECORD
  5
43BE
102
{ACAD_REACTORS
330
43BD
102
}
330
43BD
100
AcDbXrecord
280
     1
270
     1
271
     1
  0
XRECORD
  5
43C2
102
{ACAD_REACTORS
330
43BD
102
}
330
43BD
100
AcDbXrecord
280
     1
270
     1
271
     1
  0
XRECORD
  5
43C1
102
{ACAD_REACTORS
330
43BD
102
}
330
43BD
100
AcDbXrecord
280
     1
270
     1
271
     1
  0
XRECORD
  5
43C3
102
{ACAD_REACTORS
330
43BD
102
}
330
43BD
100
AcDbXrecord
280
     1
270
     1
271
     1
  0
XRECORD
  5
43C0
102
{ACAD_REACTORS
330
43BD
102
}
330
43BD
100
AcDbXrecord
280
     1
270
     1
271
     1
  0
CELLSTYLEMAP
  5
45D3
102
{ACAD_REACTORS
330
4454
102
}
330
4454
100
AcDbCellStyleMap
 90
        3
300
CELLSTYLE
  1
TABLEFORMAT_BEGIN
 90
        5
170
     1
 91
        0
 92
    32768
 62
   257
 93
        1
300
CONTENTFORMAT
  1
CONTENTFORMAT_BEGIN
 90
        0
 91
        0
 92
        4
 93
        0
300

 40
0.0
140
1.0
 94
        5
 62
     0
340
11
144
6.0
309
CONTENTFORMAT_END
171
     1
301
MARGIN
  1
CELLMARGIN_BEGIN
 40
1.5
 40
1.5
 40
1.5
 40
1.5
 40
0.18
 40
0.18
309
CELLMARGIN_END
 94
        6
 95
        1
302
GRIDFORMAT
  1
GRIDFORMAT_BEGIN
 90
        0
 91
        1
 62
     0
 92
       -2
340
0
 93
        0
 40
0.045
309
GRIDFORMAT_END
 95
        2
302
GRIDFORMAT
  1
GRIDFORMAT_BEGIN
 90
        0
 91
        1
 62
     0
 92
       -2
340
0
 93
        0
 40
0.045
309
GRIDFORMAT_END
 95
        4
302
GRIDFORMAT
  1
GRIDFORMAT_BEGIN
 90
        0
 91
        1
 62
     0
 92
       -2
340
0
 93
        0
 40
0.045
309
GRIDFORMAT_END
 95
        8
302
GRIDFORMAT
  1
GRIDFORMAT_BEGIN
 90
        0
 91
        1
 62
     0
 92
       -2
340
0
 93
        0
 40
0.045
309
GRIDFORMAT_END
 95
       16
302
GRIDFORMAT
  1
GRIDFORMAT_BEGIN
 90
        0
 91
        1
 62
     0
 92
       -2
340
0
 93
        0
 40
0.045
309
GRIDFORMAT_END
 95
       32
302
GRIDFORMAT
  1
GRIDFORMAT_BEGIN
 90
        0
 91
        1
 62
     0
 92
       -2
340
0
 93
        0
 40
0.045
309
GRIDFORMAT_END
309
TABLEFORMAT_END
  1
CELLSTYLE_BEGIN
 90
        1
 91
        1
300
_TITLE
309
CELLSTYLE_END
300
CELLSTYLE
  1
TABLEFORMAT_BEGIN
 90
        5
170
     1
 91
        0
 92
        0
 62
   257
 93
        1
300
CONTENTFORMAT
  1
CONTENTFORMAT_BEGIN
 90
        0
 91
        0
 92
        4
 93
        0
300

 40
0.0
140
1.0
 94
        5
 62
     0
340
11
144
4.5
309
CONTENTFORMAT_END
171
     1
301
MARGIN
  1
CELLMARGIN_BEGIN
 40
1.5
 40
1.5
 40
1.5
 40
1.5
 40
0.18
 40
0.18
309
CELLMARGIN_END
 94
        6
 95
        1
302
GRIDFORMAT
  1
GRIDFORMAT_BEGIN
 90
        0
 91
        1
 62
     0
 92
       -2
340
0
 93
        0
 40
0.045
309
GRIDFORMAT_END
 95
        2
302
GRIDFORMAT
  1
GRIDFORMAT_BEGIN
 90
        0
 91
        1
 62
     0
 92
       -2
340
0
 93
        0
 40
0.045
309
GRIDFORMAT_END
 95
        4
302
GRIDFORMAT
  1
GRIDFORMAT_BEGIN
 90
        0
 91
        1
 62
     0
 92
       -2
340
0
 93
        0
 40
0.045
309
GRIDFORMAT_END
 95
        8
302
GRIDFORMAT
  1
GRIDFORMAT_BEGIN
 90
        0
 91
        1
 62
     0
 92
       -2
340
0
 93
        0
 40
0.045
309
GRIDFORMAT_END
 95
       16
302
GRIDFORMAT
  1
GRIDFORMAT_BEGIN
 90
        0
 91
        1
 62
     0
 92
       -2
340
0
 93
        0
 40
0.045
309
GRIDFORMAT_END
 95
       32
302
GRIDFORMAT
  1
GRIDFORMAT_BEGIN
 90
        0
 91
        1
 62
     0
 92
       -2
340
0
 93
        0
 40
0.045
309
GRIDFORMAT_END
309
TABLEFORMAT_END
  1
CELLSTYLE_BEGIN
 90
        2
 91
        1
300
_HEADER
309
CELLSTYLE_END
300
CELLSTYLE
  1
TABLEFORMAT_BEGIN
 90
        5
170
     1
 91
        0
 92
        0
 62
   257
 93
        1
300
CONTENTFORMAT
  1
CONTENTFORMAT_BEGIN
 90
        0
 91
        0
 92
        4
 93
        0
300

 40
0.0
140
1.0
 94
        2
 62
     0
340
11
144
4.5
309
CONTENTFORMAT_END
171
     1
301
MARGIN
  1
CELLMARGIN_BEGIN
 40
1.5
 40
1.5
 40
1.5
 40
1.5
 40
0.18
 40
0.18
309
CELLMARGIN_END
 94
        6
 95
        1
302
GRIDFORMAT
  1
GRIDFORMAT_BEGIN
 90
        0
 91
        1
 62
     0
 92
       -2
340
0
 93
        0
 40
0.045
309
GRIDFORMAT_END
 95
        2
302
GRIDFORMAT
  1
GRIDFORMAT_BEGIN
 90
        0
 91
        1
 62
     0
 92
       -2
340
0
 93
        0
 40
0.045
309
GRIDFORMAT_END
 95
        4
302
GRIDFORMAT
  1
GRIDFORMAT_BEGIN
 90
        0
 91
        1
 62
     0
 92
       -2
340
0
 93
        0
 40
0.045
309
GRIDFORMAT_END
 95
        8
302
GRIDFORMAT
  1
GRIDFORMAT_BEGIN
 90
        0
 91
        1
 62
     0
 92
       -2
340
0
 93
        0
 40
0.045
309
GRIDFORMAT_END
 95
       16
302
GRIDFORMAT
  1
GRIDFORMAT_BEGIN
 90
        0
 91
        1
 62
     0
 92
       -2
340
0
 93
        0
 40
0.045
309
GRIDFORMAT_END
 95
       32
302
GRIDFORMAT
  1
GRIDFORMAT_BEGIN
 90
        0
 91
        1
 62
     0
 92
       -2
340
0
 93
        0
 40
0.045
309
GRIDFORMAT_END
309
TABLEFORMAT_END
  1
CELLSTYLE_BEGIN
 90
        3
 91
        2
300
_DATA
309
CELLSTYLE_END
  0
XRECORD
  5
45DF
102
{ACAD_REACTORS
330
4454
102
}
330
4454
100
AcDbXrecord
280
     1
102
ACAD_ROUNDTRIP_PRE2007_TABLESTYLE
 90
        4
 91
        0
  1

 92
        4
 93
        0
  2

 94
        4
 95
        0
  3

  0
ENDSEC
  0
EOF
