  0
SECTION
  2
HEADER
  9
$ACADVER
  1
AC1015
  9
$ACADMAINTVER
 70
    20
  9
$DWGCODEPAGE
  3
ANSI_932
  9
$INSBASE
 10
0.0
 20
0.0
 30
0.0
  9
$EXTMIN
 10
0.0
 20
-0.0000000000001599
 30
0.0
  9
$EXTMAX
 10
1209.0
 20
840.0000000000002
 30
0.0
  9
$LIMMIN
 10
0.0
 20
0.0
  9
$LIMMAX
 10
1209.0
 20
840.0000000000002
  9
$ORTHOMODE
 70
     0
  9
$REGENMODE
 70
     1
  9
$FILLMODE
 70
     1
  9
$QTEXTMODE
 70
     0
  9
$MIRRTEXT
 70
     1
  9
$LTSCALE
 40
3.0
  9
$ATTMODE
 70
     1
  9
$TEXTSIZE
 40
2.5
  9
$TRACEWID
 40
0.05
  9
$TEXTSTYLE
  7
takachi1
  9
$CLAYER
  8
0
  9
$CELTYPE
  6
ByLayer
  9
$CECOLOR
 62
   256
  9
$CELTSCALE
 40
1.0
  9
$DISPSILH
 70
     0
  9
$DIMSCALE
 40
5.0
  9
$DIMASZ
 40
2.5
  9
$DIMEXO
 40
1.0
  9
$DIMDLI
 40
10.0
  9
$DIMRND
 40
0.0
  9
$DIMDLE
 40
0.0
  9
$DIMEXE
 40
1.0
  9
$DIMTP
 40
0.1
  9
$DIMTM
 40
0.1
  9
$DIMTXT
 40
3.5
  9
$DIMCEN
 40
0.0
  9
$DIMTSZ
 40
0.0
  9
$DIMTOL
 70
     0
  9
$DIMLIM
 70
     0
  9
$DIMTIH
 70
     0
  9
$DIMTOH
 70
     0
  9
$DIMSE1
 70
     0
  9
$DIMSE2
 70
     0
  9
$DIMTAD
 70
     1
  9
$DIMZIN
 70
     8
  9
$DIMBLK
  1
Open30
  9
$DIMASO
 70
     1
  9
$DIMSHO
 70
     1
  9
$DIMPOST
  1

  9
$DIMAPOST
  1
"
  9
$DIMALT
 70
     0
  9
$DIMALTD
 70
     2
  9
$DIMALTF
 40
0.0393701
  9
$DIMLFAC
 40
1.0
  9
$DIMTOFL
 70
     1
  9
$DIMTVP
 40
0.0
  9
$DIMTIX
 70
     0
  9
$DIMSOXD
 70
     0
  9
$DIMSAH
 70
     0
  9
$DIMBLK1
  1

  9
$DIMBLK2
  1

  9
$DIMSTYLE
  2
AM_ISO
  9
$DIMCLRD
 70
     3
  9
$DIMCLRE
 70
     3
  9
$DIMCLRT
 70
     2
  9
$DIMTFAC
 40
0.71
  9
$DIMGAP
 40
1.5
  9
$DIMJUST
 70
     0
  9
$DIMSD1
 70
     0
  9
$DIMSD2
 70
     0
  9
$DIMTOLJ
 70
     0
  9
$DIMTZIN
 70
     8
  9
$DIMALTZ
 70
     0
  9
$DIMALTTZ
 70
     0
  9
$DIMUPT
 70
     0
  9
$DIMDEC
 70
     2
  9
$DIMTDEC
 70
     2
  9
$DIMALTU
 70
     2
  9
$DIMALTTD
 70
     2
  9
$DIMTXSTY
  7
STANDARD
  9
$DIMAUNIT
 70
     0
  9
$DIMADEC
 70
     0
  9
$DIMALTRND
 40
0.0
  9
$DIMAZIN
 70
     2
  9
$DIMDSEP
 70
    46
  9
$DIMATFIT
 70
     3
  9
$DIMFRAC
 70
     0
  9
$DIMLDRBLK
  1
Open30
  9
$DIMLUNIT
 70
     2
  9
$DIMLWD
 70
    -1
  9
$DIMLWE
 70
    -1
  9
$DIMTMOVE
 70
     0
  9
$LUNITS
 70
     2
  9
$LUPREC
 70
     2
  9
$SKETCHINC
 40
0.1
  9
$FILLETRAD
 40
0.6000000000000001
  9
$AUNITS
 70
     0
  9
$AUPREC
 70
     0
  9
$MENU
  1
.
  9
$ELEVATION
 40
0.0
  9
$PELEVATION
 40
0.0
  9
$THICKNESS
 40
0.0
  9
$LIMCHECK
 70
     0
  9
$CHAMFERA
 40
7.5
  9
$CHAMFERB
 40
7.5
  9
$CHAMFERC
 40
1.0
  9
$CHAMFERD
 40
0.0
  9
$SKPOLY
 70
     0
  9
$TDCREATE
 40
2454770.465836227
  9
$TDUCREATE
 40
2454770.090836227
  9
$TDUPDATE
 40
2455068.667192373
  9
$TDUUPDATE
 40
2455068.292192373
  9
$TDINDWG
 40
0.1365270602
  9
$TDUSRTIMER
 40
0.1365270602
  9
$USRTIMER
 70
     1
  9
$ANGBASE
 50
0.0
  9
$ANGDIR
 70
     0
  9
$PDMODE
 70
     0
  9
$PDSIZE
 40
0.0
  9
$PLINEWID
 40
0.0
  9
$SPLFRAME
 70
     0
  9
$SPLINETYPE
 70
     6
  9
$SPLINESEGS
 70
     8
  9
$HANDSEED
  5
45AA
  9
$SURFTAB1
 70
     6
  9
$SURFTAB2
 70
     6
  9
$SURFTYPE
 70
     6
  9
$SURFU
 70
     6
  9
$SURFV
 70
     6
  9
$UCSBASE
  2

  9
$UCSNAME
  2

  9
$UCSORG
 10
0.0
 20
0.0
 30
0.0
  9
$UCSXDIR
 10
1.0
 20
0.0
 30
0.0
  9
$UCSYDIR
 10
0.0
 20
1.0
 30
0.0
  9
$UCSORTHOREF
  2

  9
$UCSORTHOVIEW
 70
     0
  9
$UCSORGTOP
 10
0.0
 20
0.0
 30
0.0
  9
$UCSORGBOTTOM
 10
0.0
 20
0.0
 30
0.0
  9
$UCSORGLEFT
 10
0.0
 20
0.0
 30
0.0
  9
$UCSORGRIGHT
 10
0.0
 20
0.0
 30
0.0
  9
$UCSORGFRONT
 10
0.0
 20
0.0
 30
0.0
  9
$UCSORGBACK
 10
0.0
 20
0.0
 30
0.0
  9
$PUCSBASE
  2

  9
$PUCSNAME
  2

  9
$PUCSORG
 10
0.0
 20
0.0
 30
0.0
  9
$PUCSXDIR
 10
1.0
 20
0.0
 30
0.0
  9
$PUCSYDIR
 10
0.0
 20
1.0
 30
0.0
  9
$PUCSORTHOREF
  2

  9
$PUCSORTHOVIEW
 70
     0
  9
$PUCSORGTOP
 10
0.0
 20
0.0
 30
0.0
  9
$PUCSORGBOTTOM
 10
0.0
 20
0.0
 30
0.0
  9
$PUCSORGLEFT
 10
0.0
 20
0.0
 30
0.0
  9
$PUCSORGRIGHT
 10
0.0
 20
0.0
 30
0.0
  9
$PUCSORGFRONT
 10
0.0
 20
0.0
 30
0.0
  9
$PUCSORGBACK
 10
0.0
 20
0.0
 30
0.0
  9
$USERI1
 70
     0
  9
$USERI2
 70
     0
  9
$USERI3
 70
     0
  9
$USERI4
 70
     0
  9
$USERI5
 70
     0
  9
$USERR1
 40
0.0
  9
$USERR2
 40
0.0
  9
$USERR3
 40
0.0
  9
$USERR4
 40
0.0
  9
$USERR5
 40
0.0
  9
$WORLDVIEW
 70
     1
  9
$SHADEDGE
 70
     3
  9
$SHADEDIF
 70
    70
  9
$TILEMODE
 70
     1
  9
$MAXACTVP
 70
    64
  9
$PINSBASE
 10
0.0
 20
0.0
 30
0.0
  9
$PLIMCHECK
 70
     0
  9
$PEXTMIN
 10
1.000000000000000E+20
 20
1.000000000000000E+20
 30
1.000000000000000E+20
  9
$PEXTMAX
 10
-1.000000000000000E+20
 20
-1.000000000000000E+20
 30
-1.000000000000000E+20
  9
$PLIMMIN
 10
-0.2500002402958907
 20
-0.2499999962453767
  9
$PLIMMAX
 10
10.74999951940821
 20
8.249999763458731
  9
$UNITMODE
 70
     0
  9
$VISRETAIN
 70
     1
  9
$PLINEGEN
 70
     0
  9
$PSLTSCALE
 70
     1
  9
$TREEDEPTH
 70
  3020
  9
$CMLSTYLE
  2
Standard
  9
$CMLJUST
 70
     0
  9
$CMLSCALE
 40
1.0
  9
$PROXYGRAPHICS
 70
     1
  9
$MEASUREMENT
 70
     1
  9
$CELWEIGHT
370
    -1
  9
$ENDCAPS
280
     0
  9
$JOINSTYLE
280
     0
  9
$LWDISPLAY
290
     0
  9
$INSUNITS
 70
     4
  9
$HYPERLINKBASE
  1

  9
$STYLESHEET
  1
takachi-2.ctb
  9
$XEDIT
290
     1
  9
$CEPSNTYPE
380
     0
  9
$PSTYLEMODE
290
     1
  9
$FINGERPRINTGUID
  2
{4C04C66C-6307-4C11-B2CD-108B7D68641F}
  9
$VERSIONGUID
  2
{05937551-42DD-4428-97C5-623A71076808}
  9
$EXTNAMES
290
     1
  9
$PSVPSCALE
 40
0.0
  9
$OLESTARTUP
290
     0
  0
ENDSEC
  0
SECTION
  2
CLASSES
  0
CLASS
  1
ACDBDICTIONARYWDFLT
  2
AcDbDictionaryWithDefault
  3
ObjectDBX Classes
 90
        0
280
     0
281
     0
  0
CLASS
  1
ACDBPLACEHOLDER
  2
AcDbPlaceHolder
  3
ObjectDBX Classes
 90
        0
280
     0
281
     0
  0
CLASS
  1
LAYOUT
  2
AcDbLayout
  3
ObjectDBX Classes
 90
        0
280
     0
281
     0
  0
CLASS
  1
ACME_DOCUMENT
  2
AcMeDbDoc
  3
AcMeServices
 90
     1024
280
     0
281
     0
  0
CLASS
  1
AMGSETTINGSOBJ
  2
AmgSettingsObj
  3
"AcadM|Product Description: AutoCAD Mechanical|Company: Autodesk, Inc."
 90
     1024
280
     0
281
     0
  0
CLASS
  1
ACMESCOPE
  2
AcMeScope
  3
AcMeServices
 90
     1024
280
     0
281
     0
  0
CLASS
  1
ACMECOMMANDHISTORY
  2
AcMeCommandHistory
  3
AcMeServices
 90
     1024
280
     0
281
     0
  0
CLASS
  1
ACIMSYSVARMAN
  2
AcImSysVarManager
  3
AcMeServices
 90
     1024
280
     0
281
     0
  0
CLASS
  1
ACIMREALSYSVAR
  2
AcImRealSysVar
  3
AcMeServices
 90
     1024
280
     0
281
     0
  0
CLASS
  1
ACIMINTSYSVAR
  2
AcImIntSysVar
  3
AcMeServices
 90
     1024
280
     0
281
     0
  0
CLASS
  1
ACMEDRAWINGMAN
  2
AcMeDrawingMan
  3
AcMeServices
 90
     1024
280
     0
281
     0
  0
CLASS
  1
ACMEVIEW
  2
AcMeView
  3
AcMeServices
 90
     1024
280
     0
281
     0
  0
CLASS
  1
ACDBENTITYCACHE
  2
AcMeEntityCache
  3
AcMeServices
 90
     1024
280
     0
281
     0
  0
CLASS
  1
GSMANAGER
  2
AcMeGSManager
  3
AcMeServices
 90
     1024
280
     0
281
     0
  0
CLASS
  1
AMDTINTERNALREACTOR
  2
AmdtInternalReactor
  3
AcMeServices
 90
     1024
280
     0
281
     0
  0
CLASS
  1
ACMESTATEMGR
  2
AcMeStateMgr
  3
AcMeServices
 90
     1024
280
     0
281
     0
  0
CLASS
  1
ACGREFMASTER
  2
AcGrefMaster
  3
AcAttribServices
 90
     1024
280
     0
281
     0
  0
CLASS
  1
ACME_DATABASE
  2
AcMeDbDatabase
  3
AcMeServices
 90
     1024
280
     0
281
     0
  0
CLASS
  1
ACRFINSADJUSTERMGR
  2
AcRfInsAdjusterMgr
  3
AcMeServices
 90
     1024
280
     0
281
     0
  0
CLASS
  1
ACGREFACADMASTER
  2
AcGrefacadMaster
  3
AcGrefServices
 90
     1024
280
     0
281
     0
  0
CLASS
  1
AMIMASTER
  2
AmiMaster
  3
AmiServices
 90
     1024
280
     0
281
     0
  0
CLASS
  1
ACMDATADICTIONARY
  2
AcmDataDictionary
  3
"AcmSymBB|Product Description: AutoCAD Mechanical|Company: Autodesk, Inc."
 90
     1024
280
     0
281
     0
  0
CLASS
  1
ACMDATAENTRYBLOCK
  2
AcmDataEntryBlock
  3
AcmSymBB|Product Description: AutoCAD Mechanical|Company: Autodesk, Inc.
 90
     1024
280
     0
281
     0
  0
CLASS
  1
ACIMSTRSYSVAR
  2
AcImStrSysVar
  3
AcMeServices
 90
     1024
280
     0
281
     0
  0
CLASS
  1
ACMSTANDARDANSI
  2
AcmStandardANSI
  3
"Amdt_StdImp|Product Description: AutoCAD Mechanical|Company: Autodesk, Inc."
 90
     1024
280
     0
281
     0
  0
CLASS
  1
AMGOBJPROPCFG
  2
AmgObjPropCfg
  3
"AmgLay|Product Description: AutoCAD Mechanical|Company: Autodesk, Inc."
 90
     1025
280
     0
281
     0
  0
CLASS
  1
ACMSURFSTANDARDANSI
  2
AcmSurfTextStdANSI
  3
"Amdt_StdImp|Product Description: AutoCAD Mechanical|Company: Autodesk, Inc."
 90
     1024
280
     0
281
     0
  0
CLASS
  1
ACMFCFSTANDARDANSI
  2
AcmFCFStdANSI
  3
"Amdt_StdImp|Product Description: AutoCAD Mechanical|Company: Autodesk, Inc."
 90
     1024
280
     0
281
     0
  0
CLASS
  1
ACMWELDSTANDARDANSI
  2
AcmWeldingStdANSI
  3
"Amdt_StdImp|Product Description: AutoCAD Mechanical|Company: Autodesk, Inc."
 90
     1024
280
     0
281
     0
  0
CLASS
  1
ACMIDSTANDARDANSI
  2
AcmIdStdANSI
  3
"Amdt_StdImp|Product Description: AutoCAD Mechanical|Company: Autodesk, Inc."
 90
     1024
280
     0
281
     0
  0
CLASS
  1
ACMDATUMSTANDARDANSI
  2
AcmDatumStdANSI
  3
"Amdt_StdImp|Product Description: AutoCAD Mechanical|Company: Autodesk, Inc."
 90
     1024
280
     0
281
     0
  0
CLASS
  1
ACMBOMSTANDARDANSI
  2
AcmBOMStdANSI
  3
"Amdt_StdImp|Product Description: AutoCAD Mechanical|Company: Autodesk, Inc."
 90
     1024
280
     0
281
     0
  0
CLASS
  1
ACMDETAILSTANDARDANSI
  2
AmdtDetailSymStdANSI
  3
"Amdt_StdImp|Product Description: AutoCAD Mechanical|Company: Autodesk, Inc."
 90
     1024
280
     0
281
     0
  0
CLASS
  1
ACMSECTIONSTANDARDANSI
  2
AmdtSectionSymStdANSI
  3
"Amdt_StdImp|Product Description: AutoCAD Mechanical|Company: Autodesk, Inc."
 90
     1024
280
     0
281
     0
  0
CLASS
  1
ACMCENTERLINESTANDARDANSI
  2
AmdtCenterLineStdANSI
  3
"Amdt_StdImp|Product Description: AutoCAD Mechanical|Company: Autodesk, Inc."
 90
     1024
280
     0
281
     0
  0
CLASS
  1
ACMNOTESTANDARDANSI
  2
AmdtNoteStdANSI
  3
"Amdt_StdImp|Product Description: AutoCAD Mechanical|Company: Autodesk, Inc."
 90
     1024
280
     0
281
     0
  0
CLASS
  1
ACAMGLAYSTD
  2
AcAmgLayStd
  3
"AmgLay|Product Description: AutoCAD Mechanical|Company: Autodesk, Inc."
 90
     1024
280
     0
281
     0
  0
CLASS
  1
ACAMGDIMSTD
  2
AcAmgDimStd
  3
"AmgDim|Product Description: AutoCAD Mechanical|Company: Autodesk, Inc."
 90
     1024
280
     0
281
     0
  0
CLASS
  1
ACAMGHOLECHARTSTDANSI
  2
AcAmgHoleChartStdANSI
  3
AmgDim|Product Description: AutoCAD Mechanical|Company: Autodesk, Inc.
 90
     1024
280
     0
281
     0
  0
CLASS
  1
ACAMGTITLESTD
  2
AcAmgTitleStd
  3
"AmgTitle|Product Description: AutoCAD Mechanical|Company: Autodesk, Inc."
 90
     4095
280
     0
281
     0
  0
CLASS
  1
LAYER_INDEX
  2
AcDbLayerIndex
  3
ObjectDBX Classes
 90
    32768
280
     0
281
     0
  0
CLASS
  1
IDBUFFER
  2
AcDbIdBuffer
  3
ObjectDBX Classes
 90
    32768
280
     0
281
     0
  0
CLASS
  1
DICTIONARYVAR
  2
AcDbDictionaryVar
  3
ObjectDBX Classes
 90
        0
280
     0
281
     0
  0
CLASS
  1
AM_DRAWING_MGR
  2
AcDmDwgMgr
  3
AcMechDwgViewMgmt
 90
     1024
280
     0
281
     0
  0
CLASS
  1
AM_DWG_DOCUMENT
  2
AcDmDwgDocument
  3
AcMechDwgViewMgmt
 90
     1024
280
     0
281
     0
  0
CLASS
  1
AM_DWG_SHEET
  2
AcDmSheet
  3
AcMechDwgViewMgmt
 90
     1024
280
     0
281
     0
  0
CLASS
  1
AM_VIEWDIMPARMAP
  2
AcDmViewDimParMap
  3
AcMechDwgViewMgmt
 90
     1024
280
     0
281
     0
  0
CLASS
  1
AM_DWGMGR_NAME
  2
AcDmDwgMgrName
  3
AcMechDwgViewMgmt
 90
     1024
280
     0
281
     0
  0
CLASS
  1
AMDTMENUSTATEMGR
  2
AmdtMenuStateMgr
  3
McadcomServices
 90
     1024
280
     0
281
     0
  0
CLASS
  1
AMDTMCOMMENUSTATE
  2
AmdtMcomMenuState
  3
McadcomServices
 90
     1024
280
     0
281
     0
  0
CLASS
  1
MAPIAMMOUDLE
  2
MApiAmModule
  3
MApiAmServices
 90
     1024
280
     0
281
     0
  0
CLASS
  1
AMDTADMENUSTATE
  2
AmdtAdMenuState
  3
DesignerServices
 90
     1024
280
     0
281
     0
  0
CLASS
  1
ADAPPL
  2
AcAdAppl
  3
DesignerServices
 90
     1024
280
     0
281
     0
  0
CLASS
  1
DEPMGR
  2
AcAdDepMgr
  3
DesignerServices
 90
     1024
280
     0
281
     0
  0
CLASS
  1
PARAMMGR
  2
AcAdParamMgr
  3
DesignerServices
 90
     1024
280
     0
281
     0
  0
CLASS
  1
PARAMSCOPE
  2
AcAdParamScope
  3
DesignerServices
 90
     1024
280
     0
281
     0
  0
CLASS
  1
NAMEDAPPL
  2
AcAdNamedAppl
  3
DesignerServices
 90
     1024
280
     0
281
     0
  0
CLASS
  1
AMDTDMMENUSTATE
  2
AmdtDmMenuState
  3
AcMechDwgViewMgmt
 90
     1024
280
     0
281
     0
  0
CLASS
  1
AMDTAMMENUSTATE
  2
AmdtAmMenuState
  3
DesignerAssemblies
 90
     1024
280
     0
281
     0
  0
CLASS
  1
ACAMPROJECT
  2
AcAmProject
  3
DesignerAssemblies
 90
     1024
280
     0
281
     0
  0
CLASS
  1
ACAMGRCOMPDEF
  2
AcAmGrCompDef
  3
DesignerAssemblies
 90
     1024
280
     0
281
     0
  0
CLASS
  1
ACCMCONTEXT
  2
AcCmContext
  3
DesignerAssemblies
 90
     1024
280
     0
281
     0
  0
CLASS
  1
ACAMCOMPDEF
  2
AcAmCompDef
  3
DesignerAssemblies
 90
     1024
280
     0
281
     0
  0
CLASS
  1
ACAMCOMPDEFMGR
  2
AcAmCompDefMgr
  3
DesignerAssemblies
 90
     1024
280
     0
281
     0
  0
CLASS
  1
AMCONTEXTMGR
  2
AcAmContextMgr
  3
DesignerAssemblies
 90
     1024
280
     0
281
     0
  0
CLASS
  1
ACAMCONTEXTMODELER
  2
AcAmContextModeler
  3
DesignerAssemblies
 90
     1024
280
     0
281
     0
  0
CLASS
  1
ACMTHREADLINESTANDARDANSI
  2
AmdtThreadLineStdANSI
  3
"Amdt_StdImp|Product Description: AutoCAD Mechanical|Company: Autodesk, Inc."
 90
     1024
280
     0
281
     0
  0
CLASS
  1
CATALOGSTATE
  2
AcAmCatalogState
  3
DesignerAssemblies
 90
     1024
280
     0
281
     0
  0
CLASS
  1
ACAMGRCOMPDEFSET
  2
AcAmGrCompDefSet
  3
DesignerAssemblies
 90
     1024
280
     0
281
     0
  0
CLASS
  1
AMDTBROWSERDBTAB
  2
AmdtBrowserDbTab
  3
McadcomServices
 90
     1024
280
     0
281
     0
  0
CLASS
  1
CBROWSERAPPOBJECT
  2
CBrowserAppObject
  3
McadcomServices
 90
     1024
280
     0
281
     0
  0
CLASS
  1
DM_PLACEHOLDER
  2
AcDmSelsetPlaceholder
  3
AcMechDwgViewMgmt
 90
     1024
280
     0
281
     0
  0
CLASS
  1
AMDTNOTETEMPLATEDB
  2
AmdtNoteTemplateDB
  3
AcmSymBB|Product Description: AutoCAD Mechanical|Company: Autodesk, Inc.
 90
     1024
280
     0
281
     0
  0
CLASS
  1
ACMSTANDARDISO
  2
AcmStandardISO
  3
"Amdt_StdImp|Product Description: AutoCAD Mechanical|Company: Autodesk, Inc."
 90
     1024
280
     0
281
     0
  0
CLASS
  1
AMDTEDGESTANDARDISO
  2
AmdtEdgeStdISO
  3
"Amdt_StdImp|Product Description: AutoCAD Mechanical|Company: Autodesk, Inc."
 90
     1024
280
     0
281
     0
  0
CLASS
  1
ACMSURFSTANDARDISO
  2
AcmSurfTextStdISO
  3
"Amdt_StdImp|Product Description: AutoCAD Mechanical|Company: Autodesk, Inc."
 90
     1024
280
     0
281
     0
  0
CLASS
  1
ACMFCFSTANDARDISO
  2
AcmFCFStdISO
  3
"Amdt_StdImp|Product Description: AutoCAD Mechanical|Company: Autodesk, Inc."
 90
     1024
280
     0
281
     0
  0
CLASS
  1
ACMWELDSTANDARDISO
  2
AcmWeldingStdISO
  3
"Amdt_StdImp|Product Description: AutoCAD Mechanical|Company: Autodesk, Inc."
 90
     1024
280
     0
281
     0
  0
CLASS
  1
ACMIDSTANDARDISO
  2
AcmIdStdISO
  3
"Amdt_StdImp|Product Description: AutoCAD Mechanical|Company: Autodesk, Inc."
 90
     1024
280
     0
281
     0
  0
CLASS
  1
ACMDATUMSTANDARDISO
  2
AcmDatumStdISO
  3
"Amdt_StdImp|Product Description: AutoCAD Mechanical|Company: Autodesk, Inc."
 90
     1024
280
     0
281
     0
  0
CLASS
  1
ACMBOMSTANDARDISO
  2
AcmBOMStdISO
  3
"Amdt_StdImp|Product Description: AutoCAD Mechanical|Company: Autodesk, Inc."
 90
     1024
280
     0
281
     0
  0
CLASS
  1
ACMDETAILSTANDARDISO
  2
AmdtDetailSymStdISO
  3
"Amdt_StdImp|Product Description: AutoCAD Mechanical|Company: Autodesk, Inc."
 90
     1024
280
     0
281
     0
  0
CLASS
  1
ACMSECTIONSTANDARDISO
  2
AmdtSectionSymStdISO
  3
"Amdt_StdImp|Product Description: AutoCAD Mechanical|Company: Autodesk, Inc."
 90
     1024
280
     0
281
     0
  0
CLASS
  1
ACMCENTERLINESTANDARDISO
  2
AmdtCenterLineStdISO
  3
"Amdt_StdImp|Product Description: AutoCAD Mechanical|Company: Autodesk, Inc."
 90
     1024
280
     0
281
     0
  0
CLASS
  1
ACMTHREADLINESTANDARDISO
  2
AmdtThreadLineStdISO
  3
"Amdt_StdImp|Product Description: AutoCAD Mechanical|Company: Autodesk, Inc."
 90
     1024
280
     0
281
     0
  0
CLASS
  1
ACMNOTESTANDARDISO
  2
AmdtNoteStdISO
  3
"Amdt_StdImp|Product Description: AutoCAD Mechanical|Company: Autodesk, Inc."
 90
     1024
280
     0
281
     0
  0
CLASS
  1
ACAMGHOLECHARTSTDISO
  2
AcAmgHoleChartStdISO
  3
AmgDim|Product Description: AutoCAD Mechanical|Company: Autodesk, Inc.
 90
     1024
280
     0
281
     0
  0
CLASS
  1
ACAMGFILTERDAT
  2
AcAmgFilterDat
  3
"AcadM|Product Description: AutoCAD Mechanical|Company: Autodesk, Inc."
 90
     1024
280
     0
281
     0
  0
CLASS
  1
ACMBOM
  2
AcmBom
  3
"AcmSymBB|Product Description: AutoCAD Mechanical|Company: Autodesk, Inc."
 90
     1024
280
     0
281
     0
  0
CLASS
  1
AMDTFORMULAUPDATEDISPATCHER
  2
AmdtFormulaUpdateDispatcher
  3
AcMeServices
 90
     1024
280
     0
281
     0
  0
CLASS
  1
ACMPARTLIST
  2
AcmPartList
  3
"AcmSymBB|Product Description: AutoCAD Mechanical|Company: Autodesk, Inc."
 90
     4095
280
     0
281
     1
  0
CLASS
  1
ACDBOPPOLYLINERES
  2
AcDbOpPolylineRes
  3
AcGrefServices
 90
    33792
280
     0
281
     0
  0
CLASS
  1
ACRFINSADJ
  2
AcRfInsAdjuster
  3
AcMeServices
 90
    33792
280
     0
281
     0
  0
CLASS
  1
TABLESTYLE
  2
AcDbTableStyle
  3
ObjectDBX Classes
 90
     4095
280
     0
281
     0
  0
CLASS
  1
VAACXREFPANELOBJECT
  2
VaAcXREFPanelObject
  3
VAAC_ADDIN
 90
    32768
280
     0
281
     0
  0
CLASS
  1
VAACIMAGEINVENTORY
  2
VaAcImageInventory
  3
VAAC_ADDIN
 90
    32768
280
     0
281
     0
  0
CLASS
  1
SORTENTSTABLE
  2
AcDbSortentsTable
  3
ObjectDBX Classes
 90
        0
280
     0
281
     0
  0
CLASS
  1
ACMDATAENTRYPART
  2
AcmDataEntryPart
  3
AcmSymBB|Product Description: AutoCAD Mechanical|Company: Autodesk, Inc.
 90
     1024
280
     0
281
     0
  0
CLASS
  1
ACMPARTREF
  2
AcmPartRef
  3
"AcmSymBB|Product Description: AutoCAD Mechanical|Company: Autodesk, Inc."
 90
     4095
280
     0
281
     1
  0
CLASS
  1
ACMBOMROW
  2
AcmBomRow
  3
"AcmSymBB|Product Description: AutoCAD Mechanical|Company: Autodesk, Inc."
 90
     1024
280
     0
281
     0
  0
CLASS
  1
ACMDATAENTRY
  2
AcmDataEntry
  3
AcmSymBB|Product Description: AutoCAD Mechanical|Company: Autodesk, Inc.
 90
     1024
280
     0
281
     0
  0
CLASS
  1
ACMBALLOON
  2
AcmBalloon
  3
"AcmSymBB|Product Description: AutoCAD Mechanical|Company: Autodesk, Inc."
 90
     4095
280
     0
281
     1
  0
CLASS
  1
MATERIAL
  2
AcDbMaterial
  3
ObjectDBX Classes
 90
     1153
280
     0
281
     0
  0
CLASS
  1
VISUALSTYLE
  2
AcDbVisualStyle
  3
ObjectDBX Classes
 90
     4095
280
     0
281
     0
  0
CLASS
  1
SCALE
  2
AcDbScale
  3
ObjectDBX Classes
 90
     1153
280
     0
281
     0
  0
CLASS
  1
MLEADERSTYLE
  2
AcDbMLeaderStyle
  3
ACDB_MLEADERSTYLE_CLASS
 90
     4095
280
     0
281
     0
  0
CLASS
  1
ACRFATTGENMGR
  2
AcRfAttGeneralMgr
  3
AcAttribServices
 90
     1024
280
     0
281
     0
  0
CLASS
  1
ACRFOBJATTMGR
  2
AcRfObjAttGroupMgr
  3
AcAttribServices
 90
     1024
280
     0
281
     0
  0
CLASS
  1
ACRFMCADAPIATTHOLDER
  2
AcRfMCADAPIAttHolder
  3
AcAttribServices
 90
     1024
280
     0
281
     0
  0
CLASS
  1
AMDTSYSATTR
  2
AmdtSystemAttribute
  3
AcAttribServices
 90
     1024
280
     0
281
     0
  0
CLASS
  1
ACMTAPERSTANDARDISO
  2
AcmTaperStdISO
  3
"Amdt_StdImp|Product Description: AutoCAD Mechanical|Company: Autodesk, Inc."
 90
     1024
280
     0
281
     0
  0
CLASS
  1
ACMANOOTATIONVIEWSTANDARDISO
  2
AmdtAnViewStdISO
  3
"Amdt_StdImp|Product Description: AutoCAD Mechanical|Company: Autodesk, Inc."
 90
     1024
280
     0
281
     0
  0
CLASS
  1
ACMTAPERSTANDARDANSI
  2
AcmTaperStdANSI
  3
"Amdt_StdImp|Product Description: AutoCAD Mechanical|Company: Autodesk, Inc."
 90
     1024
280
     0
281
     0
  0
CLASS
  1
ACMANOOTATIONVIEWSTANDARDANSI
  2
AmdtAnViewStdANSI
  3
"Amdt_StdImp|Product Description: AutoCAD Mechanical|Company: Autodesk, Inc."
 90
     1024
280
     0
281
     0
  0
CLASS
  1
EXACXREFPANELOBJECT
  2
ExAcXREFPanelObject
  3
EXAC_ESW
 90
     1025
280
     0
281
     0
  0
CLASS
  1
NPOCOLLECTION
  2
AcDbImpNonPersistentObjectsCollection
  3
ObjectDBX Classes
 90
     1153
280
     0
281
     0
  0
CLASS
  1
CELLSTYLEMAP
  2
AcDbCellStyleMap
  3
ObjectDBX Classes
 90
     1152
280
     0
281
     0
  0
ENDSEC
  0
SECTION
  2
TABLES
  0
TABLE
  2
VPORT
  5
8
102
{ACAD_XDICTIONARY
360
4484
102
}
330
0
100
AcDbSymbolTable
 70
     1
  0
VPORT
  5
43DA
330
8
100
AcDbSymbolTableRecord
100
AcDbViewportTableRecord
  2
*Active
 70
     0
 10
0.0
 20
0.0
 11
1.0
 21
1.0
 12
604.5369067773162
 22
420.0256424259266
 13
0.0
 23
0.0
 14
7.5
 24
7.5
 15
30.0
 25
30.0
 16
0.0
 26
0.0
 36
1.0
 17
0.0
 27
0.0
 37
0.0
 40
846.1720838845582
 41
1.7665544332211
 42
50.0
 43
0.0
 44
0.0
 50
0.0
 51
0.0
 71
    16
 72
   100
 73
     1
 74
     3
 75
     0
 76
     0
 77
     0
 78
     0
281
     0
 65
     1
110
0.0
120
0.0
130
0.0
111
1.0
121
0.0
131
0.0
112
0.0
122
1.0
132
0.0
 79
     0
146
0.0
  0
ENDTAB
  0
TABLE
  2
LTYPE
  5
5
330
0
100
AcDbSymbolTable
 70
    20
  0
LTYPE
  5
14
330
5
100
AcDbSymbolTableRecord
100
AcDbLinetypeTableRecord
  2
ByBlock
 70
     0
  3

 72
    65
 73
     0
 40
0.0
  0
LTYPE
  5
15
330
5
100
AcDbSymbolTableRecord
100
AcDbLinetypeTableRecord
  2
ByLayer
 70
     0
  3

 72
    65
 73
     0
 40
0.0
  0
LTYPE
  5
16
330
5
100
AcDbSymbolTableRecord
100
AcDbLinetypeTableRecord
  2
Continuous
 70
     0
  3
Solid line
 72
    65
 73
     0
 40
0.0
  0
LTYPE
  5
6C
330
5
100
AcDbSymbolTableRecord
100
AcDbLinetypeTableRecord
  2
AM_ISO02W050
 70
     0
  3
__ __ __ __ __ __ __ __ __ __ __ __ __ __ __
 72
    65
 73
     2
 40
7.5
 49
6.0
 74
     0
 49
-1.5
 74
     0
  0
LTYPE
  5
6D
330
5
100
AcDbSymbolTableRecord
100
AcDbLinetypeTableRecord
  2
AM_ISO08W050
 70
     0
  3
____ . ____ . ____ . ____ . ____ . ____ . ____
 72
    65
 73
     4
 40
18.0
 49
12.0
 74
     0
 49
-1.5
 74
     0
 49
3.0
 74
     0
 49
-1.5
 74
     0
  0
LTYPE
  5
6E
330
5
100
AcDbSymbolTableRecord
100
AcDbLinetypeTableRecord
  2
AM_ISO09W050
 70
     0
  3
_____ . . _____ . . _____ . . ____ .. ____
 72
    65
 73
     6
 40
22.5
 49
12.0
 74
     0
 49
-1.5
 74
     0
 49
3.0
 74
     0
 49
-1.5
 74
     0
 49
3.0
 74
     0
 49
-1.5
 74
     0
  0
LTYPE
  5
6F
330
5
100
AcDbSymbolTableRecord
100
AcDbLinetypeTableRecord
  2
Amconstr
 70
     0
  3
_______________________
 72
    65
 73
     2
 40
9999.0
 49
9999.0
 74
     0
 49
0.0
 74
     0
  0
LTYPE
  5
70
330
5
100
AcDbSymbolTableRecord
100
AcDbLinetypeTableRecord
  2
AM_ISO08W050x2
 70
     0
  3
__ . __ . __ . __ . __ . __
 72
    65
 73
     4
 40
9.0
 49
6.0
 74
     0
 49
-0.75
 74
     0
 49
1.5
 74
     0
 49
-0.75
 74
     0
  0
LTYPE
  5
71
330
5
100
AcDbSymbolTableRecord
100
AcDbLinetypeTableRecord
  2
AM_ISO02W050x2
 70
     0
  3
 _ _ _ _ _ _ _ _ _ _ _ _
 72
    65
 73
     2
 40
3.75
 49
3.0
 74
     0
 49
-0.75
 74
     0
  0
LTYPE
  5
74
330
5
100
AcDbSymbolTableRecord
100
AcDbLinetypeTableRecord
  2
Amzigzag
 70
     0
  3
/\/-/\/-/\/-/\/-/\/-/\/
 72
    65
 73
     2
 40
11.0001
 49
0.0001
 74
     4
 75
   135
340
73
 46
0.04
 50
0.0
 44
0.0
 45
0.0
 49
-11.0
 74
     0
  0
LTYPE
  5
75
330
5
100
AcDbSymbolTableRecord
100
AcDbLinetypeTableRecord
  2
HIDDEN
 70
     0
  3
Hidden __ __ __ __ __ __ __ __ __ __ __ __ __ _
 72
    65
 73
     2
 40
0.375
 49
0.25
 74
     0
 49
-0.125
 74
     0
  0
LTYPE
  5
76
330
5
100
AcDbSymbolTableRecord
100
AcDbLinetypeTableRecord
  2
CENTER
 70
     0
  3
Center ____ _ ____ _ ____ _ ____ _ ____ _ ____
 72
    65
 73
     4
 40
2.0
 49
1.25
 74
     0
 49
-0.25
 74
     0
 49
0.25
 74
     0
 49
-0.25
 74
     0
  0
LTYPE
  5
77
330
5
100
AcDbSymbolTableRecord
100
AcDbLinetypeTableRecord
  2
PHANTOM2
 70
     0
  3
Phantom (.5x) ___ _ _ ___ _ _ ___ _ _ ___ _ _
 72
    65
 73
     6
 40
1.25
 49
0.625
 74
     0
 49
-0.125
 74
     0
 49
0.125
 74
     0
 49
-0.125
 74
     0
 49
0.125
 74
     0
 49
-0.125
 74
     0
  0
LTYPE
  5
78
330
5
100
AcDbSymbolTableRecord
100
AcDbLinetypeTableRecord
  2
CENTER2
 70
     0
  3
Center (.5x) ___ _ ___ _ ___ _ ___ _ ___ _ ___
 72
    65
 73
     4
 40
1.125
 49
0.75
 74
     0
 49
-0.125
 74
     0
 49
0.125
 74
     0
 49
-0.125
 74
     0
  0
LTYPE
  5
79
330
5
100
AcDbSymbolTableRecord
100
AcDbLinetypeTableRecord
  2
HIDDEN2
 70
     0
  3
Hidden (.5x) _ _ _ _ _ _ _ _ _ _ _ _ _ _ _ _ _
 72
    65
 73
     2
 40
0.1875
 49
0.125
 74
     0
 49
-0.0625
 74
     0
  0
LTYPE
  5
7A
330
5
100
AcDbSymbolTableRecord
100
AcDbLinetypeTableRecord
  2
Amzigzag2
 70
     0
  3
/\/-/\/-/\/-/\/-/\/-/\/
 72
    65
 73
     2
 40
0.4401
 49
0.0001
 74
     4
 75
   135
340
73
 46
0.0016
 50
0.0
 44
0.0
 45
0.0
 49
-0.4400000000000001
 74
     0
  0
LTYPE
  5
87
330
5
100
AcDbSymbolTableRecord
100
AcDbLinetypeTableRecord
  2
ACANSTGB
 70
     0
  3
__ . . __ . .
 72
    65
 73
     6
 40
0.35433070866
 49
0.15748031496
 74
     0
 49
-0.03937007874
 74
     0
 49
0.03937007874
 74
     0
 49
-0.03937007874
 74
     0
 49
0.03937007874
 74
     0
 49
-0.03937007874
 74
     0
  0
LTYPE
  5
88
330
5
100
AcDbSymbolTableRecord
100
AcDbLinetypeTableRecord
  2
ACANSTGL
 70
     0
  3
_ _ _ _ _
 72
    65
 73
     2
 40
0.11811023622
 49
0.07874015748
 74
     0
 49
-0.03937007874
 74
     0
  0
LTYPE
  5
1DE
330
5
100
AcDbSymbolTableRecord
100
AcDbLinetypeTableRecord
  2
ACISOWELD
 70
     0
  3
_ _ _ _ _
 72
    65
 73
     2
 40
2.0
 49
2.0
 74
     0
 49
-1.0
 74
     0
  0
LTYPE
  5
1DF
330
5
100
AcDbSymbolTableRecord
100
AcDbLinetypeTableRecord
  2
ACISOTGB
 70
     0
  3
__ . . __ . .
 72
    65
 73
     6
 40
9.0
 49
4.0
 74
     0
 49
-1.0
 74
     0
 49
1.0
 74
     0
 49
-1.0
 74
     0
 49
1.0
 74
     0
 49
-1.0
 74
     0
  0
LTYPE
  5
1E0
330
5
100
AcDbSymbolTableRecord
100
AcDbLinetypeTableRecord
  2
ACISOTGL
 70
     0
  3
_ _ _ _ _
 72
    65
 73
     2
 40
3.0
 49
2.0
 74
     0
 49
-1.0
 74
     0
  0
LTYPE
  5
201
330
5
100
AcDbSymbolTableRecord
100
AcDbLinetypeTableRecord
  2
gen7a
 70
     0
  3
__ . __ . __
 72
    65
 73
     4
 40
6.875
 49
4.75
 74
     0
 49
-0.875
 74
     0
 49
0.375
 74
     0
 49
-0.875
 74
     0
  0
ENDTAB
  0
TABLE
  2
LAYER
  5
2
102
{ACAD_XDICTIONARY
360
2C1
102
}
330
0
100
AcDbSymbolTable
 70
    11
  0
LAYER
  5
10
102
{ACAD_XDICTIONARY
360
446D
102
}
330
2
100
AcDbSymbolTableRecord
100
AcDbLayerTableRecord
  2
0
 70
     0
 62
     7
  6
Continuous
370
    -3
390
F
  0
LAYER
  5
1F0
102
{ACAD_XDICTIONARY
360
446F
102
}
330
2
100
AcDbSymbolTableRecord
100
AcDbLayerTableRecord
  2
AM_5
 70
     0
 62
     3
  6
Continuous
370
    25
390
F
  0
LAYER
  5
204
330
2
100
AcDbSymbolTableRecord
100
AcDbLayerTableRecord
  2
Defpoints
 70
     0
 62
     7
  6
Continuous
290
     0
370
    -3
390
F
  0
LAYER
  5
23E
102
{ACAD_XDICTIONARY
360
4471
102
}
330
2
100
AcDbSymbolTableRecord
100
AcDbLayerTableRecord
  2
7A
 70
     0
 62
     4
  6
gen7a
370
    -3
390
F
  0
LAYER
  5
23F
102
{ACAD_XDICTIONARY
360
4473
102
}
330
2
100
AcDbSymbolTableRecord
100
AcDbLayerTableRecord
  2
RAHM2
 70
     0
 62
     1
  6
Continuous
370
    -3
390
F
  0
LAYER
  5
2AD
102
{ACAD_XDICTIONARY
360
4475
102
}
330
2
100
AcDbSymbolTableRecord
100
AcDbLayerTableRecord
  2
ｴｸｽﾃﾝｼｮﾝﾌﾚｰﾑ
 70
     0
 62
     7
  6
Continuous
370
    25
390
F
  0
LAYER
  5
3A72
102
{ACAD_XDICTIONARY
360
4477
102
}
330
2
100
AcDbSymbolTableRecord
100
AcDbLayerTableRecord
  2
AM_12
 70
     0
 62
     7
  6
Continuous
290
     0
370
    50
390
F
  0
LAYER
  5
3A73
102
{ACAD_XDICTIONARY
360
4479
102
}
330
2
100
AcDbSymbolTableRecord
100
AcDbLayerTableRecord
  2
AM_PAREF
 70
     0
 62
     4
  6
Continuous
290
     0
370
    25
390
F
  0
LAYER
  5
3BDA
102
{ACAD_XDICTIONARY
360
447B
102
}
330
2
100
AcDbSymbolTableRecord
100
AcDbLayerTableRecord
  2
AM_8
 70
     0
 62
     1
  6
Continuous
370
    25
390
F
  0
LAYER
  5
3BE4
102
{ACAD_XDICTIONARY
360
447D
102
}
330
2
100
AcDbSymbolTableRecord
100
AcDbLayerTableRecord
  2
ｶﾞｽｹｯﾄ
 70
     0
 62
     5
  6
Continuous
370
    25
390
F
1001
AcAecLayerStandard
1000

1000

  0
LAYER
  5
43BD
102
{ACAD_XDICTIONARY
360
447F
102
}
330
2
100
AcDbSymbolTableRecord
100
AcDbLayerTableRecord
  2
AM_CL
 70
     0
 62
     1
  6
Amconstr
370
    25
390
F
  0
ENDTAB
  0
TABLE
  2
STYLE
  5
3
330
0
100
AcDbSymbolTable
 70
     7
  0
STYLE
  5
11
330
3
100
AcDbSymbolTableRecord
100
AcDbTextStyleTableRecord
  2
STANDARD
 70
     0
 40
0.0
 41
1.0
 50
0.0
 71
     0
 42
0.2
  3
ISOCP.SHX
  4
EXTFONT.SHX
  0
STYLE
  5
73
330
3
100
AcDbSymbolTableRecord
100
AcDbTextStyleTableRecord
  2

 70
     1
 40
0.0
 41
1.0
 50
0.0
 71
     0
 42
0.2
  3
ltypeshp.shx
  4

  0
STYLE
  5
7B
330
3
100
AcDbSymbolTableRecord
100
AcDbTextStyleTableRecord
  2
ACANSTS
 70
     0
 40
1.0
 41
1.0
 50
0.0
 71
     0
 42
0.2
  3
isoct.shx
  4
extfont.shx
  0
STYLE
  5
86
330
3
100
AcDbSymbolTableRecord
100
AcDbTextStyleTableRecord
  2
ACANSGDT
 70
     0
 40
0.0
 41
1.0
 50
0.0
 71
     0
 42
0.2
  3
amgdtans.shx
  4

  0
STYLE
  5
1D0
330
3
100
AcDbSymbolTableRecord
100
AcDbTextStyleTableRecord
  2
ACISOTS
 70
     0
 40
1.0
 41
1.0
 50
0.0
 71
     0
 42
0.2
  3
isocp.shx
  4
extfont.shx
  0
STYLE
  5
1DD
330
3
100
AcDbSymbolTableRecord
100
AcDbTextStyleTableRecord
  2
ACISOGDT
 70
     0
 40
0.0
 41
1.0
 50
0.0
 71
     0
 42
0.2
  3
amgdt.shx
  4

  0
STYLE
  5
94C
330
3
100
AcDbSymbolTableRecord
100
AcDbTextStyleTableRecord
  2
takachi1
 70
     0
 40
2.5
 41
1.0
 50
0.0
 71
     0
 42
2.5
  3
MS PGothic.ttf
  4

1001
ACAD
1000
MS PGothic
1071
    32818
  0
ENDTAB
  0
TABLE
  2
VIEW
  5
6
330
0
100
AcDbSymbolTable
 70
     6
  0
VIEW
  5
2A6
330
6
100
AcDbSymbolTableRecord
100
AcDbViewTableRecord
  2
AM_VIEW1
 70
     0
 40
420.0000000000001
 10
335.2777777777779
 20
630.0000000000002
 41
670.5555555555557
 11
0.0
 21
0.0
 31
1.0
 12
0.0
 22
0.0
 32
0.0
 42
50.0
 43
0.0
 44
0.0
 50
0.0
 71
    16
281
     0
 72
     0
  0
VIEW
  5
2A7
330
6
100
AcDbSymbolTableRecord
100
AcDbViewTableRecord
  2
AM_VIEW2
 70
     0
 40
420.0000000000001
 10
873.7222222222222
 20
630.0000000000002
 41
670.5555555555557
 11
0.0
 21
0.0
 31
1.0
 12
0.0
 22
0.0
 32
0.0
 42
50.0
 43
0.0
 44
0.0
 50
0.0
 71
    16
281
     0
 72
     0
  0
VIEW
  5
2A8
330
6
100
AcDbSymbolTableRecord
100
AcDbViewTableRecord
  2
AM_VIEW3
 70
     0
 40
420.0000000000001
 10
335.2777777777779
 20
210.0
 41
670.5555555555557
 11
0.0
 21
0.0
 31
1.0
 12
0.0
 22
0.0
 32
0.0
 42
50.0
 43
0.0
 44
0.0
 50
0.0
 71
    16
281
     0
 72
     0
  0
VIEW
  5
2A9
330
6
100
AcDbSymbolTableRecord
100
AcDbViewTableRecord
  2
AM_VIEW4
 70
     0
 40
420.0000000000001
 10
873.7222222222222
 20
210.0
 41
670.5555555555557
 11
0.0
 21
0.0
 31
1.0
 12
0.0
 22
0.0
 32
0.0
 42
50.0
 43
0.0
 44
0.0
 50
0.0
 71
    16
281
     0
 72
     0
  0
VIEW
  5
2AA
330
6
100
AcDbSymbolTableRecord
100
AcDbViewTableRecord
  2
AM_VIEW5
 70
     0
 40
420.0000000000001
 10
604.4999999999999
 20
420.0000000000001
 41
670.5555555555556
 11
0.0
 21
0.0
 31
1.0
 12
0.0
 22
0.0
 32
0.0
 42
50.0
 43
0.0
 44
0.0
 50
0.0
 71
    16
281
     0
 72
     0
  0
VIEW
  5
2AB
330
6
100
AcDbSymbolTableRecord
100
AcDbViewTableRecord
  2
AM_VIEW6
 70
     0
 40
839.9916000000002
 10
604.4999999999999
 20
420.0000000000001
 41
1341.0977
 11
0.0
 21
0.0
 31
1.0
 12
0.0
 22
0.0
 32
0.0
 42
50.0
 43
0.0
 44
0.0
 50
0.0
 71
    16
281
     0
 72
     0
  0
ENDTAB
  0
TABLE
  2
UCS
  5
7
330
0
100
AcDbSymbolTable
 70
     0
  0
ENDTAB
  0
TABLE
  2
APPID
  5
9
330
0
100
AcDbSymbolTable
 70
    36
  0
APPID
  5
12
330
9
100
AcDbSymbolTableRecord
100
AcDbRegAppTableRecord
  2
ACAD
 70
     0
  0
APPID
  5
4E
330
9
100
AcDbSymbolTableRecord
100
AcDbRegAppTableRecord
  2
MCAD_NO_VIS
 70
     0
  0
APPID
  5
4F
330
9
100
AcDbSymbolTableRecord
100
AcDbRegAppTableRecord
  2
ACAD_TEMP_GRAPHIC
 70
     0
  0
APPID
  5
60
330
9
100
AcDbSymbolTableRecord
100
AcDbRegAppTableRecord
  2
ACATTRIBSERVICES
 70
     0
  0
APPID
  5
F7
330
9
100
AcDbSymbolTableRecord
100
AcDbRegAppTableRecord
  2
AD_DRAW
 70
     0
  0
APPID
  5
115
330
9
100
AcDbSymbolTableRecord
100
AcDbRegAppTableRecord
  2
DESIGNERASSEMBLIES
 70
     0
  0
APPID
  5
11A
330
9
100
AcDbSymbolTableRecord
100
AcDbRegAppTableRecord
  2
ACADM_DIM_EDIT
 70
     0
  0
APPID
  5
11B
330
9
100
AcDbSymbolTableRecord
100
AcDbRegAppTableRecord
  2
AMDT_DM_ADJ
 70
     0
  0
APPID
  5
20C
330
9
100
AcDbSymbolTableRecord
100
AcDbRegAppTableRecord
  2
GENIUS_GENREC_14
 70
     0
  0
APPID
  5
20D
330
9
100
AcDbSymbolTableRecord
100
AcDbRegAppTableRecord
  2
GENIUS_GENODEF_13
 70
     0
  0
APPID
  5
20E
330
9
100
AcDbSymbolTableRecord
100
AcDbRegAppTableRecord
  2
GENIUS_GENOBJ-N-REC_13
 70
     0
  0
APPID
  5
20F
330
9
100
AcDbSymbolTableRecord
100
AcDbRegAppTableRecord
  2
GENIUS_GENCFG_13
 70
     0
  0
APPID
  5
210
330
9
100
AcDbSymbolTableRecord
100
AcDbRegAppTableRecord
  2
GENIUS_GENCFG0_13
 70
     0
  0
APPID
  5
211
330
9
100
AcDbSymbolTableRecord
100
AcDbRegAppTableRecord
  2
GENIUS_GENCFG1_13
 70
     0
  0
APPID
  5
212
330
9
100
AcDbSymbolTableRecord
100
AcDbRegAppTableRecord
  2
GENIUS_GENCFG2_13
 70
     0
  0
APPID
  5
213
330
9
100
AcDbSymbolTableRecord
100
AcDbRegAppTableRecord
  2
GENIUS_GENCFG3_13
 70
     0
  0
APPID
  5
214
330
9
100
AcDbSymbolTableRecord
100
AcDbRegAppTableRecord
  2
GENIUS_GENCFG4_13
 70
     0
  0
APPID
  5
215
330
9
100
AcDbSymbolTableRecord
100
AcDbRegAppTableRecord
  2
GENIUS_GEVCFG0_13
 70
     0
  0
APPID
  5
216
330
9
100
AcDbSymbolTableRecord
100
AcDbRegAppTableRecord
  2
GENIUS_GENOENT_13
 70
     0
  0
APPID
  5
217
330
9
100
AcDbSymbolTableRecord
100
AcDbRegAppTableRecord
  2
GENIUS_GENDIMSH_14
 70
     0
  0
APPID
  5
218
330
9
100
AcDbSymbolTableRecord
100
AcDbRegAppTableRecord
  2
GENIUS_GENOBJ-N-CRS_13
 70
     0
  0
APPID
  5
219
330
9
100
AcDbSymbolTableRecord
100
AcDbRegAppTableRecord
  2
GENIUS_GENOREF_13
 70
     0
  0
APPID
  5
21A
330
9
100
AcDbSymbolTableRecord
100
AcDbRegAppTableRecord
  2
GENIUS_GENOLIS_13
 70
     0
  0
APPID
  5
21B
330
9
100
AcDbSymbolTableRecord
100
AcDbRegAppTableRecord
  2
GENIUS_GENOBJ-N-TIT_13
 70
     0
  0
APPID
  5
21C
330
9
100
AcDbSymbolTableRecord
100
AcDbRegAppTableRecord
  2
GENIUS_GENTITLE_13
 70
     0
  0
APPID
  5
21D
330
9
100
AcDbSymbolTableRecord
100
AcDbRegAppTableRecord
  2
GENIUS_GENSCREG_15
 70
     0
  0
APPID
  5
21E
330
9
100
AcDbSymbolTableRecord
100
AcDbRegAppTableRecord
  2
GENIUS_GENOBJ-N-SDF_13
 70
     0
  0
APPID
  5
21F
330
9
100
AcDbSymbolTableRecord
100
AcDbRegAppTableRecord
  2
GENIUS_GENOBJ-N-CEN_13
 70
     0
  0
APPID
  5
220
330
9
100
AcDbSymbolTableRecord
100
AcDbRegAppTableRecord
  2
GENIUS_GENOBJ-N-HTC_13
 70
     0
  0
APPID
  5
221
330
9
100
AcDbSymbolTableRecord
100
AcDbRegAppTableRecord
  2
GENIUS_GENHATCH_13
 70
     0
  0
APPID
  5
222
330
9
100
AcDbSymbolTableRecord
100
AcDbRegAppTableRecord
  2
GENIUS_GENOBJ-N-ZOO_13
 70
     0
  0
APPID
  5
223
330
9
100
AcDbSymbolTableRecord
100
AcDbRegAppTableRecord
  2
GENIUS_GENZOO_17
 70
     0
  0
APPID
  5
2273
330
9
100
AcDbSymbolTableRecord
100
AcDbRegAppTableRecord
  2
GENIUS_GENOBJ-N-FIL_13
 70
     0
  0
APPID
  5
2287
330
9
100
AcDbSymbolTableRecord
100
AcDbRegAppTableRecord
  2
GENIUS_GENCEN_19
 70
     0
  0
APPID
  5
3BE5
330
9
100
AcDbSymbolTableRecord
100
AcDbRegAppTableRecord
  2
AcAecLayerStandard
 70
     0
  0
APPID
  5
4419
330
9
100
AcDbSymbolTableRecord
100
AcDbRegAppTableRecord
  2
ACAD_MLEADERVER
 70
     0
  0
ENDTAB
  0
TABLE
  2
DIMSTYLE
  5
A
330
0
100
AcDbSymbolTable
 70
    15
100
AcDbDimStyleTable
 71
     2
340
1E7
340
8C
  0
DIMSTYLE
105
27
330
A
100
AcDbSymbolTableRecord
100
AcDbDimStyleTableRecord
  2
Standard
 70
     0
340
11
  0
DIMSTYLE
105
8C
330
A
100
AcDbSymbolTableRecord
100
AcDbDimStyleTableRecord
  2
AM_ANSI
 70
     0
  4
mm
 41
0.1
 42
0.05
 43
0.5
 44
0.1
 47
0.1
 48
0.1
 78
     7
 79
     2
140
0.12
141
0.0
146
0.71
147
0.06
176
   256
177
   256
178
     2
274
     4
284
     7
340
11
371
    -1
372
    -1
  0
DIMSTYLE
105
8D
330
A
100
AcDbSymbolTableRecord
100
AcDbDimStyleTableRecord
  2
AM_ANSI$3
 70
     0
  4
mm
 41
0.1
 42
0.05
 43
0.5
 44
0.1
 47
0.1
 48
0.1
 78
     7
 79
     2
140
0.12
141
0.0
146
0.71
147
0.06
176
   256
177
   256
178
     2
274
     4
284
     7
288
     1
289
     0
340
11
371
    -1
372
    -1
  0
DIMSTYLE
105
8E
330
A
100
AcDbSymbolTableRecord
100
AcDbDimStyleTableRecord
  2
AM_ANSI$4
 70
     0
  4
mm
 41
0.1
 42
0.05
 43
0.5
 44
0.1
 47
0.1
 48
0.1
 78
     7
 79
     2
140
0.12
141
0.0
146
0.71
147
0.06
176
   256
177
   256
178
     2
274
     4
284
     7
288
     1
289
     0
340
11
371
    -1
372
    -1
  0
DIMSTYLE
105
8F
330
A
100
AcDbSymbolTableRecord
100
AcDbDimStyleTableRecord
  2
AM_ANSI$7
 70
     0
  4
mm
 41
0.1
 42
0.05
 43
0.5
 44
0.1
 47
0.1
 48
0.1
 78
     7
 79
     2
140
0.24
141
0.0
146
0.71
147
0.06
176
   256
177
   256
178
     2
274
     4
284
     7
340
11
371
    -1
372
    -1
  0
DIMSTYLE
105
90
330
A
100
AcDbSymbolTableRecord
100
AcDbDimStyleTableRecord
  2
AM_ANSI$SF
 70
     0
  4
mm
 41
0.1
 42
0.05
 43
0.5
 44
0.1
 47
0.1
 48
0.1
 75
     1
 76
     1
 78
     7
 79
     2
140
0.12
141
0.0
146
0.71
147
0.06
176
   256
177
   256
178
     2
274
     4
284
     7
340
11
371
    -1
372
    -1
  0
DIMSTYLE
105
95
330
A
100
AcDbSymbolTableRecord
100
AcDbDimStyleTableRecord
  2
AM_ANSI$SH
 70
     0
  4
mm
 41
0.1
 42
0.05
 43
0.5
 44
0.1
 47
0.1
 48
0.1
 75
     1
 76
     1
 78
     7
 79
     2
140
0.12
141
0.0
146
0.71
147
0.06
173
     1
176
   256
177
   256
178
     2
274
     4
284
     7
340
11
343
91
371
    -1
372
    -1
  0
DIMSTYLE
105
1E7
330
A
100
AcDbSymbolTableRecord
100
AcDbDimStyleTableRecord
  2
AM_ISO
 70
     0
  4
"
 41
2.5
 42
1.0
 43
10.0
 44
1.0
 47
0.1
 48
0.1
 73
     0
 74
     0
 77
     1
 78
     8
 79
     2
140
3.5
141
0.0
143
0.0393701
146
0.71
147
1.5
172
     1
176
     3
177
     3
178
     2
271
     2
272
     2
283
     0
284
     8
340
11
341
1F8
342
1F8
371
    -1
372
    -1
  0
DIMSTYLE
105
1E8
330
A
100
AcDbSymbolTableRecord
100
AcDbDimStyleTableRecord
  2
AM_ISO$3
 70
     0
  4
"
 41
2.5
 42
1.0
 43
10.0
 44
1.0
 47
0.1
 48
0.1
 73
     0
 77
     1
 78
     8
 79
     2
140
3.5
141
0.0
143
0.0393701
146
0.71
147
1.5
176
     3
177
     3
178
     2
271
     2
272
     2
283
     0
284
     8
288
     1
289
     0
340
11
341
1F8
342
1F8
371
    -1
372
    -1
  0
DIMSTYLE
105
1E9
330
A
100
AcDbSymbolTableRecord
100
AcDbDimStyleTableRecord
  2
AM_ISO$4
 70
     0
  4
"
 41
2.5
 42
1.0
 43
10.0
 44
1.0
 47
0.1
 48
0.1
 73
     0
 77
     1
 78
     8
 79
     2
140
3.5
141
0.0
143
0.0393701
146
0.71
147
1.5
176
     3
177
     3
178
     2
271
     2
272
     2
283
     0
284
     8
288
     1
289
     0
340
11
341
1F8
342
1F8
371
    -1
372
    -1
  0
DIMSTYLE
105
1EA
330
A
100
AcDbSymbolTableRecord
100
AcDbDimStyleTableRecord
  2
AM_ISO$6
 70
     0
  4
"
 41
2.5
 42
1.0
 43
10.0
 44
1.0
 47
0.1
 48
0.1
 73
     0
 74
     0
 78
     8
 79
     2
140
3.5
141
0.0
143
0.0393701
146
0.71
147
1.5
172
     1
176
     3
177
     3
178
     2
271
     2
272
     2
283
     0
284
     8
340
11
341
1F8
342
1F8
371
    -1
372
    -1
  0
DIMSTYLE
105
1EB
330
A
100
AcDbSymbolTableRecord
100
AcDbDimStyleTableRecord
  2
AM_ISO$7
 70
     0
  4
"
 41
2.5
 42
1.0
 43
10.0
 44
1.0
 47
0.1
 48
0.1
 73
     0
 74
     0
 77
     1
 78
     8
 79
     2
140
5.0
141
0.0
143
0.0393701
146
0.71
147
1.5
172
     1
176
     3
177
     3
178
     2
271
     2
272
     2
283
     0
284
     8
340
11
341
1F8
342
1F8
371
    -1
372
    -1
  0
DIMSTYLE
105
1EC
330
A
100
AcDbSymbolTableRecord
100
AcDbDimStyleTableRecord
  2
AM_ISO$SF
 70
     0
  4
"
 41
2.5
 42
1.0
 43
10.0
 44
1.0
 47
0.1
 48
0.1
 73
     0
 74
     0
 75
     1
 76
     1
 77
     1
 78
     8
 79
     2
140
3.5
141
0.0
143
0.0393701
146
0.71
147
1.5
172
     1
176
   256
177
   256
178
     2
271
     2
272
     3
274
     4
283
     0
284
     8
340
11
371
    -1
372
    -1
  0
DIMSTYLE
105
1ED
330
A
100
AcDbSymbolTableRecord
100
AcDbDimStyleTableRecord
  2
AM_ISO$SH
 70
     0
  4
"
 41
2.5
 42
1.0
 43
10.0
 44
1.0
 47
0.1
 48
0.1
 73
     0
 74
     0
 75
     1
 76
     1
 77
     1
 78
     8
 79
     2
140
3.5
141
0.0
143
0.0393701
144
2.0
146
0.71
147
1.5
172
     1
173
     1
176
   256
177
   256
178
     2
271
     2
272
     3
274
     4
283
     0
284
     8
340
11
343
91
371
    -1
372
    -1
  0
DIMSTYLE
105
2334
102
{ACAD_REACTORS
330
42FA
330
3D55
330
4334
102
}
330
A
100
AcDbSymbolTableRecord
100
AcDbDimStyleTableRecord
  2
AM_ISO$0
 70
     0
  4
"
 41
2.5
 42
1.0
 43
10.0
 44
1.0
 47
0.1
 48
0.1
 73
     0
 74
     0
 77
     1
 78
     8
 79
     2
140
3.5
141
0.0
143
0.0393701
146
0.71
147
1.5
172
     1
176
     3
177
     3
178
     2
271
     2
272
     2
283
     0
284
     8
340
11
341
1F8
342
1F8
371
    -1
372
    -1
  0
ENDTAB
  0
TABLE
  2
BLOCK_RECORD
  5
1
330
0
100
AcDbSymbolTable
 70
    14
  0
BLOCK_RECORD
  5
1F
102
{ACAD_XDICTIONARY
360
99
102
}
330
1
100
AcDbSymbolTableRecord
100
AcDbBlockTableRecord
  2
*Model_Space
340
22
  0
BLOCK_RECORD
  5
23
330
1
100
AcDbSymbolTableRecord
100
AcDbBlockTableRecord
  2
*Paper_Space
340
26
  0
BLOCK_RECORD
  5
1B
330
1
100
AcDbSymbolTableRecord
100
AcDbBlockTableRecord
  2
*Paper_Space0
340
1E
  0
BLOCK_RECORD
  5
91
330
1
100
AcDbSymbolTableRecord
100
AcDbBlockTableRecord
  2
GENAXEH
340
0
  0
BLOCK_RECORD
  5
1F8
330
1
100
AcDbSymbolTableRecord
100
AcDbBlockTableRecord
  2
_Open30
340
0
102
{BLKREFS
331
4308
331
4309
331
4342
331
4343
331
43B1
331
43B2
102
}
  0
BLOCK_RECORD
  5
AE9
102
{ACAD_XDICTIONARY
360
AF1
102
}
330
1
100
AcDbSymbolTableRecord
100
AcDbBlockTableRecord
  2
TK-A3
340
0
102
{BLKREFS
331
C54
102
}
  0
BLOCK_RECORD
  5
AFC
102
{ACAD_XDICTIONARY
360
B55
102
}
330
1
100
AcDbSymbolTableRecord
100
AcDbBlockTableRecord
  2
TK-TITLE
340
0
102
{BLKREFS
331
C56
102
}
  0
BLOCK_RECORD
  5
3D56
330
1
100
AcDbSymbolTableRecord
100
AcDbBlockTableRecord
  2
*D6
340
0
  0
BLOCK_RECORD
  5
42FB
330
1
100
AcDbSymbolTableRecord
100
AcDbBlockTableRecord
  2
*D7
340
0
  0
BLOCK_RECORD
  5
4335
330
1
100
AcDbSymbolTableRecord
100
AcDbBlockTableRecord
  2
*D8
340
0
  0
BLOCK_RECORD
  5
454B
330
1
100
AcDbSymbolTableRecord
100
AcDbBlockTableRecord
  2
*S9
340
0
  0
BLOCK_RECORD
  5
4552
330
1
100
AcDbSymbolTableRecord
100
AcDbBlockTableRecord
  2
*S10
340
0
  0
BLOCK_RECORD
  5
455A
330
1
100
AcDbSymbolTableRecord
100
AcDbBlockTableRecord
  2
*S11
340
0
  0
BLOCK_RECORD
  5
4561
330
1
100
AcDbSymbolTableRecord
100
AcDbBlockTableRecord
  2
*S12
340
0
  0
BLOCK_RECORD
  5
4568
330
1
100
AcDbSymbolTableRecord
100
AcDbBlockTableRecord
  2
*S13
340
0
  0
ENDTAB
  0
ENDSEC
  0
SECTION
  2
BLOCKS
  0
BLOCK
  5
20
330
1F
100
AcDbEntity
  8
0
100
AcDbBlockBegin
  2
*Model_Space
 70
     0
 10
0.0
 20
0.0
 30
0.0
  3
*Model_Space
  1

  0
ENDBLK
  5
21
330
1F
100
AcDbEntity
  8
0
100
AcDbBlockEnd
  0
BLOCK
  5
24
330
23
100
AcDbEntity
 67
     1
  8
0
100
AcDbBlockBegin
  2
*Paper_Space
 70
     0
 10
0.0
 20
0.0
 30
0.0
  3
*Paper_Space
  1

  0
ENDBLK
  5
25
330
23
100
AcDbEntity
 67
     1
  8
0
100
AcDbBlockEnd
  0
BLOCK
  5
1C
330
1B
100
AcDbEntity
 67
     1
  8
0
100
AcDbBlockBegin
  2
*Paper_Space0
 70
     0
 10
0.0
 20
0.0
 30
0.0
  3
*Paper_Space0
  1

  0
VIEWPORT
  5
182
102
{ACAD_XDICTIONARY
360
45A2
102
}
330
1B
100
AcDbEntity
 67
     1
  8
0
100
AcDbViewport
 10
5.249999639556163
 20
3.999999883606677
 30
0.0
 40
14.57585398793907
 41
8.992999745766947
 68
     0
 69
     0
 12
5.249999639556163
 22
3.999999883606677
 13
0.0
 23
0.0
 14
10.0
 24
10.0
 15
10.0
 25
10.0
 16
0.0
 26
0.0
 36
1.0
 17
0.0
 27
0.0
 37
0.0
 42
50.0
 43
0.0
 44
0.0
 45
8.992999745766947
 50
0.0
 51
0.0
 72
   100
 90
    32800
  1

281
     0
 71
     1
 74
     0
110
0.0
120
0.0
130
0.0
111
1.0
121
0.0
131
0.0
112
0.0
122
1.0
132
0.0
 79
     0
146
0.0
  0
ENDBLK
  5
1D
330
1B
100
AcDbEntity
 67
     1
  8
0
100
AcDbBlockEnd
  0
BLOCK
  5
93
330
91
100
AcDbEntity
  8
0
100
AcDbBlockBegin
  2
GENAXEH
 70
     0
 10
0.0
 20
0.0
 30
0.0
  3
GENAXEH
  1

  0
LINE
  5
92
330
91
100
AcDbEntity
  8
0
100
AcDbLine
 10
-1.0
 20
0.0
 30
0.0
 11
1.0
 21
0.0
 31
0.0
  0
ENDBLK
  5
94
330
91
100
AcDbEntity
  8
0
100
AcDbBlockEnd
  0
BLOCK
  5
1F9
330
1F8
100
AcDbEntity
  8
0
100
AcDbBlockBegin
  2
_Open30
 70
     0
 10
0.0
 20
0.0
 30
0.0
  3
_Open30
  1

  0
LINE
  5
1FA
330
1F8
100
AcDbEntity
  8
0
  6
ByBlock
 62
     0
370
    -2
100
AcDbLine
 10
-1.0
 20
0.26794919
 30
0.0
 11
0.0
 21
0.0
 31
0.0
  0
LINE
  5
1FB
330
1F8
100
AcDbEntity
  8
0
  6
ByBlock
 62
     0
370
    -2
100
AcDbLine
 10
0.0
 20
0.0
 30
0.0
 11
-1.0
 21
-0.26794919
 31
0.0
  0
LINE
  5
1FC
330
1F8
100
AcDbEntity
  8
0
  6
ByBlock
 62
     0
370
    -2
100
AcDbLine
 10
0.0
 20
0.0
 30
0.0
 11
-1.0
 21
0.0
 31
0.0
  0
ENDBLK
  5
1FD
330
1F8
100
AcDbEntity
  8
0
100
AcDbBlockEnd
  0
BLOCK
  5
AF2
330
AE9
100
AcDbEntity
  8
0
100
AcDbBlockBegin
  2
TK-A3
 70
     0
 10
0.0
 20
0.0
 30
0.0
  3
TK-A3
  1

  0
LINE
  5
AEA
330
AE9
100
AcDbEntity
  8
0
100
AcDbLine
 10
359.0
 20
280.0
 30
0.0
 11
359.0
 21
275.0
 31
0.0
  0
MTEXT
  5
AEB
330
AE9
100
AcDbEntity
  8
0
100
AcDbMText
 10
402.3592953827349
 20
276.108542987227
 30
0.0
 40
2.5
 41
43.07840397728298
 71
     9
 72
     5
  1
(文書番号：TY-34)2008.02.08
 73
     1
 44
1.0
1001
ACAD
1000
MTEXTBEGIN
1070
    73
1070
     1
1070
    44
1040
1.0
1070
    74
1070
     0
1000
MTEXTEND
  0
LINE
  5
AEC
330
AE9
100
AcDbEntity
  8
0
100
AcDbLine
 10
359.0
 20
275.0
 30
0.0
 11
403.0
 21
275.0
 31
0.0
  0
TEXT
  5
AED
330
AE9
100
AcDbEntity
  8
0
 60
     1
100
AcDbText
 10
403.0
 20
0.0
 30
0.0
 40
2.5
  1
!GENTITLE-INSERT
100
AcDbText
  0
TEXT
  5
AEE
330
AE9
100
AcDbEntity
  8
0
 60
     1
100
AcDbText
 10
0.0
 20
0.0
 30
0.0
 40
2.5
  1
!GENTITLE-LL
100
AcDbText
  0
TEXT
  5
AEF
330
AE9
100
AcDbEntity
  8
0
 60
     1
100
AcDbText
 10
403.0
 20
280.0
 30
0.0
 40
2.5
  1
!GENTITLE-MAX
100
AcDbText
  0
LWPOLYLINE
  5
AF0
330
AE9
100
AcDbEntity
  8
0
100
AcDbPolyline
 90
        4
 70
     1
 43
0.0
 10
0.0
 20
0.0
 10
403.0
 20
0.0
 10
403.0
 20
280.0
 10
0.0
 20
280.0000000000001
1001
GENIUS_GENREC_14
1002
{
1000
PYDIR
1011
0.0000000000000178
1021
280.0
1031
0.0
1002
}
1002
{
1000
PXDIR
1011
403.0
1021
0.0
1031
0.0
1002
}
1002
{
1000
PORI
1011
0.0
1021
0.0
1031
0.0
1002
}
1002
{
1000
PINS
1011
0.0
1021
0.0
1031
0.0
1002
}
1002
{
1000
PINS2
1011
403.0
1021
280.0
1031
0.0
1002
}
1002
{
1000
C
1070
     1
1002
}
1001
GENIUS_GENODEF_13
1002
{
1000
HIER
1070
     0
1002
}
1002
{
1000
MANEDIT
1070
     0
1002
}
1002
{
1000
NOSEL
1070
     0
1002
}
1002
{
1000
BEHIND
1070
     0
1002
}
1002
{
1000
OTHER
1070
     0
1002
}
1002
{
1000
REACTOR
1002
}
1001
GENIUS_GENOBJ-N-REC_13
1002
{
1000
OWNER
1000
GEN
1002
}
  0
ENDBLK
  5
AF3
330
AE9
100
AcDbEntity
  8
0
100
AcDbBlockEnd
  0
BLOCK
  5
B56
330
AFC
100
AcDbEntity
  8
0
100
AcDbBlockBegin
  2
TK-TITLE
 70
     2
 10
0.0
 20
0.0
 30
0.0
  3
TK-TITLE
  1

  0
LINE
  5
AFD
330
AFC
100
AcDbEntity
  8
0
100
AcDbLine
 10
-167.0
 20
12.49999999999996
 30
0.0
 11
-193.0000000000001
 21
12.49999999999996
 31
0.0
  0
LINE
  5
AFE
330
AFC
100
AcDbEntity
  8
0
100
AcDbLine
 10
-167.0
 20
37.49999999999998
 30
0.0
 11
-193.0000000000001
 21
37.49999999999998
 31
0.0
  0
ATTDEF
  5
AFF
330
AFC
100
AcDbEntity
  8
0
100
AcDbText
 10
-180.2171951662138
 20
3.588342537610664
 30
0.0
 40
3.0
  1

 72
     1
 11
-180.2171951662138
 21
3.588342537610664
 31
0.0
100
AcDbAttributeDefinition
  3
日付
  2
GEN-TITLE-DAT
 70
     0
 74
     1
  0
MTEXT
  5
B00
330
AFC
100
AcDbEntity
  8
RAHM2
100
AcDbMText
 10
-191.8002551371315
 20
11.3010354072796
 30
0.0
 40
2.5
 41
60.0
 71
     1
 72
     5
  1
日付
 73
     1
 44
1.0
1001
ACAD
1000
MTEXTBEGIN
1070
    73
1070
     1
1070
    44
1040
1.0
1070
    74
1070
     0
1000
MTEXTEND
  0
ATTDEF
  5
B01
330
AFC
100
AcDbEntity
  8
0
100
AcDbText
 10
-177.824739614424
 20
28.29999999999998
 30
0.0
 40
3.0
  1

 72
     2
 11
-177.824739614424
 21
28.29999999999998
 31
0.0
100
AcDbAttributeDefinition
  3
尺度
  2
GEN-TITLE-SCA
 70
     0
 74
     1
  0
MTEXT
  5
B02
330
AFC
100
AcDbEntity
  8
RAHM2
100
AcDbMText
 10
-191.8002551371315
 20
36.30103540727966
 30
0.0
 40
2.5
 41
20.0
 71
     1
 72
     5
  1
尺度
 73
     1
 44
1.0
1001
ACAD
1000
MTEXTBEGIN
1070
    73
1070
     1
1070
    44
1040
1.0
1070
    74
1070
     0
1000
MTEXTEND
  0
MTEXT
  5
B03
330
AFC
100
AcDbEntity
  8
RAHM2
100
AcDbMText
 10
-191.8002551371315
 20
23.80103540727963
 30
0.0
 40
2.5
 41
20.0
 71
     1
 72
     5
  1
数量
 73
     1
 44
1.0
1001
ACAD
1000
MTEXTBEGIN
1070
    73
1070
     1
1070
    44
1040
1.0
1070
    74
1070
     0
1000
MTEXTEND
  0
ATTDEF
  5
B04
330
AFC
100
AcDbEntity
  8
0
100
AcDbText
 10
-175.6127409126095
 20
15.79999999999994
 30
0.0
 40
3.0
  1

 72
     2
 11
-175.6127409126095
 21
15.79999999999994
 31
0.0
100
AcDbAttributeDefinition
  3
数量
  2
GEN-TITLE-QTY
 70
     0
 74
     1
  0
LINE
  5
B05
330
AFC
100
AcDbEntity
  8
0
100
AcDbLine
 10
-193.0000000000001
 20
49.99999999999999
 30
0.0
 11
-193.0000000000001
 21
-0.0000000000000142
 31
0.0
  0
LINE
  5
B06
330
AFC
100
AcDbEntity
  8
7A
100
AcDbLine
 10
-184.7167418745796
 20
43.74999999999995
 30
0.0
 11
-170.9354334742943
 21
43.74999999999995
 31
0.0
1001
GENIUS_GENOREF_13
1005
B54
  0
LINE
  5
B07
330
AFC
100
AcDbEntity
  8
0
100
AcDbLine
 10
-179.7167418745796
 20
45.74999999999994
 30
0.0
 11
-171.7167418745796
 21
46.74999999999995
 31
0.0
  0
LINE
  5
B08
330
AFC
100
AcDbEntity
  8
0
100
AcDbLine
 10
-171.7167418745796
 20
40.74999999999994
 30
0.0
 11
-179.7167418745796
 21
41.74999999999995
 31
0.0
  0
LINE
  5
B09
330
AFC
100
AcDbEntity
  8
7A
100
AcDbLine
 10
-184.7167418745796
 20
43.74999999999995
 30
0.0
 11
-184.7167418745796
 21
47.32478664473144
 31
0.0
1001
GENIUS_GENOREF_13
1005
B54
  0
CIRCLE
  5
B0A
330
AFC
100
AcDbEntity
  8
0
100
AcDbCircle
 10
-184.7167418745796
 20
43.74999999999995
 30
0.0
 40
2.0
  0
CIRCLE
  5
B0B
330
AFC
100
AcDbEntity
  8
0
100
AcDbCircle
 10
-184.7167418745796
 20
43.74999999999995
 30
0.0
 40
3.0
  0
LINE
  5
B0C
330
AFC
100
AcDbEntity
  8
0
100
AcDbLine
 10
-179.7167418745796
 20
41.74999999999995
 30
0.0
 11
-179.7167418745796
 21
45.74999999999994
 31
0.0
  0
LINE
  5
B0D
330
AFC
100
AcDbEntity
  8
7A
100
AcDbLine
 10
-184.7167418745796
 20
43.74999999999995
 30
0.0
 11
-188.4397792458307
 21
43.74999999999995
 31
0.0
1001
GENIUS_GENOREF_13
1005
B54
  0
LINE
  5
B0E
330
AFC
100
AcDbEntity
  8
7A
100
AcDbLine
 10
-184.7167418745796
 20
43.74999999999995
 30
0.0
 11
-184.7167418745796
 21
40.03991724228473
 31
0.0
1001
GENIUS_GENOREF_13
1005
B54
  0
LINE
  5
B0F
330
AFC
100
AcDbEntity
  8
0
100
AcDbLine
 10
-171.7167418745796
 20
46.74999999999995
 30
0.0
 11
-171.7167418745796
 21
40.74999999999994
 31
0.0
  0
LINE
  5
B10
330
AFC
100
AcDbEntity
  8
0
100
AcDbLine
 10
-167.0
 20
24.99999999999997
 30
0.0
 11
-193.0000000000001
 21
24.99999999999997
 31
0.0
  0
LINE
  5
B11
330
AFC
100
AcDbEntity
  8
0
100
AcDbLine
 10
-167.0
 20
39.99999999999991
 30
0.0
 11
-96.0
 21
39.99999999999992
 31
0.0
  0
MTEXT
  5
B12
330
AFC
100
AcDbEntity
  8
RAHM2
100
AcDbMText
 10
-165.8002551371314
 20
38.80103540727956
 30
0.0
 40
2.5
 41
60.0
 71
     1
 72
     5
  1
表面処理
 73
     1
 44
1.0
1001
ACAD
1000
MTEXTBEGIN
1070
    73
1070
     1
1070
    44
1040
1.0
1070
    74
1070
     0
1000
MTEXTEND
  0
MTEXT
  5
B13
330
AFC
100
AcDbEntity
  8
RAHM2
100
AcDbMText
 10
-165.8002551371314
 20
48.80103540727955
 30
0.0
 40
2.5
 41
60.0
 71
     1
 72
     5
  1
材質
 73
     1
 44
1.0
1001
ACAD
1000
MTEXTBEGIN
1070
    73
1070
     1
1070
    44
1040
1.0
1070
    74
1070
     0
1000
MTEXTEND
  0
ATTDEF
  5
B14
330
AFC
100
AcDbEntity
  8
0
100
AcDbText
 10
-148.9618675835291
 20
33.29999999999991
 30
0.0
 40
3.0
  1

100
AcDbAttributeDefinition
  3
表面処理
  2
GEN-TITLE-MAT2
 70
     0
  0
ATTDEF
  5
B15
330
AFC
100
AcDbEntity
  8
0
100
AcDbText
 10
-148.9618675835291
 20
43.29999999999991
 30
0.0
 40
3.0
  1

100
AcDbAttributeDefinition
  3
材質
  2
GEN-TITLE-MAT1
 70
     0
  0
MTEXT
  5
B16
330
AFC
100
AcDbEntity
  8
0
100
AcDbMText
 10
-131.5000000000001
 20
24.99999999999992
 30
0.0
 40
3.5
 41
60.0
 71
     5
 72
     5
  1
\fＭＳ ゴシック|b0|i0|c128|p49;株式会社タカチ電機工業
 73
     1
 44
1.0
1001
ACAD
1000
MTEXTBEGIN
1070
    73
1070
     1
1070
    44
1040
1.0
1070
    74
1070
     0
1000
MTEXTEND
  0
LINE
  5
B17
330
AFC
100
AcDbEntity
  8
0
100
AcDbLine
 10
-167.0
 20
29.99999999999992
 30
0.0
 11
-96.0
 21
29.99999999999992
 31
0.0
  0
MTEXT
  5
B18
330
AFC
100
AcDbEntity
  8
RAHM2
100
AcDbMText
 10
-158.1250000000001
 20
18.80103540727956
 30
0.0
 40
2.5
 41
17.0
 71
     2
 72
     5
  1
承認
 73
     1
 44
1.0
1001
ACAD
1000
MTEXTBEGIN
1070
    73
1070
     1
1070
    44
1040
1.0
1070
    74
1070
     0
1000
MTEXTEND
  0
MTEXT
  5
B19
330
AFC
100
AcDbEntity
  8
RAHM2
100
AcDbMText
 10
-140.3750000000001
 20
18.80103540727958
 30
0.0
 40
2.5
 41
17.0
 71
     2
 72
     5
  1
承認
 73
     1
 44
1.0
1001
ACAD
1000
MTEXTBEGIN
1070
    73
1070
     1
1070
    44
1040
1.0
1070
    74
1070
     0
1000
MTEXTEND
  0
LINE
  5
B1A
330
AFC
100
AcDbEntity
  8
0
100
AcDbLine
 10
-149.2500000000001
 20
19.99999999999993
 30
0.0
 11
-149.2500000000001
 21
-0.0000000000000462
 31
0.0
  0
LINE
  5
B1B
330
AFC
100
AcDbEntity
  8
0
100
AcDbLine
 10
-167.0
 20
49.99999999999995
 30
0.0
 11
-167.0
 21
-0.0000000000000497
 31
0.0
  0
MTEXT
  5
B1C
330
AFC
100
AcDbEntity
  8
RAHM2
100
AcDbMText
 10
-122.6250000000001
 20
18.80103540727958
 30
0.0
 40
2.5
 41
17.0
 71
     2
 72
     5
  1
検図
 73
     1
 44
1.0
1001
ACAD
1000
MTEXTBEGIN
1070
    73
1070
     1
1070
    44
1040
1.0
1070
    74
1070
     0
1000
MTEXTEND
  0
LINE
  5
B1D
330
AFC
100
AcDbEntity
  8
0
100
AcDbLine
 10
-131.5000000000001
 20
19.99999999999993
 30
0.0
 11
-131.5000000000001
 21
-0.0000000000000533
 31
0.0
  0
LINE
  5
B1E
330
AFC
100
AcDbEntity
  8
0
100
AcDbLine
 10
-113.75
 20
19.99999999999993
 30
0.0
 11
-113.75
 21
-0.0000000000000533
 31
0.0
  0
LINE
  5
B1F
330
AFC
100
AcDbEntity
  8
0
100
AcDbLine
 10
-167.0
 20
19.99999999999993
 30
0.0
 11
-96.0
 21
19.99999999999993
 31
0.0
  0
MTEXT
  5
B20
330
AFC
100
AcDbEntity
  8
RAHM2
100
AcDbMText
 10
-104.875
 20
18.80103540727957
 30
0.0
 40
2.5
 41
17.0
 71
     2
 72
     5
  1
製図
 73
     1
 44
1.0
1001
ACAD
1000
MTEXTBEGIN
1070
    73
1070
     1
1070
    44
1040
1.0
1070
    74
1070
     0
1000
MTEXTEND
  0
MTEXT
  5
B21
330
AFC
100
AcDbEntity
  8
RAHM2
100
AcDbMText
 10
-16.85742592933491
 20
3.434762466565985
 30
0.0
 40
2.5
 41
7.936478436748416
 71
     5
 72
     5
  1
Rev.
 73
     1
 44
1.0
1001
ACAD
1000
MTEXTBEGIN
1070
    73
1070
     1
1070
    44
1040
1.0
1070
    74
1070
     0
1000
MTEXTEND
  0
LINE
  5
B22
330
AFC
100
AcDbEntity
  8
0
100
AcDbLine
 10
-21.17541926625711
 20
0.0
 30
0.0
 11
-21.17541926625734
 21
7.0
 31
0.0
  0
LINE
  5
B23
330
AFC
100
AcDbEntity
  8
RAHM2
100
AcDbLine
 10
-96.0
 20
29.99999999999992
 30
0.0
 11
0.0000000000001137
 21
30.00000000000003
 31
0.0
  0
LINE
  5
B24
330
AFC
100
AcDbEntity
  8
RAHM2
100
AcDbLine
 10
-96.0
 20
35.00000000000003
 30
0.0
 11
0.0000000000001137
 21
35.00000000000003
 31
0.0
  0
LINE
  5
B25
330
AFC
100
AcDbEntity
  8
RAHM2
100
AcDbLine
 10
-96.0
 20
39.99999999999993
 30
0.0
 11
0.0000000000001137
 21
40.00000000000002
 31
0.0
  0
LINE
  5
B26
330
AFC
100
AcDbEntity
  8
RAHM2
100
AcDbLine
 10
-96.0
 20
45.00000000000002
 30
0.0
 11
0.0000000000001137
 21
45.00000000000002
 31
0.0
  0
LINE
  5
B27
330
AFC
100
AcDbEntity
  8
0
100
AcDbLine
 10
-96.0
 20
7.0
 30
0.0
 11
0.0000000000001137
 21
7.0
 31
0.0
  0
LINE
  5
B28
330
AFC
100
AcDbEntity
  8
0
100
AcDbLine
 10
-96.0
 20
19.99999999999997
 30
0.0
 11
0.0000000000001137
 21
19.99999999999997
 31
0.0
  0
MTEXT
  5
B29
330
AFC
100
AcDbEntity
  8
RAHM2
100
AcDbMText
 10
-94.80025513713144
 20
5.801035407279627
 30
0.0
 40
2.5
 41
90.0
 71
     1
 72
     5
  1
図番
 73
     1
 44
1.0
1001
ACAD
1000
MTEXTBEGIN
1070
    73
1070
     1
1070
    44
1040
1.0
1070
    74
1070
     0
1000
MTEXTEND
  0
LINE
  5
B2A
330
AFC
100
AcDbEntity
  8
RAHM2
100
AcDbLine
 10
-88.57512886940355
 20
30.40000000000002
 30
0.0
 11
-91.0
 21
34.60000000000001
 31
0.0
  0
LINE
  5
B2B
330
AFC
100
AcDbEntity
  8
RAHM2
100
AcDbLine
 10
-91.0
 20
34.60000000000001
 30
0.0
 11
-93.42487113059645
 21
30.40000000000002
 31
0.0
  0
LINE
  5
B2C
330
AFC
100
AcDbEntity
  8
RAHM2
100
AcDbLine
 10
-86.0
 20
50.00000000000001
 30
0.0
 11
-86.0
 21
19.99999999999993
 31
0.0
  0
LINE
  5
B2D
330
AFC
100
AcDbEntity
  8
RAHM2
100
AcDbLine
 10
-93.42487113059645
 20
30.40000000000002
 30
0.0
 11
-88.57512886940355
 21
30.40000000000002
 31
0.0
  0
MTEXT
  5
B2E
330
AFC
100
AcDbEntity
  8
RAHM2
100
AcDbMText
 10
-91.0
 20
22.49999999999996
 30
0.0
 40
2.5
 41
10.0
 71
     5
 72
     5
  1
符号
 73
     1
 44
1.0
1001
ACAD
1000
MTEXTBEGIN
1070
    73
1070
     1
1070
    44
1040
1.0
1070
    74
1070
     0
1000
MTEXTEND
  0
MTEXT
  5
B2F
330
AFC
100
AcDbEntity
  8
RAHM2
100
AcDbMText
 10
-94.80025513713144
 20
18.8010354072796
 30
0.0
 40
2.5
 41
90.0
 71
     1
 72
     5
  1
品名
 73
     1
 44
1.0
1001
ACAD
1000
MTEXTBEGIN
1070
    73
1070
     1
1070
    44
1040
1.0
1070
    74
1070
     0
1000
MTEXTEND
  0
LINE
  5
B30
330
AFC
100
AcDbEntity
  8
RAHM2
100
AcDbLine
 10
-93.42487113059645
 20
45.40000000000001
 30
0.0
 11
-88.57512886940355
 21
45.40000000000001
 31
0.0
  0
LINE
  5
B31
330
AFC
100
AcDbEntity
  8
RAHM2
100
AcDbLine
 10
-88.57512886940355
 20
45.40000000000001
 30
0.0
 11
-91.0
 21
49.6
 31
0.0
  0
LINE
  5
B32
330
AFC
100
AcDbEntity
  8
RAHM2
100
AcDbLine
 10
-93.42487113059645
 20
40.40000000000001
 30
0.0
 11
-88.57512886940355
 21
40.40000000000001
 31
0.0
  0
LINE
  5
B33
330
AFC
100
AcDbEntity
  8
RAHM2
100
AcDbLine
 10
-88.57512886940355
 20
40.40000000000001
 30
0.0
 11
-91.0
 21
44.6
 31
0.0
  0
LINE
  5
B34
330
AFC
100
AcDbEntity
  8
RAHM2
100
AcDbLine
 10
-93.42487113059645
 20
35.40000000000002
 30
0.0
 11
-88.57512886940355
 21
35.40000000000002
 31
0.0
  0
LINE
  5
B35
330
AFC
100
AcDbEntity
  8
RAHM2
100
AcDbLine
 10
-88.57512886940355
 20
35.40000000000002
 30
0.0
 11
-91.0
 21
39.60000000000001
 31
0.0
  0
LINE
  5
B36
330
AFC
100
AcDbEntity
  8
RAHM2
100
AcDbLine
 10
-91.0
 20
39.60000000000001
 30
0.0
 11
-93.42487113059645
 21
35.40000000000002
 31
0.0
  0
LINE
  5
B37
330
AFC
100
AcDbEntity
  8
RAHM2
100
AcDbLine
 10
-91.0
 20
44.6
 30
0.0
 11
-93.42487113059645
 21
40.40000000000001
 31
0.0
  0
LINE
  5
B38
330
AFC
100
AcDbEntity
  8
RAHM2
100
AcDbLine
 10
-91.0
 20
49.6
 30
0.0
 11
-93.42487113059645
 21
45.40000000000001
 31
0.0
  0
LINE
  5
B39
330
AFC
100
AcDbEntity
  8
RAHM2
100
AcDbLine
 10
-31.82081941068907
 20
50.00000000000003
 30
0.0
 11
-31.82081941068918
 21
19.99999999999994
 31
0.0
  0
MTEXT
  5
B3A
330
AFC
100
AcDbEntity
  8
RAHM2
100
AcDbMText
 10
-59.0
 20
22.49999999999996
 30
0.0
 40
2.5
 41
45.0
 71
     5
 72
     5
  1
変更記事
 73
     1
 44
1.0
1001
ACAD
1000
MTEXTBEGIN
1070
    73
1070
     1
1070
    44
1040
1.0
1070
    74
1070
     0
1000
MTEXTEND
  0
LINE
  5
B3B
330
AFC
100
AcDbEntity
  8
RAHM2
100
AcDbLine
 10
-11.82081941068907
 20
50.00000000000003
 30
0.0
 11
-11.82081941068907
 21
19.99999999999994
 31
0.0
  0
MTEXT
  5
B3C
330
AFC
100
AcDbEntity
  8
RAHM2
100
AcDbMText
 10
-22.27910888308327
 20
32.50000000000003
 30
0.0
 40
2.5
 41
20.0
 71
     5
 72
     5
  1
・  ・   
 73
     1
 44
1.0
1001
ACAD
1000
MTEXTBEGIN
1070
    73
1070
     1
1070
    44
1040
1.0
1070
    74
1070
     0
1000
MTEXTEND
  0
MTEXT
  5
B3D
330
AFC
100
AcDbEntity
  8
RAHM2
100
AcDbMText
 10
-21.55893921569111
 20
22.49999999999997
 30
0.0
 40
2.5
 41
20.0
 71
     5
 72
     5
  1
年・月・日
 73
     1
 44
1.0
1001
ACAD
1000
MTEXTBEGIN
1070
    73
1070
     1
1070
    44
1040
1.0
1070
    74
1070
     0
1000
MTEXTEND
  0
MTEXT
  5
B3E
330
AFC
100
AcDbEntity
  8
RAHM2
100
AcDbMText
 10
-5.910409705344477
 20
22.49999999999997
 30
0.0
 40
2.5
 41
15.0
 71
     5
 72
     5
  1
担当
 73
     1
 44
1.0
1001
ACAD
1000
MTEXTBEGIN
1070
    73
1070
     1
1070
    44
1040
1.0
1070
    74
1070
     0
1000
MTEXTEND
  0
MTEXT
  5
B3F
330
AFC
100
AcDbEntity
  8
RAHM2
100
AcDbMText
 10
-22.27910888308327
 20
42.50000000000002
 30
0.0
 40
2.5
 41
20.0
 71
     5
 72
     5
  1
・  ・   
 73
     1
 44
1.0
1001
ACAD
1000
MTEXTBEGIN
1070
    73
1070
     1
1070
    44
1040
1.0
1070
    74
1070
     0
1000
MTEXTEND
  0
MTEXT
  5
B40
330
AFC
100
AcDbEntity
  8
RAHM2
100
AcDbMText
 10
-22.27910888308327
 20
37.50000000000003
 30
0.0
 40
2.5
 41
20.0
 71
     5
 72
     5
  1
・  ・   
 73
     1
 44
1.0
1001
ACAD
1000
MTEXTBEGIN
1070
    73
1070
     1
1070
    44
1040
1.0
1070
    74
1070
     0
1000
MTEXTEND
  0
MTEXT
  5
B41
330
AFC
100
AcDbEntity
  8
RAHM2
100
AcDbMText
 10
-22.27910888308327
 20
47.50000000000002
 30
0.0
 40
2.5
 41
20.0
 71
     5
 72
     5
  1
・  ・   
 73
     1
 44
1.0
1001
ACAD
1000
MTEXTBEGIN
1070
    73
1070
     1
1070
    44
1040
1.0
1070
    74
1070
     0
1000
MTEXTEND
  0
LINE
  5
B42
330
AFC
100
AcDbEntity
  8
RAHM2
100
AcDbLine
 10
-91.0
 20
29.60000000000001
 30
0.0
 11
-93.42487113059645
 21
25.40000000000002
 31
0.0
  0
LINE
  5
B43
330
AFC
100
AcDbEntity
  8
RAHM2
100
AcDbLine
 10
-88.57512886940355
 20
25.40000000000002
 30
0.0
 11
-91.0
 21
29.60000000000001
 31
0.0
  0
LINE
  5
B44
330
AFC
100
AcDbEntity
  8
RAHM2
100
AcDbLine
 10
-93.42487113059645
 20
25.40000000000002
 30
0.0
 11
-88.57512886940355
 21
25.40000000000002
 31
0.0
  0
LINE
  5
B45
330
AFC
100
AcDbEntity
  8
RAHM2
100
AcDbLine
 10
-96.0
 20
25.0
 30
0.0
 11
0.0000000000001137
 21
25.00000000000003
 31
0.0
  0
MTEXT
  5
B46
330
AFC
100
AcDbEntity
  8
RAHM2
100
AcDbMText
 10
-22.27910888308327
 20
27.50000000000003
 30
0.0
 40
2.5
 41
20.0
 71
     5
 72
     5
  1
・  ・   
 73
     1
 44
1.0
1001
ACAD
1000
MTEXTBEGIN
1070
    73
1070
     1
1070
    44
1040
1.0
1070
    74
1070
     0
1000
MTEXTEND
  0
TEXT
  5
B47
330
AFC
100
AcDbEntity
  8
RAHM2
100
AcDbText
 10
-91.81558635658019
 20
25.65000000000002
 30
0.0
 40
2.5
  1
1
 72
     1
 11
-91.19058635658019
 21
25.65000000000002
 31
0.0
100
AcDbText
 73
     1
  0
TEXT
  5
B48
330
AFC
100
AcDbEntity
  8
RAHM2
100
AcDbText
 10
-91.91833169291339
 20
30.65000000000002
 30
0.0
 40
2.5
  1
2
 72
     1
 11
-91.0
 21
30.65000000000002
 31
0.0
100
AcDbText
 73
     1
  0
TEXT
  5
B49
330
AFC
100
AcDbEntity
  8
RAHM2
100
AcDbText
 10
-91.92677669529663
 20
35.64999999999999
 30
0.0
 40
2.5
  1
3
 72
     1
 11
-91.0
 21
35.64999999999999
 31
0.0
100
AcDbText
 73
     1
  0
TEXT
  5
B4A
330
AFC
100
AcDbEntity
  8
RAHM2
100
AcDbText
 10
-92.0
 20
40.65000000000002
 30
0.0
 40
2.5
  1
4
 72
     1
 11
-91.0
 21
40.65000000000002
 31
0.0
100
AcDbText
 73
     1
  0
TEXT
  5
B4B
330
AFC
100
AcDbEntity
  8
RAHM2
100
AcDbText
 10
-91.92677669529663
 20
45.65000000000002
 30
0.0
 40
2.5
  1
5
 72
     1
 11
-91.0
 21
45.65000000000002
 31
0.0
100
AcDbText
 73
     1
  0
LINE
  5
B4C
330
AFC
100
AcDbEntity
  8
0
100
AcDbLine
 10
-193.0000000000001
 20
0.0
 30
0.0
 11
0.0
 21
0.0
 31
0.0
1001
GENIUS_GENREC_14
1002
{
1000
PYDIR
1011
-184.0
1021
50.0
1031
0.0
1002
}
1002
{
1000
PXDIR
1011
0.0
1021
0.0
1031
0.0
1002
}
1002
{
1000
PORI
1011
-184.0
1021
0.0
1031
0.0
1002
}
1002
{
1000
PINS
1011
-100.5
1021
25.0
1031
0.0
1002
}
1002
{
1000
HVAL
1000
50
1002
}
1002
{
1000
H
1070
     2
1002
}
1002
{
1000
WVAL
1000
167
1002
}
1002
{
1000
W
1070
     2
1002
}
1002
{
1000
C
1070
     4
1002
}
1001
GENIUS_GENODEF_13
1002
{
1000
HIER
1070
     0
1002
}
1002
{
1000
MANEDIT
1070
     0
1002
}
1002
{
1000
NOSEL
1070
     0
1002
}
1002
{
1000
BEHIND
1070
     0
1002
}
1002
{
1000
REACTOR
1002
}
1001
GENIUS_GENOBJ-N-REC_13
1002
{
1000
OWNER
1000
GEN
1002
}
  0
LINE
  5
B4D
330
AFC
100
AcDbEntity
  8
0
100
AcDbLine
 10
0.0
 20
50.0
 30
0.0
 11
-193.0000000000001
 21
50.00000000000002
 31
0.0
1001
GENIUS_GENREC_14
1002
{
1000
PYDIR
1011
-184.0
1021
50.0
1031
0.0
1002
}
1002
{
1000
PXDIR
1011
0.0
1021
0.0
1031
0.0
1002
}
1002
{
1000
PORI
1011
-184.0
1021
0.0
1031
0.0
1002
}
1002
{
1000
PINS
1011
-100.5
1021
25.0
1031
0.0
1002
}
1002
{
1000
HVAL
1000
50
1002
}
1002
{
1000
H
1070
     2
1002
}
1002
{
1000
WVAL
1000
167
1002
}
1002
{
1000
W
1070
     2
1002
}
1002
{
1000
C
1070
     4
1002
}
1001
GENIUS_GENODEF_13
1002
{
1000
HIER
1070
     0
1002
}
1002
{
1000
MANEDIT
1070
     0
1002
}
1002
{
1000
NOSEL
1070
     0
1002
}
1002
{
1000
BEHIND
1070
     0
1002
}
1002
{
1000
REACTOR
1002
}
1001
GENIUS_GENOBJ-N-REC_13
1002
{
1000
OWNER
1000
GEN
1002
}
  0
LINE
  5
B4E
330
AFC
100
AcDbEntity
  8
0
100
AcDbLine
 10
-96.0
 20
50.00000000000001
 30
0.0
 11
-96.0
 21
-0.0000000000000142
 31
0.0
1001
GENIUS_GENREC_14
1002
{
1000
PYDIR
1011
-96.0
1021
49.99999999999999
1031
0.0
1002
}
1002
{
1000
PXDIR
1011
88.0
1021
-0.0000000000000142
1031
0.0
1002
}
1002
{
1000
PORI
1011
-96.0
1021
-0.0000000000000142
1031
0.0
1002
}
1002
{
1000
PINS
1011
-12.5
1021
24.99999999999999
1031
0.0
1002
}
1002
{
1000
HVAL
1000
50
1002
}
1002
{
1000
H
1070
     2
1002
}
1002
{
1000
WVAL
1000
167
1002
}
1002
{
1000
W
1070
     2
1002
}
1002
{
1000
C
1070
     4
1002
}
1001
GENIUS_GENODEF_13
1002
{
1000
HIER
1070
     0
1002
}
1002
{
1000
MANEDIT
1070
     0
1002
}
1002
{
1000
NOSEL
1070
     0
1002
}
1002
{
1000
BEHIND
1070
     0
1002
}
1002
{
1000
REACTOR
1002
}
1001
GENIUS_GENOBJ-N-REC_13
1002
{
1000
OWNER
1000
GEN
1002
}
  0
ATTDEF
  5
B4F
330
AFC
100
AcDbEntity
  8
0
100
AcDbText
 10
-84.0
 20
1.999999999999957
 30
0.0
 40
3.0
  1

100
AcDbAttributeDefinition
  3
図番
  2
GEN-TITLE-NR1
 70
     0
  0
ATTDEF
  5
B50
330
AFC
100
AcDbEntity
  8
0
100
AcDbText
 10
-84.0
 20
9.149999999999948
 30
0.0
 40
2.5
  1

100
AcDbAttributeDefinition
  3
サブタイトル
  2
GEN-TITLE-DES2
 70
     0
  0
LINE
  5
B51
330
AFC
100
AcDbEntity
  8
0
100
AcDbLine
 10
0.0
 20
0.0
 30
0.0
 11
0.0
 21
50.0
 31
0.0
1001
GENIUS_GENREC_14
1002
{
1000
PYDIR
1011
-414.0
1021
291.0
1031
0.0
1002
}
1002
{
1000
PXDIR
1011
6.0
1021
-6.0
1031
0.0
1002
}
1002
{
1000
PORI
1011
-414.0
1021
-6.0
1031
0.0
1002
}
1002
{
1000
PINS
1011
-414.0
1021
-6.0
1031
0.0
1002
}
1002
{
1000
HVAL
1000
297
1002
}
1002
{
1000
H
1070
     2
1002
}
1002
{
1000
WVAL
1000
420
1002
}
1002
{
1000
W
1070
     2
1002
}
1002
{
1000
C
1070
     1
1002
}
1001
GENIUS_GENODEF_13
1002
{
1000
HIER
1070
     0
1002
}
1002
{
1000
MANEDIT
1070
     0
1002
}
1002
{
1000
NOSEL
1070
     0
1002
}
1002
{
1000
BEHIND
1070
     0
1002
}
1002
{
1000
OTHER
1070
     0
1002
}
1002
{
1000
REACTOR
1002
}
1001
GENIUS_GENOBJ-N-REC_13
1002
{
1000
OWNER
1000
GEN
1002
}
  0
ATTDEF
  5
B52
330
AFC
100
AcDbEntity
  8
0
100
AcDbText
 10
-84.14251901585329
 20
12.82790432564377
 30
0.0
 40
3.5
  1

100
AcDbAttributeDefinition
  3
品名
  2
GEN-TITLE-DES1
 70
     0
  0
ATTDEF
  5
B53
330
AFC
100
AcDbEntity
  8
0
100
AcDbText
 10
-8.002309189545826
 20
1.705189434395036
 30
0.0
 40
2.5
  1

100
AcDbAttributeDefinition
  3
Rev.
  2
GEN-TITLE-NR2
 70
     0
  0
POINT
  5
B54
330
AFC
100
AcDbEntity
  8
0
 60
     1
100
AcDbPoint
 10
-418.5355579819675
 20
-138.1104841268254
 30
0.0
1001
GENIUS_GENODEF_13
1002
{
1000
HIER
1070
    10
1002
}
1002
{
1000
MANEDIT
1070
     0
1002
}
1002
{
1000
NOSEL
1070
     0
1002
}
1002
{
1000
BEHIND
1070
     0
1002
}
1002
{
1000
REACTOR
1002
}
1001
GENIUS_GENOBJ-N-CRS_13
1002
{
1000
OWNER
1000
GEN
1002
}
1001
GENIUS_GENOENT_13
1002
{
1000
MYREF
1005
B54
1002
}
1002
{
1000
GRP
1005
0
1002
}
1001
GENIUS_GENOLIS_13
1002
{
1000
ENT
1005
B0E
1005
B0D
1005
B09
1005
B06
1002
}
  0
ENDBLK
  5
B57
330
AFC
100
AcDbEntity
  8
0
100
AcDbBlockEnd
  0
BLOCK
  5
3D8E
330
3D56
100
AcDbEntity
  8
0
100
AcDbBlockBegin
  2
*D6
 70
     1
 10
0.0
 20
0.0
 30
0.0
  3
*D6
  1

  0
LINE
  5
43AE
330
3D56
100
AcDbEntity
  8
AM_5
 62
     3
100
AcDbLine
 10
742.9012549657386
 20
587.7872129652838
 30
0.0
 11
742.9012549657386
 21
624.2872139752843
 31
0.0
  0
LINE
  5
43AF
330
3D56
100
AcDbEntity
  8
AM_5
 62
     3
100
AcDbLine
 10
797.9012549657386
 20
587.8229435988161
 30
0.0
 11
797.9012549657386
 21
624.2872139752843
 31
0.0
  0
LINE
  5
43B0
330
3D56
100
AcDbEntity
  8
AM_5
 62
     3
100
AcDbLine
 10
750.4012549657386
 20
621.2872139752843
 30
0.0
 11
790.4012549657386
 21
621.2872139752843
 31
0.0
  0
INSERT
  5
43B1
330
3D56
100
AcDbEntity
  8
AM_5
 62
     3
100
AcDbBlockReference
  2
_Open30
 10
742.9012549657386
 20
621.2872139752843
 30
0.0
 41
7.5
 42
7.5
 43
7.5
 50
180.0
  0
INSERT
  5
43B2
330
3D56
100
AcDbEntity
  8
AM_5
 62
     3
100
AcDbBlockReference
  2
_Open30
 10
797.9012549657386
 20
621.2872139752843
 30
0.0
 41
7.5
 42
7.5
 43
7.5
  0
MTEXT
  5
43B3
330
3D56
100
AcDbEntity
  8
AM_5
 62
     2
100
AcDbMText
 10
770.4012549657386
 20
631.0372139752843
 30
0.0
 40
10.5
 41
0.0
 71
     5
 72
     1
  1
55
 73
     1
 44
1.0
1001
ACAD
1000
MTEXTBEGIN
1070
    73
1070
     1
1070
    44
1040
1.0
1070
    74
1070
     0
1000
MTEXTEND
  0
POINT
  5
43B4
330
3D56
100
AcDbEntity
  8
Defpoints
 62
     0
100
AcDbPoint
 10
742.9012549657386
 20
584.7872129652838
 30
0.0
  0
POINT
  5
43B5
330
3D56
100
AcDbEntity
  8
Defpoints
 62
     0
100
AcDbPoint
 10
797.9012549657386
 20
584.8229435988161
 30
0.0
  0
POINT
  5
43B6
330
3D56
100
AcDbEntity
  8
Defpoints
 62
     0
100
AcDbPoint
 10
797.9012549657386
 20
621.2872139752843
 30
0.0
  0
ENDBLK
  5
3D8F
330
3D56
100
AcDbEntity
  8
0
100
AcDbBlockEnd
  0
BLOCK
  5
4311
330
42FB
100
AcDbEntity
  8
0
100
AcDbBlockBegin
  2
*D7
 70
     1
 10
0.0
 20
0.0
 30
0.0
  3
*D7
  1

  0
LINE
  5
4305
330
42FB
100
AcDbEntity
  8
AM_5
 62
     3
100
AcDbLine
 10
245.9273956976565
 20
585.2872129652844
 30
0.0
 11
199.9273946876566
 21
585.2872129652844
 31
0.0
  0
LINE
  5
4306
330
42FB
100
AcDbEntity
  8
AM_5
 62
     3
100
AcDbLine
 10
245.9273956976566
 20
285.2872129652841
 30
0.0
 11
199.9273946876565
 21
285.2872129652841
 31
0.0
  0
LINE
  5
4307
330
42FB
100
AcDbEntity
  8
AM_5
 62
     3
100
AcDbLine
 10
202.9273946876566
 20
577.7872129652844
 30
0.0
 11
202.9273946876565
 21
292.7872129652841
 31
0.0
  0
INSERT
  5
4308
330
42FB
100
AcDbEntity
  8
AM_5
 62
     3
100
AcDbBlockReference
  2
_Open30
 10
202.9273946876566
 20
585.2872129652844
 30
0.0
 41
7.5
 42
7.5
 43
7.5
 50
90.0
  0
INSERT
  5
4309
330
42FB
100
AcDbEntity
  8
AM_5
 62
     3
100
AcDbBlockReference
  2
_Open30
 10
202.9273946876565
 20
285.2872129652841
 30
0.0
 41
7.5
 42
7.5
 43
7.5
 50
270.0
  0
MTEXT
  5
430A
330
42FB
100
AcDbEntity
  8
AM_5
 62
     2
100
AcDbMText
 10
193.1773946876565
 20
435.2872129652843
 30
0.0
 40
10.5
 41
0.0
 71
     5
 72
     1
  1
300
 11
0.0000000000000001
 21
1.0
 31
0.0
 73
     1
 44
1.0
1001
ACAD
1000
MTEXTBEGIN
1070
    73
1070
     1
1070
    44
1040
1.0
1070
    74
1070
     0
1000
MTEXTEND
  0
POINT
  5
430B
330
42FB
100
AcDbEntity
  8
Defpoints
 62
     0
100
AcDbPoint
 10
248.9273956976565
 20
585.2872129652844
 30
0.0
  0
POINT
  5
430C
330
42FB
100
AcDbEntity
  8
Defpoints
 62
     0
100
AcDbPoint
 10
248.9273956976566
 20
285.2872129652841
 30
0.0
  0
POINT
  5
430D
330
42FB
100
AcDbEntity
  8
Defpoints
 62
     0
100
AcDbPoint
 10
202.9273946876565
 20
285.2872129652841
 30
0.0
  0
ENDBLK
  5
4312
330
42FB
100
AcDbEntity
  8
0
100
AcDbBlockEnd
  0
BLOCK
  5
434B
330
4335
100
AcDbEntity
  8
0
100
AcDbBlockBegin
  2
*D8
 70
     1
 10
0.0
 20
0.0
 30
0.0
  3
*D8
  1

  0
LINE
  5
433F
330
4335
100
AcDbEntity
  8
AM_5
 62
     3
100
AcDbLine
 10
238.9273956976565
 20
578.2872129652842
 30
0.0
 11
238.9273956976565
 21
624.2872139752843
 31
0.0
  0
LINE
  5
4340
330
4335
100
AcDbEntity
  8
AM_5
 62
     3
100
AcDbLine
 10
538.9273956976567
 20
578.287212965284
 30
0.0
 11
538.9273956976567
 21
624.2872139752843
 31
0.0
  0
LINE
  5
4341
330
4335
100
AcDbEntity
  8
AM_5
 62
     3
100
AcDbLine
 10
246.4273956976565
 20
621.2872139752843
 30
0.0
 11
531.4273956976567
 21
621.2872139752843
 31
0.0
  0
INSERT
  5
4342
330
4335
100
AcDbEntity
  8
AM_5
 62
     3
100
AcDbBlockReference
  2
_Open30
 10
238.9273956976565
 20
621.2872139752843
 30
0.0
 41
7.5
 42
7.5
 43
7.5
 50
180.0
  0
INSERT
  5
4343
330
4335
100
AcDbEntity
  8
AM_5
 62
     3
100
AcDbBlockReference
  2
_Open30
 10
538.9273956976567
 20
621.2872139752843
 30
0.0
 41
7.5
 42
7.5
 43
7.5
  0
MTEXT
  5
4344
330
4335
100
AcDbEntity
  8
AM_5
 62
     2
100
AcDbMText
 10
388.9273956976566
 20
631.0372139752843
 30
0.0
 40
10.5
 41
0.0
 71
     5
 72
     1
  1
300
 73
     1
 44
1.0
1001
ACAD
1000
MTEXTBEGIN
1070
    73
1070
     1
1070
    44
1040
1.0
1070
    74
1070
     0
1000
MTEXTEND
  0
POINT
  5
4345
330
4335
100
AcDbEntity
  8
Defpoints
 62
     0
100
AcDbPoint
 10
238.9273956976565
 20
575.2872129652842
 30
0.0
  0
POINT
  5
4346
330
4335
100
AcDbEntity
  8
Defpoints
 62
     0
100
AcDbPoint
 10
538.9273956976567
 20
575.2872129652841
 30
0.0
  0
POINT
  5
4347
330
4335
100
AcDbEntity
  8
Defpoints
 62
     0
100
AcDbPoint
 10
538.9273956976567
 20
621.2872139752843
 30
0.0
  0
ENDBLK
  5
434C
330
4335
100
AcDbEntity
  8
0
100
AcDbBlockEnd
  0
BLOCK
  5
454F
330
454B
100
AcDbEntity
  8
0
100
AcDbBlockBegin
  2
*S9
 70
     1
 10
0.0
 20
0.0
 30
0.0
  3
*S9
  1

  0
CIRCLE
  5
454C
330
454B
100
AcDbEntity
  8
AM_12
 62
     4
100
AcDbCircle
 10
770.2700064352516
 20
298.5561393023798
 30
0.0
 40
5.25
  0
LINE
  5
454D
330
454B
100
AcDbEntity
  8
AM_12
 62
     4
100
AcDbLine
 10
765.0200064352516
 20
293.3061393023798
 30
0.0
 11
775.5200064352516
 21
303.8061393023799
 31
0.0
  0
LINE
  5
454E
330
454B
100
AcDbEntity
  8
AM_12
 62
     4
100
AcDbLine
 10
765.0200064352516
 20
303.8061393023799
 30
0.0
 11
775.5200064352516
 21
293.3061393023798
 31
0.0
  0
ENDBLK
  5
4550
330
454B
100
AcDbEntity
  8
0
100
AcDbBlockEnd
  0
BLOCK
  5
4557
330
4552
100
AcDbEntity
  8
0
100
AcDbBlockBegin
  2
*S10
 70
     1
 10
0.0
 20
0.0
 30
0.0
  3
*S10
  1

  0
LINE
  5
4553
330
4552
100
AcDbEntity
  8
AM_5
 62
     3
100
AcDbLine
 10
733.0068139735
 20
230.6417750638275
 30
0.0
 11
765.2191975837714
 21
289.3507425186551
 31
0.0
  0
TRACE
  5
4554
330
4552
100
AcDbEntity
  8
AM_5
  6
Continuous
 62
     3
100
AcDbTrace
 10
766.4311110562246
 20
288.685790921488
 30
0.0
 11
764.0072841113183
 21
290.0156941158222
 31
0.0
 12
770.2700064352516
 22
298.5561393023798
 32
0.0
 13
770.2700064352516
 23
298.5561393023798
 33
0.0
  0
MTEXT
  5
4555
330
4552
100
AcDbEntity
  8
AM_5
 62
     7
100
AcDbMText
 10
724.1678984834098
 20
214.5323306923092
 30
0.0
 40
10.5
 41
0.0
 71
     5
 72
     5
  1
1
  7
ACISOTS
 73
     1
 44
1.0
1001
ACAD
1000
MTEXTBEGIN
1070
    73
1070
     1
1070
    44
1040
1.0
1070
    74
1070
     0
1000
MTEXTEND
  0
CIRCLE
  5
4556
330
4552
100
AcDbEntity
  8
AM_5
 62
     3
100
AcDbCircle
 10
724.1678984834098
 20
214.5323306923092
 30
0.0
 40
18.375
  0
ENDBLK
  5
4558
330
4552
100
AcDbEntity
  8
0
100
AcDbBlockEnd
  0
BLOCK
  5
455E
330
455A
100
AcDbEntity
  8
0
100
AcDbBlockBegin
  2
*S11
 70
     1
 10
0.0
 20
0.0
 30
0.0
  3
*S11
  1

  0
CIRCLE
  5
455B
330
455A
100
AcDbEntity
  8
AM_12
 62
     4
100
AcDbCircle
 10
1197.36564732512
 20
774.8322241239552
 30
0.0
 40
5.25
  0
LINE
  5
455C
330
455A
100
AcDbEntity
  8
AM_12
 62
     4
100
AcDbLine
 10
1192.11564732512
 20
769.5822241239552
 30
0.0
 11
1202.61564732512
 21
780.0822241239552
 31
0.0
  0
LINE
  5
455D
330
455A
100
AcDbEntity
  8
AM_12
 62
     4
100
AcDbLine
 10
1192.11564732512
 20
780.0822241239552
 30
0.0
 11
1202.61564732512
 21
769.5822241239552
 31
0.0
  0
ENDBLK
  5
455F
330
455A
100
AcDbEntity
  8
0
100
AcDbBlockEnd
  0
BLOCK
  5
4565
330
4561
100
AcDbEntity
  8
0
100
AcDbBlockBegin
  2
*S12
 70
     1
 10
0.0
 20
0.0
 30
0.0
  3
*S12
  1

  0
CIRCLE
  5
4562
330
4561
100
AcDbEntity
  8
AM_12
 62
     4
100
AcDbCircle
 10
1197.950430261985
 20
756.4207376972035
 30
0.0
 40
5.25
  0
LINE
  5
4563
330
4561
100
AcDbEntity
  8
AM_12
 62
     4
100
AcDbLine
 10
1192.700430261985
 20
751.1707376972035
 30
0.0
 11
1203.200430261985
 21
761.6707376972035
 31
0.0
  0
LINE
  5
4564
330
4561
100
AcDbEntity
  8
AM_12
 62
     4
100
AcDbLine
 10
1192.700430261985
 20
761.6707376972035
 30
0.0
 11
1203.200430261985
 21
751.1707376972035
 31
0.0
  0
ENDBLK
  5
4566
330
4561
100
AcDbEntity
  8
0
100
AcDbBlockEnd
  0
BLOCK
  5
4596
330
4568
100
AcDbEntity
  8
0
100
AcDbBlockBegin
  2
*S13
 70
     1
 10
0.0
 20
0.0
 30
0.0
  3
*S13
  1

  0
LINE
  5
4569
330
4568
100
AcDbEntity
  8
0
 62
     1
100
AcDbLine
 10
594.0
 20
784.4249999999999
 30
0.0
 11
1209.0
 21
784.4249999999999
 31
0.0
  0
LINE
  5
456A
330
4568
100
AcDbEntity
  8
0
 62
     1
100
AcDbLine
 10
594.0
 20
765.8999999999999
 30
0.0
 11
1209.0
 21
765.8999999999999
 31
0.0
  0
MTEXT
  5
456B
330
4568
100
AcDbEntity
  8
0
 62
     2
100
AcDbMText
 10
616.5
 20
798.8999999999999
 30
0.0
 40
10.5
 41
39.59999999999999
 71
     2
 72
     5
  1
1
  7
ACISOTS
 73
     1
 44
1.0
1001
ACAD
1000
MTEXTBEGIN
1070
    73
1070
     1
1070
    44
1040
1.0
1070
    74
1070
     0
1000
MTEXTEND
  0
LINE
  5
456C
330
4568
100
AcDbEntity
  8
0
 62
     1
100
AcDbLine
 10
639.0
 20
802.95
 30
0.0
 11
639.0
 21
784.4249999999999
 31
0.0
  0
MTEXT
  5
456D
330
4568
100
AcDbEntity
  8
0
 62
     2
100
AcDbMText
 10
641.7
 20
798.8999999999999
 30
0.0
 40
10.5
 41
174.6
 71
     1
 72
     5
  1
エクステンションフレーム
  7
ACISOTS
 73
     1
 44
1.0
1001
ACAD
1000
MTEXTBEGIN
1070
    73
1070
     1
1070
    44
1040
1.0
1070
    74
1070
     0
1000
MTEXTEND
  0
LINE
  5
456E
330
4568
100
AcDbEntity
  8
0
 62
     1
100
AcDbLine
 10
819.0
 20
802.95
 30
0.0
 11
819.0
 21
784.4249999999999
 31
0.0
  0
MTEXT
  5
456F
330
4568
100
AcDbEntity
  8
0
 62
     2
100
AcDbMText
 10
841.5
 20
798.8999999999999
 30
0.0
 40
10.5
 41
39.59999999999999
 71
     2
 72
     5
  1
1
  7
ACISOTS
 73
     1
 44
1.0
1001
ACAD
1000
MTEXTBEGIN
1070
    73
1070
     1
1070
    44
1040
1.0
1070
    74
1070
     0
1000
MTEXTEND
  0
LINE
  5
4570
330
4568
100
AcDbEntity
  8
0
 62
     1
100
AcDbLine
 10
864.0
 20
802.95
 30
0.0
 11
864.0
 21
784.4249999999999
 31
0.0
  0
MTEXT
  5
4571
330
4568
100
AcDbEntity
  8
0
 62
     2
100
AcDbMText
 10
866.6999999999999
 20
798.8999999999999
 30
0.0
 40
10.5
 41
204.6
 71
     1
 72
     5
  1
ポリカーボネートグラスファイバー
  7
ACISOTS
 73
     1
 44
1.0
1001
ACAD
1000
MTEXTBEGIN
1070
    73
1070
     1
1070
    44
1040
1.0
1070
    74
1070
     0
1000
MTEXTEND
  0
LINE
  5
4572
330
4568
100
AcDbEntity
  8
0
 62
     1
100
AcDbLine
 10
1074.0
 20
802.95
 30
0.0
 11
1074.0
 21
784.4249999999999
 31
0.0
  0
MTEXT
  5
4573
330
4568
100
AcDbEntity
  8
0
 62
     2
100
AcDbMText
 10
1076.7
 20
798.8999999999999
 30
0.0
 40
10.5
 41
129.6
 71
     1
 72
     5
  1
ホワイトグレー
  7
ACISOTS
 73
     1
 44
1.0
1001
ACAD
1000
MTEXTBEGIN
1070
    73
1070
     1
1070
    44
1040
1.0
1070
    74
1070
     0
1000
MTEXTEND
  0
MTEXT
  5
4574
330
4568
100
AcDbEntity
  8
0
 62
     2
100
AcDbMText
 10
616.5
 20
780.3749999999999
 30
0.0
 40
10.5
 41
39.59999999999999
 71
     2
 72
     5
  1
2
  7
ACISOTS
 73
     1
 44
1.0
1001
ACAD
1000
MTEXTBEGIN
1070
    73
1070
     1
1070
    44
1040
1.0
1070
    74
1070
     0
1000
MTEXTEND
  0
LINE
  5
4575
330
4568
100
AcDbEntity
  8
0
 62
     1
100
AcDbLine
 10
639.0
 20
784.4249999999999
 30
0.0
 11
639.0
 21
765.8999999999999
 31
0.0
  0
MTEXT
  5
4576
330
4568
100
AcDbEntity
  8
0
 62
     2
100
AcDbMText
 10
641.7
 20
780.3749999999999
 30
0.0
 40
10.5
 41
174.6
 71
     1
 72
     5
  1
フレームスクリュー(専用)
  7
ACISOTS
 73
     1
 44
1.0
1001
ACAD
1000
MTEXTBEGIN
1070
    73
1070
     1
1070
    44
1040
1.0
1070
    74
1070
     0
1000
MTEXTEND
  0
LINE
  5
4577
330
4568
100
AcDbEntity
  8
0
 62
     1
100
AcDbLine
 10
819.0
 20
784.4249999999999
 30
0.0
 11
819.0
 21
765.8999999999999
 31
0.0
  0
MTEXT
  5
4578
330
4568
100
AcDbEntity
  8
0
 62
     2
100
AcDbMText
 10
841.5
 20
780.3749999999999
 30
0.0
 40
10.5
 41
39.59999999999999
 71
     2
 72
     5
  1
4
  7
ACISOTS
 73
     1
 44
1.0
1001
ACAD
1000
MTEXTBEGIN
1070
    73
1070
     1
1070
    44
1040
1.0
1070
    74
1070
     0
1000
MTEXTEND
  0
LINE
  5
4579
330
4568
100
AcDbEntity
  8
0
 62
     1
100
AcDbLine
 10
864.0
 20
784.4249999999999
 30
0.0
 11
864.0
 21
765.8999999999999
 31
0.0
  0
MTEXT
  5
457A
330
4568
100
AcDbEntity
  8
0
 62
     2
100
AcDbMText
 10
866.6999999999999
 20
780.3749999999999
 30
0.0
 40
10.5
 41
204.6
 71
     1
 72
     5
  1
-
  7
ACISOTS
 73
     1
 44
1.0
1001
ACAD
1000
MTEXTBEGIN
1070
    73
1070
     1
1070
    44
1040
1.0
1070
    74
1070
     0
1000
MTEXTEND
  0
LINE
  5
457B
330
4568
100
AcDbEntity
  8
0
 62
     1
100
AcDbLine
 10
1074.0
 20
784.4249999999999
 30
0.0
 11
1074.0
 21
765.8999999999999
 31
0.0
  0
MTEXT
  5
457C
330
4568
100
AcDbEntity
  8
0
 62
     2
100
AcDbMText
 10
1076.7
 20
780.3749999999999
 30
0.0
 40
10.5
 41
129.6
 71
     1
 72
     5
  1
ブラック
  7
ACISOTS
 73
     1
 44
1.0
1001
ACAD
1000
MTEXTBEGIN
1070
    73
1070
     1
1070
    44
1040
1.0
1070
    74
1070
     0
1000
MTEXTEND
  0
MTEXT
  5
457D
330
4568
100
AcDbEntity
  8
0
 62
     2
100
AcDbMText
 10
616.5
 20
761.85
 30
0.0
 40
10.5
 41
39.59999999999999
 71
     2
 72
     5
  1
3
  7
ACISOTS
 73
     1
 44
1.0
1001
ACAD
1000
MTEXTBEGIN
1070
    73
1070
     1
1070
    44
1040
1.0
1070
    74
1070
     0
1000
MTEXTEND
  0
LINE
  5
457E
330
4568
100
AcDbEntity
  8
0
 62
     1
100
AcDbLine
 10
639.0
 20
765.8999999999999
 30
0.0
 11
639.0
 21
747.3749999999999
 31
0.0
  0
MTEXT
  5
457F
330
4568
100
AcDbEntity
  8
0
 62
     2
100
AcDbMText
 10
641.7
 20
761.85
 30
0.0
 40
10.5
 41
174.6
 71
     1
 72
     5
  1
スクリューヘッド(専用)
  7
ACISOTS
 73
     1
 44
1.0
1001
ACAD
1000
MTEXTBEGIN
1070
    73
1070
     1
1070
    44
1040
1.0
1070
    74
1070
     0
1000
MTEXTEND
  0
LINE
  5
4580
330
4568
100
AcDbEntity
  8
0
 62
     1
100
AcDbLine
 10
819.0
 20
765.8999999999999
 30
0.0
 11
819.0
 21
747.3749999999999
 31
0.0
  0
MTEXT
  5
4581
330
4568
100
AcDbEntity
  8
0
 62
     2
100
AcDbMText
 10
841.5
 20
761.85
 30
0.0
 40
10.5
 41
39.59999999999999
 71
     2
 72
     5
  1
1
  7
ACISOTS
 73
     1
 44
1.0
1001
ACAD
1000
MTEXTBEGIN
1070
    73
1070
     1
1070
    44
1040
1.0
1070
    74
1070
     0
1000
MTEXTEND
  0
LINE
  5
4582
330
4568
100
AcDbEntity
  8
0
 62
     1
100
AcDbLine
 10
864.0
 20
765.8999999999999
 30
0.0
 11
864.0
 21
747.3749999999999
 31
0.0
  0
MTEXT
  5
4583
330
4568
100
AcDbEntity
  8
0
 62
     2
100
AcDbMText
 10
866.6999999999999
 20
761.85
 30
0.0
 40
10.5
 41
204.6
 71
     1
 72
     5
  1
-
  7
ACISOTS
 73
     1
 44
1.0
1001
ACAD
1000
MTEXTBEGIN
1070
    73
1070
     1
1070
    44
1040
1.0
1070
    74
1070
     0
1000
MTEXTEND
  0
LINE
  5
4584
330
4568
100
AcDbEntity
  8
0
 62
     1
100
AcDbLine
 10
1074.0
 20
765.8999999999999
 30
0.0
 11
1074.0
 21
747.3749999999999
 31
0.0
  0
MTEXT
  5
4585
330
4568
100
AcDbEntity
  8
0
 62
     2
100
AcDbMText
 10
1076.7
 20
761.85
 30
0.0
 40
10.5
 41
129.6
 71
     1
 72
     5
  1
ホワイトグレー
  7
ACISOTS
 73
     1
 44
1.0
1001
ACAD
1000
MTEXTBEGIN
1070
    73
1070
     1
1070
    44
1040
1.0
1070
    74
1070
     0
1000
MTEXTEND
  0
LINE
  5
4586
330
4568
100
AcDbEntity
  8
0
 62
     1
100
AcDbLine
 10
594.0
 20
802.95
 30
0.0
 11
1209.0
 21
802.95
 31
0.0
  0
MTEXT
  5
4587
330
4568
100
AcDbEntity
  8
0
 62
     2
100
AcDbMText
 10
616.5
 20
817.4249999999998
 30
0.0
 40
10.5
 41
39.59999999999999
 71
     2
 72
     5
  1
照番
  7
ACISOTS
 73
     1
 44
1.0
1001
ACAD
1000
MTEXTBEGIN
1070
    73
1070
     1
1070
    44
1040
1.0
1070
    74
1070
     0
1000
MTEXTEND
  0
LINE
  5
4588
330
4568
100
AcDbEntity
  8
0
 62
     1
100
AcDbLine
 10
639.0
 20
821.475
 30
0.0
 11
639.0
 21
802.95
 31
0.0
  0
MTEXT
  5
4589
330
4568
100
AcDbEntity
  8
0
 62
     2
100
AcDbMText
 10
729.0
 20
817.4249999999998
 30
0.0
 40
10.5
 41
174.6
 71
     2
 72
     5
  1
名称
  7
ACISOTS
 73
     1
 44
1.0
1001
ACAD
1000
MTEXTBEGIN
1070
    73
1070
     1
1070
    44
1040
1.0
1070
    74
1070
     0
1000
MTEXTEND
  0
LINE
  5
458A
330
4568
100
AcDbEntity
  8
0
 62
     1
100
AcDbLine
 10
819.0
 20
821.475
 30
0.0
 11
819.0
 21
802.95
 31
0.0
  0
MTEXT
  5
458B
330
4568
100
AcDbEntity
  8
0
 62
     2
100
AcDbMText
 10
841.5
 20
817.4249999999998
 30
0.0
 40
10.5
 41
39.59999999999999
 71
     2
 72
     5
  1
数量
  7
ACISOTS
 73
     1
 44
1.0
1001
ACAD
1000
MTEXTBEGIN
1070
    73
1070
     1
1070
    44
1040
1.0
1070
    74
1070
     0
1000
MTEXTEND
  0
LINE
  5
458C
330
4568
100
AcDbEntity
  8
0
 62
     1
100
AcDbLine
 10
864.0
 20
821.475
 30
0.0
 11
864.0
 21
802.95
 31
0.0
  0
MTEXT
  5
458D
330
4568
100
AcDbEntity
  8
0
 62
     2
100
AcDbMText
 10
969.0
 20
817.4249999999998
 30
0.0
 40
10.5
 41
204.6
 71
     2
 72
     5
  1
材質
  7
ACISOTS
 73
     1
 44
1.0
1001
ACAD
1000
MTEXTBEGIN
1070
    73
1070
     1
1070
    44
1040
1.0
1070
    74
1070
     0
1000
MTEXTEND
  0
LINE
  5
458E
330
4568
100
AcDbEntity
  8
0
 62
     1
100
AcDbLine
 10
1074.0
 20
821.475
 30
0.0
 11
1074.0
 21
802.95
 31
0.0
  0
MTEXT
  5
458F
330
4568
100
AcDbEntity
  8
0
 62
     2
100
AcDbMText
 10
1141.5
 20
817.4249999999998
 30
0.0
 40
10.5
 41
129.6
 71
     2
 72
     5
  1
色・表面処理
  7
ACISOTS
 73
     1
 44
1.0
1001
ACAD
1000
MTEXTBEGIN
1070
    73
1070
     1
1070
    44
1040
1.0
1070
    74
1070
     0
1000
MTEXTEND
  0
MTEXT
  5
4590
330
4568
100
AcDbEntity
  8
0
 62
     2
100
AcDbMText
 10
901.5
 20
830.7375
 30
0.0
 40
10.5
 41
0.0
 71
     5
 72
     5
  1
構成内容
  7
ACISOTS
 73
     1
 44
1.0
1001
ACAD
1000
MTEXTBEGIN
1070
    73
1070
     1
1070
    44
1040
1.0
1070
    74
1070
     0
1000
MTEXTEND
  0
LINE
  5
4591
330
4568
100
AcDbEntity
  8
0
 62
     1
100
AcDbLine
 10
594.0
 20
821.475
 30
0.0
 11
1209.0
 21
821.475
 31
0.0
  0
LINE
  5
4592
330
4568
100
AcDbEntity
  8
0
 62
     7
100
AcDbLine
 10
594.0
 20
840.0
 30
0.0
 11
1209.0
 21
840.0
 31
0.0
  0
LINE
  5
4593
330
4568
100
AcDbEntity
  8
0
 62
     7
100
AcDbLine
 10
1209.0
 20
840.0
 30
0.0
 11
1209.0
 21
747.3749999999999
 31
0.0
  0
LINE
  5
4594
330
4568
100
AcDbEntity
  8
0
 62
     7
100
AcDbLine
 10
1209.0
 20
747.3749999999999
 30
0.0
 11
594.0
 21
747.3749999999999
 31
0.0
  0
LINE
  5
4595
330
4568
100
AcDbEntity
  8
0
 62
     7
100
AcDbLine
 10
594.0
 20
747.3749999999999
 30
0.0
 11
594.0
 21
840.0
 31
0.0
  0
ENDBLK
  5
4597
330
4568
100
AcDbEntity
  8
0
100
AcDbBlockEnd
  0
ENDSEC
  0
SECTION
  2
ENTITIES
  0
INSERT
  5
C54
330
1F
100
AcDbEntity
  8
0
370
     0
100
AcDbBlockReference
  2
TK-A3
 10
0.0
 20
0.0
 30
0.0
 41
3.0
 42
3.0
 43
3.0
1001
GENIUS_GENOREF_13
1005
C61
1001
GENIUS_GENODEF_13
1002
{
1000
HIER
1070
     0
1002
}
1002
{
1000
MANEDIT
1070
     0
1002
}
1002
{
1000
NOSEL
1070
     0
1002
}
1002
{
1000
BEHIND
1070
     0
1002
}
1002
{
1000
OTHER
1070
     0
1002
}
1002
{
1000
REACTOR
1002
}
1001
GENIUS_GENOBJ-N-SDF_13
1002
{
1000
OWNER
1000
GEN
1002
}
1001
GENIUS_GENSCREG_15
1040
3.0
1040
1.0
1011
0.0
1021
0.0
1031
0.0
1011
1209.0
1021
840.0000000000002
1031
0.0
1070
     3
  0
INSERT
  5
C56
330
1F
100
AcDbEntity
  8
0
370
     0
100
AcDbBlockReference
 66
     1
  2
TK-TITLE
 10
1209.0
 20
0.0
 30
0.0
 41
3.0
 42
3.0
 43
3.0
1001
GENIUS_GENOREF_13
1005
C61
  0
ATTRIB
  5
42C5
330
C56
100
AcDbEntity
  8
0
100
AcDbText
 10
638.7626861549017
 20
10.76502761283199
 30
0.0
 40
9.0
  1
2008/10/31
 72
     1
 11
668.3484145013584
 21
10.76502761283199
 31
0.0
100
AcDbAttribute
  2
GEN-TITLE-DAT
 70
     0
 74
     1
  0
ATTRIB
  5
42C6
330
C56
100
AcDbEntity
  8
0
100
AcDbText
 10
663.0029889505919
 20
84.89999999999993
 30
0.0
 40
9.0
  1
1:3
 72
     2
 11
675.5257811567278
 21
84.89999999999993
 31
0.0
100
AcDbAttribute
  2
GEN-TITLE-SCA
 70
     0
 74
     1
  0
ATTRIB
  5
42C7
330
C56
100
AcDbEntity
  8
0
100
AcDbText
 10
682.1617772621713
 20
47.39999999999982
 30
0.0
 40
9.0
  1

 72
     2
 11
682.1617772621713
 21
47.39999999999982
 31
0.0
100
AcDbAttribute
  2
GEN-TITLE-QTY
 70
     0
 74
     1
  0
ATTRIB
  5
42C8
330
C56
100
AcDbEntity
  8
0
100
AcDbText
 10
762.1143972494125
 20
99.89999999999973
 30
0.0
 40
9.0
  1

100
AcDbAttribute
  2
GEN-TITLE-MAT2
 70
     0
  0
ATTRIB
  5
42C9
330
C56
100
AcDbEntity
  8
0
100
AcDbText
 10
762.1143972494125
 20
129.8999999999997
 30
0.0
 40
9.0
  1

100
AcDbAttribute
  2
GEN-TITLE-MAT1
 70
     0
  0
ATTRIB
  5
42CA
330
C56
100
AcDbEntity
  8
0
100
AcDbText
 10
957.0
 20
5.999999999999872
 30
0.0
 40
9.0
  1

100
AcDbAttribute
  2
GEN-TITLE-NR1
 70
     0
  0
ATTRIB
  5
42CB
330
C56
100
AcDbEntity
  8
0
100
AcDbText
 10
957.0
 20
27.44999999999985
 30
0.0
 40
7.5
  1
OPCE型エクステンションフレーム
100
AcDbAttribute
  2
GEN-TITLE-DES2
 70
     0
  0
ATTRIB
  5
42CC
330
C56
100
AcDbEntity
  8
0
100
AcDbText
 10
956.5724429524401
 20
38.48371297693132
 30
0.0
 40
10.5
  1
OPCE3030
100
AcDbAttribute
  2
GEN-TITLE-DES1
 70
     0
  0
ATTRIB
  5
42CD
330
C56
100
AcDbEntity
  8
0
100
AcDbText
 10
1184.993072431362
 20
5.115568303185108
 30
0.0
 40
7.5
  1

100
AcDbAttribute
  2
GEN-TITLE-NR2
 70
     0
  0
SEQEND
  5
42C4
330
C56
100
AcDbEntity
  8
0
370
     0
  0
POINT
  5
C61
330
1F
100
AcDbEntity
  8
0
 60
     1
100
AcDbPoint
 10
0.0
 20
0.0
 30
0.0
1001
GENIUS_GENOENT_13
1002
{
1000
MYREF
1005
C61
1002
}
1002
{
1000
GRP
1005
0
1002
}
1001
GENIUS_GENOBJ-N-TIT_13
1002
{
1000
OWNER
1000
GEN
1002
}
1001
GENIUS_GENODEF_13
1002
{
1000
HIER
1070
     1
1002
}
1002
{
1000
MANEDIT
1070
     0
1002
}
1002
{
1000
NOSEL
1070
     0
1002
}
1002
{
1000
BEHIND
1070
     0
1002
}
1002
{
1000
OTHER
1070
     0
1002
}
1002
{
1000
REACTOR
1002
}
1001
GENIUS_GENOLIS_13
1002
{
1000
ENT
1005
C56
1005
C54
1005
42C3
1002
}
1001
GENIUS_GENTITLE_13
1002
{
1000
BORDER
1000
TK-A3
1002
}
1002
{
1000
TITLE
1000
TK-TITLE
1002
}
1002
{
1000
SCALE
1000
1:3
1002
}
1002
{
1000
TITLESTD
1000
ISO
1002
}
1002
{
1000
HRA
1005
C54
1002
}
1002
{
1000
HTIT
1005
C56
1002
}
1002
{
1000
GENIUSID
1005
C61
1002
}
1002
{
1000
INVTXTID
1005
0
1002
}
1002
{
1000
UNCHG
1002
{
1000
GEN-TITLE-SIZ
1000
GEN-TITLE-SCA
1002
}
1002
}
  0
LINE
  5
16EE
330
1F
100
AcDbEntity
  8
ｴｸｽﾃﾝｼｮﾝﾌﾚｰﾑ
100
AcDbLine
 10
504.3773956976568
 20
585.2872129652843
 30
0.0
 11
273.4773956976566
 21
585.2872129652843
 31
0.0
  0
LINE
  5
16FC
330
1F
100
AcDbEntity
  8
ｴｸｽﾃﾝｼｮﾝﾌﾚｰﾑ
100
AcDbLine
 10
503.9429256976566
 20
581.9027429652843
 30
0.0
 11
273.9118656976564
 21
581.9027429652843
 31
0.0
  0
LINE
  5
1708
330
1F
100
AcDbEntity
  8
ｴｸｽﾃﾝｼｮﾝﾌﾚｰﾑ
100
AcDbLine
 10
273.8769456976564
 20
580.7027429652841
 30
0.0
 11
503.9778456976566
 21
580.7027429652842
 31
0.0
  0
LINE
  5
170B
330
1F
100
AcDbEntity
  8
ｴｸｽﾃﾝｼｮﾝﾌﾚｰﾑ
100
AcDbLine
 10
503.5987056976567
 20
577.4085329652844
 30
0.0
 11
274.2560856976564
 21
577.4085329652841
 31
0.0
  0
LINE
  5
1A7A
330
1F
100
AcDbEntity
  8
ｴｸｽﾃﾝｼｮﾝﾌﾚｰﾑ
100
AcDbLine
 10
269.3773956976564
 20
585.2872129652843
 30
0.0
 11
267.4773956976566
 21
585.2872129652843
 31
0.0
  0
LINE
  5
1A7B
330
1F
100
AcDbEntity
  8
ｴｸｽﾃﾝｼｮﾝﾌﾚｰﾑ
100
AcDbLine
 10
263.3773956976564
 20
585.2872129652843
 30
0.0
 11
248.9273956976565
 21
585.2872129652843
 31
0.0
  0
LINE
  5
1A85
330
1F
100
AcDbEntity
  8
ｴｸｽﾃﾝｼｮﾝﾌﾚｰﾑ
100
AcDbLine
 10
269.9118406976825
 20
582.3027429652841
 30
0.0
 11
258.3344256976565
 21
582.3027429652841
 31
0.0
  0
LINE
  5
1AA7
330
1F
100
AcDbEntity
  8
ｴｸｽﾃﾝｼｮﾝﾌﾚｰﾑ
100
AcDbLine
 10
273.2776663821633
 20
572.2123329487185
 30
0.0
 11
271.256415939231
 21
573.4820184455588
 31
0.0
  0
LINE
  5
1AAF
330
1F
100
AcDbEntity
  8
ｴｸｽﾃﾝｼｮﾝﾌﾚｰﾑ
100
AcDbLine
 10
253.0733756976564
 20
564.8935529652842
 30
0.0
 11
259.3210456976565
 21
571.1412129652842
 31
0.0
  0
LINE
  5
1AB1
330
1F
100
AcDbEntity
  8
ｴｸｽﾃﾝｼｮﾝﾌﾚｰﾑ
100
AcDbLine
 10
273.9560856976563
 20
574.6527429652842
 30
0.0
 11
273.9560856976563
 21
577.1085329652842
 31
0.0
  0
LINE
  5
1ACA
330
1F
100
AcDbEntity
  8
ｴｸｽﾃﾝｼｮﾝﾌﾚｰﾑ
100
AcDbLine
 10
270.2087483515401
 20
571.8527686957775
 30
0.0
 11
272.1895133463503
 21
570.5290424257604
 31
0.0
  0
LINE
  5
1AD5
330
1F
100
AcDbEntity
  8
ｴｸｽﾃﾝｼｮﾝﾌﾚｰﾑ
100
AcDbLine
 10
260.1168756976564
 20
572.3027429652842
 30
0.0
 11
267.4118556976564
 21
572.3027429652842
 31
0.0
  0
LINE
  5
1AD6
330
1F
100
AcDbEntity
  8
ｴｸｽﾃﾝｼｮﾝﾌﾚｰﾑ
100
AcDbLine
 10
261.1595356976563
 20
571.9027429652842
 30
0.0
 11
267.4118556976564
 21
571.9027429652842
 31
0.0
  0
LINE
  5
1AD7
330
1F
100
AcDbEntity
  8
ｴｸｽﾃﾝｼｮﾝﾌﾚｰﾑ
100
AcDbLine
 10
267.4118556976564
 20
570.7376429652843
 30
0.0
 11
261.1595356976563
 21
570.7376429652843
 31
0.0
  0
LINE
  5
1AE5
330
1F
100
AcDbEntity
  8
ｴｸｽﾃﾝｼｮﾝﾌﾚｰﾑ
100
AcDbLine
 10
260.1449056976564
 20
570.3173729652842
 30
0.0
 11
253.8972356976564
 21
564.0697029652842
 31
0.0
  0
LINE
  5
1AED
330
1F
100
AcDbEntity
  8
ｴｸｽﾃﾝｼｮﾝﾌﾚｰﾑ
100
AcDbLine
 10
271.4769456976565
 20
578.3027429652841
 30
0.0
 11
271.4769456976565
 21
574.8027429652842
 31
0.0
  0
LINE
  5
1AF1
330
1F
100
AcDbEntity
  8
ｴｸｽﾃﾝｼｮﾝﾌﾚｰﾑ
100
AcDbLine
 10
264.1203256976564
 20
568.3585329652841
 30
0.0
 11
267.6618556976564
 21
568.3585329652841
 31
0.0
  0
LINE
  5
1AF3
330
1F
100
AcDbEntity
  8
ｴｸｽﾃﾝｼｮﾝﾌﾚｰﾑ
100
AcDbLine
 10
256.0886959636358
 20
563.1087129652842
 30
0.0
 11
261.1058956976565
 21
568.1259229652842
 31
0.0
  0
LINE
  5
1B01
330
1F
100
AcDbEntity
  8
ｴｸｽﾃﾝｼｮﾝﾌﾚｰﾑ
100
AcDbLine
 10
270.3118756976564
 20
574.8027429652842
 30
0.0
 11
270.3118756976564
 21
578.3027429652841
 31
0.0
  0
LINE
  5
1B02
330
1F
100
AcDbEntity
  8
ｴｸｽﾃﾝｼｮﾝﾌﾚｰﾑ
100
AcDbLine
 10
269.9118556976564
 20
574.8027429652842
 30
0.0
 11
269.9118556976564
 21
578.3027429652841
 31
0.0
  0
LINE
  5
1B03
330
1F
100
AcDbEntity
  8
ｴｸｽﾃﾝｼｮﾝﾌﾚｰﾑ
100
AcDbLine
 10
265.9203356976564
 20
566.5585229652842
 30
0.0
 11
267.7562756976564
 21
566.5585229652842
 31
0.0
  0
LINE
  5
1B1A
330
1F
100
AcDbEntity
  8
ｴｸｽﾃﾝｼｮﾝﾌﾚｰﾑ
100
AcDbLine
 10
267.7562756976564
 20
566.5585229652842
 30
0.0
 11
268.3891056976564
 21
565.9257029652842
 31
0.0
  0
LINE
  5
1B1D
330
1F
100
AcDbEntity
  8
ｴｸｽﾃﾝｼｮﾝﾌﾚｰﾑ
100
AcDbLine
 10
263.0030379796809
 20
569.4758206832598
 30
0.0
 11
265.9203356976564
 21
566.5585229652842
 31
0.0
  0
LINE
  5
1B2D
330
1F
100
AcDbEntity
  8
ｴｸｽﾃﾝｼｮﾝﾌﾚｰﾑ
100
AcDbLine
 10
265.5606656976564
 20
563.0972829652842
 30
0.0
 11
261.1058956976565
 21
567.5520529652842
 31
0.0
  0
LINE
  5
1B4D
330
1F
100
AcDbEntity
  8
ｴｸｽﾃﾝｼｮﾝﾌﾚｰﾑ
100
AcDbLine
 10
268.3891056976564
 20
565.9257029652842
 30
0.0
 11
265.5606656976564
 21
563.0972829652842
 31
0.0
  0
LINE
  5
1B7C
330
1F
100
AcDbEntity
  8
ｴｸｽﾃﾝｼｮﾝﾌﾚｰﾑ
100
AcDbLine
 10
261.1058956976565
 20
567.5520529652842
 30
0.0
 11
261.1058956976565
 21
570.7366500259056
 31
0.0
  0
ARC
  5
1C0C
330
1F
100
AcDbEntity
  8
ｴｸｽﾃﾝｼｮﾝﾌﾚｰﾑ
100
AcDbCircle
 10
267.6618556976564
 20
574.6527429652842
 30
0.0
 40
6.294209999999999
100
AcDbArc
 50
338.2298552169081
 51
0.0
  0
ARC
  5
1C0D
330
1F
100
AcDbEntity
  8
ｴｸｽﾃﾝｼｮﾝﾌﾚｰﾑ
100
AcDbCircle
 10
267.6618556976564
 20
574.6527429652842
 30
0.0
 40
6.294209999999999
100
AcDbArc
 50
269.999989999999
 51
315.966937440745
  0
ARC
  5
1C22
330
1F
100
AcDbEntity
  8
ｴｸｽﾃﾝｼｮﾝﾌﾚｰﾑ
100
AcDbCircle
 10
267.4118556976564
 20
574.8027429652842
 30
0.0
 40
2.5
100
AcDbArc
 50
269.999989999999
 51
0.0
  0
ARC
  5
1C23
330
1F
100
AcDbEntity
  8
ｴｸｽﾃﾝｼｮﾝﾌﾚｰﾑ
100
AcDbCircle
 10
260.1168756976564
 20
573.3027429652842
 30
0.0
 40
1.0
100
AcDbArc
 50
170.6875499999997
 51
270.0
  0
ARC
  5
1C24
330
1F
100
AcDbEntity
  8
ｴｸｽﾃﾝｼｮﾝﾌﾚｰﾑ
100
AcDbCircle
 10
249.2618756976564
 20
575.0827429652843
 30
0.0
 40
10.0
100
AcDbArc
 50
350.6875599999983
 51
34.4338499999979
  0
ARC
  5
1C25
330
1F
100
AcDbEntity
  8
ｴｸｽﾃﾝｼｮﾝﾌﾚｰﾑ
100
AcDbCircle
 10
258.3344256976565
 20
581.3027429652842
 30
0.0
 40
1.0
100
AcDbArc
 50
89.99998999999897
 51
214.4338600000021
  0
ARC
  5
1C32
330
1F
100
AcDbEntity
  8
ｴｸｽﾃﾝｼｮﾝﾌﾚｰﾑ
100
AcDbCircle
 10
261.1595356976563
 20
569.3027429652842
 30
0.0
 40
1.43491
100
AcDbArc
 50
89.99998999999897
 51
135.0
  0
ARC
  5
1C33
330
1F
100
AcDbEntity
  8
ｴｸｽﾃﾝｼｮﾝﾌﾚｰﾑ
100
AcDbCircle
 10
267.4118556976564
 20
574.8027429652842
 30
0.0
 40
4.06509
100
AcDbArc
 50
269.999989999999
 51
0.0
  0
ARC
  5
1C35
330
1F
100
AcDbEntity
  8
ｴｸｽﾃﾝｼｮﾝﾌﾚｰﾑ
100
AcDbCircle
 10
273.9118656976564
 20
578.3027429652841
 30
0.0
 40
3.6
100
AcDbArc
 50
89.99998999999897
 51
179.999989999999
  0
ARC
  5
1C36
330
1F
100
AcDbEntity
  8
ｴｸｽﾃﾝｼｮﾝﾌﾚｰﾑ
100
AcDbCircle
 10
267.4118556976564
 20
574.8027429652842
 30
0.0
 40
2.9
100
AcDbArc
 50
269.999989999999
 51
0.0
  0
ARC
  5
1C37
330
1F
100
AcDbEntity
  8
ｴｸｽﾃﾝｼｮﾝﾌﾚｰﾑ
100
AcDbCircle
 10
261.1595356976563
 20
569.3027429652842
 30
0.0
 40
2.6
100
AcDbArc
 50
89.99998999999897
 51
135.0
  0
LINE
  5
1E03
330
1F
100
AcDbEntity
  8
ｴｸｽﾃﾝｼｮﾝﾌﾚｰﾑ
100
AcDbLine
 10
532.8280532531301
 20
764.9898219160659
 30
0.0
 11
538.4631263289249
 21
764.9898219160659
 31
0.0
  0
LINE
  5
1E60
330
1F
100
AcDbEntity
  8
ｴｸｽﾃﾝｼｮﾝﾌﾚｰﾑ
100
AcDbLine
 10
538.4273956953932
 20
709.9898219160658
 30
0.0
 11
535.9708516723237
 21
709.9898219160658
 31
0.0
  0
LINE
  5
1E67
330
1F
100
AcDbEntity
  8
ｴｸｽﾃﾝｼｮﾝﾌﾚｰﾑ
100
AcDbLine
 10
538.4273956953932
 20
711.4898219160659
 30
0.0
 11
538.9273956953932
 21
711.7898219160661
 31
0.0
  0
LINE
  5
1E6D
330
1F
100
AcDbEntity
  8
ｴｸｽﾃﾝｼｮﾝﾌﾚｰﾑ
100
AcDbLine
 10
245.2407999930227
 20
767.389821916066
 30
0.0
 11
532.6139914000271
 21
767.389821916066
 31
0.0
  0
LINE
  5
1EBE
330
1F
100
AcDbEntity
  8
ｴｸｽﾃﾝｼｮﾝﾌﾚｰﾑ
100
AcDbLine
 10
242.3118656976563
 20
705.9898219160658
 30
0.0
 11
535.5429256953932
 21
705.9898219160658
 31
0.0
  0
LINE
  5
27A3
330
1F
100
AcDbEntity
  8
ｴｸｽﾃﾝｼｮﾝﾌﾚｰﾑ
100
AcDbLine
 10
263.0030379796809
 20
569.4758206832598
 30
0.0
 11
263.0025458121533
 21
570.7376429652843
 31
0.0
  0
CIRCLE
  5
27A8
330
1F
100
AcDbEntity
  8
ｴｸｽﾃﾝｼｮﾝﾌﾚｰﾑ
100
AcDbCircle
 10
274.2618656976564
 20
570.3827429652842
 30
0.0
 40
2.077509999999989
  0
ARC
  5
27DA
330
1F
100
AcDbEntity
  8
ｴｸｽﾃﾝｼｮﾝﾌﾚｰﾑ
100
AcDbCircle
 10
274.2560856976564
 20
577.1085329652842
 30
0.0
 40
0.3
100
AcDbArc
 50
89.99999999999998
 51
180.0
1001
GENIUS_GENODEF_13
1002
{
1000
HIER
1070
     0
1002
}
1002
{
1000
MANEDIT
1070
     0
1002
}
1002
{
1000
NOSEL
1070
     0
1002
}
1002
{
1000
BEHIND
1070
     0
1002
}
1002
{
1000
OTHER
1070
     0
1002
}
1002
{
1000
REACTOR
1002
}
1001
GENIUS_GENOBJ-N-FIL_13
1002
{
1000
OWNER
1000
GEN
1002
}
  0
ARC
  5
2806
330
1F
100
AcDbEntity
  8
ｴｸｽﾃﾝｼｮﾝﾌﾚｰﾑ
100
AcDbCircle
 10
273.8769456976564
 20
578.3027429652841
 30
0.0
 40
2.399999999999999
100
AcDbArc
 50
89.99999999999998
 51
180.0
1001
GENIUS_GENODEF_13
1002
{
1000
HIER
1070
     0
1002
}
1002
{
1000
MANEDIT
1070
     0
1002
}
1002
{
1000
NOSEL
1070
     0
1002
}
1002
{
1000
BEHIND
1070
     0
1002
}
1002
{
1000
OTHER
1070
     0
1002
}
1002
{
1000
REACTOR
1002
}
1001
GENIUS_GENOBJ-N-FIL_13
1002
{
1000
OWNER
1000
GEN
1002
}
  0
ARC
  5
2841
330
1F
100
AcDbEntity
  8
ｴｸｽﾃﾝｼｮﾝﾌﾚｰﾑ
100
AcDbCircle
 10
273.9118656976564
 20
578.3027429652841
 30
0.0
 40
4.000020000000096
100
AcDbArc
 50
143.1302742406287
 51
179.999989999999
  0
ARC
  5
2870
330
1F
100
AcDbEntity
  8
ｴｸｽﾃﾝｼｮﾝﾌﾚｰﾑ
100
AcDbCircle
 10
269.9118406976824
 20
581.3027429652842
 30
0.0
 40
1.0
100
AcDbArc
 50
323.1302742406261
 51
89.99999999999673
1001
GENIUS_GENOBJ-N-FIL_13
1002
{
1000
OWNER
1000
GEN
1002
}
1001
GENIUS_GENODEF_13
1002
{
1000
HIER
1070
     0
1002
}
1002
{
1000
MANEDIT
1070
     0
1002
}
1002
{
1000
NOSEL
1070
     0
1002
}
1002
{
1000
BEHIND
1070
     0
1002
}
1002
{
1000
OTHER
1070
     0
1002
}
1002
{
1000
REACTOR
1002
}
  0
ARC
  5
28A3
330
1F
100
AcDbEntity
  8
ｴｸｽﾃﾝｼｮﾝﾌﾚｰﾑ
100
AcDbCircle
 10
248.9273956976565
 20
575.2872129652842
 30
0.0
 40
10.0
100
AcDbArc
 50
89.99999999999998
 51
180.0
1001
GENIUS_GENOBJ-N-FIL_13
1002
{
1000
OWNER
1000
GEN
1002
}
1001
GENIUS_GENODEF_13
1002
{
1000
HIER
1070
     0
1002
}
1002
{
1000
MANEDIT
1070
     0
1002
}
1002
{
1000
NOSEL
1070
     0
1002
}
1002
{
1000
BEHIND
1070
     0
1002
}
1002
{
1000
OTHER
1070
     0
1002
}
1002
{
1000
REACTOR
1002
}
  0
LINE
  5
28AD
330
1F
100
AcDbEntity
  8
ｴｸｽﾃﾝｼｮﾝﾌﾚｰﾑ
100
AcDbLine
 10
528.9273956976565
 20
584.7872129652842
 30
0.0
 11
248.9273956976565
 21
584.7872129652842
 31
0.0
  0
ARC
  5
28B3
330
1F
100
AcDbEntity
  8
ｴｸｽﾃﾝｼｮﾝﾌﾚｰﾑ
100
AcDbCircle
 10
248.9273956976565
 20
575.2872129652842
 30
0.0
 40
9.5
100
AcDbArc
 50
89.99999999999998
 51
180.0
1001
GENIUS_GENOBJ-N-FIL_13
1002
{
1000
OWNER
1000
GEN
1002
}
1001
GENIUS_GENODEF_13
1002
{
1000
HIER
1070
     0
1002
}
1002
{
1000
MANEDIT
1070
     0
1002
}
1002
{
1000
NOSEL
1070
     0
1002
}
1002
{
1000
BEHIND
1070
     0
1002
}
1002
{
1000
OTHER
1070
     0
1002
}
1002
{
1000
REACTOR
1002
}
  0
LINE
  5
28E7
330
1F
100
AcDbEntity
  8
ｴｸｽﾃﾝｼｮﾝﾌﾚｰﾑ
100
AcDbLine
 10
273.1773956976565
 20
584.9872129652841
 30
0.0
 11
269.6773956976565
 21
584.9872129652841
 31
0.0
  0
ARC
  5
2977
330
1F
100
AcDbEntity
  8
ｴｸｽﾃﾝｼｮﾝﾌﾚｰﾑ
100
AcDbCircle
 10
273.4773956976563
 20
584.9872129652843
 30
0.0
 40
0.3
100
AcDbArc
 50
89.9999999999788
 51
180.0000000000227
1001
GENIUS_GENOBJ-N-FIL_13
1002
{
1000
OWNER
1000
GEN
1002
}
1001
GENIUS_GENODEF_13
1002
{
1000
HIER
1070
     0
1002
}
1002
{
1000
MANEDIT
1070
     0
1002
}
1002
{
1000
NOSEL
1070
     0
1002
}
1002
{
1000
BEHIND
1070
     0
1002
}
1002
{
1000
OTHER
1070
     0
1002
}
1002
{
1000
REACTOR
1002
}
  0
ARC
  5
2979
330
1F
100
AcDbEntity
  8
ｴｸｽﾃﾝｼｮﾝﾌﾚｰﾑ
100
AcDbCircle
 10
269.3773956976565
 20
584.9872129652843
 30
0.0
 40
0.3
100
AcDbArc
 50
359.9999999999675
 51
90.00000000001138
1001
GENIUS_GENOBJ-N-FIL_13
1002
{
1000
OWNER
1000
GEN
1002
}
1001
GENIUS_GENODEF_13
1002
{
1000
HIER
1070
     0
1002
}
1002
{
1000
MANEDIT
1070
     0
1002
}
1002
{
1000
NOSEL
1070
     0
1002
}
1002
{
1000
BEHIND
1070
     0
1002
}
1002
{
1000
OTHER
1070
     0
1002
}
1002
{
1000
REACTOR
1002
}
  0
ARC
  5
297B
330
1F
100
AcDbEntity
  8
ｴｸｽﾃﾝｼｮﾝﾌﾚｰﾑ
100
AcDbCircle
 10
267.4773956976565
 20
584.9872129652843
 30
0.0
 40
0.3
100
AcDbArc
 50
89.99999999998859
 51
180.0000000000227
1001
GENIUS_GENOBJ-N-FIL_13
1002
{
1000
OWNER
1000
GEN
1002
}
1001
GENIUS_GENODEF_13
1002
{
1000
HIER
1070
     0
1002
}
1002
{
1000
MANEDIT
1070
     0
1002
}
1002
{
1000
NOSEL
1070
     0
1002
}
1002
{
1000
BEHIND
1070
     0
1002
}
1002
{
1000
OTHER
1070
     0
1002
}
1002
{
1000
REACTOR
1002
}
  0
ARC
  5
297D
330
1F
100
AcDbEntity
  8
ｴｸｽﾃﾝｼｮﾝﾌﾚｰﾑ
100
AcDbCircle
 10
263.3773956976565
 20
584.9872129652843
 30
0.0
 40
0.3
100
AcDbArc
 50
359.9999999999675
 51
90.00000000001138
1001
GENIUS_GENOBJ-N-FIL_13
1002
{
1000
OWNER
1000
GEN
1002
}
1001
GENIUS_GENODEF_13
1002
{
1000
HIER
1070
     0
1002
}
1002
{
1000
MANEDIT
1070
     0
1002
}
1002
{
1000
NOSEL
1070
     0
1002
}
1002
{
1000
BEHIND
1070
     0
1002
}
1002
{
1000
OTHER
1070
     0
1002
}
1002
{
1000
REACTOR
1002
}
  0
LINE
  5
297E
330
1F
100
AcDbEntity
  8
ｴｸｽﾃﾝｼｮﾝﾌﾚｰﾑ
100
AcDbLine
 10
267.1773956976565
 20
584.9872129652841
 30
0.0
 11
263.6773956976565
 21
584.9872129652841
 31
0.0
  0
LINE
  5
2B3C
330
1F
100
AcDbEntity
  8
ｴｸｽﾃﾝｼｮﾝﾌﾚｰﾑ
100
AcDbLine
 10
238.9273956976567
 20
319.837212965284
 30
0.0
 11
238.9273956976565
 21
550.7372129652842
 31
0.0
  0
LINE
  5
2B3D
330
1F
100
AcDbEntity
  8
ｴｸｽﾃﾝｼｮﾝﾌﾚｰﾑ
100
AcDbLine
 10
239.4273956976566
 20
295.2872129652842
 30
0.0
 11
239.4273956976565
 21
575.2872129652842
 31
0.0
  0
LINE
  5
2B3E
330
1F
100
AcDbEntity
  8
ｴｸｽﾃﾝｼｮﾝﾌﾚｰﾑ
100
AcDbLine
 10
242.3118656976568
 20
320.2716829652839
 30
0.0
 11
242.3118656976566
 21
550.3027429652843
 31
0.0
  0
LINE
  5
2B3F
330
1F
100
AcDbEntity
  8
ｴｸｽﾃﾝｼｮﾝﾌﾚｰﾑ
100
AcDbLine
 10
243.5118656976566
 20
550.3376629652843
 30
0.0
 11
243.5118656976566
 21
320.2367629652841
 31
0.0
  0
LINE
  5
2B40
330
1F
100
AcDbEntity
  8
ｴｸｽﾃﾝｼｮﾝﾌﾚｰﾑ
100
AcDbLine
 10
246.8060756976565
 20
320.6159029652839
 30
0.0
 11
246.8060756976565
 21
549.9585229652844
 31
0.0
  0
LINE
  5
2B41
330
1F
100
AcDbEntity
  8
ｴｸｽﾃﾝｼｮﾝﾌﾚｰﾑ
100
AcDbLine
 10
238.9273956976565
 20
554.8372129652842
 30
0.0
 11
238.9273956976565
 21
556.7372129652842
 31
0.0
  0
LINE
  5
2B42
330
1F
100
AcDbEntity
  8
ｴｸｽﾃﾝｼｮﾝﾌﾚｰﾑ
100
AcDbLine
 10
238.9273956976565
 20
560.8372129652842
 30
0.0
 11
238.9273956976565
 21
575.2872129652842
 31
0.0
  0
LINE
  5
2B43
330
1F
100
AcDbEntity
  8
ｴｸｽﾃﾝｼｮﾝﾌﾚｰﾑ
100
AcDbLine
 10
241.9118656976565
 20
554.3027679652582
 30
0.0
 11
241.9118656976565
 21
565.8801829652843
 31
0.0
  0
LINE
  5
2B44
330
1F
100
AcDbEntity
  8
ｴｸｽﾃﾝｼｮﾝﾌﾚｰﾑ
100
AcDbLine
 10
252.0022757142223
 20
550.9369422807774
 30
0.0
 11
250.7325902173819
 21
552.9581927237098
 31
0.0
  0
LINE
  5
2B45
330
1F
100
AcDbEntity
  8
ｴｸｽﾃﾝｼｮﾝﾌﾚｰﾑ
100
AcDbLine
 10
249.5618656976566
 20
550.2585229652843
 30
0.0
 11
247.1060756976566
 21
550.2585229652843
 31
0.0
  0
ARC
  5
2B46
330
1F
100
AcDbEntity
  8
ｴｸｽﾃﾝｼｮﾝﾌﾚｰﾑ
100
AcDbCircle
 10
247.1060756976566
 20
549.9585229652844
 30
0.0
 40
0.3
100
AcDbArc
 50
89.99999999999998
 51
180.0
1001
GENIUS_GENODEF_13
1002
{
1000
HIER
1070
     0
1002
}
1002
{
1000
MANEDIT
1070
     0
1002
}
1002
{
1000
NOSEL
1070
     0
1002
}
1002
{
1000
BEHIND
1070
     0
1002
}
1002
{
1000
OTHER
1070
     0
1002
}
1002
{
1000
REACTOR
1002
}
1001
GENIUS_GENOBJ-N-FIL_13
1002
{
1000
OWNER
1000
GEN
1002
}
  0
LINE
  5
2B47
330
1F
100
AcDbEntity
  8
ｴｸｽﾃﾝｼｮﾝﾌﾚｰﾑ
100
AcDbLine
 10
252.3618399671632
 20
554.0058603114005
 30
0.0
 11
253.6855662371802
 21
552.0250953165905
 31
0.0
  0
LINE
  5
2B48
330
1F
100
AcDbEntity
  8
ｴｸｽﾃﾝｼｮﾝﾌﾚｰﾑ
100
AcDbLine
 10
251.9118656976565
 20
564.0977329652844
 30
0.0
 11
251.9118656976565
 21
556.8027529652843
 31
0.0
  0
LINE
  5
2B49
330
1F
100
AcDbEntity
  8
ｴｸｽﾃﾝｼｮﾝﾌﾚｰﾑ
100
AcDbLine
 10
252.3118656976566
 20
563.0550729652843
 30
0.0
 11
252.3118656976566
 21
556.8027529652843
 31
0.0
  0
LINE
  5
2B4A
330
1F
100
AcDbEntity
  8
ｴｸｽﾃﾝｼｮﾝﾌﾚｰﾑ
100
AcDbLine
 10
253.4769656976565
 20
556.8027529652843
 30
0.0
 11
253.4769656976565
 21
563.0550729652843
 31
0.0
  0
LINE
  5
2B4B
330
1F
100
AcDbEntity
  8
ｴｸｽﾃﾝｼｮﾝﾌﾚｰﾑ
100
AcDbLine
 10
245.9118656976565
 20
552.7376629652842
 30
0.0
 11
249.4118656976565
 21
552.7376629652842
 31
0.0
  0
ARC
  5
2B4C
330
1F
100
AcDbEntity
  8
ｴｸｽﾃﾝｼｮﾝﾌﾚｰﾑ
100
AcDbCircle
 10
245.9118656976565
 20
550.3376629652843
 30
0.0
 40
2.399999999999999
100
AcDbArc
 50
89.99999999999998
 51
180.0
1001
GENIUS_GENODEF_13
1002
{
1000
HIER
1070
     0
1002
}
1002
{
1000
MANEDIT
1070
     0
1002
}
1002
{
1000
NOSEL
1070
     0
1002
}
1002
{
1000
BEHIND
1070
     0
1002
}
1002
{
1000
OTHER
1070
     0
1002
}
1002
{
1000
REACTOR
1002
}
1001
GENIUS_GENOBJ-N-FIL_13
1002
{
1000
OWNER
1000
GEN
1002
}
  0
LINE
  5
2B4D
330
1F
100
AcDbEntity
  8
ｴｸｽﾃﾝｼｮﾝﾌﾚｰﾑ
100
AcDbLine
 10
255.8560756976565
 20
560.0942829652843
 30
0.0
 11
255.8560756976565
 21
556.5527529652842
 31
0.0
  0
LINE
  5
2B4E
330
1F
100
AcDbEntity
  8
ｴｸｽﾃﾝｼｮﾝﾌﾚｰﾑ
100
AcDbLine
 10
249.4118656976565
 20
553.9027329652842
 30
0.0
 11
245.9118656976565
 21
553.9027329652842
 31
0.0
  0
LINE
  5
2B4F
330
1F
100
AcDbEntity
  8
ｴｸｽﾃﾝｼｮﾝﾌﾚｰﾑ
100
AcDbLine
 10
249.4118656976565
 20
554.3027529652842
 30
0.0
 11
245.9118656976565
 21
554.3027529652842
 31
0.0
  0
LINE
  5
2B50
330
1F
100
AcDbEntity
  8
ｴｸｽﾃﾝｼｮﾝﾌﾚｰﾑ
100
AcDbLine
 10
257.6560856976565
 20
558.2942729652843
 30
0.0
 11
257.6560856976565
 21
556.4583329652844
 31
0.0
  0
LINE
  5
2B51
330
1F
100
AcDbEntity
  8
ｴｸｽﾃﾝｼｮﾝﾌﾚｰﾑ
100
AcDbLine
 10
257.6560856976565
 20
556.4583329652844
 30
0.0
 11
258.2889056976565
 21
555.8255029652843
 31
0.0
  0
LINE
  5
2B52
330
1F
100
AcDbEntity
  8
ｴｸｽﾃﾝｼｮﾝﾌﾚｰﾑ
100
AcDbLine
 10
254.738787979681
 20
561.2115706832598
 30
0.0
 11
257.6560856976565
 21
558.2942729652843
 31
0.0
  0
LINE
  5
2B53
330
1F
100
AcDbEntity
  8
ｴｸｽﾃﾝｼｮﾝﾌﾚｰﾑ
100
AcDbLine
 10
261.1173256976565
 20
558.6539429652844
 30
0.0
 11
256.6625556976565
 21
563.1087129652842
 31
0.0
  0
LINE
  5
2B54
330
1F
100
AcDbEntity
  8
ｴｸｽﾃﾝｼｮﾝﾌﾚｰﾑ
100
AcDbLine
 10
258.2889056976565
 20
555.8255029652843
 30
0.0
 11
261.1173256976565
 21
558.6539429652844
 31
0.0
  0
LINE
  5
2B55
330
1F
100
AcDbEntity
  8
ｴｸｽﾃﾝｼｮﾝﾌﾚｰﾑ
100
AcDbLine
 10
254.738787979681
 20
561.2115706832598
 30
0.0
 11
253.4769656976565
 21
561.2120628507873
 31
0.0
  0
LINE
  5
2B56
330
1F
100
AcDbEntity
  8
ｴｸｽﾃﾝｼｮﾝﾌﾚｰﾑ
100
AcDbLine
 10
256.6625556976565
 20
563.1087129652842
 30
0.0
 11
253.4779586370352
 21
563.1087129652842
 31
0.0
  0
ARC
  5
2B57
330
1F
100
AcDbEntity
  8
ｴｸｽﾃﾝｼｮﾝﾌﾚｰﾑ
100
AcDbCircle
 10
249.5618656976566
 20
556.5527529652842
 30
0.0
 40
6.294209999999999
100
AcDbArc
 50
270.0
 51
291.7701447830904
  0
ARC
  5
2B58
330
1F
100
AcDbEntity
  8
ｴｸｽﾃﾝｼｮﾝﾌﾚｰﾑ
100
AcDbCircle
 10
249.5618656976566
 20
556.5527529652842
 30
0.0
 40
6.294209999999999
100
AcDbArc
 50
314.0330625592539
 51
0.0000100000009937
  0
ARC
  5
2B59
330
1F
100
AcDbEntity
  8
ｴｸｽﾃﾝｼｮﾝﾌﾚｰﾑ
100
AcDbCircle
 10
249.4118656976565
 20
556.8027529652843
 30
0.0
 40
2.5
100
AcDbArc
 50
270.0
 51
0.0000100000009937
  0
ARC
  5
2B5A
330
1F
100
AcDbEntity
  8
ｴｸｽﾃﾝｼｮﾝﾌﾚｰﾑ
100
AcDbCircle
 10
250.9118656976565
 20
564.0977329652844
 30
0.0
 40
1.0
100
AcDbArc
 50
0.0
 51
99.3124500000003
  0
ARC
  5
2B5B
330
1F
100
AcDbEntity
  8
ｴｸｽﾃﾝｼｮﾝﾌﾚｰﾑ
100
AcDbCircle
 10
249.1318656976565
 20
574.9527329652844
 30
0.0
 40
10.0
100
AcDbArc
 50
235.5661500000021
 51
279.31244
  0
ARC
  5
2B5C
330
1F
100
AcDbEntity
  8
ｴｸｽﾃﾝｼｮﾝﾌﾚｰﾑ
100
AcDbCircle
 10
242.9118656976565
 20
565.8801829652843
 30
0.0
 40
1.0
100
AcDbArc
 50
55.56613999999926
 51
180.0000100000009
  0
ARC
  5
2B5D
330
1F
100
AcDbEntity
  8
ｴｸｽﾃﾝｼｮﾝﾌﾚｰﾑ
100
AcDbCircle
 10
254.9118656976565
 20
563.0550729652843
 30
0.0
 40
1.43491
100
AcDbArc
 50
135.0
 51
180.0000100000009
  0
ARC
  5
2B5E
330
1F
100
AcDbEntity
  8
ｴｸｽﾃﾝｼｮﾝﾌﾚｰﾑ
100
AcDbCircle
 10
249.4118656976565
 20
556.8027529652843
 30
0.0
 40
4.06509
100
AcDbArc
 50
270.0
 51
0.0000100000009937
  0
ARC
  5
2B5F
330
1F
100
AcDbEntity
  8
ｴｸｽﾃﾝｼｮﾝﾌﾚｰﾑ
100
AcDbCircle
 10
245.9118656976565
 20
550.3027429652843
 30
0.0
 40
3.6
100
AcDbArc
 50
90.00000999999937
 51
180.0000100000009
  0
ARC
  5
2B60
330
1F
100
AcDbEntity
  8
ｴｸｽﾃﾝｼｮﾝﾌﾚｰﾑ
100
AcDbCircle
 10
245.9118656976565
 20
550.3027429652843
 30
0.0
 40
4.000020000000096
100
AcDbArc
 50
90.00000999999937
 51
126.8697257593716
  0
ARC
  5
2B61
330
1F
100
AcDbEntity
  8
ｴｸｽﾃﾝｼｮﾝﾌﾚｰﾑ
100
AcDbCircle
 10
242.9118656976565
 20
554.3027679652583
 30
0.0
 40
1.0
100
AcDbArc
 50
180.0000000000032
 51
306.8697257593748
1001
GENIUS_GENOBJ-N-FIL_13
1002
{
1000
OWNER
1000
GEN
1002
}
1001
GENIUS_GENODEF_13
1002
{
1000
HIER
1070
     0
1002
}
1002
{
1000
MANEDIT
1070
     0
1002
}
1002
{
1000
NOSEL
1070
     0
1002
}
1002
{
1000
BEHIND
1070
     0
1002
}
1002
{
1000
OTHER
1070
     0
1002
}
1002
{
1000
REACTOR
1002
}
  0
ARC
  5
2B62
330
1F
100
AcDbEntity
  8
ｴｸｽﾃﾝｼｮﾝﾌﾚｰﾑ
100
AcDbCircle
 10
249.4118656976565
 20
556.8027529652843
 30
0.0
 40
2.9
100
AcDbArc
 50
270.0
 51
0.0000100000009937
  0
ARC
  5
2B63
330
1F
100
AcDbEntity
  8
ｴｸｽﾃﾝｼｮﾝﾌﾚｰﾑ
100
AcDbCircle
 10
254.9118656976565
 20
563.0550729652843
 30
0.0
 40
2.6
100
AcDbArc
 50
135.0
 51
180.0000100000009
  0
CIRCLE
  5
2B6C
330
1F
100
AcDbEntity
  8
ｴｸｽﾃﾝｼｮﾝﾌﾚｰﾑ
100
AcDbCircle
 10
253.8318656976565
 20
549.9527429652844
 30
0.0
 40
2.077509999999989
  0
LINE
  5
2B6D
330
1F
100
AcDbEntity
  8
ｴｸｽﾃﾝｼｮﾝﾌﾚｰﾑ
100
AcDbLine
 10
239.2273956976566
 20
551.0372129652842
 30
0.0
 11
239.2273956976566
 21
554.5372129652841
 31
0.0
  0
LINE
  5
2B6E
330
1F
100
AcDbEntity
  8
ｴｸｽﾃﾝｼｮﾝﾌﾚｰﾑ
100
AcDbLine
 10
239.2273956976566
 20
557.0372129652842
 30
0.0
 11
239.2273956976566
 21
560.5372129652842
 31
0.0
  0
ARC
  5
2B6F
330
1F
100
AcDbEntity
  8
ｴｸｽﾃﾝｼｮﾝﾌﾚｰﾑ
100
AcDbCircle
 10
239.2273956976563
 20
550.7372129652843
 30
0.0
 40
0.3
100
AcDbArc
 50
89.9999999999788
 51
180.0000000000227
1001
GENIUS_GENOBJ-N-FIL_13
1002
{
1000
OWNER
1000
GEN
1002
}
1001
GENIUS_GENODEF_13
1002
{
1000
HIER
1070
     0
1002
}
1002
{
1000
MANEDIT
1070
     0
1002
}
1002
{
1000
NOSEL
1070
     0
1002
}
1002
{
1000
BEHIND
1070
     0
1002
}
1002
{
1000
OTHER
1070
     0
1002
}
1002
{
1000
REACTOR
1002
}
  0
ARC
  5
2B70
330
1F
100
AcDbEntity
  8
ｴｸｽﾃﾝｼｮﾝﾌﾚｰﾑ
100
AcDbCircle
 10
239.2273956976563
 20
554.8372129652841
 30
0.0
 40
0.3
100
AcDbArc
 50
179.9999999999902
 51
270.0000000000326
1001
GENIUS_GENOBJ-N-FIL_13
1002
{
1000
OWNER
1000
GEN
1002
}
1001
GENIUS_GENODEF_13
1002
{
1000
HIER
1070
     0
1002
}
1002
{
1000
MANEDIT
1070
     0
1002
}
1002
{
1000
NOSEL
1070
     0
1002
}
1002
{
1000
BEHIND
1070
     0
1002
}
1002
{
1000
OTHER
1070
     0
1002
}
1002
{
1000
REACTOR
1002
}
  0
ARC
  5
2B71
330
1F
100
AcDbEntity
  8
ｴｸｽﾃﾝｼｮﾝﾌﾚｰﾑ
100
AcDbCircle
 10
239.2273956976563
 20
556.7372129652842
 30
0.0
 40
0.3
100
AcDbArc
 50
89.9999999999788
 51
180.0000000000097
1001
GENIUS_GENOBJ-N-FIL_13
1002
{
1000
OWNER
1000
GEN
1002
}
1001
GENIUS_GENODEF_13
1002
{
1000
HIER
1070
     0
1002
}
1002
{
1000
MANEDIT
1070
     0
1002
}
1002
{
1000
NOSEL
1070
     0
1002
}
1002
{
1000
BEHIND
1070
     0
1002
}
1002
{
1000
OTHER
1070
     0
1002
}
1002
{
1000
REACTOR
1002
}
  0
ARC
  5
2B72
330
1F
100
AcDbEntity
  8
ｴｸｽﾃﾝｼｮﾝﾌﾚｰﾑ
100
AcDbCircle
 10
239.2273956976563
 20
560.8372129652841
 30
0.0
 40
0.3
100
AcDbArc
 50
179.9999999999902
 51
270.0000000000326
1001
GENIUS_GENOBJ-N-FIL_13
1002
{
1000
OWNER
1000
GEN
1002
}
1001
GENIUS_GENODEF_13
1002
{
1000
HIER
1070
     0
1002
}
1002
{
1000
MANEDIT
1070
     0
1002
}
1002
{
1000
NOSEL
1070
     0
1002
}
1002
{
1000
BEHIND
1070
     0
1002
}
1002
{
1000
OTHER
1070
     0
1002
}
1002
{
1000
REACTOR
1002
}
  0
LINE
  5
2C6D
330
1F
100
AcDbEntity
  8
ｴｸｽﾃﾝｼｮﾝﾌﾚｰﾑ
100
AcDbLine
 10
504.3773956976569
 20
285.287212965284
 30
0.0
 11
273.4773956976567
 21
285.2872129652842
 31
0.0
  0
LINE
  5
2C6E
330
1F
100
AcDbEntity
  8
ｴｸｽﾃﾝｼｮﾝﾌﾚｰﾑ
100
AcDbLine
 10
528.9273956976566
 20
285.7872129652839
 30
0.0
 11
248.9273956976566
 21
285.7872129652842
 31
0.0
  0
LINE
  5
2C6F
330
1F
100
AcDbEntity
  8
ｴｸｽﾃﾝｼｮﾝﾌﾚｰﾑ
100
AcDbLine
 10
503.9429256976568
 20
288.671682965284
 30
0.0
 11
273.9118656976565
 21
288.6716829652842
 31
0.0
  0
LINE
  5
2C70
330
1F
100
AcDbEntity
  8
ｴｸｽﾃﾝｼｮﾝﾌﾚｰﾑ
100
AcDbLine
 10
273.8769456976565
 20
289.8716829652844
 30
0.0
 11
503.9778456976569
 21
289.8716829652837
 31
0.0
  0
LINE
  5
2C71
330
1F
100
AcDbEntity
  8
ｴｸｽﾃﾝｼｮﾝﾌﾚｰﾑ
100
AcDbLine
 10
503.5987056976568
 20
293.165892965284
 30
0.0
 11
274.2560856976565
 21
293.1658929652842
 31
0.0
  0
LINE
  5
2C72
330
1F
100
AcDbEntity
  8
ｴｸｽﾃﾝｼｮﾝﾌﾚｰﾑ
100
AcDbLine
 10
269.3773956976565
 20
285.2872129652842
 30
0.0
 11
267.4773956976567
 21
285.2872129652842
 31
0.0
  0
LINE
  5
2C73
330
1F
100
AcDbEntity
  8
ｴｸｽﾃﾝｼｮﾝﾌﾚｰﾑ
100
AcDbLine
 10
263.3773956976565
 20
285.2872129652842
 30
0.0
 11
248.9273956976566
 21
285.2872129652842
 31
0.0
  0
LINE
  5
2C74
330
1F
100
AcDbEntity
  8
ｴｸｽﾃﾝｼｮﾝﾌﾚｰﾑ
100
AcDbLine
 10
269.9118406976826
 20
288.2716829652843
 30
0.0
 11
258.3344256976566
 21
288.2716829652843
 31
0.0
  0
LINE
  5
2C75
330
1F
100
AcDbEntity
  8
ｴｸｽﾃﾝｼｮﾝﾌﾚｰﾑ
100
AcDbLine
 10
273.2776663821634
 20
298.3620929818501
 30
0.0
 11
271.2564159392311
 21
297.0924074850095
 31
0.0
  0
LINE
  5
2C76
330
1F
100
AcDbEntity
  8
ｴｸｽﾃﾝｼｮﾝﾌﾚｰﾑ
100
AcDbLine
 10
253.0733756976565
 20
305.6808729652844
 30
0.0
 11
259.3210456976566
 21
299.4332129652844
 31
0.0
  0
LINE
  5
2C77
330
1F
100
AcDbEntity
  8
ｴｸｽﾃﾝｼｮﾝﾌﾚｰﾑ
100
AcDbLine
 10
273.9560856976565
 20
295.9216829652842
 30
0.0
 11
273.9560856976565
 21
293.4658929652842
 31
0.0
  0
ARC
  5
2C78
330
1F
100
AcDbEntity
  8
ｴｸｽﾃﾝｼｮﾝﾌﾚｰﾑ
100
AcDbCircle
 10
274.2560856976565
 20
293.4658929652841
 30
0.0
 40
0.3
100
AcDbArc
 50
180.0
 51
270.0
1001
GENIUS_GENODEF_13
1002
{
1000
HIER
1070
     0
1002
}
1002
{
1000
MANEDIT
1070
     0
1002
}
1002
{
1000
NOSEL
1070
     0
1002
}
1002
{
1000
BEHIND
1070
     0
1002
}
1002
{
1000
OTHER
1070
     0
1002
}
1002
{
1000
REACTOR
1002
}
1001
GENIUS_GENOBJ-N-FIL_13
1002
{
1000
OWNER
1000
GEN
1002
}
  0
LINE
  5
2C79
330
1F
100
AcDbEntity
  8
ｴｸｽﾃﾝｼｮﾝﾌﾚｰﾑ
100
AcDbLine
 10
270.2087483515402
 20
298.7216572347909
 30
0.0
 11
272.1895133463504
 21
300.0453835048079
 31
0.0
  0
LINE
  5
2C7A
330
1F
100
AcDbEntity
  8
ｴｸｽﾃﾝｼｮﾝﾌﾚｰﾑ
100
AcDbLine
 10
260.1168756976565
 20
298.2716829652843
 30
0.0
 11
267.4118556976565
 21
298.2716829652843
 31
0.0
  0
LINE
  5
2C7B
330
1F
100
AcDbEntity
  8
ｴｸｽﾃﾝｼｮﾝﾌﾚｰﾑ
100
AcDbLine
 10
261.1595356976565
 20
298.6716829652842
 30
0.0
 11
267.4118556976565
 21
298.6716829652842
 31
0.0
  0
LINE
  5
2C7C
330
1F
100
AcDbEntity
  8
ｴｸｽﾃﾝｼｮﾝﾌﾚｰﾑ
100
AcDbLine
 10
267.4118556976565
 20
299.8367829652843
 30
0.0
 11
261.1595356976565
 21
299.8367829652843
 31
0.0
  0
LINE
  5
2C7D
330
1F
100
AcDbEntity
  8
ｴｸｽﾃﾝｼｮﾝﾌﾚｰﾑ
100
AcDbLine
 10
260.1449056976566
 20
300.2570529652844
 30
0.0
 11
253.8972356976564
 21
306.5047229652841
 31
0.0
  0
LINE
  5
2C7E
330
1F
100
AcDbEntity
  8
ｴｸｽﾃﾝｼｮﾝﾌﾚｰﾑ
100
AcDbLine
 10
271.4769456976565
 20
292.2716829652843
 30
0.0
 11
271.4769456976565
 21
295.7716829652843
 31
0.0
  0
ARC
  5
2C7F
330
1F
100
AcDbEntity
  8
ｴｸｽﾃﾝｼｮﾝﾌﾚｰﾑ
100
AcDbCircle
 10
273.8769456976565
 20
292.2716829652842
 30
0.0
 40
2.399999999999999
100
AcDbArc
 50
180.0
 51
270.0
1001
GENIUS_GENODEF_13
1002
{
1000
HIER
1070
     0
1002
}
1002
{
1000
MANEDIT
1070
     0
1002
}
1002
{
1000
NOSEL
1070
     0
1002
}
1002
{
1000
BEHIND
1070
     0
1002
}
1002
{
1000
OTHER
1070
     0
1002
}
1002
{
1000
REACTOR
1002
}
1001
GENIUS_GENOBJ-N-FIL_13
1002
{
1000
OWNER
1000
GEN
1002
}
  0
LINE
  5
2C80
330
1F
100
AcDbEntity
  8
ｴｸｽﾃﾝｼｮﾝﾌﾚｰﾑ
100
AcDbLine
 10
264.1203256976565
 20
302.2158929652842
 30
0.0
 11
267.6618556976565
 21
302.2158929652842
 31
0.0
  0
LINE
  5
2C81
330
1F
100
AcDbEntity
  8
ｴｸｽﾃﾝｼｮﾝﾌﾚｰﾑ
100
AcDbLine
 10
256.0886959636359
 20
307.4657129652842
 30
0.0
 11
261.1058956976566
 21
302.4485029652842
 31
0.0
  0
LINE
  5
2C82
330
1F
100
AcDbEntity
  8
ｴｸｽﾃﾝｼｮﾝﾌﾚｰﾑ
100
AcDbLine
 10
270.3118756976565
 20
295.7716829652843
 30
0.0
 11
270.3118756976565
 21
292.2716829652843
 31
0.0
  0
LINE
  5
2C83
330
1F
100
AcDbEntity
  8
ｴｸｽﾃﾝｼｮﾝﾌﾚｰﾑ
100
AcDbLine
 10
269.9118556976565
 20
295.7716829652843
 30
0.0
 11
269.9118556976565
 21
292.2716829652843
 31
0.0
  0
LINE
  5
2C84
330
1F
100
AcDbEntity
  8
ｴｸｽﾃﾝｼｮﾝﾌﾚｰﾑ
100
AcDbLine
 10
265.9203356976565
 20
304.0159029652841
 30
0.0
 11
267.7562756976565
 21
304.0159029652841
 31
0.0
  0
LINE
  5
2C85
330
1F
100
AcDbEntity
  8
ｴｸｽﾃﾝｼｮﾝﾌﾚｰﾑ
100
AcDbLine
 10
267.7562756976565
 20
304.0159029652841
 30
0.0
 11
268.3891056976565
 21
304.6487229652844
 31
0.0
  0
LINE
  5
2C86
330
1F
100
AcDbEntity
  8
ｴｸｽﾃﾝｼｮﾝﾌﾚｰﾑ
100
AcDbLine
 10
263.003037979681
 20
301.0986052473088
 30
0.0
 11
265.9203356976565
 21
304.0159029652841
 31
0.0
  0
LINE
  5
2C87
330
1F
100
AcDbEntity
  8
ｴｸｽﾃﾝｼｮﾝﾌﾚｰﾑ
100
AcDbLine
 10
265.5606656976565
 20
307.4771429652842
 30
0.0
 11
261.1058956976566
 21
303.0223729652844
 31
0.0
  0
LINE
  5
2C88
330
1F
100
AcDbEntity
  8
ｴｸｽﾃﾝｼｮﾝﾌﾚｰﾑ
100
AcDbLine
 10
268.3891056976565
 20
304.6487229652844
 30
0.0
 11
265.5606656976565
 21
307.4771429652842
 31
0.0
  0
LINE
  5
2C89
330
1F
100
AcDbEntity
  8
ｴｸｽﾃﾝｼｮﾝﾌﾚｰﾑ
100
AcDbLine
 10
263.003037979681
 20
301.0986052473088
 30
0.0
 11
263.0025458121535
 21
299.8367829652843
 31
0.0
  0
LINE
  5
2C8A
330
1F
100
AcDbEntity
  8
ｴｸｽﾃﾝｼｮﾝﾌﾚｰﾑ
100
AcDbLine
 10
261.1058956976566
 20
303.0223729652844
 30
0.0
 11
261.1058956976566
 21
299.8377759046629
 31
0.0
  0
ARC
  5
2C8B
330
1F
100
AcDbEntity
  8
ｴｸｽﾃﾝｼｮﾝﾌﾚｰﾑ
100
AcDbCircle
 10
248.9273956976566
 20
295.2872129652841
 30
0.0
 40
10.0
100
AcDbArc
 50
180.0
 51
270.0
1001
GENIUS_GENOBJ-N-FIL_13
1002
{
1000
OWNER
1000
GEN
1002
}
1001
GENIUS_GENODEF_13
1002
{
1000
HIER
1070
     0
1002
}
1002
{
1000
MANEDIT
1070
     0
1002
}
1002
{
1000
NOSEL
1070
     0
1002
}
1002
{
1000
BEHIND
1070
     0
1002
}
1002
{
1000
OTHER
1070
     0
1002
}
1002
{
1000
REACTOR
1002
}
  0
ARC
  5
2C8C
330
1F
100
AcDbEntity
  8
ｴｸｽﾃﾝｼｮﾝﾌﾚｰﾑ
100
AcDbCircle
 10
248.9273956976566
 20
295.2872129652841
 30
0.0
 40
9.5
100
AcDbArc
 50
180.0
 51
270.0
1001
GENIUS_GENOBJ-N-FIL_13
1002
{
1000
OWNER
1000
GEN
1002
}
1001
GENIUS_GENODEF_13
1002
{
1000
HIER
1070
     0
1002
}
1002
{
1000
MANEDIT
1070
     0
1002
}
1002
{
1000
NOSEL
1070
     0
1002
}
1002
{
1000
BEHIND
1070
     0
1002
}
1002
{
1000
OTHER
1070
     0
1002
}
1002
{
1000
REACTOR
1002
}
  0
ARC
  5
2C8D
330
1F
100
AcDbEntity
  8
ｴｸｽﾃﾝｼｮﾝﾌﾚｰﾑ
100
AcDbCircle
 10
267.6618556976565
 20
295.9216829652841
 30
0.0
 40
6.294209999999999
100
AcDbArc
 50
0.0
 51
21.77014478309192
  0
ARC
  5
2C8E
330
1F
100
AcDbEntity
  8
ｴｸｽﾃﾝｼｮﾝﾌﾚｰﾑ
100
AcDbCircle
 10
267.6618556976565
 20
295.9216829652841
 30
0.0
 40
6.294209999999999
100
AcDbArc
 50
44.03306255925501
 51
90.00001000000098
  0
ARC
  5
2C90
330
1F
100
AcDbEntity
  8
ｴｸｽﾃﾝｼｮﾝﾌﾚｰﾑ
100
AcDbCircle
 10
267.4118556976565
 20
295.7716829652842
 30
0.0
 40
2.5
100
AcDbArc
 50
0.0
 51
90.00001000000098
  0
ARC
  5
2C91
330
1F
100
AcDbEntity
  8
ｴｸｽﾃﾝｼｮﾝﾌﾚｰﾑ
100
AcDbCircle
 10
260.1168756976565
 20
297.2716829652842
 30
0.0
 40
1.0
100
AcDbArc
 50
89.99999999999998
 51
189.3124500000003
  0
ARC
  5
2C92
330
1F
100
AcDbEntity
  8
ｴｸｽﾃﾝｼｮﾝﾌﾚｰﾑ
100
AcDbCircle
 10
249.2618756976565
 20
295.4916829652842
 30
0.0
 40
10.0
100
AcDbArc
 50
325.5661500000021
 51
9.312440000001689
  0
ARC
  5
2C93
330
1F
100
AcDbEntity
  8
ｴｸｽﾃﾝｼｮﾝﾌﾚｰﾑ
100
AcDbCircle
 10
258.3344256976566
 20
289.2716829652842
 30
0.0
 40
1.0
100
AcDbArc
 50
145.5661399999979
 51
270.000010000001
  0
ARC
  5
2C95
330
1F
100
AcDbEntity
  8
ｴｸｽﾃﾝｼｮﾝﾌﾚｰﾑ
100
AcDbCircle
 10
261.1595356976565
 20
301.2716829652842
 30
0.0
 40
1.43491
100
AcDbArc
 50
225.0
 51
270.000010000001
  0
ARC
  5
2C96
330
1F
100
AcDbEntity
  8
ｴｸｽﾃﾝｼｮﾝﾌﾚｰﾑ
100
AcDbCircle
 10
267.4118556976565
 20
295.7716829652842
 30
0.0
 40
4.06509
100
AcDbArc
 50
0.0
 51
90.00001000000098
  0
ARC
  5
2C97
330
1F
100
AcDbEntity
  8
ｴｸｽﾃﾝｼｮﾝﾌﾚｰﾑ
100
AcDbCircle
 10
273.9118656976565
 20
292.2716829652842
 30
0.0
 40
3.6
100
AcDbArc
 50
180.0000099999977
 51
270.000010000001
  0
ARC
  5
2C98
330
1F
100
AcDbEntity
  8
ｴｸｽﾃﾝｼｮﾝﾌﾚｰﾑ
100
AcDbCircle
 10
273.9118656976565
 20
292.2716829652842
 30
0.0
 40
4.000020000000096
100
AcDbArc
 50
180.0000099999977
 51
216.8697257593713
  0
ARC
  5
2C99
330
1F
100
AcDbEntity
  8
ｴｸｽﾃﾝｼｮﾝﾌﾚｰﾑ
100
AcDbCircle
 10
269.9118406976825
 20
289.2716829652842
 30
0.0
 40
1.0
100
AcDbArc
 50
270.0000000000033
 51
36.86972575937386
1001
GENIUS_GENOBJ-N-FIL_13
1002
{
1000
OWNER
1000
GEN
1002
}
1001
GENIUS_GENODEF_13
1002
{
1000
HIER
1070
     0
1002
}
1002
{
1000
MANEDIT
1070
     0
1002
}
1002
{
1000
NOSEL
1070
     0
1002
}
1002
{
1000
BEHIND
1070
     0
1002
}
1002
{
1000
OTHER
1070
     0
1002
}
1002
{
1000
REACTOR
1002
}
  0
ARC
  5
2C9A
330
1F
100
AcDbEntity
  8
ｴｸｽﾃﾝｼｮﾝﾌﾚｰﾑ
100
AcDbCircle
 10
267.4118556976565
 20
295.7716829652842
 30
0.0
 40
2.9
100
AcDbArc
 50
0.0
 51
90.00001000000098
  0
ARC
  5
2C9B
330
1F
100
AcDbEntity
  8
ｴｸｽﾃﾝｼｮﾝﾌﾚｰﾑ
100
AcDbCircle
 10
261.1595356976565
 20
301.2716829652842
 30
0.0
 40
2.6
100
AcDbArc
 50
225.0
 51
270.000010000001
  0
CIRCLE
  5
2CC2
330
1F
100
AcDbEntity
  8
ｴｸｽﾃﾝｼｮﾝﾌﾚｰﾑ
100
AcDbCircle
 10
274.2618656976565
 20
300.191682965284
 30
0.0
 40
2.077509999999989
  0
LINE
  5
2CC3
330
1F
100
AcDbEntity
  8
ｴｸｽﾃﾝｼｮﾝﾌﾚｰﾑ
100
AcDbLine
 10
273.1773956976566
 20
285.5872129652844
 30
0.0
 11
269.6773956976566
 21
285.5872129652844
 31
0.0
  0
LINE
  5
2CC4
330
1F
100
AcDbEntity
  8
ｴｸｽﾃﾝｼｮﾝﾌﾚｰﾑ
100
AcDbLine
 10
267.1773956976566
 20
285.5872129652844
 30
0.0
 11
263.6773956976566
 21
285.5872129652844
 31
0.0
  0
ARC
  5
2CC5
330
1F
100
AcDbEntity
  8
ｴｸｽﾃﾝｼｮﾝﾌﾚｰﾑ
100
AcDbCircle
 10
273.4773956976564
 20
285.5872129652841
 30
0.0
 40
0.3
100
AcDbArc
 50
179.9999999999772
 51
270.0000000000212
1001
GENIUS_GENOBJ-N-FIL_13
1002
{
1000
OWNER
1000
GEN
1002
}
1001
GENIUS_GENODEF_13
1002
{
1000
HIER
1070
     0
1002
}
1002
{
1000
MANEDIT
1070
     0
1002
}
1002
{
1000
NOSEL
1070
     0
1002
}
1002
{
1000
BEHIND
1070
     0
1002
}
1002
{
1000
OTHER
1070
     0
1002
}
1002
{
1000
REACTOR
1002
}
  0
ARC
  5
2CC6
330
1F
100
AcDbEntity
  8
ｴｸｽﾃﾝｼｮﾝﾌﾚｰﾑ
100
AcDbCircle
 10
269.3773956976567
 20
285.5872129652841
 30
0.0
 40
0.3
100
AcDbArc
 50
269.9999999999886
 51
0.0000000000325562
1001
GENIUS_GENOBJ-N-FIL_13
1002
{
1000
OWNER
1000
GEN
1002
}
1001
GENIUS_GENODEF_13
1002
{
1000
HIER
1070
     0
1002
}
1002
{
1000
MANEDIT
1070
     0
1002
}
1002
{
1000
NOSEL
1070
     0
1002
}
1002
{
1000
BEHIND
1070
     0
1002
}
1002
{
1000
OTHER
1070
     0
1002
}
1002
{
1000
REACTOR
1002
}
  0
ARC
  5
2CC7
330
1F
100
AcDbEntity
  8
ｴｸｽﾃﾝｼｮﾝﾌﾚｰﾑ
100
AcDbCircle
 10
267.4773956976566
 20
285.5872129652841
 30
0.0
 40
0.3
100
AcDbArc
 50
179.9999999999772
 51
270.0000000000114
1001
GENIUS_GENOBJ-N-FIL_13
1002
{
1000
OWNER
1000
GEN
1002
}
1001
GENIUS_GENODEF_13
1002
{
1000
HIER
1070
     0
1002
}
1002
{
1000
MANEDIT
1070
     0
1002
}
1002
{
1000
NOSEL
1070
     0
1002
}
1002
{
1000
BEHIND
1070
     0
1002
}
1002
{
1000
OTHER
1070
     0
1002
}
1002
{
1000
REACTOR
1002
}
  0
ARC
  5
2CC8
330
1F
100
AcDbEntity
  8
ｴｸｽﾃﾝｼｮﾝﾌﾚｰﾑ
100
AcDbCircle
 10
263.3773956976567
 20
285.5872129652841
 30
0.0
 40
0.3
100
AcDbArc
 50
269.9999999999886
 51
0.0000000000325562
1001
GENIUS_GENOBJ-N-FIL_13
1002
{
1000
OWNER
1000
GEN
1002
}
1001
GENIUS_GENODEF_13
1002
{
1000
HIER
1070
     0
1002
}
1002
{
1000
MANEDIT
1070
     0
1002
}
1002
{
1000
NOSEL
1070
     0
1002
}
1002
{
1000
BEHIND
1070
     0
1002
}
1002
{
1000
OTHER
1070
     0
1002
}
1002
{
1000
REACTOR
1002
}
  0
LINE
  5
2CCD
330
1F
100
AcDbEntity
  8
ｴｸｽﾃﾝｼｮﾝﾌﾚｰﾑ
100
AcDbLine
 10
238.9273956976566
 20
315.7372129652842
 30
0.0
 11
238.9273956976566
 21
313.8372129652844
 31
0.0
  0
LINE
  5
2CCE
330
1F
100
AcDbEntity
  8
ｴｸｽﾃﾝｼｮﾝﾌﾚｰﾑ
100
AcDbLine
 10
238.9273956976566
 20
309.7372129652843
 30
0.0
 11
238.9273956976566
 21
295.2872129652842
 31
0.0
  0
LINE
  5
2CCF
330
1F
100
AcDbEntity
  8
ｴｸｽﾃﾝｼｮﾝﾌﾚｰﾑ
100
AcDbLine
 10
241.9118656976566
 20
316.2716579653102
 30
0.0
 11
241.9118656976566
 21
304.6942429652843
 31
0.0
  0
LINE
  5
2CD0
330
1F
100
AcDbEntity
  8
ｴｸｽﾃﾝｼｮﾝﾌﾚｰﾑ
100
AcDbLine
 10
252.0022757142224
 20
319.637483649791
 30
0.0
 11
250.732590217382
 21
317.6162332068589
 31
0.0
  0
LINE
  5
2CD1
330
1F
100
AcDbEntity
  8
ｴｸｽﾃﾝｼｮﾝﾌﾚｰﾑ
100
AcDbLine
 10
249.5618656976567
 20
320.3159029652841
 30
0.0
 11
247.1060756976567
 21
320.3159029652841
 31
0.0
  0
ARC
  5
2CD2
330
1F
100
AcDbEntity
  8
ｴｸｽﾃﾝｼｮﾝﾌﾚｰﾑ
100
AcDbCircle
 10
247.1060756976567
 20
320.6159029652839
 30
0.0
 40
0.3
100
AcDbArc
 50
180.0
 51
270.0
1001
GENIUS_GENODEF_13
1002
{
1000
HIER
1070
     0
1002
}
1002
{
1000
MANEDIT
1070
     0
1002
}
1002
{
1000
NOSEL
1070
     0
1002
}
1002
{
1000
BEHIND
1070
     0
1002
}
1002
{
1000
OTHER
1070
     0
1002
}
1002
{
1000
REACTOR
1002
}
1001
GENIUS_GENOBJ-N-FIL_13
1002
{
1000
OWNER
1000
GEN
1002
}
  0
LINE
  5
2CD3
330
1F
100
AcDbEntity
  8
ｴｸｽﾃﾝｼｮﾝﾌﾚｰﾑ
100
AcDbLine
 10
252.3618399671633
 20
316.5685656191679
 30
0.0
 11
253.6855662371803
 21
318.5493306139779
 31
0.0
  0
LINE
  5
2CD4
330
1F
100
AcDbEntity
  8
ｴｸｽﾃﾝｼｮﾝﾌﾚｰﾑ
100
AcDbLine
 10
251.9118656976566
 20
306.4766929652842
 30
0.0
 11
251.9118656976566
 21
313.7716729652841
 31
0.0
  0
LINE
  5
2CD5
330
1F
100
AcDbEntity
  8
ｴｸｽﾃﾝｼｮﾝﾌﾚｰﾑ
100
AcDbLine
 10
252.3118656976567
 20
307.519352965284
 30
0.0
 11
252.3118656976567
 21
313.7716729652841
 31
0.0
  0
LINE
  5
2CD6
330
1F
100
AcDbEntity
  8
ｴｸｽﾃﾝｼｮﾝﾌﾚｰﾑ
100
AcDbLine
 10
253.4769656976566
 20
313.7716729652841
 30
0.0
 11
253.4769656976566
 21
307.519352965284
 31
0.0
  0
LINE
  5
2CD7
330
1F
100
AcDbEntity
  8
ｴｸｽﾃﾝｼｮﾝﾌﾚｰﾑ
100
AcDbLine
 10
245.9118656976566
 20
317.8367629652842
 30
0.0
 11
249.4118656976566
 21
317.8367629652842
 31
0.0
  0
ARC
  5
2CD8
330
1F
100
AcDbEntity
  8
ｴｸｽﾃﾝｼｮﾝﾌﾚｰﾑ
100
AcDbCircle
 10
245.9118656976566
 20
320.2367629652841
 30
0.0
 40
2.399999999999999
100
AcDbArc
 50
180.0
 51
270.0
1001
GENIUS_GENODEF_13
1002
{
1000
HIER
1070
     0
1002
}
1002
{
1000
MANEDIT
1070
     0
1002
}
1002
{
1000
NOSEL
1070
     0
1002
}
1002
{
1000
BEHIND
1070
     0
1002
}
1002
{
1000
OTHER
1070
     0
1002
}
1002
{
1000
REACTOR
1002
}
1001
GENIUS_GENOBJ-N-FIL_13
1002
{
1000
OWNER
1000
GEN
1002
}
  0
LINE
  5
2CD9
330
1F
100
AcDbEntity
  8
ｴｸｽﾃﾝｼｮﾝﾌﾚｰﾑ
100
AcDbLine
 10
255.8560756976566
 20
310.4801429652841
 30
0.0
 11
255.8560756976566
 21
314.0216729652841
 31
0.0
  0
LINE
  5
2CDA
330
1F
100
AcDbEntity
  8
ｴｸｽﾃﾝｼｮﾝﾌﾚｰﾑ
100
AcDbLine
 10
249.4118656976566
 20
316.6716929652841
 30
0.0
 11
245.9118656976566
 21
316.6716929652841
 31
0.0
  0
LINE
  5
2CDB
330
1F
100
AcDbEntity
  8
ｴｸｽﾃﾝｼｮﾝﾌﾚｰﾑ
100
AcDbLine
 10
249.4118656976566
 20
316.2716729652841
 30
0.0
 11
245.9118656976566
 21
316.2716729652841
 31
0.0
  0
LINE
  5
2CDC
330
1F
100
AcDbEntity
  8
ｴｸｽﾃﾝｼｮﾝﾌﾚｰﾑ
100
AcDbLine
 10
257.6560856976566
 20
312.2801529652841
 30
0.0
 11
257.6560856976566
 21
314.1160929652842
 31
0.0
  0
LINE
  5
2CDD
330
1F
100
AcDbEntity
  8
ｴｸｽﾃﾝｼｮﾝﾌﾚｰﾑ
100
AcDbLine
 10
257.6560856976566
 20
314.1160929652842
 30
0.0
 11
258.2889056976567
 21
314.7489229652842
 31
0.0
  0
LINE
  5
2CDE
330
1F
100
AcDbEntity
  8
ｴｸｽﾃﾝｼｮﾝﾌﾚｰﾑ
100
AcDbLine
 10
254.7387879796811
 20
309.3628552473087
 30
0.0
 11
257.6560856976566
 21
312.2801529652841
 31
0.0
  0
LINE
  5
2CDF
330
1F
100
AcDbEntity
  8
ｴｸｽﾃﾝｼｮﾝﾌﾚｰﾑ
100
AcDbLine
 10
261.1173256976566
 20
311.9204829652842
 30
0.0
 11
256.6625556976567
 21
307.4657129652842
 31
0.0
  0
LINE
  5
2CE0
330
1F
100
AcDbEntity
  8
ｴｸｽﾃﾝｼｮﾝﾌﾚｰﾑ
100
AcDbLine
 10
258.2889056976567
 20
314.7489229652842
 30
0.0
 11
261.1173256976566
 21
311.9204829652842
 31
0.0
  0
LINE
  5
2CE1
330
1F
100
AcDbEntity
  8
ｴｸｽﾃﾝｼｮﾝﾌﾚｰﾑ
100
AcDbLine
 10
254.7387879796811
 20
309.3628552473087
 30
0.0
 11
253.4769656976566
 21
309.3623630797811
 31
0.0
  0
LINE
  5
2CE2
330
1F
100
AcDbEntity
  8
ｴｸｽﾃﾝｼｮﾝﾌﾚｰﾑ
100
AcDbLine
 10
256.6625556976567
 20
307.4657129652842
 30
0.0
 11
253.4779586370353
 21
307.4657129652842
 31
0.0
  0
ARC
  5
2CE3
330
1F
100
AcDbEntity
  8
ｴｸｽﾃﾝｼｮﾝﾌﾚｰﾑ
100
AcDbCircle
 10
249.5618656976567
 20
314.021672965284
 30
0.0
 40
6.294209999999999
100
AcDbArc
 50
68.22985521690956
 51
89.99999999999998
  0
ARC
  5
2CE4
330
1F
100
AcDbEntity
  8
ｴｸｽﾃﾝｼｮﾝﾌﾚｰﾑ
100
AcDbCircle
 10
249.5618656976567
 20
314.021672965284
 30
0.0
 40
6.294209999999999
100
AcDbArc
 50
359.999989999999
 51
45.96693744074608
  0
ARC
  5
2CE5
330
1F
100
AcDbEntity
  8
ｴｸｽﾃﾝｼｮﾝﾌﾚｰﾑ
100
AcDbCircle
 10
249.4118656976566
 20
313.771672965284
 30
0.0
 40
2.5
100
AcDbArc
 50
359.999989999999
 51
89.99999999999998
  0
ARC
  5
2CE6
330
1F
100
AcDbEntity
  8
ｴｸｽﾃﾝｼｮﾝﾌﾚｰﾑ
100
AcDbCircle
 10
250.9118656976566
 20
306.4766929652841
 30
0.0
 40
1.0
100
AcDbArc
 50
260.6875499999997
 51
0.0
  0
ARC
  5
2CE7
330
1F
100
AcDbEntity
  8
ｴｸｽﾃﾝｼｮﾝﾌﾚｰﾑ
100
AcDbCircle
 10
249.1318656976566
 20
295.6216929652841
 30
0.0
 40
10.0
100
AcDbArc
 50
80.68755999999988
 51
124.4338499999979
  0
ARC
  5
2CE8
330
1F
100
AcDbEntity
  8
ｴｸｽﾃﾝｼｮﾝﾌﾚｰﾑ
100
AcDbCircle
 10
242.9118656976566
 20
304.6942429652842
 30
0.0
 40
1.0
100
AcDbArc
 50
179.999989999999
 51
304.4338600000007
  0
ARC
  5
2CE9
330
1F
100
AcDbEntity
  8
ｴｸｽﾃﾝｼｮﾝﾌﾚｰﾑ
100
AcDbCircle
 10
254.9118656976566
 20
307.5193529652839
 30
0.0
 40
1.43491
100
AcDbArc
 50
179.999989999999
 51
225.0
  0
ARC
  5
2CEA
330
1F
100
AcDbEntity
  8
ｴｸｽﾃﾝｼｮﾝﾌﾚｰﾑ
100
AcDbCircle
 10
249.4118656976566
 20
313.771672965284
 30
0.0
 40
4.06509
100
AcDbArc
 50
359.999989999999
 51
89.99999999999998
  0
ARC
  5
2CEB
330
1F
100
AcDbEntity
  8
ｴｸｽﾃﾝｼｮﾝﾌﾚｰﾑ
100
AcDbCircle
 10
245.9118656976566
 20
320.2716829652839
 30
0.0
 40
3.6
100
AcDbArc
 50
179.999989999999
 51
269.9999900000006
  0
ARC
  5
2CEC
330
1F
100
AcDbEntity
  8
ｴｸｽﾃﾝｼｮﾝﾌﾚｰﾑ
100
AcDbCircle
 10
245.9118656976566
 20
320.2716829652839
 30
0.0
 40
4.000020000000096
100
AcDbArc
 50
233.1302742406284
 51
269.9999900000006
  0
ARC
  5
2CED
330
1F
100
AcDbEntity
  8
ｴｸｽﾃﾝｼｮﾝﾌﾚｰﾑ
100
AcDbCircle
 10
242.9118656976566
 20
316.2716579653101
 30
0.0
 40
1.0
100
AcDbArc
 50
53.13027424062513
 51
179.9999999999967
1001
GENIUS_GENOBJ-N-FIL_13
1002
{
1000
OWNER
1000
GEN
1002
}
1001
GENIUS_GENODEF_13
1002
{
1000
HIER
1070
     0
1002
}
1002
{
1000
MANEDIT
1070
     0
1002
}
1002
{
1000
NOSEL
1070
     0
1002
}
1002
{
1000
BEHIND
1070
     0
1002
}
1002
{
1000
OTHER
1070
     0
1002
}
1002
{
1000
REACTOR
1002
}
  0
ARC
  5
2CEE
330
1F
100
AcDbEntity
  8
ｴｸｽﾃﾝｼｮﾝﾌﾚｰﾑ
100
AcDbCircle
 10
249.4118656976566
 20
313.771672965284
 30
0.0
 40
2.9
100
AcDbArc
 50
359.999989999999
 51
89.99999999999998
  0
ARC
  5
2CEF
330
1F
100
AcDbEntity
  8
ｴｸｽﾃﾝｼｮﾝﾌﾚｰﾑ
100
AcDbCircle
 10
254.9118656976566
 20
307.5193529652839
 30
0.0
 40
2.6
100
AcDbArc
 50
179.999989999999
 51
225.0
  0
CIRCLE
  5
2CF8
330
1F
100
AcDbEntity
  8
ｴｸｽﾃﾝｼｮﾝﾌﾚｰﾑ
100
AcDbCircle
 10
253.8318656976567
 20
320.6216829652841
 30
0.0
 40
2.077509999999989
  0
LINE
  5
2CF9
330
1F
100
AcDbEntity
  8
ｴｸｽﾃﾝｼｮﾝﾌﾚｰﾑ
100
AcDbLine
 10
239.2273956976567
 20
319.5372129652842
 30
0.0
 11
239.2273956976567
 21
316.0372129652842
 31
0.0
  0
LINE
  5
2CFA
330
1F
100
AcDbEntity
  8
ｴｸｽﾃﾝｼｮﾝﾌﾚｰﾑ
100
AcDbLine
 10
239.2273956976567
 20
313.5372129652842
 30
0.0
 11
239.2273956976567
 21
310.0372129652842
 31
0.0
  0
ARC
  5
2CFB
330
1F
100
AcDbEntity
  8
ｴｸｽﾃﾝｼｮﾝﾌﾚｰﾑ
100
AcDbCircle
 10
239.2273956976564
 20
319.837212965284
 30
0.0
 40
0.3
100
AcDbArc
 50
179.9999999999772
 51
270.0000000000212
1001
GENIUS_GENOBJ-N-FIL_13
1002
{
1000
OWNER
1000
GEN
1002
}
1001
GENIUS_GENODEF_13
1002
{
1000
HIER
1070
     0
1002
}
1002
{
1000
MANEDIT
1070
     0
1002
}
1002
{
1000
NOSEL
1070
     0
1002
}
1002
{
1000
BEHIND
1070
     0
1002
}
1002
{
1000
OTHER
1070
     0
1002
}
1002
{
1000
REACTOR
1002
}
  0
ARC
  5
2CFC
330
1F
100
AcDbEntity
  8
ｴｸｽﾃﾝｼｮﾝﾌﾚｰﾑ
100
AcDbCircle
 10
239.2273956976564
 20
315.7372129652841
 30
0.0
 40
0.3
100
AcDbArc
 50
89.99999999996742
 51
180.0000000000097
1001
GENIUS_GENOBJ-N-FIL_13
1002
{
1000
OWNER
1000
GEN
1002
}
1001
GENIUS_GENODEF_13
1002
{
1000
HIER
1070
     0
1002
}
1002
{
1000
MANEDIT
1070
     0
1002
}
1002
{
1000
NOSEL
1070
     0
1002
}
1002
{
1000
BEHIND
1070
     0
1002
}
1002
{
1000
OTHER
1070
     0
1002
}
1002
{
1000
REACTOR
1002
}
  0
ARC
  5
2CFD
330
1F
100
AcDbEntity
  8
ｴｸｽﾃﾝｼｮﾝﾌﾚｰﾑ
100
AcDbCircle
 10
239.2273956976564
 20
313.837212965284
 30
0.0
 40
0.3
100
AcDbArc
 50
179.9999999999902
 51
270.0000000000212
1001
GENIUS_GENOBJ-N-FIL_13
1002
{
1000
OWNER
1000
GEN
1002
}
1001
GENIUS_GENODEF_13
1002
{
1000
HIER
1070
     0
1002
}
1002
{
1000
MANEDIT
1070
     0
1002
}
1002
{
1000
NOSEL
1070
     0
1002
}
1002
{
1000
BEHIND
1070
     0
1002
}
1002
{
1000
OTHER
1070
     0
1002
}
1002
{
1000
REACTOR
1002
}
  0
ARC
  5
2CFE
330
1F
100
AcDbEntity
  8
ｴｸｽﾃﾝｼｮﾝﾌﾚｰﾑ
100
AcDbCircle
 10
239.2273956976564
 20
309.7372129652841
 30
0.0
 40
0.3
100
AcDbArc
 50
89.99999999996742
 51
180.0000000000097
1001
GENIUS_GENOBJ-N-FIL_13
1002
{
1000
OWNER
1000
GEN
1002
}
1001
GENIUS_GENODEF_13
1002
{
1000
HIER
1070
     0
1002
}
1002
{
1000
MANEDIT
1070
     0
1002
}
1002
{
1000
NOSEL
1070
     0
1002
}
1002
{
1000
BEHIND
1070
     0
1002
}
1002
{
1000
OTHER
1070
     0
1002
}
1002
{
1000
REACTOR
1002
}
  0
LINE
  5
2E57
330
1F
100
AcDbEntity
  8
ｴｸｽﾃﾝｼｮﾝﾌﾚｰﾑ
100
AcDbLine
 10
508.4773956976566
 20
585.2872129652843
 30
0.0
 11
510.3773956976565
 21
585.2872129652843
 31
0.0
  0
LINE
  5
2E58
330
1F
100
AcDbEntity
  8
ｴｸｽﾃﾝｼｮﾝﾌﾚｰﾑ
100
AcDbLine
 10
514.4773956976567
 20
585.2872129652843
 30
0.0
 11
528.9273956976565
 21
585.2872129652843
 31
0.0
  0
LINE
  5
2E59
330
1F
100
AcDbEntity
  8
ｴｸｽﾃﾝｼｮﾝﾌﾚｰﾑ
100
AcDbLine
 10
507.9429506976305
 20
582.3027429652841
 30
0.0
 11
519.5203656976566
 21
582.3027429652841
 31
0.0
  0
LINE
  5
2E5A
330
1F
100
AcDbEntity
  8
ｴｸｽﾃﾝｼｮﾝﾌﾚｰﾑ
100
AcDbLine
 10
504.5771250131499
 20
572.2123329487185
 30
0.0
 11
506.5983754560821
 21
573.4820184455588
 31
0.0
  0
LINE
  5
2E5B
330
1F
100
AcDbEntity
  8
ｴｸｽﾃﾝｼｮﾝﾌﾚｰﾑ
100
AcDbLine
 10
524.7814156976566
 20
564.8935529652842
 30
0.0
 11
518.5337456976565
 21
571.1412129652842
 31
0.0
  0
LINE
  5
2E5C
330
1F
100
AcDbEntity
  8
ｴｸｽﾃﾝｼｮﾝﾌﾚｰﾑ
100
AcDbLine
 10
503.8987056976568
 20
574.6527429652842
 30
0.0
 11
503.8987056976568
 21
577.1085329652842
 31
0.0
  0
ARC
  5
2E5D
330
1F
100
AcDbEntity
  8
ｴｸｽﾃﾝｼｮﾝﾌﾚｰﾑ
100
AcDbCircle
 10
503.5987056976567
 20
577.1085329652841
 30
0.0
 40
0.3
100
AcDbArc
 50
0.0
 51
89.99999999999998
1001
GENIUS_GENODEF_13
1002
{
1000
HIER
1070
     0
1002
}
1002
{
1000
MANEDIT
1070
     0
1002
}
1002
{
1000
NOSEL
1070
     0
1002
}
1002
{
1000
BEHIND
1070
     0
1002
}
1002
{
1000
OTHER
1070
     0
1002
}
1002
{
1000
REACTOR
1002
}
1001
GENIUS_GENOBJ-N-FIL_13
1002
{
1000
OWNER
1000
GEN
1002
}
  0
LINE
  5
2E5E
330
1F
100
AcDbEntity
  8
ｴｸｽﾃﾝｼｮﾝﾌﾚｰﾑ
100
AcDbLine
 10
507.646043043773
 20
571.8527686957775
 30
0.0
 11
505.6652780489628
 21
570.5290424257604
 31
0.0
  0
LINE
  5
2E5F
330
1F
100
AcDbEntity
  8
ｴｸｽﾃﾝｼｮﾝﾌﾚｰﾑ
100
AcDbLine
 10
517.7379156976567
 20
572.3027429652842
 30
0.0
 11
510.4429356976567
 21
572.3027429652842
 31
0.0
  0
LINE
  5
2E60
330
1F
100
AcDbEntity
  8
ｴｸｽﾃﾝｼｮﾝﾌﾚｰﾑ
100
AcDbLine
 10
516.6952556976569
 20
571.9027429652842
 30
0.0
 11
510.4429356976567
 21
571.9027429652842
 31
0.0
  0
LINE
  5
2E61
330
1F
100
AcDbEntity
  8
ｴｸｽﾃﾝｼｮﾝﾌﾚｰﾑ
100
AcDbLine
 10
510.4429356976567
 20
570.7376429652843
 30
0.0
 11
516.6952556976569
 21
570.7376429652843
 31
0.0
  0
LINE
  5
2E62
330
1F
100
AcDbEntity
  8
ｴｸｽﾃﾝｼｮﾝﾌﾚｰﾑ
100
AcDbLine
 10
517.7098856976565
 20
570.3173729652842
 30
0.0
 11
523.9575556976567
 21
564.0697029652842
 31
0.0
  0
LINE
  5
2E63
330
1F
100
AcDbEntity
  8
ｴｸｽﾃﾝｼｮﾝﾌﾚｰﾑ
100
AcDbLine
 10
506.3778456976567
 20
578.3027429652841
 30
0.0
 11
506.3778456976567
 21
574.8027429652842
 31
0.0
  0
ARC
  5
2E64
330
1F
100
AcDbEntity
  8
ｴｸｽﾃﾝｼｮﾝﾌﾚｰﾑ
100
AcDbCircle
 10
503.9778456976566
 20
578.3027429652841
 30
0.0
 40
2.399999999999999
100
AcDbArc
 50
0.0
 51
89.99999999999998
1001
GENIUS_GENODEF_13
1002
{
1000
HIER
1070
     0
1002
}
1002
{
1000
MANEDIT
1070
     0
1002
}
1002
{
1000
NOSEL
1070
     0
1002
}
1002
{
1000
BEHIND
1070
     0
1002
}
1002
{
1000
OTHER
1070
     0
1002
}
1002
{
1000
REACTOR
1002
}
1001
GENIUS_GENOBJ-N-FIL_13
1002
{
1000
OWNER
1000
GEN
1002
}
  0
LINE
  5
2E65
330
1F
100
AcDbEntity
  8
ｴｸｽﾃﾝｼｮﾝﾌﾚｰﾑ
100
AcDbLine
 10
513.7344656976567
 20
568.3585329652841
 30
0.0
 11
510.1929356976568
 21
568.3585329652841
 31
0.0
  0
LINE
  5
2E66
330
1F
100
AcDbEntity
  8
ｴｸｽﾃﾝｼｮﾝﾌﾚｰﾑ
100
AcDbLine
 10
521.7660954316772
 20
563.1087129652842
 30
0.0
 11
516.7488956976565
 21
568.1259229652842
 31
0.0
  0
LINE
  5
2E67
330
1F
100
AcDbEntity
  8
ｴｸｽﾃﾝｼｮﾝﾌﾚｰﾑ
100
AcDbLine
 10
507.5429156976567
 20
574.8027429652842
 30
0.0
 11
507.5429156976567
 21
578.3027429652841
 31
0.0
  0
LINE
  5
2E68
330
1F
100
AcDbEntity
  8
ｴｸｽﾃﾝｼｮﾝﾌﾚｰﾑ
100
AcDbLine
 10
507.9429356976568
 20
574.8027429652842
 30
0.0
 11
507.9429356976568
 21
578.3027429652841
 31
0.0
  0
LINE
  5
2E69
330
1F
100
AcDbEntity
  8
ｴｸｽﾃﾝｼｮﾝﾌﾚｰﾑ
100
AcDbLine
 10
511.9344556976568
 20
566.5585229652842
 30
0.0
 11
510.0985156976567
 21
566.5585229652842
 31
0.0
  0
LINE
  5
2E6A
330
1F
100
AcDbEntity
  8
ｴｸｽﾃﾝｼｮﾝﾌﾚｰﾑ
100
AcDbLine
 10
510.0985156976567
 20
566.5585229652842
 30
0.0
 11
509.4656856976566
 21
565.9257029652842
 31
0.0
  0
LINE
  5
2E6B
330
1F
100
AcDbEntity
  8
ｴｸｽﾃﾝｼｮﾝﾌﾚｰﾑ
100
AcDbLine
 10
514.8517534156321
 20
569.4758206832598
 30
0.0
 11
511.9344556976568
 21
566.5585229652842
 31
0.0
  0
LINE
  5
2E6C
330
1F
100
AcDbEntity
  8
ｴｸｽﾃﾝｼｮﾝﾌﾚｰﾑ
100
AcDbLine
 10
512.2941256976567
 20
563.0972829652842
 30
0.0
 11
516.7488956976565
 21
567.5520529652842
 31
0.0
  0
LINE
  5
2E6D
330
1F
100
AcDbEntity
  8
ｴｸｽﾃﾝｼｮﾝﾌﾚｰﾑ
100
AcDbLine
 10
509.4656856976566
 20
565.9257029652842
 30
0.0
 11
512.2941256976567
 21
563.0972829652842
 31
0.0
  0
LINE
  5
2E6E
330
1F
100
AcDbEntity
  8
ｴｸｽﾃﾝｼｮﾝﾌﾚｰﾑ
100
AcDbLine
 10
514.8517534156321
 20
569.4758206832598
 30
0.0
 11
514.8522455831596
 21
570.7376429652843
 31
0.0
  0
LINE
  5
2E6F
330
1F
100
AcDbEntity
  8
ｴｸｽﾃﾝｼｮﾝﾌﾚｰﾑ
100
AcDbLine
 10
516.7488956976565
 20
567.5520529652842
 30
0.0
 11
516.7488956976565
 21
570.7366500259056
 31
0.0
  0
ARC
  5
2E70
330
1F
100
AcDbEntity
  8
ｴｸｽﾃﾝｼｮﾝﾌﾚｰﾑ
100
AcDbCircle
 10
528.9273956976566
 20
575.2872129652841
 30
0.0
 40
10.0
100
AcDbArc
 50
0.0
 51
89.99999999999998
1001
GENIUS_GENOBJ-N-FIL_13
1002
{
1000
OWNER
1000
GEN
1002
}
1001
GENIUS_GENODEF_13
1002
{
1000
HIER
1070
     0
1002
}
1002
{
1000
MANEDIT
1070
     0
1002
}
1002
{
1000
NOSEL
1070
     0
1002
}
1002
{
1000
BEHIND
1070
     0
1002
}
1002
{
1000
OTHER
1070
     0
1002
}
1002
{
1000
REACTOR
1002
}
  0
ARC
  5
2E71
330
1F
100
AcDbEntity
  8
ｴｸｽﾃﾝｼｮﾝﾌﾚｰﾑ
100
AcDbCircle
 10
528.9273956976566
 20
575.2872129652841
 30
0.0
 40
9.5
100
AcDbArc
 50
0.0
 51
89.99999999999998
1001
GENIUS_GENOBJ-N-FIL_13
1002
{
1000
OWNER
1000
GEN
1002
}
1001
GENIUS_GENODEF_13
1002
{
1000
HIER
1070
     0
1002
}
1002
{
1000
MANEDIT
1070
     0
1002
}
1002
{
1000
NOSEL
1070
     0
1002
}
1002
{
1000
BEHIND
1070
     0
1002
}
1002
{
1000
OTHER
1070
     0
1002
}
1002
{
1000
REACTOR
1002
}
  0
ARC
  5
2E72
330
1F
100
AcDbEntity
  8
ｴｸｽﾃﾝｼｮﾝﾌﾚｰﾑ
100
AcDbCircle
 10
510.1929356976568
 20
574.6527429652841
 30
0.0
 40
6.294209999999999
100
AcDbArc
 50
180.0
 51
201.7701447830919
  0
ARC
  5
2E73
330
1F
100
AcDbEntity
  8
ｴｸｽﾃﾝｼｮﾝﾌﾚｰﾑ
100
AcDbCircle
 10
510.1929356976568
 20
574.6527429652841
 30
0.0
 40
6.294209999999999
100
AcDbArc
 50
224.033062559255
 51
270.000010000001
  0
ARC
  5
2E75
330
1F
100
AcDbEntity
  8
ｴｸｽﾃﾝｼｮﾝﾌﾚｰﾑ
100
AcDbCircle
 10
510.4429356976567
 20
574.802742965284
 30
0.0
 40
2.5
100
AcDbArc
 50
180.0
 51
270.000010000001
  0
ARC
  5
2E76
330
1F
100
AcDbEntity
  8
ｴｸｽﾃﾝｼｮﾝﾌﾚｰﾑ
100
AcDbCircle
 10
517.7379156976567
 20
573.3027429652841
 30
0.0
 40
1.0
100
AcDbArc
 50
270.0
 51
9.312450000000279
  0
ARC
  5
2E77
330
1F
100
AcDbEntity
  8
ｴｸｽﾃﾝｼｮﾝﾌﾚｰﾑ
100
AcDbCircle
 10
528.5929156976567
 20
575.0827429652842
 30
0.0
 40
10.0
100
AcDbArc
 50
145.5661500000021
 51
189.3124400000017
  0
ARC
  5
2E78
330
1F
100
AcDbEntity
  8
ｴｸｽﾃﾝｼｮﾝﾌﾚｰﾑ
100
AcDbCircle
 10
519.5203656976566
 20
581.3027429652842
 30
0.0
 40
1.0
100
AcDbArc
 50
325.5661399999979
 51
90.00001000000098
  0
ARC
  5
2E7A
330
1F
100
AcDbEntity
  8
ｴｸｽﾃﾝｼｮﾝﾌﾚｰﾑ
100
AcDbCircle
 10
516.6952556976569
 20
569.3027429652841
 30
0.0
 40
1.43491
100
AcDbArc
 50
44.99999999999999
 51
90.00001000000098
  0
ARC
  5
2E7B
330
1F
100
AcDbEntity
  8
ｴｸｽﾃﾝｼｮﾝﾌﾚｰﾑ
100
AcDbCircle
 10
510.4429356976567
 20
574.802742965284
 30
0.0
 40
4.06509
100
AcDbArc
 50
180.0
 51
270.000010000001
  0
ARC
  5
2E7C
330
1F
100
AcDbEntity
  8
ｴｸｽﾃﾝｼｮﾝﾌﾚｰﾑ
100
AcDbCircle
 10
503.9429256976568
 20
578.3027429652841
 30
0.0
 40
3.6
100
AcDbArc
 50
0.0000100000009937
 51
90.00001000000098
  0
ARC
  5
2E7D
330
1F
100
AcDbEntity
  8
ｴｸｽﾃﾝｼｮﾝﾌﾚｰﾑ
100
AcDbCircle
 10
503.9429256976568
 20
578.3027429652841
 30
0.0
 40
4.000020000000096
100
AcDbArc
 50
0.0000100000009937
 51
36.86972575937126
  0
ARC
  5
2E7E
330
1F
100
AcDbEntity
  8
ｴｸｽﾃﾝｼｮﾝﾌﾚｰﾑ
100
AcDbCircle
 10
507.9429506976307
 20
581.3027429652842
 30
0.0
 40
1.0
100
AcDbArc
 50
90.00000000000323
 51
216.8697257593739
1001
GENIUS_GENOBJ-N-FIL_13
1002
{
1000
OWNER
1000
GEN
1002
}
1001
GENIUS_GENODEF_13
1002
{
1000
HIER
1070
     0
1002
}
1002
{
1000
MANEDIT
1070
     0
1002
}
1002
{
1000
NOSEL
1070
     0
1002
}
1002
{
1000
BEHIND
1070
     0
1002
}
1002
{
1000
OTHER
1070
     0
1002
}
1002
{
1000
REACTOR
1002
}
  0
ARC
  5
2E7F
330
1F
100
AcDbEntity
  8
ｴｸｽﾃﾝｼｮﾝﾌﾚｰﾑ
100
AcDbCircle
 10
510.4429356976567
 20
574.802742965284
 30
0.0
 40
2.9
100
AcDbArc
 50
180.0
 51
270.000010000001
  0
ARC
  5
2E80
330
1F
100
AcDbEntity
  8
ｴｸｽﾃﾝｼｮﾝﾌﾚｰﾑ
100
AcDbCircle
 10
516.6952556976569
 20
569.3027429652841
 30
0.0
 40
2.6
100
AcDbArc
 50
44.99999999999999
 51
90.00001000000098
  0
CIRCLE
  5
2EAA
330
1F
100
AcDbEntity
  8
ｴｸｽﾃﾝｼｮﾝﾌﾚｰﾑ
100
AcDbCircle
 10
503.5929256976567
 20
570.3827429652841
 30
0.0
 40
2.077509999999989
  0
LINE
  5
2EAB
330
1F
100
AcDbEntity
  8
ｴｸｽﾃﾝｼｮﾝﾌﾚｰﾑ
100
AcDbLine
 10
504.6773956976564
 20
584.9872129652841
 30
0.0
 11
508.1773956976564
 21
584.9872129652841
 31
0.0
  0
LINE
  5
2EAC
330
1F
100
AcDbEntity
  8
ｴｸｽﾃﾝｼｮﾝﾌﾚｰﾑ
100
AcDbLine
 10
510.6773956976565
 20
584.9872129652841
 30
0.0
 11
514.1773956976565
 21
584.9872129652841
 31
0.0
  0
ARC
  5
2EAD
330
1F
100
AcDbEntity
  8
ｴｸｽﾃﾝｼｮﾝﾌﾚｰﾑ
100
AcDbCircle
 10
504.3773956976568
 20
584.9872129652843
 30
0.0
 40
0.3
100
AcDbArc
 50
359.9999999999772
 51
90.00000000002115
1001
GENIUS_GENOBJ-N-FIL_13
1002
{
1000
OWNER
1000
GEN
1002
}
1001
GENIUS_GENODEF_13
1002
{
1000
HIER
1070
     0
1002
}
1002
{
1000
MANEDIT
1070
     0
1002
}
1002
{
1000
NOSEL
1070
     0
1002
}
1002
{
1000
BEHIND
1070
     0
1002
}
1002
{
1000
OTHER
1070
     0
1002
}
1002
{
1000
REACTOR
1002
}
  0
ARC
  5
2EAE
330
1F
100
AcDbEntity
  8
ｴｸｽﾃﾝｼｮﾝﾌﾚｰﾑ
100
AcDbCircle
 10
508.4773956976566
 20
584.9872129652843
 30
0.0
 40
0.3
100
AcDbArc
 50
89.99999999998859
 51
180.0000000000325
1001
GENIUS_GENOBJ-N-FIL_13
1002
{
1000
OWNER
1000
GEN
1002
}
1001
GENIUS_GENODEF_13
1002
{
1000
HIER
1070
     0
1002
}
1002
{
1000
MANEDIT
1070
     0
1002
}
1002
{
1000
NOSEL
1070
     0
1002
}
1002
{
1000
BEHIND
1070
     0
1002
}
1002
{
1000
OTHER
1070
     0
1002
}
1002
{
1000
REACTOR
1002
}
  0
ARC
  5
2EAF
330
1F
100
AcDbEntity
  8
ｴｸｽﾃﾝｼｮﾝﾌﾚｰﾑ
100
AcDbCircle
 10
510.3773956976567
 20
584.9872129652843
 30
0.0
 40
0.3
100
AcDbArc
 50
359.9999999999772
 51
90.00000000001138
1001
GENIUS_GENOBJ-N-FIL_13
1002
{
1000
OWNER
1000
GEN
1002
}
1001
GENIUS_GENODEF_13
1002
{
1000
HIER
1070
     0
1002
}
1002
{
1000
MANEDIT
1070
     0
1002
}
1002
{
1000
NOSEL
1070
     0
1002
}
1002
{
1000
BEHIND
1070
     0
1002
}
1002
{
1000
OTHER
1070
     0
1002
}
1002
{
1000
REACTOR
1002
}
  0
ARC
  5
2EB0
330
1F
100
AcDbEntity
  8
ｴｸｽﾃﾝｼｮﾝﾌﾚｰﾑ
100
AcDbCircle
 10
514.4773956976567
 20
584.9872129652843
 30
0.0
 40
0.3
100
AcDbArc
 50
89.99999999998859
 51
180.0000000000325
1001
GENIUS_GENOBJ-N-FIL_13
1002
{
1000
OWNER
1000
GEN
1002
}
1001
GENIUS_GENODEF_13
1002
{
1000
HIER
1070
     0
1002
}
1002
{
1000
MANEDIT
1070
     0
1002
}
1002
{
1000
NOSEL
1070
     0
1002
}
1002
{
1000
BEHIND
1070
     0
1002
}
1002
{
1000
OTHER
1070
     0
1002
}
1002
{
1000
REACTOR
1002
}
  0
LINE
  5
2EB1
330
1F
100
AcDbEntity
  8
ｴｸｽﾃﾝｼｮﾝﾌﾚｰﾑ
100
AcDbLine
 10
538.9273956976567
 20
319.8372129652839
 30
0.0
 11
538.9273956976564
 21
550.7372129652841
 31
0.0
  0
LINE
  5
2EB2
330
1F
100
AcDbEntity
  8
ｴｸｽﾃﾝｼｮﾝﾌﾚｰﾑ
100
AcDbLine
 10
538.4273956976567
 20
295.287212965284
 30
0.0
 11
538.4273956976564
 21
575.2872129652841
 31
0.0
  0
LINE
  5
2EB3
330
1F
100
AcDbEntity
  8
ｴｸｽﾃﾝｼｮﾝﾌﾚｰﾑ
100
AcDbLine
 10
535.5429256976568
 20
320.2716829652838
 30
0.0
 11
535.5429256976565
 21
550.3027429652842
 31
0.0
  0
LINE
  5
2EB4
330
1F
100
AcDbEntity
  8
ｴｸｽﾃﾝｼｮﾝﾌﾚｰﾑ
100
AcDbLine
 10
534.3429256976564
 20
550.3376629652843
 30
0.0
 11
534.3429256976572
 21
320.236762965284
 31
0.0
  0
LINE
  5
2EB5
330
1F
100
AcDbEntity
  8
ｴｸｽﾃﾝｼｮﾝﾌﾚｰﾑ
100
AcDbLine
 10
531.0487156976569
 20
320.6159029652838
 30
0.0
 11
531.0487156976567
 21
549.9585229652844
 31
0.0
  0
LINE
  5
2EB6
330
1F
100
AcDbEntity
  8
ｴｸｽﾃﾝｼｮﾝﾌﾚｰﾑ
100
AcDbLine
 10
538.9273956976564
 20
554.8372129652841
 30
0.0
 11
538.9273956976564
 21
556.7372129652841
 31
0.0
  0
LINE
  5
2EB7
330
1F
100
AcDbEntity
  8
ｴｸｽﾃﾝｼｮﾝﾌﾚｰﾑ
100
AcDbLine
 10
538.9273956976564
 20
560.8372129652841
 30
0.0
 11
538.9273956976564
 21
575.2872129652841
 31
0.0
  0
LINE
  5
2EB8
330
1F
100
AcDbEntity
  8
ｴｸｽﾃﾝｼｮﾝﾌﾚｰﾑ
100
AcDbLine
 10
535.9429256976566
 20
554.302767965258
 30
0.0
 11
535.9429256976566
 21
565.8801829652842
 31
0.0
  0
LINE
  5
2EB9
330
1F
100
AcDbEntity
  8
ｴｸｽﾃﾝｼｮﾝﾌﾚｰﾑ
100
AcDbLine
 10
525.8525156810908
 20
550.9369422807774
 30
0.0
 11
527.1222011779311
 21
552.9581927237098
 31
0.0
  0
LINE
  5
2EBA
330
1F
100
AcDbEntity
  8
ｴｸｽﾃﾝｼｮﾝﾌﾚｰﾑ
100
AcDbLine
 10
528.2929256976565
 20
550.2585229652843
 30
0.0
 11
530.7487156976565
 21
550.2585229652843
 31
0.0
  0
ARC
  5
2EBB
330
1F
100
AcDbEntity
  8
ｴｸｽﾃﾝｼｮﾝﾌﾚｰﾑ
100
AcDbCircle
 10
530.7487156976565
 20
549.9585229652843
 30
0.0
 40
0.3
100
AcDbArc
 50
0.0
 51
89.99999999999998
1001
GENIUS_GENODEF_13
1002
{
1000
HIER
1070
     0
1002
}
1002
{
1000
MANEDIT
1070
     0
1002
}
1002
{
1000
NOSEL
1070
     0
1002
}
1002
{
1000
BEHIND
1070
     0
1002
}
1002
{
1000
OTHER
1070
     0
1002
}
1002
{
1000
REACTOR
1002
}
1001
GENIUS_GENOBJ-N-FIL_13
1002
{
1000
OWNER
1000
GEN
1002
}
  0
LINE
  5
2EBC
330
1F
100
AcDbEntity
  8
ｴｸｽﾃﾝｼｮﾝﾌﾚｰﾑ
100
AcDbLine
 10
525.49295142815
 20
554.0058603114005
 30
0.0
 11
524.1692251581327
 21
552.0250953165905
 31
0.0
  0
LINE
  5
2EBD
330
1F
100
AcDbEntity
  8
ｴｸｽﾃﾝｼｮﾝﾌﾚｰﾑ
100
AcDbLine
 10
525.9429256976566
 20
564.0977329652844
 30
0.0
 11
525.9429256976566
 21
556.8027529652843
 31
0.0
  0
LINE
  5
2EBE
330
1F
100
AcDbEntity
  8
ｴｸｽﾃﾝｼｮﾝﾌﾚｰﾑ
100
AcDbLine
 10
525.5429256976565
 20
563.0550729652843
 30
0.0
 11
525.5429256976565
 21
556.8027529652843
 31
0.0
  0
LINE
  5
2EBF
330
1F
100
AcDbEntity
  8
ｴｸｽﾃﾝｼｮﾝﾌﾚｰﾑ
100
AcDbLine
 10
524.3778256976566
 20
556.8027529652843
 30
0.0
 11
524.3778256976566
 21
563.0550729652843
 31
0.0
  0
LINE
  5
2EC0
330
1F
100
AcDbEntity
  8
ｴｸｽﾃﾝｼｮﾝﾌﾚｰﾑ
100
AcDbLine
 10
531.9429256976566
 20
552.7376629652842
 30
0.0
 11
528.4429256976566
 21
552.7376629652842
 31
0.0
  0
ARC
  5
2EC1
330
1F
100
AcDbEntity
  8
ｴｸｽﾃﾝｼｮﾝﾌﾚｰﾑ
100
AcDbCircle
 10
531.9429256976566
 20
550.3376629652843
 30
0.0
 40
2.399999999999999
100
AcDbArc
 50
0.0
 51
89.99999999999998
1001
GENIUS_GENODEF_13
1002
{
1000
HIER
1070
     0
1002
}
1002
{
1000
MANEDIT
1070
     0
1002
}
1002
{
1000
NOSEL
1070
     0
1002
}
1002
{
1000
BEHIND
1070
     0
1002
}
1002
{
1000
OTHER
1070
     0
1002
}
1002
{
1000
REACTOR
1002
}
1001
GENIUS_GENOBJ-N-FIL_13
1002
{
1000
OWNER
1000
GEN
1002
}
  0
LINE
  5
2EC2
330
1F
100
AcDbEntity
  8
ｴｸｽﾃﾝｼｮﾝﾌﾚｰﾑ
100
AcDbLine
 10
521.9987156976564
 20
560.0942829652843
 30
0.0
 11
521.9987156976564
 21
556.5527529652842
 31
0.0
  0
LINE
  5
2EC3
330
1F
100
AcDbEntity
  8
ｴｸｽﾃﾝｼｮﾝﾌﾚｰﾑ
100
AcDbLine
 10
528.4429256976566
 20
553.9027329652842
 30
0.0
 11
531.9429256976566
 21
553.9027329652842
 31
0.0
  0
LINE
  5
2EC4
330
1F
100
AcDbEntity
  8
ｴｸｽﾃﾝｼｮﾝﾌﾚｰﾑ
100
AcDbLine
 10
528.4429256976566
 20
554.3027529652842
 30
0.0
 11
531.9429256976566
 21
554.3027529652842
 31
0.0
  0
LINE
  5
2EC5
330
1F
100
AcDbEntity
  8
ｴｸｽﾃﾝｼｮﾝﾌﾚｰﾑ
100
AcDbLine
 10
520.1987056976565
 20
558.2942729652843
 30
0.0
 11
520.1987056976565
 21
556.4583329652844
 31
0.0
  0
LINE
  5
2EC6
330
1F
100
AcDbEntity
  8
ｴｸｽﾃﾝｼｮﾝﾌﾚｰﾑ
100
AcDbLine
 10
520.1987056976565
 20
556.4583329652844
 30
0.0
 11
519.5658856976565
 21
555.8255029652843
 31
0.0
  0
LINE
  5
2EC7
330
1F
100
AcDbEntity
  8
ｴｸｽﾃﾝｼｮﾝﾌﾚｰﾑ
100
AcDbLine
 10
523.1160034156321
 20
561.2115706832598
 30
0.0
 11
520.1987056976565
 21
558.2942729652843
 31
0.0
  0
LINE
  5
2EC8
330
1F
100
AcDbEntity
  8
ｴｸｽﾃﾝｼｮﾝﾌﾚｰﾑ
100
AcDbLine
 10
516.7374656976565
 20
558.6539429652844
 30
0.0
 11
521.1922356976565
 21
563.1087129652842
 31
0.0
  0
LINE
  5
2EC9
330
1F
100
AcDbEntity
  8
ｴｸｽﾃﾝｼｮﾝﾌﾚｰﾑ
100
AcDbLine
 10
519.5658856976565
 20
555.8255029652843
 30
0.0
 11
516.7374656976565
 21
558.6539429652844
 31
0.0
  0
LINE
  5
2ECA
330
1F
100
AcDbEntity
  8
ｴｸｽﾃﾝｼｮﾝﾌﾚｰﾑ
100
AcDbLine
 10
523.1160034156321
 20
561.2115706832598
 30
0.0
 11
524.3778256976566
 21
561.2120628507873
 31
0.0
  0
LINE
  5
2ECB
330
1F
100
AcDbEntity
  8
ｴｸｽﾃﾝｼｮﾝﾌﾚｰﾑ
100
AcDbLine
 10
521.1922356976565
 20
563.1087129652842
 30
0.0
 11
524.3768327582779
 21
563.1087129652842
 31
0.0
  0
ARC
  5
2ECC
330
1F
100
AcDbEntity
  8
ｴｸｽﾃﾝｼｮﾝﾌﾚｰﾑ
100
AcDbCircle
 10
528.2929256976565
 20
556.5527529652841
 30
0.0
 40
6.294209999999999
100
AcDbArc
 50
248.2298552169096
 51
270.0
  0
ARC
  5
2ECD
330
1F
100
AcDbEntity
  8
ｴｸｽﾃﾝｼｮﾝﾌﾚｰﾑ
100
AcDbCircle
 10
528.2929256976565
 20
556.5527529652841
 30
0.0
 40
6.294209999999999
100
AcDbArc
 50
179.999989999999
 51
225.9669374407461
  0
ARC
  5
2ECE
330
1F
100
AcDbEntity
  8
ｴｸｽﾃﾝｼｮﾝﾌﾚｰﾑ
100
AcDbCircle
 10
528.4429256976566
 20
556.8027529652842
 30
0.0
 40
2.5
100
AcDbArc
 50
179.999989999999
 51
270.0
  0
ARC
  5
2ECF
330
1F
100
AcDbEntity
  8
ｴｸｽﾃﾝｼｮﾝﾌﾚｰﾑ
100
AcDbCircle
 10
526.9429256976565
 20
564.0977329652843
 30
0.0
 40
1.0
100
AcDbArc
 50
80.68754999999969
 51
180.0
  0
ARC
  5
2ED0
330
1F
100
AcDbEntity
  8
ｴｸｽﾃﾝｼｮﾝﾌﾚｰﾑ
100
AcDbCircle
 10
528.7229256976566
 20
574.9527329652843
 30
0.0
 40
10.0
100
AcDbArc
 50
260.6875599999999
 51
304.4338499999979
  0
ARC
  5
2ED1
330
1F
100
AcDbEntity
  8
ｴｸｽﾃﾝｼｮﾝﾌﾚｰﾑ
100
AcDbCircle
 10
534.9429256976566
 20
565.8801829652842
 30
0.0
 40
1.0
100
AcDbArc
 50
359.999989999999
 51
124.4338600000007
  0
ARC
  5
2ED2
330
1F
100
AcDbEntity
  8
ｴｸｽﾃﾝｼｮﾝﾌﾚｰﾑ
100
AcDbCircle
 10
522.9429256976565
 20
563.0550729652842
 30
0.0
 40
1.43491
100
AcDbArc
 50
359.999989999999
 51
44.99999999999999
  0
ARC
  5
2ED3
330
1F
100
AcDbEntity
  8
ｴｸｽﾃﾝｼｮﾝﾌﾚｰﾑ
100
AcDbCircle
 10
528.4429256976566
 20
556.8027529652842
 30
0.0
 40
4.06509
100
AcDbArc
 50
179.999989999999
 51
270.0
  0
ARC
  5
2ED4
330
1F
100
AcDbEntity
  8
ｴｸｽﾃﾝｼｮﾝﾌﾚｰﾑ
100
AcDbCircle
 10
531.9429256976566
 20
550.3027429652842
 30
0.0
 40
3.6
100
AcDbArc
 50
359.999989999999
 51
89.99999000000061
  0
ARC
  5
2ED5
330
1F
100
AcDbEntity
  8
ｴｸｽﾃﾝｼｮﾝﾌﾚｰﾑ
100
AcDbCircle
 10
531.9429256976566
 20
550.3027429652842
 30
0.0
 40
4.000020000000096
100
AcDbArc
 50
53.13027424062838
 51
89.99999000000061
  0
ARC
  5
2ED6
330
1F
100
AcDbEntity
  8
ｴｸｽﾃﾝｼｮﾝﾌﾚｰﾑ
100
AcDbCircle
 10
534.9429256976566
 20
554.3027679652582
 30
0.0
 40
1.0
100
AcDbArc
 50
233.1302742406252
 51
359.9999999999968
1001
GENIUS_GENOBJ-N-FIL_13
1002
{
1000
OWNER
1000
GEN
1002
}
1001
GENIUS_GENODEF_13
1002
{
1000
HIER
1070
     0
1002
}
1002
{
1000
MANEDIT
1070
     0
1002
}
1002
{
1000
NOSEL
1070
     0
1002
}
1002
{
1000
BEHIND
1070
     0
1002
}
1002
{
1000
OTHER
1070
     0
1002
}
1002
{
1000
REACTOR
1002
}
  0
ARC
  5
2ED7
330
1F
100
AcDbEntity
  8
ｴｸｽﾃﾝｼｮﾝﾌﾚｰﾑ
100
AcDbCircle
 10
528.4429256976566
 20
556.8027529652842
 30
0.0
 40
2.9
100
AcDbArc
 50
179.999989999999
 51
270.0
  0
ARC
  5
2ED8
330
1F
100
AcDbEntity
  8
ｴｸｽﾃﾝｼｮﾝﾌﾚｰﾑ
100
AcDbCircle
 10
522.9429256976565
 20
563.0550729652842
 30
0.0
 40
2.6
100
AcDbArc
 50
359.999989999999
 51
44.99999999999999
  0
CIRCLE
  5
2EE1
330
1F
100
AcDbEntity
  8
ｴｸｽﾃﾝｼｮﾝﾌﾚｰﾑ
100
AcDbCircle
 10
524.0229256976565
 20
549.9527429652842
 30
0.0
 40
2.077509999999989
  0
LINE
  5
2EE2
330
1F
100
AcDbEntity
  8
ｴｸｽﾃﾝｼｮﾝﾌﾚｰﾑ
100
AcDbLine
 10
538.6273956976565
 20
551.037212965284
 30
0.0
 11
538.6273956976565
 21
554.537212965284
 31
0.0
  0
LINE
  5
2EE3
330
1F
100
AcDbEntity
  8
ｴｸｽﾃﾝｼｮﾝﾌﾚｰﾑ
100
AcDbLine
 10
538.6273956976565
 20
557.0372129652841
 30
0.0
 11
538.6273956976565
 21
560.5372129652841
 31
0.0
  0
ARC
  5
2EE4
330
1F
100
AcDbEntity
  8
ｴｸｽﾃﾝｼｮﾝﾌﾚｰﾑ
100
AcDbCircle
 10
538.6273956976567
 20
550.7372129652842
 30
0.0
 40
0.3
100
AcDbArc
 50
359.9999999999772
 51
90.00000000002115
1001
GENIUS_GENOBJ-N-FIL_13
1002
{
1000
OWNER
1000
GEN
1002
}
1001
GENIUS_GENODEF_13
1002
{
1000
HIER
1070
     0
1002
}
1002
{
1000
MANEDIT
1070
     0
1002
}
1002
{
1000
NOSEL
1070
     0
1002
}
1002
{
1000
BEHIND
1070
     0
1002
}
1002
{
1000
OTHER
1070
     0
1002
}
1002
{
1000
REACTOR
1002
}
  0
ARC
  5
2EE5
330
1F
100
AcDbEntity
  8
ｴｸｽﾃﾝｼｮﾝﾌﾚｰﾑ
100
AcDbCircle
 10
538.6273956976567
 20
554.837212965284
 30
0.0
 40
0.3
100
AcDbArc
 50
269.9999999999674
 51
0.0000000000097579
1001
GENIUS_GENOBJ-N-FIL_13
1002
{
1000
OWNER
1000
GEN
1002
}
1001
GENIUS_GENODEF_13
1002
{
1000
HIER
1070
     0
1002
}
1002
{
1000
MANEDIT
1070
     0
1002
}
1002
{
1000
NOSEL
1070
     0
1002
}
1002
{
1000
BEHIND
1070
     0
1002
}
1002
{
1000
OTHER
1070
     0
1002
}
1002
{
1000
REACTOR
1002
}
  0
ARC
  5
2EE6
330
1F
100
AcDbEntity
  8
ｴｸｽﾃﾝｼｮﾝﾌﾚｰﾑ
100
AcDbCircle
 10
538.6273956976567
 20
556.7372129652841
 30
0.0
 40
0.3
100
AcDbArc
 50
359.9999999999902
 51
90.00000000002115
1001
GENIUS_GENOBJ-N-FIL_13
1002
{
1000
OWNER
1000
GEN
1002
}
1001
GENIUS_GENODEF_13
1002
{
1000
HIER
1070
     0
1002
}
1002
{
1000
MANEDIT
1070
     0
1002
}
1002
{
1000
NOSEL
1070
     0
1002
}
1002
{
1000
BEHIND
1070
     0
1002
}
1002
{
1000
OTHER
1070
     0
1002
}
1002
{
1000
REACTOR
1002
}
  0
ARC
  5
2EE7
330
1F
100
AcDbEntity
  8
ｴｸｽﾃﾝｼｮﾝﾌﾚｰﾑ
100
AcDbCircle
 10
538.6273956976567
 20
560.837212965284
 30
0.0
 40
0.3
100
AcDbArc
 50
269.9999999999674
 51
0.0000000000097579
1001
GENIUS_GENOBJ-N-FIL_13
1002
{
1000
OWNER
1000
GEN
1002
}
1001
GENIUS_GENODEF_13
1002
{
1000
HIER
1070
     0
1002
}
1002
{
1000
MANEDIT
1070
     0
1002
}
1002
{
1000
NOSEL
1070
     0
1002
}
1002
{
1000
BEHIND
1070
     0
1002
}
1002
{
1000
OTHER
1070
     0
1002
}
1002
{
1000
REACTOR
1002
}
  0
LINE
  5
2EFA
330
1F
100
AcDbEntity
  8
ｴｸｽﾃﾝｼｮﾝﾌﾚｰﾑ
100
AcDbLine
 10
508.4773956976569
 20
285.287212965284
 30
0.0
 11
510.3773956976565
 21
285.287212965284
 31
0.0
  0
LINE
  5
2EFB
330
1F
100
AcDbEntity
  8
ｴｸｽﾃﾝｼｮﾝﾌﾚｰﾑ
100
AcDbLine
 10
514.4773956976568
 20
285.287212965284
 30
0.0
 11
528.9273956976566
 21
285.287212965284
 31
0.0
  0
LINE
  5
2EFC
330
1F
100
AcDbEntity
  8
ｴｸｽﾃﾝｼｮﾝﾌﾚｰﾑ
100
AcDbLine
 10
507.9429506976307
 20
288.2716829652841
 30
0.0
 11
519.5203656976568
 21
288.2716829652841
 31
0.0
  0
LINE
  5
2EFD
330
1F
100
AcDbEntity
  8
ｴｸｽﾃﾝｼｮﾝﾌﾚｰﾑ
100
AcDbLine
 10
504.5771250131499
 20
298.3620929818499
 30
0.0
 11
506.5983754560821
 21
297.0924074850093
 31
0.0
  0
LINE
  5
2EFE
330
1F
100
AcDbEntity
  8
ｴｸｽﾃﾝｼｮﾝﾌﾚｰﾑ
100
AcDbLine
 10
524.7814156976569
 20
305.6808729652841
 30
0.0
 11
518.5337456976567
 21
299.4332129652842
 31
0.0
  0
LINE
  5
2EFF
330
1F
100
AcDbEntity
  8
ｴｸｽﾃﾝｼｮﾝﾌﾚｰﾑ
100
AcDbLine
 10
503.8987056976568
 20
295.9216829652839
 30
0.0
 11
503.8987056976568
 21
293.465892965284
 31
0.0
  0
ARC
  5
2F00
330
1F
100
AcDbEntity
  8
ｴｸｽﾃﾝｼｮﾝﾌﾚｰﾑ
100
AcDbCircle
 10
503.5987056976567
 20
293.465892965284
 30
0.0
 40
0.3
100
AcDbArc
 50
270.0
 51
0.0
1001
GENIUS_GENODEF_13
1002
{
1000
HIER
1070
     0
1002
}
1002
{
1000
MANEDIT
1070
     0
1002
}
1002
{
1000
NOSEL
1070
     0
1002
}
1002
{
1000
BEHIND
1070
     0
1002
}
1002
{
1000
OTHER
1070
     0
1002
}
1002
{
1000
REACTOR
1002
}
1001
GENIUS_GENOBJ-N-FIL_13
1002
{
1000
OWNER
1000
GEN
1002
}
  0
LINE
  5
2F01
330
1F
100
AcDbEntity
  8
ｴｸｽﾃﾝｼｮﾝﾌﾚｰﾑ
100
AcDbLine
 10
507.6460430437732
 20
298.7216572347906
 30
0.0
 11
505.665278048963
 21
300.0453835048077
 31
0.0
  0
LINE
  5
2F02
330
1F
100
AcDbEntity
  8
ｴｸｽﾃﾝｼｮﾝﾌﾚｰﾑ
100
AcDbLine
 10
517.7379156976567
 20
298.271682965284
 30
0.0
 11
510.4429356976567
 21
298.271682965284
 31
0.0
  0
LINE
  5
2F03
330
1F
100
AcDbEntity
  8
ｴｸｽﾃﾝｼｮﾝﾌﾚｰﾑ
100
AcDbLine
 10
516.6952556976569
 20
298.6716829652839
 30
0.0
 11
510.4429356976567
 21
298.6716829652839
 31
0.0
  0
LINE
  5
2F04
330
1F
100
AcDbEntity
  8
ｴｸｽﾃﾝｼｮﾝﾌﾚｰﾑ
100
AcDbLine
 10
510.4429356976567
 20
299.8367829652841
 30
0.0
 11
516.6952556976569
 21
299.8367829652841
 31
0.0
  0
LINE
  5
2F05
330
1F
100
AcDbEntity
  8
ｴｸｽﾃﾝｼｮﾝﾌﾚｰﾑ
100
AcDbLine
 10
517.7098856976567
 20
300.2570529652842
 30
0.0
 11
523.957555697657
 21
306.5047229652839
 31
0.0
  0
LINE
  5
2F06
330
1F
100
AcDbEntity
  8
ｴｸｽﾃﾝｼｮﾝﾌﾚｰﾑ
100
AcDbLine
 10
506.3778456976567
 20
292.2716829652841
 30
0.0
 11
506.3778456976567
 21
295.7716829652841
 31
0.0
  0
ARC
  5
2F07
330
1F
100
AcDbEntity
  8
ｴｸｽﾃﾝｼｮﾝﾌﾚｰﾑ
100
AcDbCircle
 10
503.9778456976566
 20
292.2716829652841
 30
0.0
 40
2.399999999999999
100
AcDbArc
 50
270.0
 51
0.0
1001
GENIUS_GENODEF_13
1002
{
1000
HIER
1070
     0
1002
}
1002
{
1000
MANEDIT
1070
     0
1002
}
1002
{
1000
NOSEL
1070
     0
1002
}
1002
{
1000
BEHIND
1070
     0
1002
}
1002
{
1000
OTHER
1070
     0
1002
}
1002
{
1000
REACTOR
1002
}
1001
GENIUS_GENOBJ-N-FIL_13
1002
{
1000
OWNER
1000
GEN
1002
}
  0
LINE
  5
2F08
330
1F
100
AcDbEntity
  8
ｴｸｽﾃﾝｼｮﾝﾌﾚｰﾑ
100
AcDbLine
 10
513.7344656976567
 20
302.215892965284
 30
0.0
 11
510.1929356976568
 21
302.215892965284
 31
0.0
  0
LINE
  5
2F09
330
1F
100
AcDbEntity
  8
ｴｸｽﾃﾝｼｮﾝﾌﾚｰﾑ
100
AcDbLine
 10
521.7660954316775
 20
307.465712965284
 30
0.0
 11
516.7488956976567
 21
302.448502965284
 31
0.0
  0
LINE
  5
2F0A
330
1F
100
AcDbEntity
  8
ｴｸｽﾃﾝｼｮﾝﾌﾚｰﾑ
100
AcDbLine
 10
507.5429156976567
 20
295.7716829652841
 30
0.0
 11
507.5429156976567
 21
292.2716829652841
 31
0.0
  0
LINE
  5
2F0B
330
1F
100
AcDbEntity
  8
ｴｸｽﾃﾝｼｮﾝﾌﾚｰﾑ
100
AcDbLine
 10
507.9429356976568
 20
295.7716829652841
 30
0.0
 11
507.9429356976568
 21
292.2716829652841
 31
0.0
  0
LINE
  5
2F0C
330
1F
100
AcDbEntity
  8
ｴｸｽﾃﾝｼｮﾝﾌﾚｰﾑ
100
AcDbLine
 10
511.9344556976568
 20
304.0159029652839
 30
0.0
 11
510.0985156976567
 21
304.0159029652839
 31
0.0
  0
LINE
  5
2F0D
330
1F
100
AcDbEntity
  8
ｴｸｽﾃﾝｼｮﾝﾌﾚｰﾑ
100
AcDbLine
 10
510.0985156976567
 20
304.0159029652839
 30
0.0
 11
509.4656856976566
 21
304.6487229652842
 31
0.0
  0
LINE
  5
2F0E
330
1F
100
AcDbEntity
  8
ｴｸｽﾃﾝｼｮﾝﾌﾚｰﾑ
100
AcDbLine
 10
514.8517534156321
 20
301.0986052473086
 30
0.0
 11
511.9344556976568
 21
304.0159029652839
 31
0.0
  0
LINE
  5
2F0F
330
1F
100
AcDbEntity
  8
ｴｸｽﾃﾝｼｮﾝﾌﾚｰﾑ
100
AcDbLine
 10
512.2941256976568
 20
307.477142965284
 30
0.0
 11
516.7488956976567
 21
303.0223729652842
 31
0.0
  0
LINE
  5
2F10
330
1F
100
AcDbEntity
  8
ｴｸｽﾃﾝｼｮﾝﾌﾚｰﾑ
100
AcDbLine
 10
509.4656856976566
 20
304.6487229652842
 30
0.0
 11
512.2941256976568
 21
307.477142965284
 31
0.0
  0
LINE
  5
2F11
330
1F
100
AcDbEntity
  8
ｴｸｽﾃﾝｼｮﾝﾌﾚｰﾑ
100
AcDbLine
 10
514.8517534156321
 20
301.0986052473086
 30
0.0
 11
514.8522455831598
 21
299.8367829652841
 31
0.0
  0
LINE
  5
2F12
330
1F
100
AcDbEntity
  8
ｴｸｽﾃﾝｼｮﾝﾌﾚｰﾑ
100
AcDbLine
 10
516.7488956976567
 20
303.0223729652842
 30
0.0
 11
516.7488956976567
 21
299.8377759046627
 31
0.0
  0
ARC
  5
2F13
330
1F
100
AcDbEntity
  8
ｴｸｽﾃﾝｼｮﾝﾌﾚｰﾑ
100
AcDbCircle
 10
528.9273956976566
 20
295.287212965284
 30
0.0
 40
10.0
100
AcDbArc
 50
270.0
 51
0.0
1001
GENIUS_GENOBJ-N-FIL_13
1002
{
1000
OWNER
1000
GEN
1002
}
1001
GENIUS_GENODEF_13
1002
{
1000
HIER
1070
     0
1002
}
1002
{
1000
MANEDIT
1070
     0
1002
}
1002
{
1000
NOSEL
1070
     0
1002
}
1002
{
1000
BEHIND
1070
     0
1002
}
1002
{
1000
OTHER
1070
     0
1002
}
1002
{
1000
REACTOR
1002
}
  0
ARC
  5
2F14
330
1F
100
AcDbEntity
  8
ｴｸｽﾃﾝｼｮﾝﾌﾚｰﾑ
100
AcDbCircle
 10
528.9273956976566
 20
295.287212965284
 30
0.0
 40
9.5
100
AcDbArc
 50
270.0
 51
0.0
1001
GENIUS_GENOBJ-N-FIL_13
1002
{
1000
OWNER
1000
GEN
1002
}
1001
GENIUS_GENODEF_13
1002
{
1000
HIER
1070
     0
1002
}
1002
{
1000
MANEDIT
1070
     0
1002
}
1002
{
1000
NOSEL
1070
     0
1002
}
1002
{
1000
BEHIND
1070
     0
1002
}
1002
{
1000
OTHER
1070
     0
1002
}
1002
{
1000
REACTOR
1002
}
  0
ARC
  5
2F15
330
1F
100
AcDbEntity
  8
ｴｸｽﾃﾝｼｮﾝﾌﾚｰﾑ
100
AcDbCircle
 10
510.1929356976568
 20
295.9216829652839
 30
0.0
 40
6.294209999999999
100
AcDbArc
 50
158.2298552169081
 51
180.0
  0
ARC
  5
2F16
330
1F
100
AcDbEntity
  8
ｴｸｽﾃﾝｼｮﾝﾌﾚｰﾑ
100
AcDbCircle
 10
510.1929356976568
 20
295.9216829652839
 30
0.0
 40
6.294209999999999
100
AcDbArc
 50
89.99998999999897
 51
135.9669374407449
  0
ARC
  5
2F18
330
1F
100
AcDbEntity
  8
ｴｸｽﾃﾝｼｮﾝﾌﾚｰﾑ
100
AcDbCircle
 10
510.4429356976567
 20
295.7716829652841
 30
0.0
 40
2.5
100
AcDbArc
 50
89.99998999999897
 51
180.0
  0
ARC
  5
2F19
330
1F
100
AcDbEntity
  8
ｴｸｽﾃﾝｼｮﾝﾌﾚｰﾑ
100
AcDbCircle
 10
517.7379156976567
 20
297.2716829652841
 30
0.0
 40
1.0
100
AcDbArc
 50
350.6875499999997
 51
89.99999999999998
  0
ARC
  5
2F1A
330
1F
100
AcDbEntity
  8
ｴｸｽﾃﾝｼｮﾝﾌﾚｰﾑ
100
AcDbCircle
 10
528.5929156976567
 20
295.4916829652841
 30
0.0
 40
10.0
100
AcDbArc
 50
170.6875599999983
 51
214.4338499999979
  0
ARC
  5
2F1B
330
1F
100
AcDbEntity
  8
ｴｸｽﾃﾝｼｮﾝﾌﾚｰﾑ
100
AcDbCircle
 10
519.5203656976566
 20
289.2716829652841
 30
0.0
 40
1.0
100
AcDbArc
 50
269.999989999999
 51
34.43386000000206
  0
ARC
  5
2F1D
330
1F
100
AcDbEntity
  8
ｴｸｽﾃﾝｼｮﾝﾌﾚｰﾑ
100
AcDbCircle
 10
516.6952556976569
 20
301.2716829652841
 30
0.0
 40
1.43491
100
AcDbArc
 50
269.999989999999
 51
315.0
  0
ARC
  5
2F1E
330
1F
100
AcDbEntity
  8
ｴｸｽﾃﾝｼｮﾝﾌﾚｰﾑ
100
AcDbCircle
 10
510.4429356976567
 20
295.7716829652841
 30
0.0
 40
4.06509
100
AcDbArc
 50
89.99998999999897
 51
180.0
  0
ARC
  5
2F1F
330
1F
100
AcDbEntity
  8
ｴｸｽﾃﾝｼｮﾝﾌﾚｰﾑ
100
AcDbCircle
 10
503.9429256976568
 20
292.2716829652841
 30
0.0
 40
3.6
100
AcDbArc
 50
269.999989999999
 51
359.9999900000022
  0
ARC
  5
2F20
330
1F
100
AcDbEntity
  8
ｴｸｽﾃﾝｼｮﾝﾌﾚｰﾑ
100
AcDbCircle
 10
503.9429256976568
 20
292.2716829652841
 30
0.0
 40
4.000020000000096
100
AcDbArc
 50
323.1302742406287
 51
359.9999900000022
  0
ARC
  5
2F21
330
1F
100
AcDbEntity
  8
ｴｸｽﾃﾝｼｮﾝﾌﾚｰﾑ
100
AcDbCircle
 10
507.9429506976307
 20
289.2716829652841
 30
0.0
 40
1.0
100
AcDbArc
 50
143.1302742406261
 51
269.9999999999968
1001
GENIUS_GENOBJ-N-FIL_13
1002
{
1000
OWNER
1000
GEN
1002
}
1001
GENIUS_GENODEF_13
1002
{
1000
HIER
1070
     0
1002
}
1002
{
1000
MANEDIT
1070
     0
1002
}
1002
{
1000
NOSEL
1070
     0
1002
}
1002
{
1000
BEHIND
1070
     0
1002
}
1002
{
1000
OTHER
1070
     0
1002
}
1002
{
1000
REACTOR
1002
}
  0
ARC
  5
2F22
330
1F
100
AcDbEntity
  8
ｴｸｽﾃﾝｼｮﾝﾌﾚｰﾑ
100
AcDbCircle
 10
510.4429356976567
 20
295.7716829652841
 30
0.0
 40
2.9
100
AcDbArc
 50
89.99998999999897
 51
180.0
  0
ARC
  5
2F23
330
1F
100
AcDbEntity
  8
ｴｸｽﾃﾝｼｮﾝﾌﾚｰﾑ
100
AcDbCircle
 10
516.6952556976569
 20
301.2716829652841
 30
0.0
 40
2.6
100
AcDbArc
 50
269.999989999999
 51
315.0
  0
CIRCLE
  5
2F4A
330
1F
100
AcDbEntity
  8
ｴｸｽﾃﾝｼｮﾝﾌﾚｰﾑ
100
AcDbCircle
 10
503.5929256976567
 20
300.1916829652839
 30
0.0
 40
2.077509999999989
  0
LINE
  5
2F4B
330
1F
100
AcDbEntity
  8
ｴｸｽﾃﾝｼｮﾝﾌﾚｰﾑ
100
AcDbLine
 10
504.6773956976567
 20
285.5872129652841
 30
0.0
 11
508.1773956976567
 21
285.5872129652841
 31
0.0
  0
LINE
  5
2F4C
330
1F
100
AcDbEntity
  8
ｴｸｽﾃﾝｼｮﾝﾌﾚｰﾑ
100
AcDbLine
 10
510.6773956976566
 20
285.5872129652841
 30
0.0
 11
514.1773956976567
 21
285.5872129652841
 31
0.0
  0
ARC
  5
2F4D
330
1F
100
AcDbEntity
  8
ｴｸｽﾃﾝｼｮﾝﾌﾚｰﾑ
100
AcDbCircle
 10
504.3773956976568
 20
285.5872129652839
 30
0.0
 40
0.3
100
AcDbArc
 50
269.9999999999789
 51
0.0000000000227855
1001
GENIUS_GENOBJ-N-FIL_13
1002
{
1000
OWNER
1000
GEN
1002
}
1001
GENIUS_GENODEF_13
1002
{
1000
HIER
1070
     0
1002
}
1002
{
1000
MANEDIT
1070
     0
1002
}
1002
{
1000
NOSEL
1070
     0
1002
}
1002
{
1000
BEHIND
1070
     0
1002
}
1002
{
1000
OTHER
1070
     0
1002
}
1002
{
1000
REACTOR
1002
}
  0
ARC
  5
2F4E
330
1F
100
AcDbEntity
  8
ｴｸｽﾃﾝｼｮﾝﾌﾚｰﾑ
100
AcDbCircle
 10
508.4773956976566
 20
285.5872129652839
 30
0.0
 40
0.3
100
AcDbArc
 50
179.9999999999674
 51
270.0000000000114
1001
GENIUS_GENOBJ-N-FIL_13
1002
{
1000
OWNER
1000
GEN
1002
}
1001
GENIUS_GENODEF_13
1002
{
1000
HIER
1070
     0
1002
}
1002
{
1000
MANEDIT
1070
     0
1002
}
1002
{
1000
NOSEL
1070
     0
1002
}
1002
{
1000
BEHIND
1070
     0
1002
}
1002
{
1000
OTHER
1070
     0
1002
}
1002
{
1000
REACTOR
1002
}
  0
ARC
  5
2F4F
330
1F
100
AcDbEntity
  8
ｴｸｽﾃﾝｼｮﾝﾌﾚｰﾑ
100
AcDbCircle
 10
510.3773956976567
 20
285.5872129652839
 30
0.0
 40
0.3
100
AcDbArc
 50
269.9999999999886
 51
0.0000000000227855
1001
GENIUS_GENOBJ-N-FIL_13
1002
{
1000
OWNER
1000
GEN
1002
}
1001
GENIUS_GENODEF_13
1002
{
1000
HIER
1070
     0
1002
}
1002
{
1000
MANEDIT
1070
     0
1002
}
1002
{
1000
NOSEL
1070
     0
1002
}
1002
{
1000
BEHIND
1070
     0
1002
}
1002
{
1000
OTHER
1070
     0
1002
}
1002
{
1000
REACTOR
1002
}
  0
ARC
  5
2F50
330
1F
100
AcDbEntity
  8
ｴｸｽﾃﾝｼｮﾝﾌﾚｰﾑ
100
AcDbCircle
 10
514.4773956976567
 20
285.5872129652839
 30
0.0
 40
0.3
100
AcDbArc
 50
179.9999999999674
 51
270.0000000000114
1001
GENIUS_GENOBJ-N-FIL_13
1002
{
1000
OWNER
1000
GEN
1002
}
1001
GENIUS_GENODEF_13
1002
{
1000
HIER
1070
     0
1002
}
1002
{
1000
MANEDIT
1070
     0
1002
}
1002
{
1000
NOSEL
1070
     0
1002
}
1002
{
1000
BEHIND
1070
     0
1002
}
1002
{
1000
OTHER
1070
     0
1002
}
1002
{
1000
REACTOR
1002
}
  0
LINE
  5
2F55
330
1F
100
AcDbEntity
  8
ｴｸｽﾃﾝｼｮﾝﾌﾚｰﾑ
100
AcDbLine
 10
538.9273956976567
 20
315.737212965284
 30
0.0
 11
538.9273956976567
 21
313.8372129652842
 31
0.0
  0
LINE
  5
2F56
330
1F
100
AcDbEntity
  8
ｴｸｽﾃﾝｼｮﾝﾌﾚｰﾑ
100
AcDbLine
 10
538.9273956976567
 20
309.737212965284
 30
0.0
 11
538.9273956976567
 21
295.287212965284
 31
0.0
  0
LINE
  5
2F57
330
1F
100
AcDbEntity
  8
ｴｸｽﾃﾝｼｮﾝﾌﾚｰﾑ
100
AcDbLine
 10
535.9429256976568
 20
316.2716579653099
 30
0.0
 11
535.9429256976568
 21
304.694242965284
 31
0.0
  0
LINE
  5
2F58
330
1F
100
AcDbEntity
  8
ｴｸｽﾃﾝｼｮﾝﾌﾚｰﾑ
100
AcDbLine
 10
525.852515681091
 20
319.6374836497907
 30
0.0
 11
527.1222011779314
 21
317.6162332068586
 31
0.0
  0
LINE
  5
2F59
330
1F
100
AcDbEntity
  8
ｴｸｽﾃﾝｼｮﾝﾌﾚｰﾑ
100
AcDbLine
 10
528.2929256976567
 20
320.3159029652838
 30
0.0
 11
530.7487156976567
 21
320.3159029652838
 31
0.0
  0
ARC
  5
2F5A
330
1F
100
AcDbEntity
  8
ｴｸｽﾃﾝｼｮﾝﾌﾚｰﾑ
100
AcDbCircle
 10
530.7487156976565
 20
320.6159029652838
 30
0.0
 40
0.3
100
AcDbArc
 50
270.0
 51
0.0
1001
GENIUS_GENODEF_13
1002
{
1000
HIER
1070
     0
1002
}
1002
{
1000
MANEDIT
1070
     0
1002
}
1002
{
1000
NOSEL
1070
     0
1002
}
1002
{
1000
BEHIND
1070
     0
1002
}
1002
{
1000
OTHER
1070
     0
1002
}
1002
{
1000
REACTOR
1002
}
1001
GENIUS_GENOBJ-N-FIL_13
1002
{
1000
OWNER
1000
GEN
1002
}
  0
LINE
  5
2F5B
330
1F
100
AcDbEntity
  8
ｴｸｽﾃﾝｼｮﾝﾌﾚｰﾑ
100
AcDbLine
 10
525.49295142815
 20
316.5685656191677
 30
0.0
 11
524.169225158133
 21
318.5493306139776
 31
0.0
  0
LINE
  5
2F5C
330
1F
100
AcDbEntity
  8
ｴｸｽﾃﾝｼｮﾝﾌﾚｰﾑ
100
AcDbLine
 10
525.9429256976568
 20
306.476692965284
 30
0.0
 11
525.9429256976568
 21
313.7716729652839
 31
0.0
  0
LINE
  5
2F5D
330
1F
100
AcDbEntity
  8
ｴｸｽﾃﾝｼｮﾝﾌﾚｰﾑ
100
AcDbLine
 10
525.5429256976567
 20
307.5193529652838
 30
0.0
 11
525.5429256976567
 21
313.7716729652839
 31
0.0
  0
LINE
  5
2F5E
330
1F
100
AcDbEntity
  8
ｴｸｽﾃﾝｼｮﾝﾌﾚｰﾑ
100
AcDbLine
 10
524.3778256976566
 20
313.7716729652839
 30
0.0
 11
524.3778256976566
 21
307.5193529652838
 31
0.0
  0
LINE
  5
2F5F
330
1F
100
AcDbEntity
  8
ｴｸｽﾃﾝｼｮﾝﾌﾚｰﾑ
100
AcDbLine
 10
531.9429256976568
 20
317.8367629652839
 30
0.0
 11
528.4429256976568
 21
317.8367629652839
 31
0.0
  0
ARC
  5
2F60
330
1F
100
AcDbEntity
  8
ｴｸｽﾃﾝｼｮﾝﾌﾚｰﾑ
100
AcDbCircle
 10
531.9429256976566
 20
320.236762965284
 30
0.0
 40
2.399999999999999
100
AcDbArc
 50
270.0
 51
0.0
1001
GENIUS_GENODEF_13
1002
{
1000
HIER
1070
     0
1002
}
1002
{
1000
MANEDIT
1070
     0
1002
}
1002
{
1000
NOSEL
1070
     0
1002
}
1002
{
1000
BEHIND
1070
     0
1002
}
1002
{
1000
OTHER
1070
     0
1002
}
1002
{
1000
REACTOR
1002
}
1001
GENIUS_GENOBJ-N-FIL_13
1002
{
1000
OWNER
1000
GEN
1002
}
  0
LINE
  5
2F61
330
1F
100
AcDbEntity
  8
ｴｸｽﾃﾝｼｮﾝﾌﾚｰﾑ
100
AcDbLine
 10
521.9987156976567
 20
310.4801429652839
 30
0.0
 11
521.9987156976567
 21
314.0216729652839
 31
0.0
  0
LINE
  5
2F62
330
1F
100
AcDbEntity
  8
ｴｸｽﾃﾝｼｮﾝﾌﾚｰﾑ
100
AcDbLine
 10
528.4429256976568
 20
316.6716929652839
 30
0.0
 11
531.9429256976568
 21
316.6716929652839
 31
0.0
  0
LINE
  5
2F63
330
1F
100
AcDbEntity
  8
ｴｸｽﾃﾝｼｮﾝﾌﾚｰﾑ
100
AcDbLine
 10
528.4429256976568
 20
316.2716729652839
 30
0.0
 11
531.9429256976568
 21
316.2716729652839
 31
0.0
  0
LINE
  5
2F64
330
1F
100
AcDbEntity
  8
ｴｸｽﾃﾝｼｮﾝﾌﾚｰﾑ
100
AcDbLine
 10
520.1987056976568
 20
312.2801529652838
 30
0.0
 11
520.1987056976568
 21
314.116092965284
 31
0.0
  0
LINE
  5
2F65
330
1F
100
AcDbEntity
  8
ｴｸｽﾃﾝｼｮﾝﾌﾚｰﾑ
100
AcDbLine
 10
520.1987056976568
 20
314.116092965284
 30
0.0
 11
519.5658856976565
 21
314.748922965284
 31
0.0
  0
LINE
  5
2F66
330
1F
100
AcDbEntity
  8
ｴｸｽﾃﾝｼｮﾝﾌﾚｰﾑ
100
AcDbLine
 10
523.1160034156324
 20
309.3628552473085
 30
0.0
 11
520.1987056976568
 21
312.2801529652838
 31
0.0
  0
LINE
  5
2F67
330
1F
100
AcDbEntity
  8
ｴｸｽﾃﾝｼｮﾝﾌﾚｰﾑ
100
AcDbLine
 10
516.7374656976567
 20
311.920482965284
 30
0.0
 11
521.1922356976565
 21
307.465712965284
 31
0.0
  0
LINE
  5
2F68
330
1F
100
AcDbEntity
  8
ｴｸｽﾃﾝｼｮﾝﾌﾚｰﾑ
100
AcDbLine
 10
519.5658856976565
 20
314.748922965284
 30
0.0
 11
516.7374656976567
 21
311.920482965284
 31
0.0
  0
LINE
  5
2F69
330
1F
100
AcDbEntity
  8
ｴｸｽﾃﾝｼｮﾝﾌﾚｰﾑ
100
AcDbLine
 10
523.1160034156324
 20
309.3628552473085
 30
0.0
 11
524.3778256976566
 21
309.3623630797808
 31
0.0
  0
LINE
  5
2F6A
330
1F
100
AcDbEntity
  8
ｴｸｽﾃﾝｼｮﾝﾌﾚｰﾑ
100
AcDbLine
 10
521.1922356976565
 20
307.465712965284
 30
0.0
 11
524.3768327582779
 21
307.465712965284
 31
0.0
  0
ARC
  5
2F6B
330
1F
100
AcDbEntity
  8
ｴｸｽﾃﾝｼｮﾝﾌﾚｰﾑ
100
AcDbCircle
 10
528.2929256976565
 20
314.0216729652839
 30
0.0
 40
6.294209999999999
100
AcDbArc
 50
89.99999999999998
 51
111.7701447830904
  0
ARC
  5
2F6C
330
1F
100
AcDbEntity
  8
ｴｸｽﾃﾝｼｮﾝﾌﾚｰﾑ
100
AcDbCircle
 10
528.2929256976565
 20
314.0216729652839
 30
0.0
 40
6.294209999999999
100
AcDbArc
 50
134.0330625592539
 51
180.0000100000009
  0
ARC
  5
2F6D
330
1F
100
AcDbEntity
  8
ｴｸｽﾃﾝｼｮﾝﾌﾚｰﾑ
100
AcDbCircle
 10
528.4429256976566
 20
313.7716729652839
 30
0.0
 40
2.5
100
AcDbArc
 50
89.99999999999998
 51
180.0000100000009
  0
ARC
  5
2F6E
330
1F
100
AcDbEntity
  8
ｴｸｽﾃﾝｼｮﾝﾌﾚｰﾑ
100
AcDbCircle
 10
526.9429256976565
 20
306.476692965284
 30
0.0
 40
1.0
100
AcDbArc
 50
180.0
 51
279.3124500000003
  0
ARC
  5
2F6F
330
1F
100
AcDbEntity
  8
ｴｸｽﾃﾝｼｮﾝﾌﾚｰﾑ
100
AcDbCircle
 10
528.7229256976566
 20
295.6216929652839
 30
0.0
 40
10.0
100
AcDbArc
 50
55.56615000000207
 51
99.31244000000011
  0
ARC
  5
2F70
330
1F
100
AcDbEntity
  8
ｴｸｽﾃﾝｼｮﾝﾌﾚｰﾑ
100
AcDbCircle
 10
534.9429256976566
 20
304.694242965284
 30
0.0
 40
1.0
100
AcDbArc
 50
235.5661399999993
 51
0.0000100000009937
  0
ARC
  5
2F71
330
1F
100
AcDbEntity
  8
ｴｸｽﾃﾝｼｮﾝﾌﾚｰﾑ
100
AcDbCircle
 10
522.9429256976565
 20
307.5193529652838
 30
0.0
 40
1.43491
100
AcDbArc
 50
315.0
 51
0.0000100000009937
  0
ARC
  5
2F72
330
1F
100
AcDbEntity
  8
ｴｸｽﾃﾝｼｮﾝﾌﾚｰﾑ
100
AcDbCircle
 10
528.4429256976566
 20
313.7716729652839
 30
0.0
 40
4.06509
100
AcDbArc
 50
89.99999999999998
 51
180.0000100000009
  0
ARC
  5
2F73
330
1F
100
AcDbEntity
  8
ｴｸｽﾃﾝｼｮﾝﾌﾚｰﾑ
100
AcDbCircle
 10
531.9429256976566
 20
320.2716829652838
 30
0.0
 40
3.6
100
AcDbArc
 50
270.0000099999993
 51
0.0000100000009937
  0
ARC
  5
2F74
330
1F
100
AcDbEntity
  8
ｴｸｽﾃﾝｼｮﾝﾌﾚｰﾑ
100
AcDbCircle
 10
531.9429256976566
 20
320.2716829652838
 30
0.0
 40
4.000020000000096
100
AcDbArc
 50
270.0000099999993
 51
306.8697257593716
  0
ARC
  5
2F75
330
1F
100
AcDbEntity
  8
ｴｸｽﾃﾝｼｮﾝﾌﾚｰﾑ
100
AcDbCircle
 10
534.9429256976566
 20
316.2716579653099
 30
0.0
 40
1.0
100
AcDbArc
 50
0.0000000000032442
 51
126.8697257593748
1001
GENIUS_GENOBJ-N-FIL_13
1002
{
1000
OWNER
1000
GEN
1002
}
1001
GENIUS_GENODEF_13
1002
{
1000
HIER
1070
     0
1002
}
1002
{
1000
MANEDIT
1070
     0
1002
}
1002
{
1000
NOSEL
1070
     0
1002
}
1002
{
1000
BEHIND
1070
     0
1002
}
1002
{
1000
OTHER
1070
     0
1002
}
1002
{
1000
REACTOR
1002
}
  0
ARC
  5
2F76
330
1F
100
AcDbEntity
  8
ｴｸｽﾃﾝｼｮﾝﾌﾚｰﾑ
100
AcDbCircle
 10
528.4429256976566
 20
313.7716729652839
 30
0.0
 40
2.9
100
AcDbArc
 50
89.99999999999998
 51
180.0000100000009
  0
ARC
  5
2F77
330
1F
100
AcDbEntity
  8
ｴｸｽﾃﾝｼｮﾝﾌﾚｰﾑ
100
AcDbCircle
 10
522.9429256976565
 20
307.5193529652838
 30
0.0
 40
2.6
100
AcDbArc
 50
315.0
 51
0.0000100000009937
  0
CIRCLE
  5
2F80
330
1F
100
AcDbEntity
  8
ｴｸｽﾃﾝｼｮﾝﾌﾚｰﾑ
100
AcDbCircle
 10
524.0229256976565
 20
320.621682965284
 30
0.0
 40
2.077509999999989
  0
LINE
  5
2F81
330
1F
100
AcDbEntity
  8
ｴｸｽﾃﾝｼｮﾝﾌﾚｰﾑ
100
AcDbLine
 10
538.6273956976565
 20
319.537212965284
 30
0.0
 11
538.6273956976565
 21
316.037212965284
 31
0.0
  0
LINE
  5
2F82
330
1F
100
AcDbEntity
  8
ｴｸｽﾃﾝｼｮﾝﾌﾚｰﾑ
100
AcDbLine
 10
538.6273956976565
 20
313.537212965284
 30
0.0
 11
538.6273956976565
 21
310.037212965284
 31
0.0
  0
ARC
  5
2F83
330
1F
100
AcDbEntity
  8
ｴｸｽﾃﾝｼｮﾝﾌﾚｰﾑ
100
AcDbCircle
 10
538.6273956976567
 20
319.8372129652839
 30
0.0
 40
0.3
100
AcDbArc
 50
269.9999999999789
 51
0.0000000000227855
1001
GENIUS_GENOBJ-N-FIL_13
1002
{
1000
OWNER
1000
GEN
1002
}
1001
GENIUS_GENODEF_13
1002
{
1000
HIER
1070
     0
1002
}
1002
{
1000
MANEDIT
1070
     0
1002
}
1002
{
1000
NOSEL
1070
     0
1002
}
1002
{
1000
BEHIND
1070
     0
1002
}
1002
{
1000
OTHER
1070
     0
1002
}
1002
{
1000
REACTOR
1002
}
  0
ARC
  5
2F84
330
1F
100
AcDbEntity
  8
ｴｸｽﾃﾝｼｮﾝﾌﾚｰﾑ
100
AcDbCircle
 10
538.6273956976567
 20
315.737212965284
 30
0.0
 40
0.3
100
AcDbArc
 50
359.9999999999902
 51
90.00000000003256
1001
GENIUS_GENOBJ-N-FIL_13
1002
{
1000
OWNER
1000
GEN
1002
}
1001
GENIUS_GENODEF_13
1002
{
1000
HIER
1070
     0
1002
}
1002
{
1000
MANEDIT
1070
     0
1002
}
1002
{
1000
NOSEL
1070
     0
1002
}
1002
{
1000
BEHIND
1070
     0
1002
}
1002
{
1000
OTHER
1070
     0
1002
}
1002
{
1000
REACTOR
1002
}
  0
ARC
  5
2F85
330
1F
100
AcDbEntity
  8
ｴｸｽﾃﾝｼｮﾝﾌﾚｰﾑ
100
AcDbCircle
 10
538.6273956976567
 20
313.8372129652839
 30
0.0
 40
0.3
100
AcDbArc
 50
269.9999999999789
 51
0.0000000000097579
1001
GENIUS_GENOBJ-N-FIL_13
1002
{
1000
OWNER
1000
GEN
1002
}
1001
GENIUS_GENODEF_13
1002
{
1000
HIER
1070
     0
1002
}
1002
{
1000
MANEDIT
1070
     0
1002
}
1002
{
1000
NOSEL
1070
     0
1002
}
1002
{
1000
BEHIND
1070
     0
1002
}
1002
{
1000
OTHER
1070
     0
1002
}
1002
{
1000
REACTOR
1002
}
  0
ARC
  5
2F86
330
1F
100
AcDbEntity
  8
ｴｸｽﾃﾝｼｮﾝﾌﾚｰﾑ
100
AcDbCircle
 10
538.6273956976567
 20
309.737212965284
 30
0.0
 40
0.3
100
AcDbArc
 50
359.9999999999902
 51
90.00000000003256
1001
GENIUS_GENOBJ-N-FIL_13
1002
{
1000
OWNER
1000
GEN
1002
}
1001
GENIUS_GENODEF_13
1002
{
1000
HIER
1070
     0
1002
}
1002
{
1000
MANEDIT
1070
     0
1002
}
1002
{
1000
NOSEL
1070
     0
1002
}
1002
{
1000
BEHIND
1070
     0
1002
}
1002
{
1000
OTHER
1070
     0
1002
}
1002
{
1000
REACTOR
1002
}
  0
LINE
  5
30AF
330
1F
100
AcDbEntity
  8
ｴｸｽﾃﾝｼｮﾝﾌﾚｰﾑ
100
AcDbLine
 10
538.9273956953932
 20
711.7898219160661
 30
0.0
 11
538.4631263289249
 21
764.9898219160659
 31
0.0
  0
LINE
  5
30C7
330
1F
100
AcDbEntity
  8
ｴｸｽﾃﾝｼｮﾝﾌﾚｰﾑ
100
AcDbLine
 10
531.1365828577843
 20
757.3212423869668
 30
0.0
 11
531.0487156953934
 21
767.389821916066
 31
0.0
  0
LINE
  5
316D
330
1F
100
AcDbEntity
  8
ｴｸｽﾃﾝｼｮﾝﾌﾚｰﾑ
100
AcDbLine
 10
533.9429256953933
 20
706.789821916066
 30
0.0
 11
533.5204067143393
 21
755.2057016090425
 31
0.0
  0
LINE
  5
31A0
330
1F
100
AcDbEntity
  8
ｴｸｽﾃﾝｼｮﾝﾌﾚｰﾑ
100
AcDbLine
 10
535.9429256953933
 20
706.789821916066
 30
0.0
 11
535.5429256953932
 21
705.9898219160658
 31
0.0
  0
LINE
  5
31A2
330
1F
100
AcDbEntity
  8
ｴｸｽﾃﾝｼｮﾝﾌﾚｰﾑ
100
AcDbLine
 10
534.3429256953929
 20
705.9898219160658
 30
0.0
 11
533.9429256953933
 21
706.789821916066
 31
0.0
  0
LINE
  5
321E
330
1F
100
AcDbEntity
  8
ｴｸｽﾃﾝｼｮﾝﾌﾚｰﾑ
100
AcDbLine
 10
535.9708516723237
 20
709.9898219160658
 30
0.0
 11
535.9429256953933
 21
706.789821916066
 31
0.0
  0
LINE
  5
3317
330
1F
100
AcDbEntity
  8
ｴｸｽﾃﾝｼｮﾝﾌﾚｰﾑ
100
AcDbLine
 10
531.6365447808569
 20
756.4639435186809
 30
0.0
 11
533.3704181374198
 21
755.4628912695284
 31
0.0
  0
ARC
  5
331D
330
1F
100
AcDbEntity
  8
ｴｸｽﾃﾝｼｮﾝﾌﾚｰﾑ
100
AcDbCircle
 10
532.136544780857
 20
757.3299689224654
 30
0.0
 40
1.0
100
AcDbArc
 50
180.5000000000078
 51
239.9999999999995
1001
GENIUS_GENODEF_13
1002
{
1000
HIER
1070
     0
1002
}
1002
{
1000
MANEDIT
1070
     0
1002
}
1002
{
1000
NOSEL
1070
     0
1002
}
1002
{
1000
BEHIND
1070
     0
1002
}
1002
{
1000
OTHER
1070
     0
1002
}
1002
{
1000
REACTOR
1002
}
1001
GENIUS_GENOBJ-N-FIL_13
1002
{
1000
OWNER
1000
GEN
1002
}
  0
LINE
  5
3321
330
1F
100
AcDbEntity
  8
ｴｸｽﾃﾝｼｮﾝﾌﾚｰﾑ
100
AcDbLine
 10
538.4273956953932
 20
711.4898219160659
 30
0.0
 11
538.4273956953932
 21
709.9898219160658
 31
0.0
  0
LINE
  5
33DA
330
1F
100
AcDbEntity
  8
ｴｸｽﾃﾝｼｮﾝﾌﾚｰﾑ
100
AcDbLine
 10
536.5158641632763
 20
759.6741141521692
 30
0.0
 11
536.5605234996521
 21
764.7915672231656
 31
0.0
  0
LINE
  5
33F6
330
1F
100
AcDbEntity
  8
ｴｸｽﾃﾝｼｮﾝﾌﾚｰﾑ
100
AcDbLine
 10
532.8795876037136
 20
759.6741141521692
 30
0.0
 11
532.8139837846399
 21
767.1915672231657
 31
0.0
  0
LINE
  5
3401
330
1F
100
AcDbEntity
  8
ｴｸｽﾃﾝｼｮﾝﾌﾚｰﾑ
100
AcDbLine
 10
534.7159327017609
 20
757.8898219160659
 30
0.0
 11
534.6795190652285
 21
757.8898219160659
 31
0.0
  0
ARC
  5
342D
330
1F
100
AcDbEntity
  8
ｴｸｽﾃﾝｼｮﾝﾌﾚｰﾑ
100
AcDbCircle
 10
534.7159327017611
 20
759.6898219160662
 30
0.0
 40
1.8
100
AcDbArc
 50
270.0
 51
359.4999999999986
1001
GENIUS_GENODEF_13
1002
{
1000
HIER
1070
     0
1002
}
1002
{
1000
MANEDIT
1070
     0
1002
}
1002
{
1000
NOSEL
1070
     0
1002
}
1002
{
1000
BEHIND
1070
     0
1002
}
1002
{
1000
OTHER
1070
     0
1002
}
1002
{
1000
REACTOR
1002
}
1001
GENIUS_GENOBJ-N-FIL_13
1002
{
1000
OWNER
1000
GEN
1002
}
  0
ARC
  5
342F
330
1F
100
AcDbEntity
  8
ｴｸｽﾃﾝｼｮﾝﾌﾚｰﾑ
100
AcDbCircle
 10
534.6795190652287
 20
759.6898219160662
 30
0.0
 40
1.8
100
AcDbArc
 50
180.5000000000013
 51
270.0
1001
GENIUS_GENODEF_13
1002
{
1000
HIER
1070
     0
1002
}
1002
{
1000
MANEDIT
1070
     0
1002
}
1002
{
1000
NOSEL
1070
     0
1002
}
1002
{
1000
BEHIND
1070
     0
1002
}
1002
{
1000
OTHER
1070
     0
1002
}
1002
{
1000
REACTOR
1002
}
1001
GENIUS_GENOBJ-N-FIL_13
1002
{
1000
OWNER
1000
GEN
1002
}
  0
ARC
  5
3433
330
1F
100
AcDbEntity
  8
ｴｸｽﾃﾝｼｮﾝﾌﾚｰﾑ
100
AcDbCircle
 10
536.760515884265
 20
764.789821916066
 30
0.0
 40
0.2
100
AcDbArc
 50
89.99999999999998
 51
179.4999999999987
1001
GENIUS_GENODEF_13
1002
{
1000
HIER
1070
     0
1002
}
1002
{
1000
MANEDIT
1070
     0
1002
}
1002
{
1000
NOSEL
1070
     0
1002
}
1002
{
1000
BEHIND
1070
     0
1002
}
1002
{
1000
OTHER
1070
     0
1002
}
1002
{
1000
REACTOR
1002
}
1001
GENIUS_GENOBJ-N-FIL_13
1002
{
1000
OWNER
1000
GEN
1002
}
  0
ARC
  5
3435
330
1F
100
AcDbEntity
  8
ｴｸｽﾃﾝｼｮﾝﾌﾚｰﾑ
100
AcDbCircle
 10
532.6139914000271
 20
767.1898219160661
 30
0.0
 40
0.2
100
AcDbArc
 50
0.5000000000013048
 51
89.99999999999998
1001
GENIUS_GENOBJ-N-FIL_13
1002
{
1000
OWNER
1000
GEN
1002
}
1001
GENIUS_GENODEF_13
1002
{
1000
HIER
1070
     0
1002
}
1002
{
1000
MANEDIT
1070
     0
1002
}
1002
{
1000
NOSEL
1070
     0
1002
}
1002
{
1000
BEHIND
1070
     0
1002
}
1002
{
1000
OTHER
1070
     0
1002
}
1002
{
1000
REACTOR
1002
}
  0
LINE
  5
3495
330
1F
100
AcDbEntity
  8
ｴｸｽﾃﾝｼｮﾝﾌﾚｰﾑ
100
AcDbLine
 10
505.6704356953935
 20
714.4898119160662
 30
0.0
 11
506.1320870887932
 21
767.389821916066
 31
0.0
  0
LINE
  5
349B
330
1F
100
AcDbEntity
  8
ｴｸｽﾃﾝｼｮﾝﾌﾚｰﾑ
100
AcDbLine
 10
509.4656856953931
 20
714.4898119160662
 30
0.0
 11
509.0040343019934
 21
767.389821916066
 31
0.0
  0
LINE
  5
34A1
330
1F
100
AcDbEntity
  8
ｴｸｽﾃﾝｼｮﾝﾌﾚｰﾑ
100
AcDbLine
 10
512.2941256953934
 20
714.4898119160662
 30
0.0
 11
512.2941256953934
 21
767.389821916066
 31
0.0
  0
LINE
  5
34A7
330
1F
100
AcDbEntity
  8
ｴｸｽﾃﾝｼｮﾝﾌﾚｰﾑ
100
AcDbLine
 10
516.7374656953931
 20
714.4898119160662
 30
0.0
 11
516.2758143019934
 21
767.389821916066
 31
0.0
  0
LINE
  5
34AD
330
1F
100
AcDbEntity
  8
ｴｸｽﾃﾝｼｮﾝﾌﾚｰﾑ
100
AcDbLine
 10
519.565885695393
 20
714.4898119160662
 30
0.0
 11
519.565885695393
 21
767.389821916066
 31
0.0
  0
LINE
  5
34B3
330
1F
100
AcDbEntity
  8
ｴｸｽﾃﾝｼｮﾝﾌﾚｰﾑ
100
AcDbLine
 10
520.1987056953933
 20
714.4898119160662
 30
0.0
 11
520.660357088793
 21
767.389821916066
 31
0.0
  0
LINE
  5
34B9
330
1F
100
AcDbEntity
  8
ｴｸｽﾃﾝｼｮﾝﾌﾚｰﾑ
100
AcDbLine
 10
521.9454156953932
 20
714.4898119160662
 30
0.0
 11
521.4837643019934
 21
767.389821916066
 31
0.0
  0
LINE
  5
34BF
330
1F
100
AcDbEntity
  8
ｴｸｽﾃﾝｼｮﾝﾌﾚｰﾑ
100
AcDbLine
 10
526.1004356953933
 20
714.4898119160662
 30
0.0
 11
526.562087088793
 21
767.389821916066
 31
0.0
  0
LINE
  5
34CF
330
1F
100
AcDbEntity
  8
ｴｸｽﾃﾝｼｮﾝﾌﾚｰﾑ
100
AcDbLine
 10
501.5154156953933
 20
714.4898119160662
 30
0.0
 11
527.1222011756679
 21
714.4898119160662
 31
0.0
  0
LINE
  5
34D4
330
1F
100
AcDbEntity
  8
ｴｸｽﾃﾝｼｮﾝﾌﾚｰﾑ
100
AcDbLine
 10
501.0537643019936
 20
767.389821916066
 30
0.0
 11
501.5154156953933
 21
714.4898119160662
 31
0.0
  0
LINE
  5
34EB
330
1F
100
AcDbEntity
  8
ｴｸｽﾃﾝｼｮﾝﾌﾚｰﾑ
100
AcDbLine
 10
527.1222011756679
 20
714.4898119160662
 30
0.0
 11
527.5838525690676
 21
767.389821916066
 31
0.0
  0
LINE
  5
352B
330
1F
100
AcDbEntity
  8
ｴｸｽﾃﾝｼｮﾝﾌﾚｰﾑ
100
AcDbLine
 10
523.9778256953934
 20
706.789821916066
 30
0.0
 11
523.9106289006729
 21
714.4898119160662
 31
0.0
  0
LINE
  5
352C
330
1F
100
AcDbEntity
  8
ｴｸｽﾃﾝｼｮﾝﾌﾚｰﾑ
100
AcDbLine
 10
524.377825695393
 20
705.9898219160658
 30
0.0
 11
523.9778256953934
 21
706.789821916066
 31
0.0
  0
LINE
  5
352D
330
1F
100
AcDbEntity
  8
ｴｸｽﾃﾝｼｮﾝﾌﾚｰﾑ
100
AcDbLine
 10
505.9778456953933
 20
706.789821916066
 30
0.0
 11
505.9106489006733
 21
714.4898119160662
 31
0.0
  0
LINE
  5
352E
330
1F
100
AcDbEntity
  8
ｴｸｽﾃﾝｼｮﾝﾌﾚｰﾑ
100
AcDbLine
 10
506.3778456953935
 20
705.9898219160658
 30
0.0
 11
505.9778456953933
 21
706.789821916066
 31
0.0
  0
LINE
  5
36F9
330
1F
100
AcDbEntity
  8
ｴｸｽﾃﾝｼｮﾝﾌﾚｰﾑ
100
AcDbLine
 10
239.4273956976566
 20
709.9898219160658
 30
0.0
 11
269.8490197207257
 21
709.9898219160658
 31
0.0
  0
LINE
  5
36FA
330
1F
100
AcDbEntity
  8
ｴｸｽﾃﾝｼｮﾝﾌﾚｰﾑ
100
AcDbLine
 10
239.4273956976566
 20
711.4898219160659
 30
0.0
 11
238.9273956976564
 21
711.7898219160661
 31
0.0
  0
LINE
  5
36FB
330
1F
100
AcDbEntity
  8
ｴｸｽﾃﾝｼｮﾝﾌﾚｰﾑ
100
AcDbLine
 10
238.9273956976564
 20
711.7898219160661
 30
0.0
 11
239.3916650641246
 21
764.9898219160659
 31
0.0
  0
LINE
  5
36FC
330
1F
100
AcDbEntity
  8
ｴｸｽﾃﾝｼｮﾝﾌﾚｰﾑ
100
AcDbLine
 10
239.4273956976566
 20
711.4898219160659
 30
0.0
 11
239.4273956976566
 21
709.9898219160658
 31
0.0
  0
LINE
  5
36FD
330
1F
100
AcDbEntity
  8
ｴｸｽﾃﾝｼｮﾝﾌﾚｰﾑ
100
AcDbLine
 10
241.8839397207261
 20
709.9898219160658
 30
0.0
 11
241.9118656976565
 21
706.789821916066
 31
0.0
  0
LINE
  5
36FE
330
1F
100
AcDbEntity
  8
ｴｸｽﾃﾝｼｮﾝﾌﾚｰﾑ
100
AcDbLine
 10
241.9118656976565
 20
706.789821916066
 30
0.0
 11
242.3118656976563
 21
705.9898219160658
 31
0.0
  0
ARC
  5
3728
330
1F
100
AcDbEntity
  8
ｴｸｽﾃﾝｼｮﾝﾌﾚｰﾑ
100
AcDbCircle
 10
245.2407999930227
 20
767.1898219160661
 30
0.0
 40
0.2
100
AcDbArc
 50
89.99999999999998
 51
179.4999999999987
1001
GENIUS_GENOBJ-N-FIL_13
1002
{
1000
OWNER
1000
GEN
1002
}
1001
GENIUS_GENODEF_13
1002
{
1000
HIER
1070
     0
1002
}
1002
{
1000
MANEDIT
1070
     0
1002
}
1002
{
1000
NOSEL
1070
     0
1002
}
1002
{
1000
BEHIND
1070
     0
1002
}
1002
{
1000
OTHER
1070
     0
1002
}
1002
{
1000
REACTOR
1002
}
  0
LINE
  5
3729
330
1F
100
AcDbEntity
  8
ｴｸｽﾃﾝｼｮﾝﾌﾚｰﾑ
100
AcDbLine
 10
245.021593268206
 20
764.9898219160659
 30
0.0
 11
245.0408076084098
 21
767.1915672231657
 31
0.0
  0
ARC
  5
37DB
330
1F
100
AcDbEntity
  8
ｴｸｽﾃﾝｼｮﾝﾌﾚｰﾑ
100
AcDbCircle
 10
533.22041813742
 20
755.2030836483932
 30
0.0
 40
0.3
100
AcDbArc
 50
0.5000000000013048
 51
59.99999999999944
1001
GENIUS_GENODEF_13
1002
{
1000
HIER
1070
     0
1002
}
1002
{
1000
MANEDIT
1070
     0
1002
}
1002
{
1000
NOSEL
1070
     0
1002
}
1002
{
1000
BEHIND
1070
     0
1002
}
1002
{
1000
OTHER
1070
     0
1002
}
1002
{
1000
REACTOR
1002
}
1001
GENIUS_GENOBJ-N-FIL_13
1002
{
1000
OWNER
1000
GEN
1002
}
  0
LINE
  5
39A5
330
1F
100
AcDbEntity
  8
ｴｸｽﾃﾝｼｮﾝﾌﾚｰﾑ
100
AcDbLine
 10
245.2407999930228
 20
142.7000961212463
 30
0.0
 11
532.6139914000271
 21
142.7000961212461
 31
0.0
  0
LINE
  5
39A6
330
1F
100
AcDbEntity
  8
ｴｸｽﾃﾝｼｮﾝﾌﾚｰﾑ
100
AcDbLine
 10
239.3916650641247
 20
145.1000961212464
 30
0.0
 11
538.4631263289255
 21
145.1000961212462
 31
0.0
  0
LINE
  5
39A7
330
1F
100
AcDbEntity
  8
ｴｸｽﾃﾝｼｮﾝﾌﾚｰﾑ
100
AcDbLine
 10
238.9273956976565
 20
198.3000961212463
 30
0.0
 11
263.6773956976567
 21
198.3000961212463
 31
0.0
  0
LINE
  5
39A8
330
1F
100
AcDbEntity
  8
ｴｸｽﾃﾝｼｮﾝﾌﾚｰﾑ
100
AcDbLine
 10
267.1773856976565
 20
198.3000961212463
 30
0.0
 11
269.6773956976567
 21
198.3000961212463
 31
0.0
  0
LINE
  5
39A9
330
1F
100
AcDbEntity
  8
ｴｸｽﾃﾝｼｮﾝﾌﾚｰﾑ
100
AcDbLine
 10
273.1773956976565
 20
198.3000961212463
 30
0.0
 11
504.6773956953936
 21
198.300096121246
 31
0.0
  0
LINE
  5
39AA
330
1F
100
AcDbEntity
  8
ｴｸｽﾃﾝｼｮﾝﾌﾚｰﾑ
100
AcDbLine
 10
239.4273956976567
 20
198.6000961212464
 30
0.0
 11
538.4273956953934
 21
198.6000961212462
 31
0.0
  0
LINE
  5
39AB
330
1F
100
AcDbEntity
  8
ｴｸｽﾃﾝｼｮﾝﾌﾚｰﾑ
100
AcDbLine
 10
242.3118656976565
 20
204.1000961212465
 30
0.0
 11
535.5429256953934
 21
204.1000961212462
 31
0.0
  0
LINE
  5
39AC
330
1F
100
AcDbEntity
  8
ｴｸｽﾃﾝｼｮﾝﾌﾚｰﾑ
100
AcDbLine
 10
273.1773956976565
 20
145.1000961212464
 30
0.0
 11
273.1773956976565
 21
198.6000961212464
 31
0.0
  0
LINE
  5
39AD
330
1F
100
AcDbEntity
  8
ｴｸｽﾃﾝｼｮﾝﾌﾚｰﾑ
100
AcDbLine
 10
269.6773956976567
 20
145.1000961212464
 30
0.0
 11
269.6773956976567
 21
198.6000961212464
 31
0.0
  0
LINE
  5
39AE
330
1F
100
AcDbEntity
  8
ｴｸｽﾃﾝｼｮﾝﾌﾚｰﾑ
100
AcDbLine
 10
267.1773856976565
 20
145.1000961212464
 30
0.0
 11
267.1773856976565
 21
198.6000961212464
 31
0.0
  0
LINE
  5
39AF
330
1F
100
AcDbEntity
  8
ｴｸｽﾃﾝｼｮﾝﾌﾚｰﾑ
100
AcDbLine
 10
263.6773956976567
 20
145.1000961212464
 30
0.0
 11
263.6773956976567
 21
198.6000961212464
 31
0.0
  0
LINE
  5
39B0
330
1F
100
AcDbEntity
  8
ｴｸｽﾃﾝｼｮﾝﾌﾚｰﾑ
100
AcDbLine
 10
251.8839321629891
 20
200.1000961212465
 30
0.0
 11
251.9118581399196
 21
203.3000961212465
 31
0.0
  0
LINE
  5
39B1
330
1F
100
AcDbEntity
  8
ｴｸｽﾃﾝｼｮﾝﾌﾚｰﾑ
100
AcDbLine
 10
251.9118581399196
 20
203.3000961212465
 30
0.0
 11
252.3118581399194
 21
204.1000961212465
 31
0.0
  0
LINE
  5
39B2
330
1F
100
AcDbEntity
  8
ｴｸｽﾃﾝｼｮﾝﾌﾚｰﾑ
100
AcDbLine
 10
269.883942162989
 20
200.1000961212465
 30
0.0
 11
269.9118681399194
 21
203.3000961212465
 31
0.0
  0
LINE
  5
39B3
330
1F
100
AcDbEntity
  8
ｴｸｽﾃﾝｼｮﾝﾌﾚｰﾑ
100
AcDbLine
 10
269.9118681399194
 20
203.3000961212465
 30
0.0
 11
270.3118681399194
 21
204.1000961212465
 31
0.0
  0
LINE
  5
39B4
330
1F
100
AcDbEntity
  8
ｴｸｽﾃﾝｼｮﾝﾌﾚｰﾑ
100
AcDbLine
 10
239.4273956976567
 20
200.1000961212465
 30
0.0
 11
538.4273956953934
 21
200.1000961212419
 31
0.0
  0
LINE
  5
39B5
330
1F
100
AcDbEntity
  8
ｴｸｽﾃﾝｼｮﾝﾌﾚｰﾑ
100
AcDbLine
 10
239.4273956976567
 20
198.6000961212464
 30
0.0
 11
238.9273956976565
 21
198.3000961212465
 31
0.0
  0
LINE
  5
39B6
330
1F
100
AcDbEntity
  8
ｴｸｽﾃﾝｼｮﾝﾌﾚｰﾑ
100
AcDbLine
 10
238.9273956976565
 20
198.3000961212465
 30
0.0
 11
239.3916650641247
 21
145.1000961212464
 31
0.0
  0
LINE
  5
39B7
330
1F
100
AcDbEntity
  8
ｴｸｽﾃﾝｼｮﾝﾌﾚｰﾑ
100
AcDbLine
 10
239.4273956976567
 20
198.6000961212464
 30
0.0
 11
239.4273956976567
 21
200.1000961212465
 31
0.0
  0
LINE
  5
39B8
330
1F
100
AcDbEntity
  8
ｴｸｽﾃﾝｼｮﾝﾌﾚｰﾑ
100
AcDbLine
 10
241.8839397207262
 20
200.1000961212465
 30
0.0
 11
241.9118656976566
 21
203.3000961212465
 31
0.0
  0
LINE
  5
39B9
330
1F
100
AcDbEntity
  8
ｴｸｽﾃﾝｼｮﾝﾌﾚｰﾑ
100
AcDbLine
 10
241.9118656976566
 20
203.3000961212465
 30
0.0
 11
242.3118656976565
 21
204.1000961212465
 31
0.0
  0
ARC
  5
39BA
330
1F
100
AcDbEntity
  8
ｴｸｽﾃﾝｼｮﾝﾌﾚｰﾑ
100
AcDbCircle
 10
245.2407999930227
 20
142.9000961212463
 30
0.0
 40
0.2
100
AcDbArc
 50
180.5000000000013
 51
270.0
1001
GENIUS_GENOBJ-N-FIL_13
1002
{
1000
OWNER
1000
GEN
1002
}
1001
GENIUS_GENODEF_13
1002
{
1000
HIER
1070
     0
1002
}
1002
{
1000
MANEDIT
1070
     0
1002
}
1002
{
1000
NOSEL
1070
     0
1002
}
1002
{
1000
BEHIND
1070
     0
1002
}
1002
{
1000
OTHER
1070
     0
1002
}
1002
{
1000
REACTOR
1002
}
  0
LINE
  5
39BB
330
1F
100
AcDbEntity
  8
ｴｸｽﾃﾝｼｮﾝﾌﾚｰﾑ
100
AcDbLine
 10
245.021593268206
 20
145.1000961212464
 30
0.0
 11
245.04080760841
 21
142.8983508141466
 31
0.0
  0
ARC
  5
39BC
330
1F
100
AcDbEntity
  8
ｴｸｽﾃﾝｼｮﾝﾌﾚｰﾑ
100
AcDbCircle
 10
255.2384958171334
 20
142.9000961212463
 30
0.0
 40
0.2
100
AcDbArc
 50
180.5000000000013
 51
270.0
1001
GENIUS_GENOBJ-N-FIL_13
1002
{
1000
OWNER
1000
GEN
1002
}
1001
GENIUS_GENODEF_13
1002
{
1000
HIER
1070
     0
1002
}
1002
{
1000
MANEDIT
1070
     0
1002
}
1002
{
1000
NOSEL
1070
     0
1002
}
1002
{
1000
BEHIND
1070
     0
1002
}
1002
{
1000
OTHER
1070
     0
1002
}
1002
{
1000
REACTOR
1002
}
  0
LINE
  5
39BD
330
1F
100
AcDbEntity
  8
ｴｸｽﾃﾝｼｮﾝﾌﾚｰﾑ
100
AcDbLine
 10
255.0192890923167
 20
145.1000961212464
 30
0.0
 11
255.0385034325207
 21
142.8983508141466
 31
0.0
  0
ARC
  5
39BE
330
1F
100
AcDbEntity
  8
ｴｸｽﾃﾝｼｮﾝﾌﾚｰﾑ
100
AcDbCircle
 10
273.2385058171334
 20
142.9000961212463
 30
0.0
 40
0.2
100
AcDbArc
 50
180.5000000000013
 51
270.0
1001
GENIUS_GENOBJ-N-FIL_13
1002
{
1000
OWNER
1000
GEN
1002
}
1001
GENIUS_GENODEF_13
1002
{
1000
HIER
1070
     0
1002
}
1002
{
1000
MANEDIT
1070
     0
1002
}
1002
{
1000
NOSEL
1070
     0
1002
}
1002
{
1000
BEHIND
1070
     0
1002
}
1002
{
1000
OTHER
1070
     0
1002
}
1002
{
1000
REACTOR
1002
}
  0
LINE
  5
39BF
330
1F
100
AcDbEntity
  8
ｴｸｽﾃﾝｼｮﾝﾌﾚｰﾑ
100
AcDbLine
 10
273.0192990923167
 20
145.1000961212464
 30
0.0
 11
273.0385134325207
 21
142.8983508141466
 31
0.0
  0
LINE
  5
39C1
330
1F
100
AcDbEntity
  8
ｴｸｽﾃﾝｼｮﾝﾌﾚｰﾑ
100
AcDbLine
 10
538.9273956953934
 20
198.300096121246
 30
0.0
 11
514.1773956953934
 21
198.300096121246
 31
0.0
  0
LINE
  5
39C2
330
1F
100
AcDbEntity
  8
ｴｸｽﾃﾝｼｮﾝﾌﾚｰﾑ
100
AcDbLine
 10
510.6774056953936
 20
198.300096121246
 30
0.0
 11
508.1773956953934
 21
198.300096121246
 31
0.0
  0
LINE
  5
39C3
330
1F
100
AcDbEntity
  8
ｴｸｽﾃﾝｼｮﾝﾌﾚｰﾑ
100
AcDbLine
 10
504.6773956953936
 20
145.1000961212462
 30
0.0
 11
504.6773956953936
 21
198.6000961212462
 31
0.0
  0
LINE
  5
39C4
330
1F
100
AcDbEntity
  8
ｴｸｽﾃﾝｼｮﾝﾌﾚｰﾑ
100
AcDbLine
 10
508.1773956953934
 20
145.1000961212462
 30
0.0
 11
508.1773956953934
 21
198.6000961212462
 31
0.0
  0
LINE
  5
39C5
330
1F
100
AcDbEntity
  8
ｴｸｽﾃﾝｼｮﾝﾌﾚｰﾑ
100
AcDbLine
 10
510.6774056953936
 20
145.1000961212462
 30
0.0
 11
510.6774056953936
 21
198.6000961212462
 31
0.0
  0
LINE
  5
39C6
330
1F
100
AcDbEntity
  8
ｴｸｽﾃﾝｼｮﾝﾌﾚｰﾑ
100
AcDbLine
 10
514.1773956953934
 20
145.1000961212462
 30
0.0
 11
514.1773956953934
 21
198.6000961212462
 31
0.0
  0
LINE
  5
39C7
330
1F
100
AcDbEntity
  8
ｴｸｽﾃﾝｼｮﾝﾌﾚｰﾑ
100
AcDbLine
 10
525.970859230061
 20
200.1000961212462
 30
0.0
 11
525.9429332531306
 21
203.3000961212463
 31
0.0
  0
LINE
  5
39C8
330
1F
100
AcDbEntity
  8
ｴｸｽﾃﾝｼｮﾝﾌﾚｰﾑ
100
AcDbLine
 10
525.9429332531306
 20
203.3000961212463
 30
0.0
 11
525.5429332531307
 21
204.1000961212462
 31
0.0
  0
LINE
  5
39C9
330
1F
100
AcDbEntity
  8
ｴｸｽﾃﾝｼｮﾝﾌﾚｰﾑ
100
AcDbLine
 10
507.970849230061
 20
200.1000961212462
 30
0.0
 11
507.9429232531306
 21
203.3000961212463
 31
0.0
  0
LINE
  5
39CA
330
1F
100
AcDbEntity
  8
ｴｸｽﾃﾝｼｮﾝﾌﾚｰﾑ
100
AcDbLine
 10
507.9429232531306
 20
203.3000961212463
 30
0.0
 11
507.5429232531307
 21
204.1000961212462
 31
0.0
  0
LINE
  5
39CB
330
1F
100
AcDbEntity
  8
ｴｸｽﾃﾝｼｮﾝﾌﾚｰﾑ
100
AcDbLine
 10
538.4273956953934
 20
198.6000961212462
 30
0.0
 11
538.9273956953936
 21
198.3000961212463
 31
0.0
  0
LINE
  5
39CC
330
1F
100
AcDbEntity
  8
ｴｸｽﾃﾝｼｮﾝﾌﾚｰﾑ
100
AcDbLine
 10
538.9273956953936
 20
198.3000961212463
 30
0.0
 11
538.4631263289255
 21
145.1000961212462
 31
0.0
  0
LINE
  5
39CD
330
1F
100
AcDbEntity
  8
ｴｸｽﾃﾝｼｮﾝﾌﾚｰﾑ
100
AcDbLine
 10
538.4273956953934
 20
198.6000961212462
 30
0.0
 11
538.4273956953934
 21
200.1000961212462
 31
0.0
  0
LINE
  5
39CE
330
1F
100
AcDbEntity
  8
ｴｸｽﾃﾝｼｮﾝﾌﾚｰﾑ
100
AcDbLine
 10
535.9708516723239
 20
200.1000961212462
 30
0.0
 11
535.9429256953935
 21
203.3000961212463
 31
0.0
  0
LINE
  5
39CF
330
1F
100
AcDbEntity
  8
ｴｸｽﾃﾝｼｮﾝﾌﾚｰﾑ
100
AcDbLine
 10
535.9429256953935
 20
203.3000961212463
 30
0.0
 11
535.5429256953937
 21
204.1000961212462
 31
0.0
  0
ARC
  5
39D0
330
1F
100
AcDbEntity
  8
ｴｸｽﾃﾝｼｮﾝﾌﾚｰﾑ
100
AcDbCircle
 10
532.6139914000273
 20
142.9000961212462
 30
0.0
 40
0.2
100
AcDbArc
 50
270.0
 51
359.4999999999986
1001
GENIUS_GENOBJ-N-FIL_13
1002
{
1000
OWNER
1000
GEN
1002
}
1001
GENIUS_GENODEF_13
1002
{
1000
HIER
1070
     0
1002
}
1002
{
1000
MANEDIT
1070
     0
1002
}
1002
{
1000
NOSEL
1070
     0
1002
}
1002
{
1000
BEHIND
1070
     0
1002
}
1002
{
1000
OTHER
1070
     0
1002
}
1002
{
1000
REACTOR
1002
}
  0
LINE
  5
39D1
330
1F
100
AcDbEntity
  8
ｴｸｽﾃﾝｼｮﾝﾌﾚｰﾑ
100
AcDbLine
 10
532.8331981248441
 20
145.1000961212462
 30
0.0
 11
532.8139837846402
 21
142.8983508141464
 31
0.0
  0
ARC
  5
39D2
330
1F
100
AcDbEntity
  8
ｴｸｽﾃﾝｼｮﾝﾌﾚｰﾑ
100
AcDbCircle
 10
522.6162955759163
 20
142.9000961212462
 30
0.0
 40
0.2
100
AcDbArc
 50
270.0
 51
359.4999999999986
1001
GENIUS_GENOBJ-N-FIL_13
1002
{
1000
OWNER
1000
GEN
1002
}
1001
GENIUS_GENODEF_13
1002
{
1000
HIER
1070
     0
1002
}
1002
{
1000
MANEDIT
1070
     0
1002
}
1002
{
1000
NOSEL
1070
     0
1002
}
1002
{
1000
BEHIND
1070
     0
1002
}
1002
{
1000
OTHER
1070
     0
1002
}
1002
{
1000
REACTOR
1002
}
  0
LINE
  5
39D3
330
1F
100
AcDbEntity
  8
ｴｸｽﾃﾝｼｮﾝﾌﾚｰﾑ
100
AcDbLine
 10
522.8355023007334
 20
145.1000961212462
 30
0.0
 11
522.8162879605292
 21
142.8983508141464
 31
0.0
  0
ARC
  5
39D4
330
1F
100
AcDbEntity
  8
ｴｸｽﾃﾝｼｮﾝﾌﾚｰﾑ
100
AcDbCircle
 10
504.6162855759164
 20
142.9000961212462
 30
0.0
 40
0.2
100
AcDbArc
 50
270.0
 51
359.4999999999986
1001
GENIUS_GENOBJ-N-FIL_13
1002
{
1000
OWNER
1000
GEN
1002
}
1001
GENIUS_GENODEF_13
1002
{
1000
HIER
1070
     0
1002
}
1002
{
1000
MANEDIT
1070
     0
1002
}
1002
{
1000
NOSEL
1070
     0
1002
}
1002
{
1000
BEHIND
1070
     0
1002
}
1002
{
1000
OTHER
1070
     0
1002
}
1002
{
1000
REACTOR
1002
}
  0
LINE
  5
39D5
330
1F
100
AcDbEntity
  8
ｴｸｽﾃﾝｼｮﾝﾌﾚｰﾑ
100
AcDbLine
 10
504.8354923007334
 20
145.1000961212462
 30
0.0
 11
504.8162779605295
 21
142.8983508141464
 31
0.0
  0
LINE
  5
39E9
330
1F
100
AcDbEntity
  8
ｴｸｽﾃﾝｼｮﾝﾌﾚｰﾑ
100
AcDbLine
 10
800.3012549657388
 20
578.9738086699177
 30
0.0
 11
800.3012549657388
 21
291.6006172606505
 31
0.0
  0
LINE
  5
39EA
330
1F
100
AcDbEntity
  8
ｴｸｽﾃﾝｼｮﾝﾌﾚｰﾑ
100
AcDbLine
 10
797.9012549657386
 20
584.8229435988161
 30
0.0
 11
797.9012549657384
 21
285.7514823317522
 31
0.0
  0
LINE
  5
39EB
330
1F
100
AcDbEntity
  8
ｴｸｽﾃﾝｼｮﾝﾌﾚｰﾑ
100
AcDbLine
 10
744.7012549657388
 20
585.287212965284
 30
0.0
 11
744.7012549657388
 21
560.5372129652839
 31
0.0
  0
LINE
  5
39EC
330
1F
100
AcDbEntity
  8
ｴｸｽﾃﾝｼｮﾝﾌﾚｰﾑ
100
AcDbLine
 10
744.7012549657388
 20
557.0372229652841
 30
0.0
 11
744.7012549657388
 21
554.5372129652839
 31
0.0
  0
LINE
  5
39ED
330
1F
100
AcDbEntity
  8
ｴｸｽﾃﾝｼｮﾝﾌﾚｰﾑ
100
AcDbLine
 10
744.7012549657388
 20
551.0372129652842
 30
0.0
 11
744.7012549657388
 21
319.5372129652842
 31
0.0
  0
LINE
  5
39EE
330
1F
100
AcDbEntity
  8
ｴｸｽﾃﾝｼｮﾝﾌﾚｰﾑ
100
AcDbLine
 10
744.4012549657387
 20
584.7872129652838
 30
0.0
 11
744.4012549657387
 21
285.7872129652849
 31
0.0
  0
LINE
  5
39EF
330
1F
100
AcDbEntity
  8
ｴｸｽﾃﾝｼｮﾝﾌﾚｰﾑ
100
AcDbLine
 10
738.9012549657386
 20
581.9027429652843
 30
0.0
 11
738.9012549657386
 21
288.6716829652842
 31
0.0
  0
LINE
  5
39F0
330
1F
100
AcDbEntity
  8
ｴｸｽﾃﾝｼｮﾝﾌﾚｰﾑ
100
AcDbLine
 10
797.9012549657386
 20
551.0372129652842
 30
0.0
 11
744.4012549657387
 21
551.0372129652842
 31
0.0
  0
LINE
  5
39F1
330
1F
100
AcDbEntity
  8
ｴｸｽﾃﾝｼｮﾝﾌﾚｰﾑ
100
AcDbLine
 10
797.9012549657386
 20
554.5372129652839
 30
0.0
 11
744.4012549657387
 21
554.5372129652839
 31
0.0
  0
LINE
  5
39F2
330
1F
100
AcDbEntity
  8
ｴｸｽﾃﾝｼｮﾝﾌﾚｰﾑ
100
AcDbLine
 10
797.9012549657386
 20
557.0372229652841
 30
0.0
 11
744.4012549657387
 21
557.0372229652841
 31
0.0
  0
LINE
  5
39F3
330
1F
100
AcDbEntity
  8
ｴｸｽﾃﾝｼｮﾝﾌﾚｰﾑ
100
AcDbLine
 10
797.9012549657386
 20
560.5372129652839
 30
0.0
 11
744.4012549657387
 21
560.5372129652839
 31
0.0
  0
LINE
  5
39F4
330
1F
100
AcDbEntity
  8
ｴｸｽﾃﾝｼｮﾝﾌﾚｰﾑ
100
AcDbLine
 10
742.9012549657386
 20
572.3306764999515
 30
0.0
 11
739.7012549657388
 21
572.3027505230211
 31
0.0
  0
LINE
  5
39F5
330
1F
100
AcDbEntity
  8
ｴｸｽﾃﾝｼｮﾝﾌﾚｰﾑ
100
AcDbLine
 10
739.7012549657388
 20
572.3027505230211
 30
0.0
 11
738.9012549657386
 21
571.9027505230211
 31
0.0
  0
LINE
  5
39F6
330
1F
100
AcDbEntity
  8
ｴｸｽﾃﾝｼｮﾝﾌﾚｰﾑ
100
AcDbLine
 10
742.9012549657386
 20
554.3306664999516
 30
0.0
 11
739.7012549657388
 21
554.3027405230211
 31
0.0
  0
LINE
  5
39F7
330
1F
100
AcDbEntity
  8
ｴｸｽﾃﾝｼｮﾝﾌﾚｰﾑ
100
AcDbLine
 10
739.7012549657388
 20
554.3027405230211
 30
0.0
 11
738.9012549657386
 21
553.9027405230212
 31
0.0
  0
LINE
  5
39F8
330
1F
100
AcDbEntity
  8
ｴｸｽﾃﾝｼｮﾝﾌﾚｰﾑ
100
AcDbLine
 10
742.9012549657386
 20
584.7872129652838
 30
0.0
 11
742.9012549657454
 21
285.7872129652844
 31
0.0
  0
LINE
  5
39F9
330
1F
100
AcDbEntity
  8
ｴｸｽﾃﾝｼｮﾝﾌﾚｰﾑ
100
AcDbLine
 10
744.4012549657387
 20
584.7872129652838
 30
0.0
 11
744.7012549657388
 21
585.2872129652843
 31
0.0
  0
LINE
  5
39FA
330
1F
100
AcDbEntity
  8
ｴｸｽﾃﾝｼｮﾝﾌﾚｰﾑ
100
AcDbLine
 10
744.7012549657388
 20
585.2872129652843
 30
0.0
 11
797.9012549657386
 21
584.8229435988161
 31
0.0
  0
LINE
  5
39FB
330
1F
100
AcDbEntity
  8
ｴｸｽﾃﾝｼｮﾝﾌﾚｰﾑ
100
AcDbLine
 10
744.4012549657387
 20
584.7872129652838
 30
0.0
 11
742.9012549657386
 21
584.7872129652838
 31
0.0
  0
LINE
  5
39FC
330
1F
100
AcDbEntity
  8
ｴｸｽﾃﾝｼｮﾝﾌﾚｰﾑ
100
AcDbLine
 10
742.9012549657386
 20
582.3306689422143
 30
0.0
 11
739.7012549657388
 21
582.302742965284
 31
0.0
  0
LINE
  5
39FD
330
1F
100
AcDbEntity
  8
ｴｸｽﾃﾝｼｮﾝﾌﾚｰﾑ
100
AcDbLine
 10
739.7012549657388
 20
582.302742965284
 30
0.0
 11
738.9012549657386
 21
581.9027429652843
 31
0.0
  0
ARC
  5
39FE
330
1F
100
AcDbEntity
  8
ｴｸｽﾃﾝｼｮﾝﾌﾚｰﾑ
100
AcDbCircle
 10
800.1012549657385
 20
578.973808669918
 30
0.0
 40
0.2
100
AcDbArc
 50
0.000000000000007
 51
89.50000000000034
1001
GENIUS_GENOBJ-N-FIL_13
1002
{
1000
OWNER
1000
GEN
1002
}
1001
GENIUS_GENODEF_13
1002
{
1000
HIER
1070
     0
1002
}
1002
{
1000
MANEDIT
1070
     0
1002
}
1002
{
1000
NOSEL
1070
     0
1002
}
1002
{
1000
BEHIND
1070
     0
1002
}
1002
{
1000
OTHER
1070
     0
1002
}
1002
{
1000
REACTOR
1002
}
  0
LINE
  5
39FF
330
1F
100
AcDbEntity
  8
ｴｸｽﾃﾝｼｮﾝﾌﾚｰﾑ
100
AcDbLine
 10
797.9012549657386
 20
579.1930153947347
 30
0.0
 11
800.1030002728381
 21
579.1738010545306
 31
0.0
  0
ARC
  5
3A00
330
1F
100
AcDbEntity
  8
ｴｸｽﾃﾝｼｮﾝﾌﾚｰﾑ
100
AcDbCircle
 10
800.1012549657385
 20
568.976112845807
 30
0.0
 40
0.2
100
AcDbArc
 50
0.000000000000007
 51
89.50000000000034
1001
GENIUS_GENOBJ-N-FIL_13
1002
{
1000
OWNER
1000
GEN
1002
}
1001
GENIUS_GENODEF_13
1002
{
1000
HIER
1070
     0
1002
}
1002
{
1000
MANEDIT
1070
     0
1002
}
1002
{
1000
NOSEL
1070
     0
1002
}
1002
{
1000
BEHIND
1070
     0
1002
}
1002
{
1000
OTHER
1070
     0
1002
}
1002
{
1000
REACTOR
1002
}
  0
LINE
  5
3A01
330
1F
100
AcDbEntity
  8
ｴｸｽﾃﾝｼｮﾝﾌﾚｰﾑ
100
AcDbLine
 10
797.9012549657386
 20
569.1953195706239
 30
0.0
 11
800.1030002728381
 21
569.1761052304199
 31
0.0
  0
ARC
  5
3A02
330
1F
100
AcDbEntity
  8
ｴｸｽﾃﾝｼｮﾝﾌﾚｰﾑ
100
AcDbCircle
 10
800.1012549657385
 20
550.976102845807
 30
0.0
 40
0.2
100
AcDbArc
 50
0.000000000000007
 51
89.50000000000034
1001
GENIUS_GENOBJ-N-FIL_13
1002
{
1000
OWNER
1000
GEN
1002
}
1001
GENIUS_GENODEF_13
1002
{
1000
HIER
1070
     0
1002
}
1002
{
1000
MANEDIT
1070
     0
1002
}
1002
{
1000
NOSEL
1070
     0
1002
}
1002
{
1000
BEHIND
1070
     0
1002
}
1002
{
1000
OTHER
1070
     0
1002
}
1002
{
1000
REACTOR
1002
}
  0
LINE
  5
3A03
330
1F
100
AcDbEntity
  8
ｴｸｽﾃﾝｼｮﾝﾌﾚｰﾑ
100
AcDbLine
 10
797.9012549657386
 20
551.1953095706239
 30
0.0
 11
800.1030002728381
 21
551.1760952304199
 31
0.0
  0
LINE
  5
3A05
330
1F
100
AcDbEntity
  8
ｴｸｽﾃﾝｼｮﾝﾌﾚｰﾑ
100
AcDbLine
 10
744.7012549657388
 20
285.2872129652842
 30
0.0
 11
744.7012549657388
 21
310.0372129652844
 31
0.0
  0
LINE
  5
3A06
330
1F
100
AcDbEntity
  8
ｴｸｽﾃﾝｼｮﾝﾌﾚｰﾑ
100
AcDbLine
 10
744.7012549657388
 20
313.5372029652842
 30
0.0
 11
744.7012549657388
 21
316.0372129652844
 31
0.0
  0
LINE
  5
3A07
330
1F
100
AcDbEntity
  8
ｴｸｽﾃﾝｼｮﾝﾌﾚｰﾑ
100
AcDbLine
 10
797.9012549657388
 20
319.5372129652842
 30
0.0
 11
744.4012549657388
 21
319.5372129652842
 31
0.0
  0
LINE
  5
3A08
330
1F
100
AcDbEntity
  8
ｴｸｽﾃﾝｼｮﾝﾌﾚｰﾑ
100
AcDbLine
 10
797.9012549657388
 20
316.0372129652844
 30
0.0
 11
744.4012549657388
 21
316.0372129652844
 31
0.0
  0
LINE
  5
3A09
330
1F
100
AcDbEntity
  8
ｴｸｽﾃﾝｼｮﾝﾌﾚｰﾑ
100
AcDbLine
 10
797.9012549657388
 20
313.5372029652842
 30
0.0
 11
744.4012549657388
 21
313.5372029652842
 31
0.0
  0
LINE
  5
3A0A
330
1F
100
AcDbEntity
  8
ｴｸｽﾃﾝｼｮﾝﾌﾚｰﾑ
100
AcDbLine
 10
797.9012549657388
 20
310.0372129652844
 30
0.0
 11
744.4012549657388
 21
310.0372129652844
 31
0.0
  0
LINE
  5
3A0B
330
1F
100
AcDbEntity
  8
ｴｸｽﾃﾝｼｮﾝﾌﾚｰﾑ
100
AcDbLine
 10
742.9012549657389
 20
298.2437494306168
 30
0.0
 11
739.7012549657388
 21
298.2716754075473
 31
0.0
  0
LINE
  5
3A0C
330
1F
100
AcDbEntity
  8
ｴｸｽﾃﾝｼｮﾝﾌﾚｰﾑ
100
AcDbLine
 10
739.7012549657388
 20
298.2716754075473
 30
0.0
 11
738.9012549657386
 21
298.6716754075473
 31
0.0
  0
LINE
  5
3A0D
330
1F
100
AcDbEntity
  8
ｴｸｽﾃﾝｼｮﾝﾌﾚｰﾑ
100
AcDbLine
 10
742.9012549657389
 20
316.2437594306168
 30
0.0
 11
739.7012549657388
 21
316.2716854075473
 31
0.0
  0
LINE
  5
3A0E
330
1F
100
AcDbEntity
  8
ｴｸｽﾃﾝｼｮﾝﾌﾚｰﾑ
100
AcDbLine
 10
739.7012549657388
 20
316.2716854075473
 30
0.0
 11
738.9012549657386
 21
316.6716854075471
 31
0.0
  0
LINE
  5
3A0F
330
1F
100
AcDbEntity
  8
ｴｸｽﾃﾝｼｮﾝﾌﾚｰﾑ
100
AcDbLine
 10
744.4012549657388
 20
285.7872129652844
 30
0.0
 11
744.7012549657388
 21
285.2872129652842
 31
0.0
  0
LINE
  5
3A10
330
1F
100
AcDbEntity
  8
ｴｸｽﾃﾝｼｮﾝﾌﾚｰﾑ
100
AcDbLine
 10
744.7012549657388
 20
285.2872129652842
 30
0.0
 11
797.9012549657388
 21
285.7514823317524
 31
0.0
  0
LINE
  5
3A11
330
1F
100
AcDbEntity
  8
ｴｸｽﾃﾝｼｮﾝﾌﾚｰﾑ
100
AcDbLine
 10
744.4012549657388
 20
285.7872129652844
 30
0.0
 11
742.9012549657389
 21
285.7872129652844
 31
0.0
  0
LINE
  5
3A12
330
1F
100
AcDbEntity
  8
ｴｸｽﾃﾝｼｮﾝﾌﾚｰﾑ
100
AcDbLine
 10
742.9012549657389
 20
288.2437569883539
 30
0.0
 11
739.7012549657388
 21
288.2716829652843
 31
0.0
  0
LINE
  5
3A13
330
1F
100
AcDbEntity
  8
ｴｸｽﾃﾝｼｮﾝﾌﾚｰﾑ
100
AcDbLine
 10
739.7012549657388
 20
288.2716829652843
 30
0.0
 11
738.9012549657386
 21
288.6716829652842
 31
0.0
  0
ARC
  5
3A14
330
1F
100
AcDbEntity
  8
ｴｸｽﾃﾝｼｮﾝﾌﾚｰﾑ
100
AcDbCircle
 10
800.1012549657389
 20
291.6006172606504
 30
0.0
 40
0.2
100
AcDbArc
 50
270.4999999999996
 51
0.000000000000007
1001
GENIUS_GENOBJ-N-FIL_13
1002
{
1000
OWNER
1000
GEN
1002
}
1001
GENIUS_GENODEF_13
1002
{
1000
HIER
1070
     0
1002
}
1002
{
1000
MANEDIT
1070
     0
1002
}
1002
{
1000
NOSEL
1070
     0
1002
}
1002
{
1000
BEHIND
1070
     0
1002
}
1002
{
1000
OTHER
1070
     0
1002
}
1002
{
1000
REACTOR
1002
}
  0
LINE
  5
3A15
330
1F
100
AcDbEntity
  8
ｴｸｽﾃﾝｼｮﾝﾌﾚｰﾑ
100
AcDbLine
 10
797.9012549657388
 20
291.3814105358337
 30
0.0
 11
800.1030002728384
 21
291.4006248760377
 31
0.0
  0
ARC
  5
3A16
330
1F
100
AcDbEntity
  8
ｴｸｽﾃﾝｼｮﾝﾌﾚｰﾑ
100
AcDbCircle
 10
800.1012549657389
 20
301.5983130847611
 30
0.0
 40
0.2
100
AcDbArc
 50
270.4999999999996
 51
0.000000000000007
1001
GENIUS_GENOBJ-N-FIL_13
1002
{
1000
OWNER
1000
GEN
1002
}
1001
GENIUS_GENODEF_13
1002
{
1000
HIER
1070
     0
1002
}
1002
{
1000
MANEDIT
1070
     0
1002
}
1002
{
1000
NOSEL
1070
     0
1002
}
1002
{
1000
BEHIND
1070
     0
1002
}
1002
{
1000
OTHER
1070
     0
1002
}
1002
{
1000
REACTOR
1002
}
  0
LINE
  5
3A17
330
1F
100
AcDbEntity
  8
ｴｸｽﾃﾝｼｮﾝﾌﾚｰﾑ
100
AcDbLine
 10
797.9012549657388
 20
301.3791063599445
 30
0.0
 11
800.1030002728384
 21
301.3983207001484
 31
0.0
  0
ARC
  5
3A18
330
1F
100
AcDbEntity
  8
ｴｸｽﾃﾝｼｮﾝﾌﾚｰﾑ
100
AcDbCircle
 10
800.1012549657387
 20
319.5983230847613
 30
0.0
 40
0.2
100
AcDbArc
 50
270.4999999999996
 51
0.000000000000007
1001
GENIUS_GENOBJ-N-FIL_13
1002
{
1000
OWNER
1000
GEN
1002
}
1001
GENIUS_GENODEF_13
1002
{
1000
HIER
1070
     0
1002
}
1002
{
1000
MANEDIT
1070
     0
1002
}
1002
{
1000
NOSEL
1070
     0
1002
}
1002
{
1000
BEHIND
1070
     0
1002
}
1002
{
1000
OTHER
1070
     0
1002
}
1002
{
1000
REACTOR
1002
}
  0
LINE
  5
3A19
330
1F
100
AcDbEntity
  8
ｴｸｽﾃﾝｼｮﾝﾌﾚｰﾑ
100
AcDbLine
 10
797.9012549657388
 20
319.3791163599444
 30
0.0
 11
800.1030002728384
 21
319.3983307001486
 31
0.0
  0
INSERT
  5
3A74
102
{ACAD_REACTORS
330
3A71
102
}
330
1F
100
AcDbEntity
  8
AM_12
100
AcDbBlockReference
  2
*S9
 10
0.0
 20
0.0
 30
0.0
  0
INSERT
  5
3A79
102
{ACAD_REACTORS
330
3A78
102
}
330
1F
100
AcDbEntity
  8
AM_5
100
AcDbBlockReference
  2
*S10
 10
0.0
 20
0.0
 30
0.0
  0
INSERT
  5
3A9B
102
{ACAD_REACTORS
330
3A9A
102
}
330
1F
100
AcDbEntity
  8
AM_12
100
AcDbBlockReference
  2
*S11
 10
0.0
 20
0.0
 30
0.0
  0
INSERT
  5
3A9F
102
{ACAD_REACTORS
330
3A9E
102
}
330
1F
100
AcDbEntity
  8
AM_12
100
AcDbBlockReference
  2
*S12
 10
0.0
 20
0.0
 30
0.0
  0
CIRCLE
  5
3B2D
330
1F
100
AcDbEntity
  8
ｴｸｽﾃﾝｼｮﾝﾌﾚｰﾑ
100
AcDbCircle
 10
248.9273956976565
 20
575.2872129652842
 30
0.0
 40
7.504189999999999
  0
CIRCLE
  5
3B2E
330
1F
100
AcDbEntity
  8
ｴｸｽﾃﾝｼｮﾝﾌﾚｰﾑ
100
AcDbCircle
 10
248.9273956976565
 20
575.2872129652842
 30
0.0
 40
8.699999999999999
  0
LINE
  5
3B2F
330
1F
100
AcDbEntity
  8
ｴｸｽﾃﾝｼｮﾝﾌﾚｰﾑ
100
AcDbLine
 10
254.7592466501625
 20
570.564673179972
 30
0.0
 11
255.6885655623322
 21
569.8121255631506
 31
0.0
  0
LINE
  5
3B30
330
1F
100
AcDbEntity
  8
ｴｸｽﾃﾝｼｮﾝﾌﾚｰﾑ
100
AcDbLine
 10
256.3904769596603
 20
574.5028115165157
 30
0.0
 11
257.5797361873606
 21
574.3778153348557
 31
0.0
  0
LINE
  5
3B31
330
1F
100
AcDbEntity
  8
ｴｸｽﾃﾝｼｮﾝﾌﾚｰﾑ
100
AcDbLine
 10
256.3904769596603
 20
576.0716144140529
 30
0.0
 11
257.5797361873606
 21
576.1966105957128
 31
0.0
  0
LINE
  5
3B32
330
1F
100
AcDbEntity
  8
ｴｸｽﾃﾝｼｮﾝﾌﾚｰﾑ
100
AcDbLine
 10
254.7592466501624
 20
580.0097527505965
 30
0.0
 11
255.6885655623322
 21
580.7623003674176
 31
0.0
  0
LINE
  5
3B33
330
1F
100
AcDbEntity
  8
ｴｸｽﾃﾝｼｮﾝﾌﾚｰﾑ
100
AcDbLine
 10
253.6499354829689
 20
581.1190639177899
 30
0.0
 11
254.4024830997902
 21
582.0483828299598
 31
0.0
  0
LINE
  5
3B34
330
1F
100
AcDbEntity
  8
ｴｸｽﾃﾝｼｮﾝﾌﾚｰﾑ
100
AcDbLine
 10
249.7117971464251
 20
582.7502942272878
 30
0.0
 11
249.8367933280853
 21
583.9395534549882
 31
0.0
  0
LINE
  5
3B35
330
1F
100
AcDbEntity
  8
ｴｸｽﾃﾝｼｮﾝﾌﾚｰﾑ
100
AcDbLine
 10
248.1429942488881
 20
582.7502942272878
 30
0.0
 11
248.0179980672281
 21
583.9395534549882
 31
0.0
  0
LINE
  5
3B36
330
1F
100
AcDbEntity
  8
ｴｸｽﾃﾝｼｮﾝﾌﾚｰﾑ
100
AcDbLine
 10
244.2048559123443
 20
581.1190639177899
 30
0.0
 11
243.4523082955229
 21
582.0483828299598
 31
0.0
  0
LINE
  5
3B37
330
1F
100
AcDbEntity
  8
ｴｸｽﾃﾝｼｮﾝﾌﾚｰﾑ
100
AcDbLine
 10
253.6499354829688
 20
569.4553620127783
 30
0.0
 11
254.40248309979
 21
568.5260431006084
 31
0.0
  0
LINE
  5
3B38
330
1F
100
AcDbEntity
  8
ｴｸｽﾃﾝｼｮﾝﾌﾚｰﾑ
100
AcDbLine
 10
249.7117971464249
 20
567.8241317032805
 30
0.0
 11
249.836793328085
 21
566.6348724755801
 31
0.0
  0
LINE
  5
3B39
330
1F
100
AcDbEntity
  8
ｴｸｽﾃﾝｼｮﾝﾌﾚｰﾑ
100
AcDbLine
 10
248.1429942488879
 20
567.8241317032805
 30
0.0
 11
248.0179980672279
 21
566.6348724755801
 31
0.0
  0
LINE
  5
3B3A
330
1F
100
AcDbEntity
  8
ｴｸｽﾃﾝｼｮﾝﾌﾚｰﾑ
100
AcDbLine
 10
244.2048559123442
 20
569.4553620127783
 30
0.0
 11
243.4523082955229
 21
568.5260431006084
 31
0.0
  0
LINE
  5
3B3B
330
1F
100
AcDbEntity
  8
ｴｸｽﾃﾝｼｮﾝﾌﾚｰﾑ
100
AcDbLine
 10
243.0955447451507
 20
570.5646731799718
 30
0.0
 11
242.1662258329809
 21
569.8121255631506
 31
0.0
  0
LINE
  5
3B3C
330
1F
100
AcDbEntity
  8
ｴｸｽﾃﾝｼｮﾝﾌﾚｰﾑ
100
AcDbLine
 10
241.4643144356528
 20
574.5028115165156
 30
0.0
 11
240.2750552079525
 21
574.3778153348555
 31
0.0
  0
LINE
  5
3B3D
330
1F
100
AcDbEntity
  8
ｴｸｽﾃﾝｼｮﾝﾌﾚｰﾑ
100
AcDbLine
 10
241.4643144356528
 20
576.0716144140526
 30
0.0
 11
240.2750552079525
 21
576.1966105957126
 31
0.0
  0
LINE
  5
3B3E
330
1F
100
AcDbEntity
  8
ｴｸｽﾃﾝｼｮﾝﾌﾚｰﾑ
100
AcDbLine
 10
243.0955447451506
 20
580.0097527505965
 30
0.0
 11
242.1662258329808
 21
580.7623003674176
 31
0.0
  0
CIRCLE
  5
3B51
330
1F
100
AcDbEntity
  8
ｴｸｽﾃﾝｼｮﾝﾌﾚｰﾑ
100
AcDbCircle
 10
248.9273956976566
 20
295.2872129652841
 30
0.0
 40
7.504189999999999
  0
CIRCLE
  5
3B52
330
1F
100
AcDbEntity
  8
ｴｸｽﾃﾝｼｮﾝﾌﾚｰﾑ
100
AcDbCircle
 10
248.9273956976566
 20
295.2872129652841
 30
0.0
 40
8.699999999999999
  0
LINE
  5
3B53
330
1F
100
AcDbEntity
  8
ｴｸｽﾃﾝｼｮﾝﾌﾚｰﾑ
100
AcDbLine
 10
254.7592466501626
 20
290.564673179972
 30
0.0
 11
255.6885655623323
 21
289.8121255631506
 31
0.0
  0
LINE
  5
3B54
330
1F
100
AcDbEntity
  8
ｴｸｽﾃﾝｼｮﾝﾌﾚｰﾑ
100
AcDbLine
 10
256.3904769596604
 20
294.5028115165158
 30
0.0
 11
257.5797361873607
 21
294.3778153348558
 31
0.0
  0
LINE
  5
3B55
330
1F
100
AcDbEntity
  8
ｴｸｽﾃﾝｼｮﾝﾌﾚｰﾑ
100
AcDbLine
 10
256.3904769596604
 20
296.0716144140529
 30
0.0
 11
257.5797361873607
 21
296.1966105957129
 31
0.0
  0
LINE
  5
3B56
330
1F
100
AcDbEntity
  8
ｴｸｽﾃﾝｼｮﾝﾌﾚｰﾑ
100
AcDbLine
 10
254.7592466501625
 20
300.0097527505966
 30
0.0
 11
255.6885655623323
 21
300.7623003674178
 31
0.0
  0
LINE
  5
3B57
330
1F
100
AcDbEntity
  8
ｴｸｽﾃﾝｼｮﾝﾌﾚｰﾑ
100
AcDbLine
 10
253.649935482969
 20
301.1190639177901
 30
0.0
 11
254.4024830997903
 21
302.0483828299598
 31
0.0
  0
LINE
  5
3B58
330
1F
100
AcDbEntity
  8
ｴｸｽﾃﾝｼｮﾝﾌﾚｰﾑ
100
AcDbLine
 10
249.7117971464252
 20
302.7502942272879
 30
0.0
 11
249.8367933280854
 21
303.9395534549883
 31
0.0
  0
LINE
  5
3B59
330
1F
100
AcDbEntity
  8
ｴｸｽﾃﾝｼｮﾝﾌﾚｰﾑ
100
AcDbLine
 10
248.1429942488881
 20
302.7502942272879
 30
0.0
 11
248.0179980672282
 21
303.9395534549883
 31
0.0
  0
LINE
  5
3B5A
330
1F
100
AcDbEntity
  8
ｴｸｽﾃﾝｼｮﾝﾌﾚｰﾑ
100
AcDbLine
 10
244.2048559123445
 20
301.1190639177901
 30
0.0
 11
243.452308295523
 21
302.04838282996
 31
0.0
  0
LINE
  5
3B5B
330
1F
100
AcDbEntity
  8
ｴｸｽﾃﾝｼｮﾝﾌﾚｰﾑ
100
AcDbLine
 10
253.6499354829689
 20
289.4553620127783
 30
0.0
 11
254.4024830997902
 21
288.5260431006086
 31
0.0
  0
LINE
  5
3B5C
330
1F
100
AcDbEntity
  8
ｴｸｽﾃﾝｼｮﾝﾌﾚｰﾑ
100
AcDbLine
 10
249.7117971464251
 20
287.8241317032805
 30
0.0
 11
249.8367933280852
 21
286.6348724755801
 31
0.0
  0
LINE
  5
3B5D
330
1F
100
AcDbEntity
  8
ｴｸｽﾃﾝｼｮﾝﾌﾚｰﾑ
100
AcDbLine
 10
248.1429942488881
 20
287.8241317032805
 30
0.0
 11
248.0179980672279
 21
286.6348724755801
 31
0.0
  0
LINE
  5
3B5E
330
1F
100
AcDbEntity
  8
ｴｸｽﾃﾝｼｮﾝﾌﾚｰﾑ
100
AcDbLine
 10
244.2048559123443
 20
289.4553620127783
 30
0.0
 11
243.452308295523
 21
288.5260431006086
 31
0.0
  0
LINE
  5
3B5F
330
1F
100
AcDbEntity
  8
ｴｸｽﾃﾝｼｮﾝﾌﾚｰﾑ
100
AcDbLine
 10
243.0955447451509
 20
290.5646731799718
 30
0.0
 11
242.166225832981
 21
289.8121255631506
 31
0.0
  0
LINE
  5
3B60
330
1F
100
AcDbEntity
  8
ｴｸｽﾃﾝｼｮﾝﾌﾚｰﾑ
100
AcDbLine
 10
241.4643144356529
 20
294.5028115165155
 30
0.0
 11
240.2750552079526
 21
294.3778153348556
 31
0.0
  0
LINE
  5
3B61
330
1F
100
AcDbEntity
  8
ｴｸｽﾃﾝｼｮﾝﾌﾚｰﾑ
100
AcDbLine
 10
241.4643144356529
 20
296.0716144140526
 30
0.0
 11
240.2750552079526
 21
296.1966105957126
 31
0.0
  0
LINE
  5
3B62
330
1F
100
AcDbEntity
  8
ｴｸｽﾃﾝｼｮﾝﾌﾚｰﾑ
100
AcDbLine
 10
243.0955447451507
 20
300.0097527505964
 30
0.0
 11
242.1662258329809
 21
300.7623003674178
 31
0.0
  0
CIRCLE
  5
3B63
330
1F
100
AcDbEntity
  8
ｴｸｽﾃﾝｼｮﾝﾌﾚｰﾑ
100
AcDbCircle
 10
528.9273956976566
 20
295.287212965284
 30
0.0
 40
7.504189999999999
  0
CIRCLE
  5
3B64
330
1F
100
AcDbEntity
  8
ｴｸｽﾃﾝｼｮﾝﾌﾚｰﾑ
100
AcDbCircle
 10
528.9273956976566
 20
295.287212965284
 30
0.0
 40
8.699999999999999
  0
LINE
  5
3B65
330
1F
100
AcDbEntity
  8
ｴｸｽﾃﾝｼｮﾝﾌﾚｰﾑ
100
AcDbLine
 10
534.7592466501626
 20
290.5646731799718
 30
0.0
 11
535.6885655623325
 21
289.8121255631504
 31
0.0
  0
LINE
  5
3B66
330
1F
100
AcDbEntity
  8
ｴｸｽﾃﾝｼｮﾝﾌﾚｰﾑ
100
AcDbLine
 10
536.3904769596604
 20
294.5028115165155
 30
0.0
 11
537.5797361873607
 21
294.3778153348556
 31
0.0
  0
LINE
  5
3B67
330
1F
100
AcDbEntity
  8
ｴｸｽﾃﾝｼｮﾝﾌﾚｰﾑ
100
AcDbLine
 10
536.3904769596604
 20
296.0716144140526
 30
0.0
 11
537.5797361873607
 21
296.1966105957126
 31
0.0
  0
LINE
  5
3B68
330
1F
100
AcDbEntity
  8
ｴｸｽﾃﾝｼｮﾝﾌﾚｰﾑ
100
AcDbLine
 10
534.7592466501626
 20
300.0097527505964
 30
0.0
 11
535.6885655623325
 21
300.7623003674175
 31
0.0
  0
LINE
  5
3B69
330
1F
100
AcDbEntity
  8
ｴｸｽﾃﾝｼｮﾝﾌﾚｰﾑ
100
AcDbLine
 10
533.649935482969
 20
301.1190639177899
 30
0.0
 11
534.4024830997905
 21
302.0483828299596
 31
0.0
  0
LINE
  5
3B6A
330
1F
100
AcDbEntity
  8
ｴｸｽﾃﾝｼｮﾝﾌﾚｰﾑ
100
AcDbLine
 10
529.7117971464254
 20
302.7502942272877
 30
0.0
 11
529.8367933280854
 21
303.9395534549881
 31
0.0
  0
LINE
  5
3B6B
330
1F
100
AcDbEntity
  8
ｴｸｽﾃﾝｼｮﾝﾌﾚｰﾑ
100
AcDbLine
 10
528.1429942488882
 20
302.7502942272877
 30
0.0
 11
528.0179980672283
 21
303.9395534549881
 31
0.0
  0
LINE
  5
3B6C
330
1F
100
AcDbEntity
  8
ｴｸｽﾃﾝｼｮﾝﾌﾚｰﾑ
100
AcDbLine
 10
524.2048559123445
 20
301.1190639177899
 30
0.0
 11
523.4523082955231
 21
302.0483828299598
 31
0.0
  0
LINE
  5
3B6D
330
1F
100
AcDbEntity
  8
ｴｸｽﾃﾝｼｮﾝﾌﾚｰﾑ
100
AcDbLine
 10
533.6499354829689
 20
289.4553620127781
 30
0.0
 11
534.4024830997902
 21
288.5260431006084
 31
0.0
  0
LINE
  5
3B6E
330
1F
100
AcDbEntity
  8
ｴｸｽﾃﾝｼｮﾝﾌﾚｰﾑ
100
AcDbLine
 10
529.7117971464252
 20
287.8241317032803
 30
0.0
 11
529.8367933280851
 21
286.6348724755799
 31
0.0
  0
LINE
  5
3B6F
330
1F
100
AcDbEntity
  8
ｴｸｽﾃﾝｼｮﾝﾌﾚｰﾑ
100
AcDbLine
 10
528.142994248888
 20
287.8241317032803
 30
0.0
 11
528.017998067228
 21
286.6348724755799
 31
0.0
  0
LINE
  5
3B70
330
1F
100
AcDbEntity
  8
ｴｸｽﾃﾝｼｮﾝﾌﾚｰﾑ
100
AcDbLine
 10
524.2048559123445
 20
289.4553620127781
 30
0.0
 11
523.4523082955231
 21
288.5260431006084
 31
0.0
  0
LINE
  5
3B71
330
1F
100
AcDbEntity
  8
ｴｸｽﾃﾝｼｮﾝﾌﾚｰﾑ
100
AcDbLine
 10
523.0955447451508
 20
290.5646731799716
 30
0.0
 11
522.1662258329811
 21
289.8121255631504
 31
0.0
  0
LINE
  5
3B72
330
1F
100
AcDbEntity
  8
ｴｸｽﾃﾝｼｮﾝﾌﾚｰﾑ
100
AcDbLine
 10
521.4643144356529
 20
294.5028115165153
 30
0.0
 11
520.2750552079526
 21
294.3778153348553
 31
0.0
  0
LINE
  5
3B73
330
1F
100
AcDbEntity
  8
ｴｸｽﾃﾝｼｮﾝﾌﾚｰﾑ
100
AcDbLine
 10
521.4643144356529
 20
296.0716144140524
 30
0.0
 11
520.2750552079528
 21
296.1966105957124
 31
0.0
  0
LINE
  5
3B74
330
1F
100
AcDbEntity
  8
ｴｸｽﾃﾝｼｮﾝﾌﾚｰﾑ
100
AcDbLine
 10
523.0955447451508
 20
300.0097527505961
 30
0.0
 11
522.1662258329809
 21
300.7623003674175
 31
0.0
  0
CIRCLE
  5
3B87
330
1F
100
AcDbEntity
  8
ｴｸｽﾃﾝｼｮﾝﾌﾚｰﾑ
100
AcDbCircle
 10
528.9273956976566
 20
575.2872129652841
 30
0.0
 40
7.504189999999999
  0
CIRCLE
  5
3B88
330
1F
100
AcDbEntity
  8
ｴｸｽﾃﾝｼｮﾝﾌﾚｰﾑ
100
AcDbCircle
 10
528.9273956976566
 20
575.2872129652841
 30
0.0
 40
8.699999999999999
  0
LINE
  5
3B89
330
1F
100
AcDbEntity
  8
ｴｸｽﾃﾝｼｮﾝﾌﾚｰﾑ
100
AcDbLine
 10
534.7592466501626
 20
570.564673179972
 30
0.0
 11
535.6885655623325
 21
569.8121255631504
 31
0.0
  0
LINE
  5
3B8A
330
1F
100
AcDbEntity
  8
ｴｸｽﾃﾝｼｮﾝﾌﾚｰﾑ
100
AcDbLine
 10
536.3904769596604
 20
574.5028115165156
 30
0.0
 11
537.5797361873607
 21
574.3778153348556
 31
0.0
  0
LINE
  5
3B8B
330
1F
100
AcDbEntity
  8
ｴｸｽﾃﾝｼｮﾝﾌﾚｰﾑ
100
AcDbLine
 10
536.3904769596604
 20
576.0716144140527
 30
0.0
 11
537.5797361873607
 21
576.1966105957127
 31
0.0
  0
LINE
  5
3B8C
330
1F
100
AcDbEntity
  8
ｴｸｽﾃﾝｼｮﾝﾌﾚｰﾑ
100
AcDbLine
 10
534.7592466501626
 20
580.0097527505965
 30
0.0
 11
535.6885655623325
 21
580.7623003674176
 31
0.0
  0
LINE
  5
3B8D
330
1F
100
AcDbEntity
  8
ｴｸｽﾃﾝｼｮﾝﾌﾚｰﾑ
100
AcDbLine
 10
533.649935482969
 20
581.1190639177899
 30
0.0
 11
534.4024830997902
 21
582.0483828299598
 31
0.0
  0
LINE
  5
3B8E
330
1F
100
AcDbEntity
  8
ｴｸｽﾃﾝｼｮﾝﾌﾚｰﾑ
100
AcDbLine
 10
529.7117971464252
 20
582.7502942272878
 30
0.0
 11
529.8367933280854
 21
583.9395534549882
 31
0.0
  0
LINE
  5
3B8F
330
1F
100
AcDbEntity
  8
ｴｸｽﾃﾝｼｮﾝﾌﾚｰﾑ
100
AcDbLine
 10
528.1429942488882
 20
582.7502942272878
 30
0.0
 11
528.017998067228
 21
583.9395534549882
 31
0.0
  0
LINE
  5
3B90
330
1F
100
AcDbEntity
  8
ｴｸｽﾃﾝｼｮﾝﾌﾚｰﾑ
100
AcDbLine
 10
524.2048559123443
 20
581.1190639177899
 30
0.0
 11
523.4523082955231
 21
582.0483828299598
 31
0.0
  0
LINE
  5
3B91
330
1F
100
AcDbEntity
  8
ｴｸｽﾃﾝｼｮﾝﾌﾚｰﾑ
100
AcDbLine
 10
533.6499354829689
 20
569.4553620127783
 30
0.0
 11
534.4024830997902
 21
568.5260431006084
 31
0.0
  0
LINE
  5
3B92
330
1F
100
AcDbEntity
  8
ｴｸｽﾃﾝｼｮﾝﾌﾚｰﾑ
100
AcDbLine
 10
529.7117971464252
 20
567.8241317032805
 30
0.0
 11
529.8367933280851
 21
566.6348724755801
 31
0.0
  0
LINE
  5
3B93
330
1F
100
AcDbEntity
  8
ｴｸｽﾃﾝｼｮﾝﾌﾚｰﾑ
100
AcDbLine
 10
528.1429942488878
 20
567.8241317032805
 30
0.0
 11
528.017998067228
 21
566.6348724755801
 31
0.0
  0
LINE
  5
3B94
330
1F
100
AcDbEntity
  8
ｴｸｽﾃﾝｼｮﾝﾌﾚｰﾑ
100
AcDbLine
 10
524.2048559123443
 20
569.4553620127783
 30
0.0
 11
523.4523082955231
 21
568.5260431006084
 31
0.0
  0
LINE
  5
3B95
330
1F
100
AcDbEntity
  8
ｴｸｽﾃﾝｼｮﾝﾌﾚｰﾑ
100
AcDbLine
 10
523.0955447451508
 20
570.5646731799718
 30
0.0
 11
522.1662258329809
 21
569.8121255631506
 31
0.0
  0
LINE
  5
3B96
330
1F
100
AcDbEntity
  8
ｴｸｽﾃﾝｼｮﾝﾌﾚｰﾑ
100
AcDbLine
 10
521.4643144356529
 20
574.5028115165156
 30
0.0
 11
520.2750552079526
 21
574.3778153348555
 31
0.0
  0
LINE
  5
3B97
330
1F
100
AcDbEntity
  8
ｴｸｽﾃﾝｼｮﾝﾌﾚｰﾑ
100
AcDbLine
 10
521.4643144356529
 20
576.0716144140526
 30
0.0
 11
520.2750552079526
 21
576.1966105957126
 31
0.0
  0
LINE
  5
3B98
330
1F
100
AcDbEntity
  8
ｴｸｽﾃﾝｼｮﾝﾌﾚｰﾑ
100
AcDbLine
 10
523.0955447451508
 20
580.0097527505965
 30
0.0
 11
522.1662258329809
 21
580.7623003674176
 31
0.0
  0
HATCH
  5
3BD9
330
1F
100
AcDbEntity
  8
AM_8
100
AcDbHatch
 10
0.0
 20
0.0
 30
0.0
210
0.0
220
0.0
230
1.0
  2
_U
 70
     0
 71
     0
 91
        1
 92
        1
 93
       22
 72
     2
 10
532.6139914000271
 20
767.1898219160661
 40
0.2000000000000354
 50
0.500000000006101
 51
89.99999999999998
 73
     1
 72
     1
 10
532.6139914000271
 20
767.389821916066
 11
531.0487156953934
 21
767.389821916066
 72
     1
 10
531.0487156953934
 20
767.389821916066
 11
531.1365828577845
 21
757.3212423869668
 72
     2
 10
532.1365447808528
 20
757.3299689224727
 40
1.000000000004107
 50
180.5000000004332
 51
240.0000000004231
 73
     1
 72
     1
 10
531.6365447808569
 20
756.4639435186814
 11
533.3704181374198
 21
755.4628912695289
 72
     2
 10
533.2204181374201
 20
755.2030836483932
 40
0.299999999999986
 50
299.9999999999715
 51
359.5000000000019
 73
     0
 72
     1
 10
533.5204067143393
 20
755.2057016090425
 11
533.9429256953932
 21
706.7898219160658
 72
     1
 10
533.9429256953933
 20
706.789821916066
 11
534.3429256953932
 21
705.9898219160658
 72
     1
 10
534.3429256953929
 20
705.9898219160658
 11
535.5429256953932
 21
705.9898219160658
 72
     1
 10
535.5429256953932
 20
705.9898219160658
 11
535.9429256953931
 21
706.7898219160658
 72
     1
 10
535.9429256953933
 20
706.789821916066
 11
535.9708516723237
 21
709.9898219160661
 72
     1
 10
535.9708516723237
 20
709.9898219160658
 11
538.4273956953932
 21
709.9898219160658
 72
     1
 10
538.4273956953932
 20
709.9898219160658
 11
538.4273956953932
 21
711.4898219160659
 72
     1
 10
538.4273956953932
 20
711.4898219160659
 11
538.9273956953934
 21
711.7898219160658
 72
     1
 10
538.9273956953932
 20
711.7898219160661
 11
538.4631263289249
 21
764.9898219160661
 72
     1
 10
538.4631263289249
 20
764.9898219160659
 11
536.7605158842648
 21
764.9898219160659
 72
     2
 10
536.760515884265
 20
764.789821916066
 40
0.200000000000017
 50
89.99999999999998
 51
179.4999999999938
 73
     1
 72
     1
 10
536.5605234996521
 20
764.7915672231656
 11
536.5158641632763
 21
759.674114152169
 72
     2
 10
534.7159327017609
 20
759.6898219160657
 40
1.799999999999859
 50
360.4999999999886
 51
449.9999999999928
 73
     0
 72
     1
 10
534.7159327017609
 20
757.8898219160659
 11
534.6795190652285
 21
757.8898219160659
 72
     2
 10
534.6795190652287
 20
759.6898219160662
 40
1.800000000000082
 50
90.00000000000362
 51
179.5000000000006
 73
     0
 72
     1
 10
532.8795876037132
 20
759.6741141521692
 11
532.8139837846398
 21
767.1915672231659
 97
        0
 75
     0
 76
     0
 52
-45.00000000000001
 41
10.0
 77
     0
 78
     1
 53
315.0
 43
-170.8793175060187
 44
858.6189832215891
 45
7.071067811865476
 46
7.071067811865473
 79
     0
 98
        1
 10
-170.8793175060187
 20
858.6189832215891
1001
GENIUS_GENOBJ-N-HTC_13
1002
{
1000
OWNER
1000
GEN
1002
}
1001
GENIUS_GENODEF_13
1002
{
1000
HIER
1070
     0
1002
}
1002
{
1000
MANEDIT
1070
     0
1002
}
1002
{
1000
NOSEL
1070
     0
1002
}
1002
{
1000
BEHIND
1070
     0
1002
}
1002
{
1000
OTHER
1070
     0
1002
}
1002
{
1000
REACTOR
1002
}
1001
GENIUS_GENHATCH_13
1002
{
1000
DATA
1040
45.0
1042
2.5
1000
_U
1070
     0
1011
535.8696509777501
1021
594.6740722958857
1031
0.0
1002
}
1002
{
1000
UCS
1010
0.0
1020
0.0
1030
0.0
1010
1.0
1020
0.0
1030
0.0
1010
0.0
1020
1.0
1030
0.0
1002
}
  0
LINE
  5
3BF5
330
1F
100
AcDbEntity
  8
ｶﾞｽｹｯﾄ
100
AcDbLine
 10
534.7388967171744
 20
764.0898219160658
 30
0.0
 11
534.6565550498155
 21
764.0898219160658
 31
0.0
  0
ARC
  5
3BF6
330
1F
100
AcDbEntity
  8
ｶﾞｽｹｯﾄ
100
AcDbCircle
 10
534.7388967171744
 20
762.2898219160661
 30
0.0
 40
1.8
100
AcDbArc
 50
0.5000000000013048
 51
89.99999999999998
1001
GENIUS_GENODEF_13
1002
{
1000
HIER
1070
     0
1002
}
1002
{
1000
MANEDIT
1070
     0
1002
}
1002
{
1000
NOSEL
1070
     0
1002
}
1002
{
1000
BEHIND
1070
     0
1002
}
1002
{
1000
OTHER
1070
     0
1002
}
1002
{
1000
REACTOR
1002
}
1001
GENIUS_GENOBJ-N-FIL_13
1002
{
1000
OWNER
1000
GEN
1002
}
  0
ARC
  5
3BF7
330
1F
100
AcDbEntity
  8
ｶﾞｽｹｯﾄ
100
AcDbCircle
 10
534.6565550498155
 20
762.2898219160656
 30
0.0
 40
1.8
100
AcDbArc
 50
89.99999999999998
 51
179.4999999999987
1001
GENIUS_GENODEF_13
1002
{
1000
HIER
1070
     0
1002
}
1002
{
1000
MANEDIT
1070
     0
1002
}
1002
{
1000
NOSEL
1070
     0
1002
}
1002
{
1000
BEHIND
1070
     0
1002
}
1002
{
1000
OTHER
1070
     0
1002
}
1002
{
1000
REACTOR
1002
}
1001
GENIUS_GENOBJ-N-FIL_13
1002
{
1000
OWNER
1000
GEN
1002
}
  0
HATCH
  5
3C06
330
1F
100
AcDbEntity
  8
ｶﾞｽｹｯﾄ
100
AcDbHatch
 10
0.0
 20
0.0
 30
0.0
210
0.0
220
0.0
230
1.0
  2
SOLID
 70
     1
 71
     0
 91
        1
 92
        1
 93
        8
 72
     1
 10
534.6795190652285
 20
757.8898219160664
 11
534.7159327017609
 21
757.8898219160662
 72
     2
 10
534.7159327017609
 20
759.6898219160662
 40
1.799999999999968
 50
-90.00000000000001
 51
-0.5000000000003379
 73
     1
 72
     1
 10
536.5158641632765
 20
759.6741141521688
 11
536.5388281786898
 21
762.3055296799663
 72
     2
 10
534.7388967171744
 20
762.2898219160656
 40
1.800000000000008
 50
0.5000000001188072
 51
89.99999999999998
 73
     1
 72
     1
 10
534.7388967171744
 20
764.0898219160658
 11
534.6565550498156
 21
764.0898219160658
 72
     2
 10
534.6565550498155
 20
762.2898219160661
 40
1.800000000000096
 50
90.0000000000036
 51
179.4999999998879
 73
     1
 72
     1
 10
532.8566235883001
 20
762.3055296799666
 11
532.8795876037138
 21
759.6741141521692
 72
     2
 10
534.6795190652289
 20
759.6898219160662
 40
1.799999999999633
 50
180.4999999999923
 51
269.9999999999928
 73
     1
 97
        0
 75
     0
 76
     1
 98
        1
 10
-170.8793175060187
 20
858.6189832215891
1001
GENIUS_GENODEF_13
1002
{
1000
HIER
1070
     0
1002
}
1002
{
1000
MANEDIT
1070
     0
1002
}
1002
{
1000
NOSEL
1070
     0
1002
}
1002
{
1000
BEHIND
1070
     0
1002
}
1002
{
1000
OTHER
1070
     0
1002
}
1002
{
1000
REACTOR
1002
}
1001
GENIUS_GENOBJ-N-HTC_13
1002
{
1000
OWNER
1000
GEN
1002
}
1001
GENIUS_GENHATCH_13
1002
{
1000
DATA
1040
0.0
1042
1.0
1000
SOLID
1070
     0
1011
534.1539998180365
1021
611.2838958669745
1031
0.0
1002
}
1002
{
1000
UCS
1010
0.0
1020
0.0
1030
0.0
1010
1.0
1020
0.0
1030
0.0
1010
0.0
1020
1.0
1030
0.0
1002
}
  0
DIMENSION
  5
3D55
330
1F
100
AcDbEntity
  8
AM_5
100
AcDbDimension
  2
*D6
 10
797.9012549657386
 20
621.2872139752843
 30
0.0
 11
770.4012549657386
 21
631.0372139752843
 31
0.0
 70
    32
 71
     5
 42
55.0
  3
AM_ISO$0
100
AcDbAlignedDimension
 13
742.9012549657386
 23
584.7872129652838
 33
0.0
 14
797.9012549657386
 24
584.8229435988161
 34
0.0
100
AcDbRotatedDimension
1001
ACAD
1000
DSTYLE
1002
{
1070
    40
1040
3.0
1002
}
  0
LINE
  5
3EF6
330
1F
100
AcDbEntity
  8
ｴｸｽﾃﾝｼｮﾝﾌﾚｰﾑ
100
AcDbLine
 10
259.7388901217899
 20
760.889821916066
 30
0.0
 11
259.6917650357198
 21
755.4898219160659
 31
0.0
  0
LINE
  5
3F0D
330
1F
100
AcDbEntity
  8
ｴｸｽﾃﾝｼｮﾝﾌﾚｰﾑ
100
AcDbLine
 10
272.9918181399193
 20
764.9898219160659
 30
0.0
 11
239.3916650641246
 21
764.9898219160659
 31
0.0
  0
ARC
  5
3F0E
330
1F
100
AcDbEntity
  8
ｴｸｽﾃﾝｼｮﾝﾌﾚｰﾑ
100
AcDbCircle
 10
269.0593555087844
 20
764.789821916066
 30
0.0
 40
0.2
100
AcDbArc
 50
0.500000000001299
 51
90.00000000000003
1001
GENIUS_GENODEF_13
1002
{
1000
HIER
1070
     0
1002
}
1002
{
1000
MANEDIT
1070
     0
1002
}
1002
{
1000
NOSEL
1070
     0
1002
}
1002
{
1000
BEHIND
1070
     0
1002
}
1002
{
1000
OTHER
1070
     0
1002
}
1002
{
1000
REACTOR
1002
}
1001
GENIUS_GENOBJ-N-FIL_13
1002
{
1000
OWNER
1000
GEN
1002
}
  0
ARC
  5
3F11
330
1F
100
AcDbEntity
  8
ｴｸｽﾃﾝｼｮﾝﾌﾚｰﾑ
100
AcDbCircle
 10
273.2058799930223
 20
767.1898219160661
 30
0.0
 40
0.2
100
AcDbArc
 50
90.00000000000003
 51
179.4999999999987
1001
GENIUS_GENOBJ-N-FIL_13
1002
{
1000
OWNER
1000
GEN
1002
}
1001
GENIUS_GENODEF_13
1002
{
1000
HIER
1070
     0
1002
}
1002
{
1000
MANEDIT
1070
     0
1002
}
1002
{
1000
NOSEL
1070
     0
1002
}
1002
{
1000
BEHIND
1070
     0
1002
}
1002
{
1000
OTHER
1070
     0
1002
}
1002
{
1000
REACTOR
1002
}
  0
LINE
  5
3F14
330
1F
100
AcDbEntity
  8
ｴｸｽﾃﾝｼｮﾝﾌﾚｰﾑ
100
AcDbLine
 10
273.8640910418987
 20
756.8482784936573
 30
0.0
 11
273.9560856976563
 21
767.389821916066
 31
0.0
  0
LINE
  5
3F15
330
1F
100
AcDbEntity
  8
ｴｸｽﾃﾝｼｮﾝﾌﾚｰﾑ
100
AcDbLine
 10
271.8769456976561
 20
706.789821916066
 30
0.0
 11
272.2994646787102
 21
755.2057016090425
 31
0.0
  0
LINE
  5
3F17
330
1F
100
AcDbEntity
  8
ｴｸｽﾃﾝｼｮﾝﾌﾚｰﾑ
100
AcDbLine
 10
269.8769456976561
 20
706.789821916066
 30
0.0
 11
270.2769456976562
 21
705.9898219160658
 31
0.0
  0
LINE
  5
3F18
330
1F
100
AcDbEntity
  8
ｴｸｽﾃﾝｼｮﾝﾌﾚｰﾑ
100
AcDbLine
 10
271.4769456976565
 20
705.9898219160658
 30
0.0
 11
271.8769456976561
 21
706.789821916066
 31
0.0
  0
LINE
  5
3F19
330
1F
100
AcDbEntity
  8
ｴｸｽﾃﾝｼｮﾝﾌﾚｰﾑ
100
AcDbLine
 10
273.3641291188346
 20
755.990979625371
 30
0.0
 11
272.4494532556296
 21
755.4628912695284
 31
0.0
  0
ARC
  5
3F1A
330
1F
100
AcDbEntity
  8
ｴｸｽﾃﾝｼｮﾝﾌﾚｰﾑ
100
AcDbCircle
 10
272.5994532556295
 20
755.2030836483932
 30
0.0
 40
0.3
100
AcDbArc
 50
120.0000000000005
 51
179.4999999999987
1001
GENIUS_GENODEF_13
1002
{
1000
HIER
1070
     0
1002
}
1002
{
1000
MANEDIT
1070
     0
1002
}
1002
{
1000
NOSEL
1070
     0
1002
}
1002
{
1000
BEHIND
1070
     0
1002
}
1002
{
1000
OTHER
1070
     0
1002
}
1002
{
1000
REACTOR
1002
}
1001
GENIUS_GENOBJ-N-FIL_13
1002
{
1000
OWNER
1000
GEN
1002
}
  0
LINE
  5
3F1C
330
1F
100
AcDbEntity
  8
ｴｸｽﾃﾝｼｮﾝﾌﾚｰﾑ
100
AcDbLine
 10
269.3040072297731
 20
759.6741141521692
 30
0.0
 11
269.2593478933972
 21
764.7915672231656
 31
0.0
  0
LINE
  5
3F1D
330
1F
100
AcDbEntity
  8
ｴｸｽﾃﾝｼｮﾝﾌﾚｰﾑ
100
AcDbLine
 10
272.9402837893358
 20
759.6741141521692
 30
0.0
 11
273.0058876084095
 21
767.1915672231657
 31
0.0
  0
LINE
  5
3F1E
330
1F
100
AcDbEntity
  8
ｴｸｽﾃﾝｼｮﾝﾌﾚｰﾑ
100
AcDbLine
 10
271.1039386912885
 20
757.8898219160659
 30
0.0
 11
271.1403523278209
 21
757.8898219160659
 31
0.0
  0
ARC
  5
3F1F
330
1F
100
AcDbEntity
  8
ｴｸｽﾃﾝｼｮﾝﾌﾚｰﾑ
100
AcDbCircle
 10
271.1039386912883
 20
759.6898219160662
 30
0.0
 40
1.8
100
AcDbArc
 50
180.5000000000013
 51
270.0
1001
GENIUS_GENODEF_13
1002
{
1000
HIER
1070
     0
1002
}
1002
{
1000
MANEDIT
1070
     0
1002
}
1002
{
1000
NOSEL
1070
     0
1002
}
1002
{
1000
BEHIND
1070
     0
1002
}
1002
{
1000
OTHER
1070
     0
1002
}
1002
{
1000
REACTOR
1002
}
1001
GENIUS_GENOBJ-N-FIL_13
1002
{
1000
OWNER
1000
GEN
1002
}
  0
ARC
  5
3F20
330
1F
100
AcDbEntity
  8
ｴｸｽﾃﾝｼｮﾝﾌﾚｰﾑ
100
AcDbCircle
 10
271.1403523278207
 20
759.6898219160662
 30
0.0
 40
1.8
100
AcDbArc
 50
270.0
 51
359.4999999999988
1001
GENIUS_GENODEF_13
1002
{
1000
HIER
1070
     0
1002
}
1002
{
1000
MANEDIT
1070
     0
1002
}
1002
{
1000
NOSEL
1070
     0
1002
}
1002
{
1000
BEHIND
1070
     0
1002
}
1002
{
1000
OTHER
1070
     0
1002
}
1002
{
1000
REACTOR
1002
}
1001
GENIUS_GENOBJ-N-FIL_13
1002
{
1000
OWNER
1000
GEN
1002
}
  0
LINE
  5
3F22
330
1F
100
AcDbEntity
  8
ｶﾞｽｹｯﾄ
100
AcDbLine
 10
271.0809746758751
 20
764.0898219160658
 30
0.0
 11
271.1633163432339
 21
764.0898219160658
 31
0.0
  0
ARC
  5
3F23
330
1F
100
AcDbEntity
  8
ｶﾞｽｹｯﾄ
100
AcDbCircle
 10
271.0809746758751
 20
762.2898219160661
 30
0.0
 40
1.8
100
AcDbArc
 50
90.00000000000003
 51
179.4999999999987
1001
GENIUS_GENODEF_13
1002
{
1000
HIER
1070
     0
1002
}
1002
{
1000
MANEDIT
1070
     0
1002
}
1002
{
1000
NOSEL
1070
     0
1002
}
1002
{
1000
BEHIND
1070
     0
1002
}
1002
{
1000
OTHER
1070
     0
1002
}
1002
{
1000
REACTOR
1002
}
1001
GENIUS_GENOBJ-N-FIL_13
1002
{
1000
OWNER
1000
GEN
1002
}
  0
ARC
  5
3F24
330
1F
100
AcDbEntity
  8
ｶﾞｽｹｯﾄ
100
AcDbCircle
 10
271.1633163432339
 20
762.2898219160656
 30
0.0
 40
1.8
100
AcDbArc
 50
0.500000000001299
 51
90.00000000000003
1001
GENIUS_GENODEF_13
1002
{
1000
HIER
1070
     0
1002
}
1002
{
1000
MANEDIT
1070
     0
1002
}
1002
{
1000
NOSEL
1070
     0
1002
}
1002
{
1000
BEHIND
1070
     0
1002
}
1002
{
1000
OTHER
1070
     0
1002
}
1002
{
1000
REACTOR
1002
}
1001
GENIUS_GENOBJ-N-FIL_13
1002
{
1000
OWNER
1000
GEN
1002
}
  0
HATCH
  5
3F25
330
1F
100
AcDbEntity
  8
ｶﾞｽｹｯﾄ
100
AcDbHatch
 10
0.0
 20
0.0
 30
0.0
210
0.0
220
0.0
230
1.0
  2
SOLID
 70
     1
 71
     0
 91
        1
 92
        1
 93
        8
 72
     1
 10
271.1403523278209
 20
757.8898219160664
 11
271.1039386912885
 21
757.8898219160662
 72
     2
 10
271.1039386912885
 20
759.6898219160662
 40
1.799999999999968
 50
-270.0
 51
-180.5000000000003
 73
     0
 72
     1
 10
269.3040072297729
 20
759.6741141521688
 11
269.2810432143597
 21
762.3055296799663
 72
     2
 10
271.0809746758751
 20
762.2898219160656
 40
1.800000000000008
 50
-179.4999999998812
 51
-90.00000000000001
 73
     0
 72
     1
 10
271.0809746758751
 20
764.0898219160658
 11
271.1633163432338
 21
764.0898219160658
 72
     2
 10
271.1633163432339
 20
762.2898219160661
 40
1.800000000000096
 50
-89.99999999999641
 51
-0.5000000001120262
 73
     0
 72
     1
 10
272.9632478047492
 20
762.3055296799666
 11
272.9402837893356
 21
759.6741141521692
 72
     2
 10
271.1403523278204
 20
759.6898219160662
 40
1.799999999999633
 50
0.4999999999922847
 51
89.99999999999277
 73
     0
 97
        0
 75
     0
 76
     1
 98
        1
 10
976.6991888990682
 20
858.6189832215891
1001
GENIUS_GENODEF_13
1002
{
1000
HIER
1070
     0
1002
}
1002
{
1000
MANEDIT
1070
     0
1002
}
1002
{
1000
NOSEL
1070
     0
1002
}
1002
{
1000
BEHIND
1070
     0
1002
}
1002
{
1000
OTHER
1070
     0
1002
}
1002
{
1000
REACTOR
1002
}
1001
GENIUS_GENOBJ-N-HTC_13
1002
{
1000
OWNER
1000
GEN
1002
}
1001
GENIUS_GENHATCH_13
1002
{
1000
DATA
1040
0.0
1042
-1.0
1000
SOLID
1070
     0
1011
371.6658715772756
1021
611.2838958669745
1031
0.0
1002
}
1002
{
1000
UCS
1010
0.0
1020
0.0
1030
0.0
1010
1.0
1020
0.0
1030
0.0
1010
0.0
1020
1.0
1030
0.0
1002
}
  0
ARC
  5
3F96
330
1F
100
AcDbEntity
  8
ｴｸｽﾃﾝｼｮﾝﾌﾚｰﾑ
100
AcDbCircle
 10
272.8641291188346
 20
756.8570050291555
 30
0.0
 40
1.0
100
AcDbArc
 50
299.9999999999981
 51
359.5000000000015
1001
GENIUS_GENODEF_13
1002
{
1000
HIER
1070
     0
1002
}
1002
{
1000
MANEDIT
1070
     0
1002
}
1002
{
1000
NOSEL
1070
     0
1002
}
1002
{
1000
BEHIND
1070
     0
1002
}
1002
{
1000
OTHER
1070
     0
1002
}
1002
{
1000
REACTOR
1002
}
1001
GENIUS_GENOBJ-N-FIL_13
1002
{
1000
OWNER
1000
GEN
1002
}
  0
LINE
  5
3FAC
330
1F
100
AcDbEntity
  8
ｴｸｽﾃﾝｼｮﾝﾌﾚｰﾑ
100
AcDbLine
 10
268.5560856976565
 20
764.9898219160659
 30
0.0
 11
268.6389909416687
 21
755.4898219160659
 31
0.0
  0
LINE
  5
40AC
330
1F
100
AcDbEntity
  8
ｴｸｽﾃﾝｼｮﾝﾌﾚｰﾑ
100
AcDbLine
 10
259.7388901217899
 20
760.889821916066
 30
0.0
 11
248.9273956976565
 21
760.889821916066
 31
0.0
  0
LINE
  5
40BC
330
1F
100
AcDbEntity
  8
ｴｸｽﾃﾝｼｮﾝﾌﾚｰﾑ
100
AcDbLine
 10
257.6273956976566
 20
730.9898219160658
 30
0.0
 11
257.6273956976566
 21
709.9898219160658
 31
0.0
  0
LINE
  5
40C1
330
1F
100
AcDbEntity
  8
ｴｸｽﾃﾝｼｮﾝﾌﾚｰﾑ
100
AcDbLine
 10
257.6273956976566
 20
730.9898219160658
 30
0.0
 11
240.2273956976564
 21
730.9898219160658
 31
0.0
  0
LINE
  5
40C2
330
1F
100
AcDbEntity
  8
ｴｸｽﾃﾝｼｮﾝﾌﾚｰﾑ
100
AcDbLine
 10
256.4315856976565
 20
730.9898219160658
 30
0.0
 11
256.4315856976565
 21
760.889821916066
 31
0.0
  0
LINE
  5
40CA
330
1F
100
AcDbEntity
  8
ｴｸｽﾃﾝｼｮﾝﾌﾚｰﾑ
100
AcDbLine
 10
240.2273956976564
 20
730.9898219160658
 30
0.0
 11
240.2273956976564
 21
709.9898219160658
 31
0.0
  0
LINE
  5
40D4
330
1F
100
AcDbEntity
  8
ｴｸｽﾃﾝｼｮﾝﾌﾚｰﾑ
100
AcDbLine
 10
241.4232056976565
 20
730.9898219160658
 30
0.0
 11
241.4232056976565
 21
764.9898219160659
 31
0.0
  0
LINE
  5
40E1
330
1F
100
AcDbEntity
  8
ｴｸｽﾃﾝｼｮﾝﾌﾚｰﾑ
100
AcDbLine
 10
268.6389909416687
 20
755.4898219160659
 30
0.0
 11
259.6917650357198
 21
755.4898219160659
 31
0.0
  0
LINE
  5
40F6
330
1F
100
AcDbEntity
  8
ｴｸｽﾃﾝｼｮﾝﾌﾚｰﾑ
100
AcDbLine
 10
259.683038167929
 20
754.4898219160659
 30
0.0
 11
269.1606741040371
 21
754.4898219160659
 31
0.0
  0
LINE
  5
40F8
330
1F
100
AcDbEntity
  8
ｴｸｽﾃﾝｼｮﾝﾌﾚｰﾑ
100
AcDbLine
 10
259.683038167929
 20
754.4898219160659
 30
0.0
 11
259.2946925512403
 21
709.9898219160658
 31
0.0
  0
HATCH
  5
410F
330
1F
100
AcDbEntity
  8
AM_8
100
AcDbHatch
 10
0.0
 20
0.0
 30
0.0
210
0.0
220
0.0
230
1.0
  2
_U
 70
     0
 71
     0
 91
        1
 92
        1
 93
        8
 72
     1
 10
239.4273956976566
 20
711.4898219160659
 11
239.4273956976566
 21
709.9898219160658
 72
     1
 10
239.4273956976566
 20
709.9898219160658
 11
240.2273956976564
 21
709.9898219160658
 72
     1
 10
240.2273956976564
 20
709.9898219160658
 11
240.2273956976564
 21
730.9898219160658
 72
     1
 10
240.2273956976564
 20
730.9898219160658
 11
241.4232056976565
 21
730.9898219160658
 72
     1
 10
241.4232056976565
 20
730.9898219160658
 11
241.4232056976565
 21
764.9898219160659
 72
     1
 10
241.4232056976565
 20
764.9898219160659
 11
239.3916650641246
 21
764.9898219160659
 72
     1
 10
239.3916650641246
 20
764.9898219160659
 11
238.9273956976564
 21
711.7898219160661
 72
     1
 10
238.9273956976564
 20
711.7898219160661
 11
239.4273956976566
 21
711.4898219160659
 97
        0
 75
     0
 76
     0
 52
45.0
 41
7.5
 77
     0
 78
     1
 53
45.0
 43
-318.3479145502796
 44
-506.7038650006087
 45
-5.303300858899106
 46
5.303300858899106
 79
     0
 98
        1
 10
-318.3479145502796
 20
-506.7038650006087
1001
GENIUS_GENODEF_13
1002
{
1000
HIER
1070
     0
1002
}
1002
{
1000
MANEDIT
1070
     0
1002
}
1002
{
1000
NOSEL
1070
     0
1002
}
1002
{
1000
BEHIND
1070
     0
1002
}
1002
{
1000
OTHER
1070
     0
1002
}
1002
{
1000
REACTOR
1002
}
1001
GENIUS_GENOBJ-N-HTC_13
1002
{
1000
OWNER
1000
GEN
1002
}
1001
GENIUS_GENHATCH_13
1002
{
1000
DATA
1040
45.0
1042
2.5
1000
_U
1070
     0
1011
340.3526354031985
1021
607.7462288372653
1031
0.0
1002
}
1002
{
1000
UCS
1010
0.0
1020
0.0
1030
0.0
1010
1.0
1020
0.0
1030
0.0
1010
0.0
1020
1.0
1030
0.0
1002
}
  0
LINE
  5
416A
330
1F
100
AcDbEntity
  8
ｴｸｽﾃﾝｼｮﾝﾌﾚｰﾑ
100
AcDbLine
 10
269.1606741040371
 20
754.4898219160659
 30
0.0
 11
269.5490197207257
 21
709.9898219160658
 31
0.0
  0
LINE
  5
4177
330
1F
100
AcDbEntity
  8
ｴｸｽﾃﾝｼｮﾝﾌﾚｰﾑ
100
AcDbLine
 10
269.8490197207257
 20
709.9898219160658
 30
0.0
 11
269.8769456976561
 21
706.789821916066
 31
0.0
  0
HATCH
  5
4182
330
1F
100
AcDbEntity
  8
AM_8
100
AcDbHatch
 10
0.0
 20
0.0
 30
0.0
210
0.0
220
0.0
230
1.0
  2
_U
 70
     0
 71
     0
 91
        1
 92
        1
 93
       30
 72
     2
 10
271.1403523278205
 20
759.6898219160662
 40
1.799999999999749
 50
0.5000000000017501
 51
89.99999999999639
 73
     0
 72
     1
 10
271.1403523278207
 20
757.8898219160664
 11
271.1039386912885
 21
757.8898219160662
 72
     2
 10
271.1039386912883
 20
759.6898219160662
 40
1.799999999999954
 50
89.99999999999277
 51
179.4999999999983
 73
     0
 72
     1
 10
269.3040072297728
 20
759.6741141521688
 11
269.2593478933972
 21
764.7915672231656
 72
     2
 10
269.0593555087844
 20
764.789821916066
 40
0.2000000000000362
 50
0.5000000000305426
 51
90.0
 73
     1
 72
     1
 10
269.0593555087844
 20
764.9898219160659
 11
268.5560856976565
 21
764.9898219160659
 72
     1
 10
268.5560856976565
 20
764.9898219160659
 11
268.6389909416687
 21
755.4898219160659
 72
     1
 10
268.6389909416687
 20
755.4898219160659
 11
259.6917650357198
 21
755.4898219160659
 72
     1
 10
259.6917650357198
 20
755.4898219160659
 11
259.7388901217899
 21
760.889821916066
 72
     1
 10
259.7388901217899
 20
760.889821916066
 11
256.4315856976565
 21
760.889821916066
 72
     1
 10
256.4315856976565
 20
760.889821916066
 11
256.4315856976565
 21
730.9898219160658
 72
     1
 10
256.4315856976565
 20
730.9898219160658
 11
257.6273956976566
 21
730.9898219160658
 72
     1
 10
257.6273956976566
 20
730.9898219160658
 11
257.6273956976566
 21
709.9898219160658
 72
     1
 10
257.6273956976566
 20
709.9898219160658
 11
259.2946925512403
 21
709.9898219160658
 72
     1
 10
259.2946925512403
 20
709.9898219160658
 11
259.683038167929
 21
754.4898219160659
 72
     1
 10
259.683038167929
 20
754.4898219160659
 11
269.1606741040371
 21
754.4898219160659
 72
     1
 10
269.1606741040371
 20
754.4898219160659
 11
269.5490197207257
 21
709.9898219160658
 72
     1
 10
269.5490197207257
 20
709.9898219160658
 11
269.8490197207257
 21
709.9898219160658
 72
     1
 10
269.8490197207257
 20
709.9898219160658
 11
269.8769456976561
 21
706.7898219160658
 72
     1
 10
269.8769456976561
 20
706.789821916066
 11
270.2769456976562
 21
705.9898219160661
 72
     1
 10
270.2769456976562
 20
705.9898219160658
 11
271.4769456976565
 21
705.9898219160658
 72
     1
 10
271.4769456976565
 20
705.9898219160658
 11
271.8769456976561
 21
706.7898219160658
 72
     1
 10
271.8769456976561
 20
706.789821916066
 11
272.2994646787102
 21
755.2057016090428
 72
     2
 10
272.5994532556293
 20
755.2030836483927
 40
0.2999999999999416
 50
180.5000000000524
 51
240.000000000034
 73
     0
 72
     1
 10
272.4494532556295
 20
755.4628912695284
 11
273.3641291188346
 21
755.9909796253712
 72
     2
 10
272.8641291188345
 20
756.8570050291555
 40
1.000000000000138
 50
300.0000000000029
 51
359.4999999999954
 73
     1
 72
     1
 10
273.8640910418987
 20
756.8482784936573
 11
273.9560856976563
 21
767.3898219160662
 72
     1
 10
273.9560856976563
 20
767.389821916066
 11
273.2058799930223
 21
767.389821916066
 72
     2
 10
273.2058799930223
 20
767.1898219160661
 40
0.2000000000000455
 50
90.0
 51
179.4999999999694
 73
     1
 72
     1
 10
273.0058876084095
 20
767.1915672231657
 11
272.9402837893358
 21
759.674114152169
 97
        0
 75
     0
 76
     0
 52
45.0
 41
12.5
 77
     0
 78
     1
 53
45.0
 43
-318.3479145502796
 44
-506.7038650006087
 45
-8.838834764831844
 46
8.838834764831844
 79
     0
 98
        1
 10
-318.3479145502796
 20
-506.7038650006087
1001
GENIUS_GENOBJ-N-HTC_13
1002
{
1000
OWNER
1000
GEN
1002
}
1001
GENIUS_GENODEF_13
1002
{
1000
HIER
1070
     0
1002
}
1002
{
1000
MANEDIT
1070
     0
1002
}
1002
{
1000
NOSEL
1070
     0
1002
}
1002
{
1000
BEHIND
1070
     0
1002
}
1002
{
1000
OTHER
1070
     0
1002
}
1002
{
1000
REACTOR
1002
}
1001
GENIUS_GENHATCH_13
1002
{
1000
DATA
1040
45.0
1042
2.5
1000
_U
1070
     0
1011
357.8974336173635
1021
591.0931134262995
1031
0.0
1002
}
1002
{
1000
UCS
1010
0.0
1020
0.0
1030
0.0
1010
1.0
1020
0.0
1030
0.0
1010
0.0
1020
1.0
1030
0.0
1002
}
  0
DIMENSION
  5
42FA
330
1F
100
AcDbEntity
  8
AM_5
100
AcDbDimension
  2
*D7
 10
202.9273946876565
 20
285.2872129652841
 30
0.0
 11
193.1773946876565
 21
435.2872129652843
 31
0.0
 70
    32
 71
     5
 42
300.0000000000003
  3
AM_ISO$0
100
AcDbAlignedDimension
 13
248.9273956976565
 23
585.2872129652844
 33
0.0
 14
248.9273956976566
 24
285.2872129652841
 34
0.0
 50
90.00000000000003
100
AcDbRotatedDimension
1001
ACAD
1000
DSTYLE
1002
{
1070
    40
1040
3.0
1002
}
  0
DIMENSION
  5
4334
330
1F
100
AcDbEntity
  8
AM_5
100
AcDbDimension
  2
*D8
 10
538.9273956976567
 20
621.2872139752843
 30
0.0
 11
388.9273956976566
 21
631.0372139752843
 31
0.0
 70
    32
 71
     5
 42
300.0000000000002
  3
AM_ISO$0
100
AcDbAlignedDimension
 13
238.9273956976565
 23
575.2872129652842
 33
0.0
 14
538.9273956976567
 24
575.2872129652841
 34
0.0
100
AcDbRotatedDimension
1001
ACAD
1000
DSTYLE
1002
{
1070
    40
1040
3.0
1002
}
  0
INSERT
  5
44E8
102
{ACAD_REACTORS
330
9A8
102
}
330
1F
100
AcDbEntity
  8
0
100
AcDbBlockReference
  2
*S13
 10
0.0
 20
0.0
 30
0.0
  0
VIEWPORT
  5
186
102
{ACAD_XDICTIONARY
360
45A4
102
}
330
23
100
AcDbEntity
 67
     1
  8
0
100
AcDbViewport
 10
5.249999639556163
 20
3.999999883606677
 30
0.0
 40
14.57585398793907
 41
8.992999745766947
 68
     1
 69
     1
 12
5.249999639556163
 22
3.999999883606677
 13
0.0
 23
0.0
 14
10.0
 24
10.0
 15
10.0
 25
10.0
 16
0.0
 26
0.0
 36
1.0
 17
0.0
 27
0.0
 37
0.0
 42
50.0
 43
0.0
 44
0.0
 45
8.992999745766947
 50
0.0
 51
0.0
 72
   100
 90
    32800
  1

281
     0
 71
     1
 74
     0
110
0.0
120
0.0
130
0.0
111
1.0
121
0.0
131
0.0
112
0.0
122
1.0
132
0.0
 79
     0
146
0.0
  0
ENDSEC
  0
SECTION
  2
OBJECTS
  0
DICTIONARY
  5
C
330
0
100
AcDbDictionary
281
     1
  3
ACAD_COLOR
350
C9
  3
ACAD_GROUP
350
D
  3
ACAD_LAYOUT
350
1A
  3
ACAD_MATERIAL
350
C8
  3
ACAD_MLEADERSTYLE
350
4417
  3
ACAD_MLINESTYLE
350
17
  3
ACAD_PLOTSETTINGS
350
19
  3
ACAD_PLOTSTYLENAME
350
E
  3
ACAD_SCALELIST
350
4405
  3
ACAD_TABLESTYLE
350
BD6
  3
ACAD_VISUALSTYLE
350
43F4
  3
ACDB_RECOMPOSE_DATA
350
4483
  3
AcDbVariableDictionary
350
9E
  3
AcmDictionary
350
63
  3
AMG
350
49
  3
AMGSNAPSETTINGS
350
234
  3
DWGPROPS
350
459B
  0
DICTIONARY
  5
4484
330
8
100
AcDbDictionary
280
     1
281
     1
  0
DICTIONARY
  5
2C1
330
2
100
AcDbDictionary
280
     1
281
     1
  3
ACAD_LAYERFILTERS
360
3BE7
  3
ACAD_LAYERSTATES
360
2C2
  3
ACLYDICTIONARY
360
3BE6
  3
AMLAYER_GROUPCOLORS
360
3BD6
  0
DICTIONARY
  5
446D
330
10
100
AcDbDictionary
280
     1
281
     1
  3
ADSK_XREC_LAYER_RECONCILED
360
446E
  0
DICTIONARY
  5
446F
330
1F0
100
AcDbDictionary
280
     1
281
     1
  3
ADSK_XREC_LAYER_RECONCILED
360
4470
  0
DICTIONARY
  5
4471
330
23E
100
AcDbDictionary
280
     1
281
     1
  3
ADSK_XREC_LAYER_RECONCILED
360
4472
  0
DICTIONARY
  5
4473
330
23F
100
AcDbDictionary
280
     1
281
     1
  3
ADSK_XREC_LAYER_RECONCILED
360
4474
  0
DICTIONARY
  5
4475
330
2AD
100
AcDbDictionary
280
     1
281
     1
  3
ADSK_XREC_LAYER_RECONCILED
360
4476
  0
DICTIONARY
  5
4477
330
3A72
100
AcDbDictionary
280
     1
281
     1
  3
ADSK_XREC_LAYER_RECONCILED
360
4478
  0
DICTIONARY
  5
4479
330
3A73
100
AcDbDictionary
280
     1
281
     1
  3
ADSK_XREC_LAYER_RECONCILED
360
447A
  0
DICTIONARY
  5
447B
330
3BDA
100
AcDbDictionary
280
     1
281
     1
  3
ADSK_XREC_LAYER_RECONCILED
360
447C
  0
DICTIONARY
  5
447D
330
3BE4
100
AcDbDictionary
280
     1
281
     1
  3
ADSK_XREC_LAYER_RECONCILED
360
447E
  0
DICTIONARY
  5
447F
330
43BD
100
AcDbDictionary
280
     1
281
     1
  3
ADSK_XREC_LAYER_RECONCILED
360
4480
  0
DICTIONARY
  5
99
330
1F
100
AcDbDictionary
280
     1
281
     1
  3
ACAD_SORTENTS
360
2272
  0
DICTIONARY
  5
AF1
330
AE9
100
AcDbDictionary
280
     1
281
     1
  0
DICTIONARY
  5
B55
330
AFC
100
AcDbDictionary
280
     1
281
     1
  0
DICTIONARY
  5
45A2
330
182
100
AcDbDictionary
280
     1
281
     1
  3
ACAD_XREC_ROUNDTRIP
360
45A3
  0
DICTIONARY
  5
45A4
330
186
100
AcDbDictionary
280
     1
281
     1
  3
ACAD_XREC_ROUNDTRIP
360
45A5
  0
DICTIONARY
  5
C9
102
{ACAD_REACTORS
330
C
102
}
330
C
100
AcDbDictionary
281
     1
  0
DICTIONARY
  5
D
102
{ACAD_REACTORS
330
C
102
}
330
C
100
AcDbDictionary
281
     1
  0
DICTIONARY
  5
1A
102
{ACAD_REACTORS
330
C
102
}
330
C
100
AcDbDictionary
281
     1
  3
Model
350
22
  3
レイアウト1
350
1E
  3
レイアウト2
350
26
  0
DICTIONARY
  5
C8
102
{ACAD_REACTORS
330
C
102
}
330
C
100
AcDbDictionary
281
     1
  3
ByBlock
350
43E4
  3
ByLayer
350
43DC
  3
Global
350
43EC
  0
DICTIONARY
  5
4417
102
{ACAD_REACTORS
330
C
102
}
330
C
100
AcDbDictionary
281
     1
  3
Standard
350
4418
  0
DICTIONARY
  5
17
102
{ACAD_REACTORS
330
C
102
}
330
C
100
AcDbDictionary
281
     1
  3
Standard
350
18
  0
DICTIONARY
  5
19
102
{ACAD_REACTORS
330
C
102
}
330
C
100
AcDbDictionary
281
     1
  0
ACDBDICTIONARYWDFLT
  5
E
102
{ACAD_REACTORS
330
C
102
}
330
C
100
AcDbDictionary
281
     1
  3
Normal
350
F
100
AcDbDictionaryWithDefault
340
F
  0
DICTIONARY
  5
4405
102
{ACAD_REACTORS
330
C
102
}
330
C
100
AcDbDictionary
281
     1
  3
A0
350
4406
  3
A1
350
4407
  3
A2
350
4408
  3
A3
350
4409
  3
A4
350
440A
  3
A5
350
440B
  3
A6
350
440C
  3
A7
350
440D
  3
A8
350
440E
  3
A9
350
440F
  3
B0
350
4410
  3
B1
350
4411
  3
B2
350
4412
  3
B3
350
4413
  3
B4
350
4414
  3
B5
350
4415
  3
B6
350
4416
  0
DICTIONARY
  5
BD6
102
{ACAD_REACTORS
330
C
102
}
330
C
100
AcDbDictionary
281
     1
  3
Standard
350
BD7
  0
DICTIONARY
  5
43F4
102
{ACAD_REACTORS
330
C
102
}
330
C
100
AcDbDictionary
281
     1
  3
2dWireframe
350
43FA
  3
3D Hidden
350
43FC
  3
3dWireframe
350
43FB
  3
Basic
350
43F9
  3
Brighten
350
4400
  3
ColorChange
350
4404
  3
Conceptual
350
43FD
  3
Dim
350
43FF
  3
Facepattern
350
4403
  3
Flat
350
43F5
  3
FlatWithEdges
350
43F6
  3
Gouraud
350
43F7
  3
GouraudWithEdges
350
43F8
  3
Linepattern
350
4402
  3
Realistic
350
43FE
  3
Thicken
350
4401
  0
XRECORD
  5
4483
102
{ACAD_REACTORS
330
C
102
}
330
C
100
AcDbXrecord
280
     1
 90
        1
330
BD7
  0
DICTIONARY
  5
9E
102
{ACAD_REACTORS
330
C
102
}
330
C
100
AcDbDictionary
281
     1
  3
CANNOSCALE
350
449C
  3
CMLEADERSTYLE
350
449B
  3
CTABLESTYLE
350
C25
  3
DIMASSOC
350
A0
  3
INDEXCTL
350
9F
  3
SORTENTS
350
4599
  0
DICTIONARY
  5
63
102
{ACAD_REACTORS
330
C
102
}
330
C
100
AcDbDictionary
281
     1
  3
AcmBOM
350
9A7
  3
AcmStdDictionary
350
69
  3
AMDTSECTSYM_ARROWCOLOR
350
BE7
  0
DICTIONARY
  5
49
102
{ACAD_REACTORS
330
C
102
}
330
C
100
AcDbDictionary
281
     1
  0
DICTIONARY
  5
234
102
{ACAD_REACTORS
330
C
102
}
330
C
100
AcDbDictionary
281
     1
  0
XRECORD
  5
459B
102
{ACAD_REACTORS
330
C
102
}
330
C
100
AcDbXrecord
280
     1
  1
DWGPROPS COOKIE
  2

  3

  4

  6

  7

  8
Administrator
  9

300
AmdtFileType=84
301
=
302
=
303
=
304
=
305
=
306
=
307
=
308
=
309
=
 40
0.1365270601851852
 41
2454770.465836227
 42
2455068.667192373
  1

 90
        1
  0
DICTIONARY
  5
3BE7
102
{ACAD_REACTORS
330
2C1
102
}
330
2C1
100
AcDbDictionary
281
     1
  0
DICTIONARY
  5
2C2
102
{ACAD_REACTORS
330
2C1
102
}
330
2C1
100
AcDbDictionary
281
     1
  0
DICTIONARY
  5
3BE6
102
{ACAD_REACTORS
330
2C1
102
}
330
2C1
100
AcDbDictionary
281
     1
1001
ACAD
1000
<All
  0
DICTIONARY
  5
3BD6
102
{ACAD_REACTORS
330
2C1
102
}
330
2C1
100
AcDbDictionary
280
     1
281
     1
  0
XRECORD
  5
446E
102
{ACAD_REACTORS
330
446D
102
}
330
446D
100
AcDbXrecord
280
     1
290
     1
  0
XRECORD
  5
4470
102
{ACAD_REACTORS
330
446F
102
}
330
446F
100
AcDbXrecord
280
     1
290
     1
  0
XRECORD
  5
4472
102
{ACAD_REACTORS
330
4471
102
}
330
4471
100
AcDbXrecord
280
     1
290
     1
  0
XRECORD
  5
4474
102
{ACAD_REACTORS
330
4473
102
}
330
4473
100
AcDbXrecord
280
     1
290
     1
  0
XRECORD
  5
4476
102
{ACAD_REACTORS
330
4475
102
}
330
4475
100
AcDbXrecord
280
     1
290
     1
  0
XRECORD
  5
4478
102
{ACAD_REACTORS
330
4477
102
}
330
4477
100
AcDbXrecord
280
     1
290
     1
  0
XRECORD
  5
447A
102
{ACAD_REACTORS
330
4479
102
}
330
4479
100
AcDbXrecord
280
     1
290
     1
  0
XRECORD
  5
447C
102
{ACAD_REACTORS
330
447B
102
}
330
447B
100
AcDbXrecord
280
     1
290
     1
  0
XRECORD
  5
447E
102
{ACAD_REACTORS
330
447D
102
}
330
447D
100
AcDbXrecord
280
     1
290
     1
  0
XRECORD
  5
4480
102
{ACAD_REACTORS
330
447F
102
}
330
447F
100
AcDbXrecord
280
     1
290
     1
  0
SORTENTSTABLE
  5
2272
102
{ACAD_REACTORS
330
99
102
}
330
99
100
AcDbSortentsTable
330
1F
331
3B90
  5
3B92
331
3B51
  5
3B53
331
2F60
  5
2F63
331
2B46
  5
2B4F
331
2EBA
  5
2EBD
331
39EB
  5
39ED
331
3F96
  5
3F20
331
3B98
  5
3BF5
331
3B59
  5
3B5B
331
C54
  5
C54
331
1B02
  5
1B0C
331
2F09
  5
2F0C
331
2EC2
  5
2EC5
331
2CD4
  5
2CD7
331
2C75
  5
2C78
331
2B4E
  5
2B57
331
1B1A
  5
1B2D
331
2E63
  5
2E66
331
2F68
  5
2F6B
331
2ECA
  5
2ECD
331
2CDC
  5
2CDF
331
2C7D
  5
2C80
331
2B56
  5
2B5F
331
27A8
  5
2B3E
331
2E6B
  5
2E6E
331
2F11
  5
2F14
331
2F70
  5
2F73
331
39AC
  5
39AE
331
3B61
  5
3B63
331
39F3
  5
39F7
331
3317
  5
33CC
331
2ED2
  5
2ED5
331
2CE4
  5
2CE7
331
2C85
  5
2C88
331
16FC
  5
1708
331
2B5E
  5
2B67
331
2E73
  5
2E77
331
2F19
  5
2F1C
331
2F80
  5
2F83
331
39B4
  5
39B6
331
3B69
  5
3B6B
331
39FB
  5
39FF
331
2F21
  5
2F24
331
2CEC
  5
2CEF
331
2C8D
  5
2C90
331
28E7
  5
2B3F
331
2E7B
  5
2E7E
331
39BC
  5
39BE
331
3B71
  5
3B73
331
3A03
  5
3A08
331
352D
  5
3552
331
39C4
  5
39C6
331
3F17
  5
3F1D
331
3B32
  5
3B34
331
3A0B
  5
3A0F
331
3F1F
  5
3F26
331
2CFC
  5
2CFF
331
2C95
  5
2C98
331
2B6E
  5
2B81
331
2977
  5
2B41
331
2EE2
  5
2EE5
331
39CC
  5
39CE
331
2870
  5
1E11
331
1C22
  5
1C2E
331
2EAB
  5
2EAE
331
2EFA
  5
2EFD
331
36FD
  5
3729
331
3B3A
  5
3B3C
331
3A13
  5
3A17
331
31A0
  5
3321
331
2F02
  5
2F05
331
2E5C
  5
2E5F
331
2C6E
  5
2C71
331
1AF3
  5
1B02
331
2B3F
  5
2B48
331
2CC5
  5
2CC8
331
2EB3
  5
2EB6
331
2F59
  5
2F5C
331
39D4
  5
39E9
331
3B89
  5
3B8B
331
3B91
  5
3B93
331
3B52
  5
3B54
331
2F61
  5
2F64
331
2CCD
  5
2CD0
331
2B47
  5
2B50
331
2EBB
  5
2EBE
331
39EC
  5
39EE
331
40F6
  5
4109
331
3B5A
  5
3B5C
331
342F
  5
34A1
331
39A5
  5
39A7
331
1C32
  5
1E04
331
1B03
  5
1B13
331
2F69
  5
2F6C
331
2F0A
  5
2F0D
331
2CD5
  5
2CD8
331
2C76
  5
2C79
331
2B4F
  5
2B58
331
2E64
  5
2E67
331
2EC3
  5
2EC6
331
2F71
  5
2F74
331
2CDD
  5
2CE0
331
2C7E
  5
2C81
331
2B57
  5
2B60
331
2E6C
  5
2E6F
331
2ECB
  5
2ECE
331
2F12
  5
2F15
331
39AD
  5
39AF
331
3BD9
  5
3BF6
331
3B62
  5
3B64
331
3A9B
  5
3B2D
331
39F4
  5
39F8
331
2F81
  5
2F84
331
2CE5
  5
2CE8
331
2C86
  5
2C89
331
2B5F
  5
2B68
331
2ED3
  5
2ED6
331
2F1A
  5
2F1D
331
39B5
  5
39B7
331
3B6A
  5
3B6C
331
39BD
  5
39BF
331
2F22
  5
2F25
331
2CED
  5
2CF0
331
2C8E
  5
2C92
331
2E7C
  5
2E7F
331
39FC
  5
3A00
331
3B72
  5
3B74
331
39C5
  5
39C7
331
34A7
  5
34DA
331
352E
  5
3592
331
3F18
  5
3F1E
331
3B33
  5
3B35
331
3A0C
  5
3A10
331
3F20
  5
3F32
331
2F4A
  5
2F4D
331
2C96
  5
2C99
331
2B6F
  5
2B82
331
2841
  5
1E10
331
2CFD
  5
2D00
331
2EE3
  5
2EE6
331
2EFB
  5
2EFE
331
1A85
  5
1A86
331
1C23
  5
1C30
331
2EAC
  5
2EAF
331
36FE
  5
372A
331
39CD
  5
39CF
331
3B3B
  5
3B3D
331
3A14
  5
3A18
331
2F03
  5
2F06
331
2E5D
  5
2E60
331
2C6F
  5
2C72
331
2B40
  5
2B49
331
2CC6
  5
2CC9
331
2EB4
  5
2EB7
331
2F5A
  5
2F5D
331
39D5
  5
39EA
331
3B8A
  5
3B8C
331
3B92
  5
3B94
331
3B53
  5
3B55
331
34BF
  5
34EF
331
2F62
  5
2F65
331
2CCE
  5
2CD1
331
2EBC
  5
2EBF
331
39ED
  5
39EF
331
3A74
  5
3A7A
331
39A6
  5
39A8
331
3B5B
  5
3B5D
331
410F
  5
416A
331
2B48
  5
2B51
331
C56
  5
C56
331
1C33
  5
1E0E
331
2F6A
  5
2F6D
331
2F0B
  5
2F0E
331
2EC4
  5
2EC7
331
2C77
  5
2C7A
331
2B50
  5
2B59
331
1E03
  5
1E27
331
2CD6
  5
2CD9
331
2E65
  5
2E68
331
34CF
  5
352B
331
2F72
  5
2F75
331
2ECC
  5
2ECF
331
2CDE
  5
2CE1
331
16EE
  5
16EE
331
2B58
  5
2B61
331
2C7F
  5
2C82
331
2E6D
  5
2E70
331
2F13
  5
2F16
331
39AE
  5
39B0
331
3B63
  5
3B65
331
39F5
  5
39F9
331
2F82
  5
2F85
331
2ED4
  5
2ED7
331
2CE6
  5
2CE9
331
2B60
  5
2B69
331
27DA
  5
1ACA
331
2C87
  5
2C8A
331
2E75
  5
2E78
331
2F1B
  5
2F1F
331
39B6
  5
39B8
331
3B6B
  5
3B6D
331
39FD
  5
3A01
331
3321
  5
3256
331
2F23
  5
2F26
331
2CEE
  5
2CF1
331
2E7D
  5
2E80
331
39BE
  5
39C1
331
3F11
  5
3F16
331
3B73
  5
3B75
331
3A05
  5
3A09
331
39C6
  5
39C8
331
3F19
  5
3F1F
331
4177
  5
3F1B
331
3B34
  5
3B36
331
3A0D
  5
3A11
331
1AD5
  5
1AD7
331
1B7C
  5
1B8A
331
2F4B
  5
2F4E
331
2CFE
  5
2D09
331
2C97
  5
2C9A
331
2979
  5
2B42
331
1C0C
  5
1C1B
331
1AE5
  5
1AED
331
2B70
  5
2B84
331
2EE4
  5
2EE7
331
2EFC
  5
2EFF
331
1C24
  5
1C31
331
1AED
  5
1AF3
331
2EAD
  5
2EB0
331
39CE
  5
39D0
331
3B3C
  5
3B3E
331
3A15
  5
3A19
331
31A2
  5
3322
331
2F04
  5
2F07
331
2E5E
  5
2E61
331
2B41
  5
2B4A
331
2CC7
  5
2CCA
331
2EB5
  5
2EB8
331
2F5B
  5
2F5E
331
3401
  5
3435
331
3B8B
  5
3B8D
331
3B93
  5
3B95
331
3B54
  5
3B56
331
2F63
  5
2F66
331
2CCF
  5
2CD2
331
2EBD
  5
2EC0
331
39EE
  5
39F2
331
40F8
  5
3F0F
331
3B5C
  5
3B5E
331
39A7
  5
39A9
331
2C70
  5
2C73
331
2B49
  5
2B52
331
2F6B
  5
2F6E
331
2F0C
  5
2F0F
331
2EC5
  5
2EC8
331
2CD7
  5
2CDA
331
2C78
  5
2C7B
331
2B51
  5
2B5A
331
1B1D
  5
1B2E
331
27A3
  5
1B79
331
2E66
  5
2E69
331
2F73
  5
2F76
331
2ECD
  5
2ED0
331
2CDF
  5
2CE2
331
2C80
  5
2C83
331
1B2D
  5
1B30
331
2B59
  5
2B62
331
2E6E
  5
2E71
331
2F14
  5
2F17
331
39AF
  5
39B1
331
3B64
  5
3B66
331
39F6
  5
39FA
331
2F83
  5
2F86
331
2ED5
  5
2ED8
331
2C88
  5
2C8B
331
1B4D
  5
1B66
331
2B61
  5
2B6A
331
2CE7
  5
2CEA
331
2E76
  5
2E79
331
39B7
  5
39B9
331
40C1
  5
40C1
331
3B6C
  5
3B6E
331
39FE
  5
3A02
331
34A1
  5
34D7
331
2CEF
  5
2CFA
331
2E7E
  5
2E81
331
39BF
  5
39C2
331
3B74
  5
3B76
331
3B2D
  5
3B2F
331
3A06
  5
3A0A
331
39C7
  5
39C9
331
3F1A
  5
3F21
331
3B35
  5
3B37
331
3A0E
  5
3A12
331
3F22
  5
3F3C
331
40E1
  5
40F7
331
1AD6
  5
1ADF
331
2C90
  5
2C93
331
33DA
  5
3430
331
2F4C
  5
2F4F
331
2C98
  5
2C9B
331
1C0D
  5
1C1F
331
2B71
  5
2B85
331
2EE5
  5
2EE8
331
2EFD
  5
2F00
331
1C25
  5
1C33
331
2E57
  5
2E5A
331
2EAE
  5
2EB1
331
3728
  5
375B
331
39CF
  5
39D1
331
3B3D
  5
3B3F
331
3A16
  5
3A21
331
34B9
  5
34E4
331
2F05
  5
2F08
331
2E5F
  5
2E62
331
2CC8
  5
2CCB
331
2B42
  5
2B4B
331
2EB6
  5
2EB9
331
2F5C
  5
2F5F
331
3B8C
  5
3B8E
331
3B94
  5
3B96
331
3B55
  5
3B57
331
2F64
  5
2F67
331
2EBE
  5
2EC1
331
39EF
  5
39F3
331
3B5D
  5
3B5F
331
2CD0
  5
2CD3
331
2C71
  5
2C74
331
2B4A
  5
2B53
331
1C35
  5
1E0F
331
1AA7
  5
1AAF
331
28A3
  5
1C15
331
2F6C
  5
2F6F
331
2F0D
  5
2F10
331
2EC6
  5
2EC9
331
2CD8
  5
2CDB
331
2C79
  5
2C7C
331
1AAF
  5
1AB0
331
2B52
  5
2B5B
331
2E67
  5
2E6A
331
39A8
  5
39AA
331
2F74
  5
2F77
331
2ECE
  5
2ED1
331
2CE0
  5
2CE3
331
2C81
  5
2C84
331
2B5A
  5
2B63
331
28B3
  5
1C18
331
2E6F
  5
2E72
331
2F15
  5
2F18
331
39B0
  5
39B2
331
3B65
  5
3B67
331
39F7
  5
39FB
331
2F84
  5
2F87
331
2ED6
  5
2ED9
331
2CE8
  5
2CEB
331
2C89
  5
2C8C
331
1E6D
  5
1E91
331
2B62
  5
2B6B
331
2E77
  5
2E7A
331
2F1D
  5
2F20
331
39B8
  5
39BA
331
40C2
  5
40CA
331
3B6D
  5
3B6F
331
39FF
  5
3A03
331
2E7F
  5
2E82
331
40CA
  5
40E1
331
3B2E
  5
3B30
331
3A07
  5
3A0B
331
3B36
  5
3B38
331
3A0F
  5
3A13
331
3F23
  5
3F96
331
1708
  5
170B
331
2CF8
  5
2CFB
331
1AD7
  5
1AE5
331
2C91
  5
2C94
331
2F4D
  5
2F50
331
2C99
  5
2C9C
331
2B72
  5
2C06
331
297B
  5
2B43
331
2EE6
  5
2EE9
331
36F9
  5
36FC
331
39C8
  5
39CA
331
2F55
  5
2F58
331
2EFE
  5
2F01
331
2E58
  5
2E5B
331
2EAF
  5
2EB2
331
3729
  5
39A5
331
39D0
  5
39D2
331
3B3E
  5
3B40
331
3A17
  5
3A27
331
2F06
  5
2F09
331
2B43
  5
2B4C
331
2EB7
  5
2EBA
331
2F5D
  5
2F60
331
3B8D
  5
3B8F
331
3B95
  5
3B97
331
2F65
  5
2F68
331
2EBF
  5
2EC2
331
3B56
  5
3B58
331
3B5E
  5
3B60
331
2CD1
  5
2CD4
331
2C72
  5
2C75
331
1C36
  5
1E12
331
2B4B
  5
2B54
331
2E60
  5
2E63
331
3433
  5
1E3E
331
2F6D
  5
2F70
331
2F0E
  5
2F11
331
2EC7
  5
2ECA
331
2CD9
  5
2CDC
331
2C7A
  5
2C7D
331
2B53
  5
2B5C
331
2E68
  5
2E6B
331
39A9
  5
39AB
331
39F0
  5
39F4
331
2F75
  5
2F78
331
2ECF
  5
2ED2
331
2CE1
  5
2CE4
331
2C82
  5
2C85
331
2B5B
  5
2B64
331
2E70
  5
2E73
331
2F16
  5
2F1A
331
39B1
  5
39B3
331
3B66
  5
3B68
331
39F8
  5
39FC
331
349B
  5
34D4
331
2F85
  5
2F88
331
2CE9
  5
2CEC
331
2C8A
  5
2C8D
331
2B63
  5
2B7E
331
2E78
  5
2E7C
331
2ED7
  5
2EDA
331
2F1E
  5
2F21
331
39B9
  5
39BB
331
3A9F
  5
3B2E
331
416A
  5
4172
331
3B6E
  5
3B70
331
3A00
  5
3A05
331
39C1
  5
39C3
331
3F14
  5
3F18
331
4182
  5
4181
331
3BF5
  5
3BF7
331
3B2F
  5
3B31
331
3A08
  5
3A0C
331
3F1C
  5
3F22
331
3B37
  5
3B39
331
3F24
  5
3FB0
331
2CF9
  5
2CFC
331
2C92
  5
2C95
331
1EBE
  5
1F97
331
2E80
  5
2E83
331
2F4E
  5
2F51
331
2C9A
  5
2C9D
331
2EE7
  5
2EF4
331
36FA
  5
36FD
331
39C9
  5
39CB
331
3A10
  5
3A14
331
316D
  5
32C5
331
2F56
  5
2F59
331
2EFF
  5
2F02
331
2E59
  5
2E5C
331
2CC2
  5
2CC5
331
2B3C
  5
2B45
331
2EB0
  5
2EB3
331
34B3
  5
34DF
331
39D1
  5
39D3
331
3D55
  5
3E0F
331
3A18
  5
3A51
331
2F07
  5
2F0A
331
2B44
  5
2B4D
331
2EB8
  5
2EBB
331
2F5E
  5
2F61
331
39E9
  5
39EB
331
3B8E
  5
3B90
331
3B96
  5
3B98
331
2F66
  5
2F69
331
3B57
  5
3B59
331
3FAC
  5
40AD
331
3B5F
  5
3B61
331
40AC
  5
40C2
331
40BC
  5
40D4
331
2EC0
  5
2EC3
331
2CD2
  5
2CD5
331
2C73
  5
2C76
331
2B4C
  5
2B55
331
1C37
  5
1E19
331
2E61
  5
2E64
331
2F6E
  5
2F71
331
2EC8
  5
2ECB
331
2CDA
  5
2CDD
331
2C7B
  5
2C7E
331
2B54
  5
2B5D
331
28AD
  5
16FC
331
1AB1
  5
1AB8
331
2E69
  5
2E6C
331
2F0F
  5
2F12
331
39AA
  5
39AC
331
39F1
  5
39F5
331
2F76
  5
2F79
331
2ED0
  5
2ED3
331
2CE2
  5
2CE5
331
2C83
  5
2C86
331
2B5C
  5
2B65
331
1E67
  5
1E8E
331
2E71
  5
2E74
331
39B2
  5
39B4
331
39F9
  5
39FD
331
331D
  5
342F
331
2F86
  5
2F91
331
2CEA
  5
2CED
331
2C8B
  5
2C8E
331
2ED8
  5
2EE3
331
2F1F
  5
2F22
331
34EB
  5
352C
331
39BA
  5
39BC
331
3B67
  5
3B69
331
3F0D
  5
3F12
331
3B6F
  5
3B71
331
3A01
  5
3A06
331
352B
  5
352D
331
39C2
  5
39C4
331
3F15
  5
3F19
331
40D4
  5
40E2
331
3BF6
  5
3C05
331
3A09
  5
3A0D
331
3B30
  5
3B32
331
3F1D
  5
3F23
331
3B87
  5
3B89
331
3C06
  5
3D77
331
3F25
  5
4013
331
2CFA
  5
2CFD
331
2C93
  5
2C97
331
2B6C
  5
2B7F
331
1A7A
  5
1A7B
331
2806
  5
1AF4
331
2C9B
  5
2C9E
331
297D
  5
2B44
331
2F4F
  5
2F52
331
36FB
  5
36FE
331
39CA
  5
39CC
331
3B38
  5
3B3A
331
3A11
  5
3A15
331
2F00
  5
2F03
331
2E5A
  5
2E5D
331
2CC3
  5
2CC6
331
1AF1
  5
1B01
331
2B3D
  5
2B46
331
2EB1
  5
2EB4
331
2F57
  5
2F5A
331
39D2
  5
39D4
331
3A19
  5
3A52
331
39EA
  5
39EC
331
2B45
  5
2B4E
331
2EB9
  5
2EBC
331
2F5F
  5
2F62
331
37DB
  5
3401
331
3B8F
  5
3B91
331
3B97
  5
3BD7
331
342D
  5
3495
331
2F67
  5
2F6A
331
3B58
  5
3B5A
331
3A79
  5
3A9B
331
3EF6
  5
3F02
331
1B01
  5
1B0B
331
2F08
  5
2F0B
331
2EC1
  5
2EC4
331
2CD3
  5
2CD6
331
2C74
  5
2C77
331
2B4D
  5
2B56
331
2E62
  5
2E65
331
3435
  5
1E98
331
321E
  5
331F
331
2F6F
  5
2F72
331
2EC9
  5
2ECC
331
2CDB
  5
2CDE
331
2C7C
  5
2C7F
331
2B55
  5
2B5E
331
1E60
  5
1E83
331
2E6A
  5
2E6D
331
2F10
  5
2F13
331
39AB
  5
39AD
331
3B60
  5
3B62
331
39F2
  5
39F6
331
3495
  5
34BF
331
2F77
  5
2F82
331
2ED1
  5
2ED4
331
2CE3
  5
2CE6
331
2C84
  5
2C87
331
2B5D
  5
2B66
331
1ACA
  5
1AD6
331
2E72
  5
2E75
331
2F18
  5
2F1B
331
34D4
  5
34AD
331
39B3
  5
39B5
331
3B68
  5
3B6A
331
39FA
  5
39FE
331
2F20
  5
2F23
331
2CEB
  5
2CEE
331
2C8C
  5
2C8F
331
2E7A
  5
2E7D
331
39BB
  5
39BD
331
3F0E
  5
3F15
331
3B70
  5
3B72
331
3A02
  5
3A07
331
352C
  5
352E
331
30AF
  5
321E
331
39C3
  5
39C5
331
3BF7
  5
3D55
331
3B31
  5
3B33
331
3A0A
  5
3A0E
331
3F1E
  5
3F25
331
170B
  5
1A7A
331
2CFB
  5
2CFE
331
1A7B
  5
1A7C
331
2B6D
  5
2B80
331
2EE1
  5
2EE4
331
39CB
  5
39CD
331
30C7
  5
32C4
331
2F50
  5
2F53
331
297E
  5
2B40
331
2EAA
  5
2EAD
331
34AD
  5
34DC
331
36FC
  5
3728
331
3B39
  5
3B3B
331
3A12
  5
3A16
331
33F6
  5
3433
331
2F01
  5
2F04
331
2E5B
  5
2E5E
331
2C6D
  5
2C70
331
2B3E
  5
2B47
331
2CC4
  5
2CC7
331
2EB2
  5
2EB5
331
2F58
  5
2F5B
331
39D3
  5
39D5
331
3B88
  5
3B8A
  0
XRECORD
  5
45A3
102
{ACAD_REACTORS
330
45A2
102
}
330
45A2
100
AcDbXrecord
280
     1
102
SHADEPLOT
 70
     0
  0
XRECORD
  5
45A5
102
{ACAD_REACTORS
330
45A4
102
}
330
45A4
100
AcDbXrecord
280
     1
102
SHADEPLOT
 70
     0
  0
LAYOUT
  5
22
102
{ACAD_XDICTIONARY
360
459E
102
}
102
{ACAD_REACTORS
330
1A
102
}
330
1A
100
AcDbPlotSettings
  1

  2
RICOH IPSiO CX7200 RPCS
  4
A3
  6
AM_VIEW1
 40
5.873749732971191
 41
5.873747825622558
 42
5.873748779296875
 43
5.873748779296875
 44
296.9259948730469
 45
419.9466552734374
 46
2.589999999999999
 47
4.099999999999999
 48
10.00000000000003
 49
0.0
140
410.0
141
280.0
142
1.0
143
1.0
 70
 11956
 72
     1
 73
     1
 74
     4
  7
takachi-2.ctb
 75
    16
147
1.0
148
-10.00000000000003
149
0.0
100
AcDbLayout
  1
Model
 70
     1
 71
     0
 10
0.0
 20
0.0
 11
12.0
 21
9.0
 12
0.0
 22
0.0
 32
0.0
 14
0.0
 24
0.0
 34
0.0
 15
0.0
 25
0.0
 35
0.0
146
0.0
 13
0.0
 23
0.0
 33
0.0
 16
1.0
 26
0.0
 36
0.0
 17
0.0
 27
1.0
 37
0.0
 76
     0
330
1F
331
43DA
  0
LAYOUT
  5
1E
102
{ACAD_XDICTIONARY
360
459C
102
}
102
{ACAD_REACTORS
330
1A
102
}
330
1A
100
AcDbPlotSettings
  1

  2
none_device
  4
Letter_(8.50_x_11.00_Inches)
  6

 40
6.349999904632568
 41
6.349999904632568
 42
6.350006103515625
 43
6.350006103515625
 44
215.8999938964844
 45
279.3999938964844
 46
0.0
 47
0.0
 48
0.0
 49
0.0
140
0.0
141
0.0
142
1.0
143
1.0
 70
   688
 72
     0
 73
     1
 74
     5
  7
takachi-2.ctb
 75
    16
147
1.0
148
0.0
149
0.0
100
AcDbLayout
  1
レイアウト1
 70
     1
 71
     1
 10
-0.2500002402958907
 20
-0.2499999962453767
 11
10.74999951940821
 21
8.249999763458731
 12
0.0
 22
0.0
 32
0.0
 14
1.000000000000000E+20
 24
1.000000000000000E+20
 34
1.000000000000000E+20
 15
-1.000000000000000E+20
 25
-1.000000000000000E+20
 35
-1.000000000000000E+20
146
0.0
 13
0.0
 23
0.0
 33
0.0
 16
1.0
 26
0.0
 36
0.0
 17
0.0
 27
1.0
 37
0.0
 76
     0
330
1B
331
182
  0
LAYOUT
  5
26
102
{ACAD_XDICTIONARY
360
45A0
102
}
102
{ACAD_REACTORS
330
1A
102
}
330
1A
100
AcDbPlotSettings
  1

  2
none_device
  4
Letter_(8.50_x_11.00_Inches)
  6

 40
6.349999904632568
 41
6.349999904632568
 42
6.350006103515625
 43
6.350006103515625
 44
215.8999938964844
 45
279.3999938964844
 46
0.0
 47
0.0
 48
0.0
 49
0.0
140
0.0
141
0.0
142
1.0
143
1.0
 70
   688
 72
     0
 73
     1
 74
     5
  7
takachi-2.ctb
 75
    16
147
1.0
148
0.0
149
0.0
100
AcDbLayout
  1
レイアウト2
 70
     1
 71
     2
 10
-0.2500002402958907
 20
-0.2499999962453767
 11
10.74999951940821
 21
8.249999763458731
 12
0.0
 22
0.0
 32
0.0
 14
1.000000000000000E+20
 24
1.000000000000000E+20
 34
1.000000000000000E+20
 15
-1.000000000000000E+20
 25
-1.000000000000000E+20
 35
-1.000000000000000E+20
146
0.0
 13
0.0
 23
0.0
 33
0.0
 16
1.0
 26
0.0
 36
0.0
 17
0.0
 27
1.0
 37
0.0
 76
     0
330
23
331
186
  0
MATERIAL
  5
43E4
102
{ACAD_XDICTIONARY
360
43E5
102
}
102
{ACAD_REACTORS
330
C8
102
}
330
C8
100
AcDbMaterial
  1
ByBlock
 72
     0
 43
0.0008202099737533
 43
0.0
 43
0.0
 43
0.0
 43
0.0
 43
0.0008202099737533
 43
0.0
 43
0.0
 43
0.0
 43
0.0
 43
1.0
 43
0.0
 43
0.0
 43
0.0
 43
0.0
 43
1.0
 77
     0
 47
0.0008202099737533
 47
0.0
 47
0.0
 47
0.0
 47
0.0
 47
0.0008202099737533
 47
0.0
 47
0.0
 47
0.0
 47
0.0
 47
1.0
 47
0.0
 47
0.0
 47
0.0
 47
0.0
 47
1.0
171
     0
 49
0.0008202099737533
 49
0.0
 49
0.0
 49
0.0
 49
0.0
 49
0.0008202099737533
 49
0.0
 49
0.0
 49
0.0
 49
0.0
 49
1.0
 49
0.0
 49
0.0
 49
0.0
 49
0.0
 49
1.0
175
     0
142
0.0008202099737533
142
0.0
142
0.0
142
0.0
142
0.0
142
0.0008202099737533
142
0.0
142
0.0
142
0.0
142
0.0
142
1.0
142
0.0
142
0.0
142
0.0
142
0.0
142
1.0
179
     0
144
0.0008202099737533
144
0.0
144
0.0
144
0.0
144
0.0
144
0.0008202099737533
144
0.0
144
0.0
144
0.0
144
0.0
144
1.0
144
0.0
144
0.0
144
0.0
144
0.0
144
1.0
147
0.0008202099737533
147
0.0
147
0.0
147
0.0
147
0.0
147
0.0008202099737533
147
0.0
147
0.0
147
0.0
147
0.0
147
1.0
147
0.0
147
0.0
147
0.0
147
0.0
147
1.0
  0
MATERIAL
  5
43DC
102
{ACAD_XDICTIONARY
360
43DD
102
}
102
{ACAD_REACTORS
330
C8
102
}
330
C8
100
AcDbMaterial
  1
ByLayer
 72
     0
 43
0.0008202099737533
 43
0.0
 43
0.0
 43
0.0
 43
0.0
 43
0.0008202099737533
 43
0.0
 43
0.0
 43
0.0
 43
0.0
 43
1.0
 43
0.0
 43
0.0
 43
0.0
 43
0.0
 43
1.0
 77
     0
 47
0.0008202099737533
 47
0.0
 47
0.0
 47
0.0
 47
0.0
 47
0.0008202099737533
 47
0.0
 47
0.0
 47
0.0
 47
0.0
 47
1.0
 47
0.0
 47
0.0
 47
0.0
 47
0.0
 47
1.0
171
     0
 49
0.0008202099737533
 49
0.0
 49
0.0
 49
0.0
 49
0.0
 49
0.0008202099737533
 49
0.0
 49
0.0
 49
0.0
 49
0.0
 49
1.0
 49
0.0
 49
0.0
 49
0.0
 49
0.0
 49
1.0
175
     0
142
0.0008202099737533
142
0.0
142
0.0
142
0.0
142
0.0
142
0.0008202099737533
142
0.0
142
0.0
142
0.0
142
0.0
142
1.0
142
0.0
142
0.0
142
0.0
142
0.0
142
1.0
179
     0
144
0.0008202099737533
144
0.0
144
0.0
144
0.0
144
0.0
144
0.0008202099737533
144
0.0
144
0.0
144
0.0
144
0.0
144
1.0
144
0.0
144
0.0
144
0.0
144
0.0
144
1.0
147
0.0008202099737533
147
0.0
147
0.0
147
0.0
147
0.0
147
0.0008202099737533
147
0.0
147
0.0
147
0.0
147
0.0
147
1.0
147
0.0
147
0.0
147
0.0
147
0.0
147
1.0
  0
MATERIAL
  5
43EC
102
{ACAD_XDICTIONARY
360
43ED
102
}
102
{ACAD_REACTORS
330
C8
102
}
330
C8
100
AcDbMaterial
  1
Global
 72
     0
 43
0.0008202099737533
 43
0.0
 43
0.0
 43
0.0
 43
0.0
 43
0.0008202099737533
 43
0.0
 43
0.0
 43
0.0
 43
0.0
 43
1.0
 43
0.0
 43
0.0
 43
0.0
 43
0.0
 43
1.0
 77
     0
 47
0.0008202099737533
 47
0.0
 47
0.0
 47
0.0
 47
0.0
 47
0.0008202099737533
 47
0.0
 47
0.0
 47
0.0
 47
0.0
 47
1.0
 47
0.0
 47
0.0
 47
0.0
 47
0.0
 47
1.0
171
     0
 49
0.0008202099737533
 49
0.0
 49
0.0
 49
0.0
 49
0.0
 49
0.0008202099737533
 49
0.0
 49
0.0
 49
0.0
 49
0.0
 49
1.0
 49
0.0
 49
0.0
 49
0.0
 49
0.0
 49
1.0
175
     0
142
0.0008202099737533
142
0.0
142
0.0
142
0.0
142
0.0
142
0.0008202099737533
142
0.0
142
0.0
142
0.0
142
0.0
142
1.0
142
0.0
142
0.0
142
0.0
142
0.0
142
1.0
179
     0
144
0.0008202099737533
144
0.0
144
0.0
144
0.0
144
0.0
144
0.0008202099737533
144
0.0
144
0.0
144
0.0
144
0.0
144
1.0
144
0.0
144
0.0
144
0.0
144
0.0
144
1.0
147
0.0008202099737533
147
0.0
147
0.0
147
0.0
147
0.0
147
0.0008202099737533
147
0.0
147
0.0
147
0.0
147
0.0
147
1.0
147
0.0
147
0.0
147
0.0
147
0.0
147
1.0
  0
MLEADERSTYLE
  5
4418
102
{ACAD_REACTORS
330
4417
102
}
330
4417
100
AcDbMLeaderStyle
170
     2
171
     1
172
     0
 90
        2
 40
0.0
 41
0.0
173
     1
 91
-1056964608
340
14
 92
       -2
290
     1
 42
2.0
291
     1
 43
0.36
  3
Standard
 44
4.0
300

342
11
174
     1
178
     6
175
     1
176
     0
 93
-1056964608
 45
4.0
292
     0
297
     0
 46
4.0
 94
-1056964608
 47
1.0
 49
1.0
140
1.0
293
     1
141
0.0
294
     1
177
     0
142
1.0
295
     0
296
     0
143
0.125
1001
ACAD_MLEADERVER
1070
     2
  0
MLINESTYLE
  5
18
102
{ACAD_REACTORS
330
17
102
}
330
17
100
AcDbMlineStyle
  2
STANDARD
 70
     0
  3

 62
   256
 51
90.0
 52
90.0
 71
     2
 49
0.5
 62
   256
  6
BYLAYER
 49
-0.5
 62
   256
  6
BYLAYER
  0
ACDBPLACEHOLDER
  5
F
102
{ACAD_REACTORS
330
E
102
}
330
E
  0
SCALE
  5
4406
102
{ACAD_REACTORS
330
4405
102
}
330
4405
100
AcDbScale
 70
     0
300
1:1
140
1.0
141
1.0
290
     1
  0
SCALE
  5
4407
102
{ACAD_REACTORS
330
4405
102
}
330
4405
100
AcDbScale
 70
     0
300
1:2
140
1.0
141
2.0
290
     0
  0
SCALE
  5
4408
102
{ACAD_REACTORS
330
4405
102
}
330
4405
100
AcDbScale
 70
     0
300
1:4
140
1.0
141
4.0
290
     0
  0
SCALE
  5
4409
102
{ACAD_REACTORS
330
4405
102
}
330
4405
100
AcDbScale
 70
     0
300
1:5
140
1.0
141
5.0
290
     0
  0
SCALE
  5
440A
102
{ACAD_REACTORS
330
4405
102
}
330
4405
100
AcDbScale
 70
     0
300
1:8
140
1.0
141
8.0
290
     0
  0
SCALE
  5
440B
102
{ACAD_REACTORS
330
4405
102
}
330
4405
100
AcDbScale
 70
     0
300
1:10
140
1.0
141
10.0
290
     0
  0
SCALE
  5
440C
102
{ACAD_REACTORS
330
4405
102
}
330
4405
100
AcDbScale
 70
     0
300
1:16
140
1.0
141
16.0
290
     0
  0
SCALE
  5
440D
102
{ACAD_REACTORS
330
4405
102
}
330
4405
100
AcDbScale
 70
     0
300
1:20
140
1.0
141
20.0
290
     0
  0
SCALE
  5
440E
102
{ACAD_REACTORS
330
4405
102
}
330
4405
100
AcDbScale
 70
     0
300
1:30
140
1.0
141
30.0
290
     0
  0
SCALE
  5
440F
102
{ACAD_REACTORS
330
4405
102
}
330
4405
100
AcDbScale
 70
     0
300
1:40
140
1.0
141
40.0
290
     0
  0
SCALE
  5
4410
102
{ACAD_REACTORS
330
4405
102
}
330
4405
100
AcDbScale
 70
     0
300
1:50
140
1.0
141
50.0
290
     0
  0
SCALE
  5
4411
102
{ACAD_REACTORS
330
4405
102
}
330
4405
100
AcDbScale
 70
     0
300
1:100
140
1.0
141
100.0
290
     0
  0
SCALE
  5
4412
102
{ACAD_REACTORS
330
4405
102
}
330
4405
100
AcDbScale
 70
     0
300
2:1
140
2.0
141
1.0
290
     0
  0
SCALE
  5
4413
102
{ACAD_REACTORS
330
4405
102
}
330
4405
100
AcDbScale
 70
     0
300
4:1
140
4.0
141
1.0
290
     0
  0
SCALE
  5
4414
102
{ACAD_REACTORS
330
4405
102
}
330
4405
100
AcDbScale
 70
     0
300
8:1
140
8.0
141
1.0
290
     0
  0
SCALE
  5
4415
102
{ACAD_REACTORS
330
4405
102
}
330
4405
100
AcDbScale
 70
     0
300
10:1
140
10.0
141
1.0
290
     0
  0
SCALE
  5
4416
102
{ACAD_REACTORS
330
4405
102
}
330
4405
100
AcDbScale
 70
     0
300
100:1
140
100.0
141
1.0
290
     0
  0
TABLESTYLE
  5
BD7
102
{ACAD_XDICTIONARY
360
4481
102
}
102
{ACAD_REACTORS
330
BD6
102
}
330
BD6
100
AcDbTableStyle
  3
Standard
 70
     0
 71
     0
 40
1.5
 41
1.5
280
     0
281
     0
  7
STANDARD
140
4.5
170
     2
 62
     0
 63
     7
283
     0
274
    -2
284
     1
 64
     0
275
    -2
285
     1
 65
     0
276
    -2
286
     1
 66
     0
277
    -2
287
     1
 67
     0
278
    -2
288
     1
 68
     0
279
    -2
289
     1
 69
     0
  7
STANDARD
140
6.0
170
     5
 62
     0
 63
     7
283
     0
274
    -2
284
     1
 64
     0
275
    -2
285
     1
 65
     0
276
    -2
286
     1
 66
     0
277
    -2
287
     1
 67
     0
278
    -2
288
     1
 68
     0
279
    -2
289
     1
 69
     0
  7
STANDARD
140
4.5
170
     5
 62
     0
 63
     7
283
     0
274
    -2
284
     1
 64
     0
275
    -2
285
     1
 65
     0
276
    -2
286
     1
 66
     0
277
    -2
287
     1
 67
     0
278
    -2
288
     1
 68
     0
279
    -2
289
     1
 69
     0
  0
VISUALSTYLE
  5
43FA
102
{ACAD_REACTORS
330
43F4
102
}
330
43F4
100
AcDbVisualStyle
  2
2dWireframe
 70
     4
 71
     0
 72
     2
 73
     0
 90
        0
 40
-0.6
 41
-30.0
 62
     5
 63
     7
 74
     1
 91
        4
 64
     7
 65
   257
 75
     1
175
     1
 42
1.0
 92
        0
 66
   257
 43
1.0
 76
     1
 77
     6
 78
     2
 67
     7
 79
     5
170
     0
171
     0
290
     0
174
     0
 93
        1
 44
0.0
173
     0
291
     0
 45
0.0
1001
ACAD
1000
AcDbSavedByObjectVersion
1070
     0
  0
VISUALSTYLE
  5
43FC
102
{ACAD_REACTORS
330
43F4
102
}
330
43F4
100
AcDbVisualStyle
  2
3D Hidden
 70
     6
 71
     1
 72
     2
 73
     2
 90
        0
 40
-0.6
 41
-30.0
 62
     5
 63
     7
 74
     2
 91
        2
 64
     7
 65
   257
 75
     2
175
     1
 42
40.0
 92
        0
 66
   257
 43
1.0
 76
     1
 77
     6
 78
     2
 67
     7
 79
     3
170
     0
171
     0
290
     0
174
     0
 93
        1
 44
0.0
173
     0
291
     0
 45
0.0
1001
ACAD
1000
AcDbSavedByObjectVersion
1070
     0
  0
VISUALSTYLE
  5
43FB
102
{ACAD_REACTORS
330
43F4
102
}
330
43F4
100
AcDbVisualStyle
  2
3dWireframe
 70
     5
 71
     0
 72
     2
 73
     0
 90
        0
 40
-0.6
 41
-30.0
 62
     5
 63
     7
 74
     1
 91
        4
 64
     7
 65
   257
 75
     1
175
     1
 42
1.0
 92
        0
 66
   257
 43
1.0
 76
     1
 77
     6
 78
     2
 67
     7
 79
     5
170
     0
171
     0
290
     0
174
     0
 93
        1
 44
0.0
173
     0
291
     0
 45
0.0
1001
ACAD
1000
AcDbSavedByObjectVersion
1070
     0
  0
VISUALSTYLE
  5
43F9
102
{ACAD_REACTORS
330
43F4
102
}
330
43F4
100
AcDbVisualStyle
  2
Basic
 70
     7
 71
     1
 72
     0
 73
     1
 90
        0
 40
-0.6
 41
-30.0
 62
     5
 63
     7
 74
     0
 91
        4
 64
     7
 65
   257
 75
     1
175
     1
 42
1.0
 92
        8
 66
     7
 43
1.0
 76
     1
 77
     6
 78
     2
 67
     7
 79
     5
170
     0
171
     0
290
     0
174
     0
 93
        1
 44
0.0
173
     0
291
     1
 45
0.0
1001
ACAD
1000
AcDbSavedByObjectVersion
1070
     0
  0
VISUALSTYLE
  5
4400
102
{ACAD_REACTORS
330
43F4
102
}
330
43F4
100
AcDbVisualStyle
  2
Brighten
 70
    12
 71
     2
 72
     2
 73
     0
 90
        0
 40
-0.6
 41
-30.0
 62
     5
 63
     7
 74
     1
 91
        4
 64
     7
 65
   257
 75
     1
175
     1
 42
1.0
 92
        8
 66
     7
 43
1.0
 76
     1
 77
     6
 78
     2
 67
     7
 79
     5
170
     0
171
     0
290
     0
174
     0
 93
        1
 44
50.0
173
     0
291
     1
 45
0.0
1001
ACAD
1000
AcDbSavedByObjectVersion
1070
     0
  0
VISUALSTYLE
  5
4404
102
{ACAD_REACTORS
330
43F4
102
}
330
43F4
100
AcDbVisualStyle
  2
ColorChange
 70
    16
 71
     2
 72
     2
 73
     3
 90
        0
 40
-0.6
 41
-30.0
 62
     5
 63
     8
 74
     1
 91
        4
 64
     7
 65
   257
 75
     1
175
     1
 42
1.0
 92
        8
 66
     8
 43
1.0
 76
     1
 77
     6
 78
     2
 67
     7
 79
     5
170
     0
171
     0
290
     0
174
     0
 93
        1
 44
0.0
173
     0
291
     1
 45
0.0
1001
ACAD
1000
AcDbSavedByObjectVersion
1070
     0
  0
VISUALSTYLE
  5
43FD
102
{ACAD_REACTORS
330
43F4
102
}
330
43F4
100
AcDbVisualStyle
  2
Conceptual
 70
     9
 71
     3
 72
     2
 73
     0
 90
        0
 40
-0.6
 41
-30.0
 62
     5
 63
     7
 74
     2
 91
        2
 64
     7
 65
   257
 75
     1
175
     1
 42
40.0
 92
        8
 66
     7
 43
1.0
 76
     1
 77
     6
 78
     2
 67
     7
 79
     3
170
     0
171
     0
290
     0
174
     0
 93
        1
 44
0.0
173
     0
291
     0
 45
0.0
1001
ACAD
1000
AcDbSavedByObjectVersion
1070
     0
  0
VISUALSTYLE
  5
43FF
102
{ACAD_REACTORS
330
43F4
102
}
330
43F4
100
AcDbVisualStyle
  2
Dim
 70
    11
 71
     2
 72
     2
 73
     0
 90
        0
 40
-0.6
 41
-30.0
 62
     5
 63
     7
 74
     1
 91
        4
 64
     7
 65
   257
 75
     1
175
     1
 42
1.0
 92
        8
 66
     7
 43
1.0
 76
     1
 77
     6
 78
     2
 67
     7
 79
     5
170
     0
171
     0
290
     0
174
     0
 93
        1
 44
-50.0
173
     0
291
     1
 45
0.0
1001
ACAD
1000
AcDbSavedByObjectVersion
1070
     0
  0
VISUALSTYLE
  5
4403
102
{ACAD_REACTORS
330
43F4
102
}
330
43F4
100
AcDbVisualStyle
  2
Facepattern
 70
    15
 71
     2
 72
     2
 73
     0
 90
        0
 40
-0.6
 41
-30.0
 62
     5
 63
     7
 74
     1
 91
        4
 64
     7
 65
   257
 75
     1
175
     1
 42
1.0
 92
        8
 66
     7
 43
1.0
 76
     1
 77
     6
 78
     2
 67
     7
 79
     5
170
     0
171
     0
290
     0
174
     0
 93
        1
 44
0.0
173
     0
291
     1
 45
0.0
1001
ACAD
1000
AcDbSavedByObjectVersion
1070
     0
  0
VISUALSTYLE
  5
43F5
102
{ACAD_REACTORS
330
43F4
102
}
330
43F4
100
AcDbVisualStyle
  2
Flat
 70
     0
 71
     2
 72
     1
 73
     1
 90
        2
 40
-0.6
 41
30.0
 62
     5
 63
     7
 74
     0
 91
        4
 64
     7
 65
   257
 75
     1
175
     1
 42
1.0
 92
        8
 66
     7
 43
1.0
 76
     1
 77
     6
 78
     2
 67
     7
 79
     5
170
     0
171
     0
290
     0
174
     0
 93
       13
 44
0.0
173
     0
291
     1
 45
0.0
1001
ACAD
1000
AcDbSavedByObjectVersion
1070
     0
  0
VISUALSTYLE
  5
43F6
102
{ACAD_REACTORS
330
43F4
102
}
330
43F4
100
AcDbVisualStyle
  2
FlatWithEdges
 70
     1
 71
     2
 72
     1
 73
     1
 90
        2
 40
-0.6
 41
30.0
 62
     5
 63
     7
 74
     1
 91
        4
 64
     7
 65
   257
 75
     1
175
     1
 42
1.0
 92
        0
 66
   257
 43
1.0
 76
     1
 77
     6
 78
     2
 67
     7
 79
     5
170
     0
171
     0
290
     0
174
     0
 93
       13
 44
0.0
173
     0
291
     1
 45
0.0
1001
ACAD
1000
AcDbSavedByObjectVersion
1070
     0
  0
VISUALSTYLE
  5
43F7
102
{ACAD_REACTORS
330
43F4
102
}
330
43F4
100
AcDbVisualStyle
  2
Gouraud
 70
     2
 71
     2
 72
     2
 73
     1
 90
        2
 40
-0.6
 41
30.0
 62
     5
 63
     7
 74
     0
 91
        4
 64
     7
 65
   257
 75
     1
175
     1
 42
1.0
 92
        0
 66
     7
 43
1.0
 76
     1
 77
     6
 78
     2
 67
     7
 79
     5
170
     0
171
     0
290
     0
174
     0
 93
       13
 44
0.0
173
     0
291
     1
 45
0.0
1001
ACAD
1000
AcDbSavedByObjectVersion
1070
     0
  0
VISUALSTYLE
  5
43F8
102
{ACAD_REACTORS
330
43F4
102
}
330
43F4
100
AcDbVisualStyle
  2
GouraudWithEdges
 70
     3
 71
     2
 72
     2
 73
     1
 90
        2
 40
-0.6
 41
30.0
 62
     5
 63
     7
 74
     1
 91
        4
 64
     7
 65
   257
 75
     1
175
     1
 42
1.0
 92
        0
 66
   257
 43
1.0
 76
     1
 77
     6
 78
     2
 67
     7
 79
     5
170
     0
171
     0
290
     0
174
     0
 93
       13
 44
0.0
173
     0
291
     1
 45
0.0
1001
ACAD
1000
AcDbSavedByObjectVersion
1070
     0
  0
VISUALSTYLE
  5
4402
102
{ACAD_REACTORS
330
43F4
102
}
330
43F4
100
AcDbVisualStyle
  2
Linepattern
 70
    14
 71
     2
 72
     2
 73
     0
 90
        0
 40
-0.6
 41
-30.0
 62
     5
 63
     7
 74
     1
 91
        4
 64
     7
 65
   257
 75
     7
175
     7
 42
1.0
 92
        8
 66
     7
 43
1.0
 76
     1
 77
     6
 78
     2
 67
     7
 79
     5
170
     0
171
     0
290
     0
174
     0
 93
        1
 44
0.0
173
     0
291
     1
 45
0.0
1001
ACAD
1000
AcDbSavedByObjectVersion
1070
     0
  0
VISUALSTYLE
  5
43FE
102
{ACAD_REACTORS
330
43F4
102
}
330
43F4
100
AcDbVisualStyle
  2
Realistic
 70
     8
 71
     2
 72
     2
 73
     0
 90
        0
 40
-0.6
 41
-30.0
 62
     5
 63
     7
 74
     1
 91
        0
 64
     7
 65
   257
 75
     1
175
     1
 42
1.0
 92
        8
 66
     8
 43
1.0
 76
     1
 77
     6
 78
     2
 67
     7
 79
     5
170
     0
171
     0
290
     0
174
     0
 93
       13
 44
0.0
173
     0
291
     0
 45
0.0
1001
ACAD
1000
AcDbSavedByObjectVersion
1070
     0
  0
VISUALSTYLE
  5
4401
102
{ACAD_REACTORS
330
43F4
102
}
330
43F4
100
AcDbVisualStyle
  2
Thicken
 70
    13
 71
     2
 72
     2
 73
     0
 90
        0
 40
-0.6
 41
-30.0
 62
     5
 63
     7
 74
     1
 91
        4
 64
     7
 65
   257
 75
     1
175
     1
 42
1.0
 92
       12
 66
     7
 43
1.0
 76
     1
 77
     6
 78
     2
 67
     7
 79
     5
170
     0
171
     0
290
     0
174
     0
 93
        1
 44
0.0
173
     0
291
     1
 45
0.0
1001
ACAD
1000
AcDbSavedByObjectVersion
1070
     0
  0
DICTIONARYVAR
  5
449C
102
{ACAD_REACTORS
330
9E
102
}
330
9E
100
DictionaryVariables
280
     0
  1
1:1
  0
DICTIONARYVAR
  5
449B
102
{ACAD_REACTORS
330
9E
102
}
330
9E
100
DictionaryVariables
280
     0
  1
STANDARD
  0
DICTIONARYVAR
  5
C25
102
{ACAD_REACTORS
330
9E
102
}
330
9E
100
DictionaryVariables
280
     0
  1
STANDARD
  0
DICTIONARYVAR
  5
A0
102
{ACAD_REACTORS
330
9E
102
}
330
9E
100
DictionaryVariables
280
     0
  1
1
  0
DICTIONARYVAR
  5
9F
102
{ACAD_REACTORS
330
9E
102
}
330
9E
100
DictionaryVariables
280
     0
  1
0
  0
DICTIONARYVAR
  5
4599
102
{ACAD_REACTORS
330
9E
102
}
330
9E
100
DictionaryVariables
280
     0
  1
127
  0
DICTIONARY
  5
9A7
102
{ACAD_REACTORS
330
63
102
}
330
63
100
AcDbDictionary
281
     1
  0
DICTIONARY
  5
69
102
{ACAD_REACTORS
330
63
102
}
330
63
100
AcDbDictionary
281
     1
  0
XRECORD
  5
BE7
102
{ACAD_REACTORS
330
63
102
}
330
63
100
AcDbXrecord
280
     1
 90
-1023410169
  0
DICTIONARY
  5
459E
330
22
100
AcDbDictionary
280
     1
281
     1
  3
ACAD_XREC_ROUNDTRIP
360
459F
  0
DICTIONARY
  5
459C
330
1E
100
AcDbDictionary
280
     1
281
     1
  3
ACAD_XREC_ROUNDTRIP
360
459D
  0
DICTIONARY
  5
45A0
330
26
100
AcDbDictionary
280
     1
281
     1
  3
ACAD_XREC_ROUNDTRIP
360
45A1
  0
DICTIONARY
  5
43E5
330
43E4
100
AcDbDictionary
280
     1
281
     1
  3
ACAD_XREC_ROUNDTRIP
360
45A8
  3
BUMPTILE
360
43E7
  3
DIFFUSETILE
360
43E6
  3
OPACITYTILE
360
43EA
  3
REFLECTIONTILE
360
43E9
  3
REFRACTIONTILE
360
43EB
  3
SPECULARTILE
360
43E8
  0
DICTIONARY
  5
43DD
330
43DC
100
AcDbDictionary
280
     1
281
     1
  3
ACAD_XREC_ROUNDTRIP
360
45A7
  3
BUMPTILE
360
43DF
  3
DIFFUSETILE
360
43DE
  3
OPACITYTILE
360
43E2
  3
REFLECTIONTILE
360
43E1
  3
REFRACTIONTILE
360
43E3
  3
SPECULARTILE
360
43E0
  0
DICTIONARY
  5
43ED
330
43EC
100
AcDbDictionary
280
     1
281
     1
  3
ACAD_XREC_ROUNDTRIP
360
45A9
  3
BUMPTILE
360
43EF
  3
DIFFUSETILE
360
43EE
  3
OPACITYTILE
360
43F2
  3
REFLECTIONTILE
360
43F1
  3
REFRACTIONTILE
360
43F3
  3
SPECULARTILE
360
43F0
  0
DICTIONARY
  5
4481
330
BD7
100
AcDbDictionary
280
     1
281
     1
  3
ACAD_ROUNDTRIP_2008_TABLESTYLE_CELLSTYLEMAP
360
459A
  3
ACAD_XREC_ROUNDTRIP
360
45A6
  0
XRECORD
  5
459F
102
{ACAD_REACTORS
330
459E
102
}
330
459E
100
AcDbXrecord
280
     1
102
SHADEPLOT
 70
     0
102
SHADEPLOTRESLEVEL
 70
     2
102
SHADEPLOTCUSTOMDPI
 70
   300
  0
XRECORD
  5
459D
102
{ACAD_REACTORS
330
459C
102
}
330
459C
100
AcDbXrecord
280
     1
102
SHADEPLOT
 70
     1
102
SHADEPLOTRESLEVEL
 70
     2
102
SHADEPLOTCUSTOMDPI
 70
   300
  0
XRECORD
  5
45A1
102
{ACAD_REACTORS
330
45A0
102
}
330
45A0
100
AcDbXrecord
280
     1
102
SHADEPLOT
 70
     1
102
SHADEPLOTRESLEVEL
 70
     2
102
SHADEPLOTCUSTOMDPI
 70
   300
  0
XRECORD
  5
45A8
102
{ACAD_REACTORS
330
43E5
102
}
330
43E5
100
AcDbXrecord
280
     1
102
MATERIAL
148
0.0
149
0.0
149
0.0
 93
        0
 94
      127
282
     0
 72
     0
 77
     0
171
     0
175
     0
179
     0
273
     0
  0
XRECORD
  5
43E7
102
{ACAD_REACTORS
330
43E5
102
}
330
43E5
100
AcDbXrecord
280
     1
270
     1
271
     1
  0
XRECORD
  5
43E6
102
{ACAD_REACTORS
330
43E5
102
}
330
43E5
100
AcDbXrecord
280
     1
270
     1
271
     1
  0
XRECORD
  5
43EA
102
{ACAD_REACTORS
330
43E5
102
}
330
43E5
100
AcDbXrecord
280
     1
270
     1
271
     1
  0
XRECORD
  5
43E9
102
{ACAD_REACTORS
330
43E5
102
}
330
43E5
100
AcDbXrecord
280
     1
270
     1
271
     1
  0
XRECORD
  5
43EB
102
{ACAD_REACTORS
330
43E5
102
}
330
43E5
100
AcDbXrecord
280
     1
270
     1
271
     1
  0
XRECORD
  5
43E8
102
{ACAD_REACTORS
330
43E5
102
}
330
43E5
100
AcDbXrecord
280
     1
270
     1
271
     1
  0
XRECORD
  5
45A7
102
{ACAD_REACTORS
330
43DD
102
}
330
43DD
100
AcDbXrecord
280
     1
102
MATERIAL
148
0.0
149
0.0
149
0.0
 93
        0
 94
      127
282
     0
 72
     0
 77
     0
171
     0
175
     0
179
     0
273
     0
  0
XRECORD
  5
43DF
102
{ACAD_REACTORS
330
43DD
102
}
330
43DD
100
AcDbXrecord
280
     1
270
     1
271
     1
  0
XRECORD
  5
43DE
102
{ACAD_REACTORS
330
43DD
102
}
330
43DD
100
AcDbXrecord
280
     1
270
     1
271
     1
  0
XRECORD
  5
43E2
102
{ACAD_REACTORS
330
43DD
102
}
330
43DD
100
AcDbXrecord
280
     1
270
     1
271
     1
  0
XRECORD
  5
43E1
102
{ACAD_REACTORS
330
43DD
102
}
330
43DD
100
AcDbXrecord
280
     1
270
     1
271
     1
  0
XRECORD
  5
43E3
102
{ACAD_REACTORS
330
43DD
102
}
330
43DD
100
AcDbXrecord
280
     1
270
     1
271
     1
  0
XRECORD
  5
43E0
102
{ACAD_REACTORS
330
43DD
102
}
330
43DD
100
AcDbXrecord
280
     1
270
     1
271
     1
  0
XRECORD
  5
45A9
102
{ACAD_REACTORS
330
43ED
102
}
330
43ED
100
AcDbXrecord
280
     1
102
MATERIAL
148
0.0
149
0.0
149
0.0
 93
        0
 94
      127
282
     0
 72
     0
 77
     0
171
     0
175
     0
179
     0
273
     0
  0
XRECORD
  5
43EF
102
{ACAD_REACTORS
330
43ED
102
}
330
43ED
100
AcDbXrecord
280
     1
270
     1
271
     1
  0
XRECORD
  5
43EE
102
{ACAD_REACTORS
330
43ED
102
}
330
43ED
100
AcDbXrecord
280
     1
270
     1
271
     1
  0
XRECORD
  5
43F2
102
{ACAD_REACTORS
330
43ED
102
}
330
43ED
100
AcDbXrecord
280
     1
270
     1
271
     1
  0
XRECORD
  5
43F1
102
{ACAD_REACTORS
330
43ED
102
}
330
43ED
100
AcDbXrecord
280
     1
270
     1
271
     1
  0
XRECORD
  5
43F3
102
{ACAD_REACTORS
330
43ED
102
}
330
43ED
100
AcDbXrecord
280
     1
270
     1
271
     1
  0
XRECORD
  5
43F0
102
{ACAD_REACTORS
330
43ED
102
}
330
43ED
100
AcDbXrecord
280
     1
270
     1
271
     1
  0
CELLSTYLEMAP
  5
459A
102
{ACAD_REACTORS
330
4481
102
}
330
4481
100
AcDbCellStyleMap
 90
        3
300
CELLSTYLE
  1
TABLEFORMAT_BEGIN
 90
        5
170
     1
 91
        0
 92
    32768
 62
   257
 93
        1
300
CONTENTFORMAT
  1
CONTENTFORMAT_BEGIN
 90
        0
 91
        0
 92
        4
 93
        0
300

 40
0.0
140
1.0
 94
        5
 62
     0
340
11
144
6.0
309
CONTENTFORMAT_END
171
     1
301
MARGIN
  1
CELLMARGIN_BEGIN
 40
1.5
 40
1.5
 40
1.5
 40
1.5
 40
0.18
 40
0.18
309
CELLMARGIN_END
 94
        6
 95
        1
302
GRIDFORMAT
  1
GRIDFORMAT_BEGIN
 90
        0
 91
        1
 62
     0
 92
       -2
340
0
 93
        0
 40
0.045
309
GRIDFORMAT_END
 95
        2
302
GRIDFORMAT
  1
GRIDFORMAT_BEGIN
 90
        0
 91
        1
 62
     0
 92
       -2
340
0
 93
        0
 40
0.045
309
GRIDFORMAT_END
 95
        4
302
GRIDFORMAT
  1
GRIDFORMAT_BEGIN
 90
        0
 91
        1
 62
     0
 92
       -2
340
0
 93
        0
 40
0.045
309
GRIDFORMAT_END
 95
        8
302
GRIDFORMAT
  1
GRIDFORMAT_BEGIN
 90
        0
 91
        1
 62
     0
 92
       -2
340
0
 93
        0
 40
0.045
309
GRIDFORMAT_END
 95
       16
302
GRIDFORMAT
  1
GRIDFORMAT_BEGIN
 90
        0
 91
        1
 62
     0
 92
       -2
340
0
 93
        0
 40
0.045
309
GRIDFORMAT_END
 95
       32
302
GRIDFORMAT
  1
GRIDFORMAT_BEGIN
 90
        0
 91
        1
 62
     0
 92
       -2
340
0
 93
        0
 40
0.045
309
GRIDFORMAT_END
309
TABLEFORMAT_END
  1
CELLSTYLE_BEGIN
 90
        1
 91
        1
300
_TITLE
309
CELLSTYLE_END
300
CELLSTYLE
  1
TABLEFORMAT_BEGIN
 90
        5
170
     1
 91
        0
 92
        0
 62
   257
 93
        1
300
CONTENTFORMAT
  1
CONTENTFORMAT_BEGIN
 90
        0
 91
        0
 92
        4
 93
        0
300

 40
0.0
140
1.0
 94
        5
 62
     0
340
11
144
4.5
309
CONTENTFORMAT_END
171
     1
301
MARGIN
  1
CELLMARGIN_BEGIN
 40
1.5
 40
1.5
 40
1.5
 40
1.5
 40
0.18
 40
0.18
309
CELLMARGIN_END
 94
        6
 95
        1
302
GRIDFORMAT
  1
GRIDFORMAT_BEGIN
 90
        0
 91
        1
 62
     0
 92
       -2
340
0
 93
        0
 40
0.045
309
GRIDFORMAT_END
 95
        2
302
GRIDFORMAT
  1
GRIDFORMAT_BEGIN
 90
        0
 91
        1
 62
     0
 92
       -2
340
0
 93
        0
 40
0.045
309
GRIDFORMAT_END
 95
        4
302
GRIDFORMAT
  1
GRIDFORMAT_BEGIN
 90
        0
 91
        1
 62
     0
 92
       -2
340
0
 93
        0
 40
0.045
309
GRIDFORMAT_END
 95
        8
302
GRIDFORMAT
  1
GRIDFORMAT_BEGIN
 90
        0
 91
        1
 62
     0
 92
       -2
340
0
 93
        0
 40
0.045
309
GRIDFORMAT_END
 95
       16
302
GRIDFORMAT
  1
GRIDFORMAT_BEGIN
 90
        0
 91
        1
 62
     0
 92
       -2
340
0
 93
        0
 40
0.045
309
GRIDFORMAT_END
 95
       32
302
GRIDFORMAT
  1
GRIDFORMAT_BEGIN
 90
        0
 91
        1
 62
     0
 92
       -2
340
0
 93
        0
 40
0.045
309
GRIDFORMAT_END
309
TABLEFORMAT_END
  1
CELLSTYLE_BEGIN
 90
        2
 91
        1
300
_HEADER
309
CELLSTYLE_END
300
CELLSTYLE
  1
TABLEFORMAT_BEGIN
 90
        5
170
     1
 91
        0
 92
        0
 62
   257
 93
        1
300
CONTENTFORMAT
  1
CONTENTFORMAT_BEGIN
 90
        0
 91
        0
 92
        4
 93
        0
300

 40
0.0
140
1.0
 94
        2
 62
     0
340
11
144
4.5
309
CONTENTFORMAT_END
171
     1
301
MARGIN
  1
CELLMARGIN_BEGIN
 40
1.5
 40
1.5
 40
1.5
 40
1.5
 40
0.18
 40
0.18
309
CELLMARGIN_END
 94
        6
 95
        1
302
GRIDFORMAT
  1
GRIDFORMAT_BEGIN
 90
        0
 91
        1
 62
     0
 92
       -2
340
0
 93
        0
 40
0.045
309
GRIDFORMAT_END
 95
        2
302
GRIDFORMAT
  1
GRIDFORMAT_BEGIN
 90
        0
 91
        1
 62
     0
 92
       -2
340
0
 93
        0
 40
0.045
309
GRIDFORMAT_END
 95
        4
302
GRIDFORMAT
  1
GRIDFORMAT_BEGIN
 90
        0
 91
        1
 62
     0
 92
       -2
340
0
 93
        0
 40
0.045
309
GRIDFORMAT_END
 95
        8
302
GRIDFORMAT
  1
GRIDFORMAT_BEGIN
 90
        0
 91
        1
 62
     0
 92
       -2
340
0
 93
        0
 40
0.045
309
GRIDFORMAT_END
 95
       16
302
GRIDFORMAT
  1
GRIDFORMAT_BEGIN
 90
        0
 91
        1
 62
     0
 92
       -2
340
0
 93
        0
 40
0.045
309
GRIDFORMAT_END
 95
       32
302
GRIDFORMAT
  1
GRIDFORMAT_BEGIN
 90
        0
 91
        1
 62
     0
 92
       -2
340
0
 93
        0
 40
0.045
309
GRIDFORMAT_END
309
TABLEFORMAT_END
  1
CELLSTYLE_BEGIN
 90
        3
 91
        2
300
_DATA
309
CELLSTYLE_END
  0
XRECORD
  5
45A6
102
{ACAD_REACTORS
330
4481
102
}
330
4481
100
AcDbXrecord
280
     1
102
ACAD_ROUNDTRIP_PRE2007_TABLESTYLE
 90
        4
 91
        0
  1

 92
        4
 93
        0
  2

 94
        4
 95
        0
  3

  0
ENDSEC
  0
EOF
