  0
SECTION
  2
HEADER
  9
$ACADVER
  1
AC1015
  9
$ACADMAINTVER
 70
    20
  9
$DWGCODEPAGE
  3
ANSI_932
  9
$INSBASE
 10
0.0
 20
0.0
 30
0.0
  9
$EXTMIN
 10
0.0
 20
-0.0000000000001599
 30
0.0
  9
$EXTMAX
 10
1209.0
 20
840.0000000000002
 30
0.0
  9
$LIMMIN
 10
0.0
 20
0.0
  9
$LIMMAX
 10
1209.0
 20
840.0000000000002
  9
$ORTHOMODE
 70
     0
  9
$REGENMODE
 70
     1
  9
$FILLMODE
 70
     1
  9
$QTEXTMODE
 70
     0
  9
$MIRRTEXT
 70
     1
  9
$LTSCALE
 40
3.0
  9
$ATTMODE
 70
     1
  9
$TEXTSIZE
 40
2.5
  9
$TRACEWID
 40
0.05
  9
$TEXTSTYLE
  7
takachi1
  9
$CLAYER
  8
0
  9
$CELTYPE
  6
ByLayer
  9
$CECOLOR
 62
   256
  9
$CELTSCALE
 40
1.0
  9
$DISPSILH
 70
     0
  9
$DIMSCALE
 40
5.0
  9
$DIMASZ
 40
2.5
  9
$DIMEXO
 40
1.0
  9
$DIMDLI
 40
10.0
  9
$DIMRND
 40
0.0
  9
$DIMDLE
 40
0.0
  9
$DIMEXE
 40
1.0
  9
$DIMTP
 40
0.1
  9
$DIMTM
 40
0.1
  9
$DIMTXT
 40
3.5
  9
$DIMCEN
 40
0.0
  9
$DIMTSZ
 40
0.0
  9
$DIMTOL
 70
     0
  9
$DIMLIM
 70
     0
  9
$DIMTIH
 70
     0
  9
$DIMTOH
 70
     0
  9
$DIMSE1
 70
     0
  9
$DIMSE2
 70
     0
  9
$DIMTAD
 70
     1
  9
$DIMZIN
 70
     8
  9
$DIMBLK
  1
Open30
  9
$DIMASO
 70
     1
  9
$DIMSHO
 70
     1
  9
$DIMPOST
  1

  9
$DIMAPOST
  1
"
  9
$DIMALT
 70
     0
  9
$DIMALTD
 70
     2
  9
$DIMALTF
 40
0.0393701
  9
$DIMLFAC
 40
1.0
  9
$DIMTOFL
 70
     1
  9
$DIMTVP
 40
0.0
  9
$DIMTIX
 70
     0
  9
$DIMSOXD
 70
     0
  9
$DIMSAH
 70
     0
  9
$DIMBLK1
  1

  9
$DIMBLK2
  1

  9
$DIMSTYLE
  2
AM_ISO
  9
$DIMCLRD
 70
     3
  9
$DIMCLRE
 70
     3
  9
$DIMCLRT
 70
     2
  9
$DIMTFAC
 40
0.71
  9
$DIMGAP
 40
1.5
  9
$DIMJUST
 70
     0
  9
$DIMSD1
 70
     0
  9
$DIMSD2
 70
     0
  9
$DIMTOLJ
 70
     0
  9
$DIMTZIN
 70
     8
  9
$DIMALTZ
 70
     0
  9
$DIMALTTZ
 70
     0
  9
$DIMUPT
 70
     0
  9
$DIMDEC
 70
     2
  9
$DIMTDEC
 70
     2
  9
$DIMALTU
 70
     2
  9
$DIMALTTD
 70
     2
  9
$DIMTXSTY
  7
STANDARD
  9
$DIMAUNIT
 70
     0
  9
$DIMADEC
 70
     0
  9
$DIMALTRND
 40
0.0
  9
$DIMAZIN
 70
     2
  9
$DIMDSEP
 70
    46
  9
$DIMATFIT
 70
     3
  9
$DIMFRAC
 70
     0
  9
$DIMLDRBLK
  1
Open30
  9
$DIMLUNIT
 70
     2
  9
$DIMLWD
 70
    -1
  9
$DIMLWE
 70
    -1
  9
$DIMTMOVE
 70
     0
  9
$LUNITS
 70
     2
  9
$LUPREC
 70
     2
  9
$SKETCHINC
 40
0.1
  9
$FILLETRAD
 40
0.6000000000000001
  9
$AUNITS
 70
     0
  9
$AUPREC
 70
     0
  9
$MENU
  1
.
  9
$ELEVATION
 40
0.0
  9
$PELEVATION
 40
0.0
  9
$THICKNESS
 40
0.0
  9
$LIMCHECK
 70
     0
  9
$CHAMFERA
 40
7.5
  9
$CHAMFERB
 40
7.5
  9
$CHAMFERC
 40
1.0
  9
$CHAMFERD
 40
0.0
  9
$SKPOLY
 70
     0
  9
$TDCREATE
 40
2454770.465836227
  9
$TDUCREATE
 40
2454770.090836227
  9
$TDUPDATE
 40
2455068.667324028
  9
$TDUUPDATE
 40
2455068.292324028
  9
$TDINDWG
 40
0.1374046644
  9
$TDUSRTIMER
 40
0.1374046644
  9
$USRTIMER
 70
     1
  9
$ANGBASE
 50
0.0
  9
$ANGDIR
 70
     0
  9
$PDMODE
 70
     0
  9
$PDSIZE
 40
0.0
  9
$PLINEWID
 40
0.0
  9
$SPLFRAME
 70
     0
  9
$SPLINETYPE
 70
     6
  9
$SPLINESEGS
 70
     8
  9
$HANDSEED
  5
45C5
  9
$SURFTAB1
 70
     6
  9
$SURFTAB2
 70
     6
  9
$SURFTYPE
 70
     6
  9
$SURFU
 70
     6
  9
$SURFV
 70
     6
  9
$UCSBASE
  2

  9
$UCSNAME
  2

  9
$UCSORG
 10
0.0
 20
0.0
 30
0.0
  9
$UCSXDIR
 10
1.0
 20
0.0
 30
0.0
  9
$UCSYDIR
 10
0.0
 20
1.0
 30
0.0
  9
$UCSORTHOREF
  2

  9
$UCSORTHOVIEW
 70
     0
  9
$UCSORGTOP
 10
0.0
 20
0.0
 30
0.0
  9
$UCSORGBOTTOM
 10
0.0
 20
0.0
 30
0.0
  9
$UCSORGLEFT
 10
0.0
 20
0.0
 30
0.0
  9
$UCSORGRIGHT
 10
0.0
 20
0.0
 30
0.0
  9
$UCSORGFRONT
 10
0.0
 20
0.0
 30
0.0
  9
$UCSORGBACK
 10
0.0
 20
0.0
 30
0.0
  9
$PUCSBASE
  2

  9
$PUCSNAME
  2

  9
$PUCSORG
 10
0.0
 20
0.0
 30
0.0
  9
$PUCSXDIR
 10
1.0
 20
0.0
 30
0.0
  9
$PUCSYDIR
 10
0.0
 20
1.0
 30
0.0
  9
$PUCSORTHOREF
  2

  9
$PUCSORTHOVIEW
 70
     0
  9
$PUCSORGTOP
 10
0.0
 20
0.0
 30
0.0
  9
$PUCSORGBOTTOM
 10
0.0
 20
0.0
 30
0.0
  9
$PUCSORGLEFT
 10
0.0
 20
0.0
 30
0.0
  9
$PUCSORGRIGHT
 10
0.0
 20
0.0
 30
0.0
  9
$PUCSORGFRONT
 10
0.0
 20
0.0
 30
0.0
  9
$PUCSORGBACK
 10
0.0
 20
0.0
 30
0.0
  9
$USERI1
 70
     0
  9
$USERI2
 70
     0
  9
$USERI3
 70
     0
  9
$USERI4
 70
     0
  9
$USERI5
 70
     0
  9
$USERR1
 40
0.0
  9
$USERR2
 40
0.0
  9
$USERR3
 40
0.0
  9
$USERR4
 40
0.0
  9
$USERR5
 40
0.0
  9
$WORLDVIEW
 70
     1
  9
$SHADEDGE
 70
     3
  9
$SHADEDIF
 70
    70
  9
$TILEMODE
 70
     1
  9
$MAXACTVP
 70
    64
  9
$PINSBASE
 10
0.0
 20
0.0
 30
0.0
  9
$PLIMCHECK
 70
     0
  9
$PEXTMIN
 10
1.000000000000000E+20
 20
1.000000000000000E+20
 30
1.000000000000000E+20
  9
$PEXTMAX
 10
-1.000000000000000E+20
 20
-1.000000000000000E+20
 30
-1.000000000000000E+20
  9
$PLIMMIN
 10
-0.2500002402958907
 20
-0.2499999962453767
  9
$PLIMMAX
 10
10.74999951940821
 20
8.249999763458731
  9
$UNITMODE
 70
     0
  9
$VISRETAIN
 70
     1
  9
$PLINEGEN
 70
     0
  9
$PSLTSCALE
 70
     1
  9
$TREEDEPTH
 70
  3020
  9
$CMLSTYLE
  2
Standard
  9
$CMLJUST
 70
     0
  9
$CMLSCALE
 40
1.0
  9
$PROXYGRAPHICS
 70
     1
  9
$MEASUREMENT
 70
     1
  9
$CELWEIGHT
370
    -1
  9
$ENDCAPS
280
     0
  9
$JOINSTYLE
280
     0
  9
$LWDISPLAY
290
     0
  9
$INSUNITS
 70
     4
  9
$HYPERLINKBASE
  1

  9
$STYLESHEET
  1
takachi-2.ctb
  9
$XEDIT
290
     1
  9
$CEPSNTYPE
380
     0
  9
$PSTYLEMODE
290
     1
  9
$FINGERPRINTGUID
  2
{4C04C66C-6307-4C11-B2CD-108B7D68641F}
  9
$VERSIONGUID
  2
{69EDB1EC-488D-4D7E-AF1A-FF1DBE471408}
  9
$EXTNAMES
290
     1
  9
$PSVPSCALE
 40
0.0
  9
$OLESTARTUP
290
     0
  0
ENDSEC
  0
SECTION
  2
CLASSES
  0
CLASS
  1
ACDBDICTIONARYWDFLT
  2
AcDbDictionaryWithDefault
  3
ObjectDBX Classes
 90
        0
280
     0
281
     0
  0
CLASS
  1
ACDBPLACEHOLDER
  2
AcDbPlaceHolder
  3
ObjectDBX Classes
 90
        0
280
     0
281
     0
  0
CLASS
  1
LAYOUT
  2
AcDbLayout
  3
ObjectDBX Classes
 90
        0
280
     0
281
     0
  0
CLASS
  1
ACME_DOCUMENT
  2
AcMeDbDoc
  3
AcMeServices
 90
     1024
280
     0
281
     0
  0
CLASS
  1
AMGSETTINGSOBJ
  2
AmgSettingsObj
  3
"AcadM|Product Description: AutoCAD Mechanical|Company: Autodesk, Inc."
 90
     1024
280
     0
281
     0
  0
CLASS
  1
ACMESCOPE
  2
AcMeScope
  3
AcMeServices
 90
     1024
280
     0
281
     0
  0
CLASS
  1
ACMECOMMANDHISTORY
  2
AcMeCommandHistory
  3
AcMeServices
 90
     1024
280
     0
281
     0
  0
CLASS
  1
ACIMSYSVARMAN
  2
AcImSysVarManager
  3
AcMeServices
 90
     1024
280
     0
281
     0
  0
CLASS
  1
ACIMREALSYSVAR
  2
AcImRealSysVar
  3
AcMeServices
 90
     1024
280
     0
281
     0
  0
CLASS
  1
ACIMINTSYSVAR
  2
AcImIntSysVar
  3
AcMeServices
 90
     1024
280
     0
281
     0
  0
CLASS
  1
ACMEDRAWINGMAN
  2
AcMeDrawingMan
  3
AcMeServices
 90
     1024
280
     0
281
     0
  0
CLASS
  1
ACMEVIEW
  2
AcMeView
  3
AcMeServices
 90
     1024
280
     0
281
     0
  0
CLASS
  1
ACDBENTITYCACHE
  2
AcMeEntityCache
  3
AcMeServices
 90
     1024
280
     0
281
     0
  0
CLASS
  1
GSMANAGER
  2
AcMeGSManager
  3
AcMeServices
 90
     1024
280
     0
281
     0
  0
CLASS
  1
AMDTINTERNALREACTOR
  2
AmdtInternalReactor
  3
AcMeServices
 90
     1024
280
     0
281
     0
  0
CLASS
  1
ACMESTATEMGR
  2
AcMeStateMgr
  3
AcMeServices
 90
     1024
280
     0
281
     0
  0
CLASS
  1
ACGREFMASTER
  2
AcGrefMaster
  3
AcAttribServices
 90
     1024
280
     0
281
     0
  0
CLASS
  1
ACME_DATABASE
  2
AcMeDbDatabase
  3
AcMeServices
 90
     1024
280
     0
281
     0
  0
CLASS
  1
ACRFINSADJUSTERMGR
  2
AcRfInsAdjusterMgr
  3
AcMeServices
 90
     1024
280
     0
281
     0
  0
CLASS
  1
ACGREFACADMASTER
  2
AcGrefacadMaster
  3
AcGrefServices
 90
     1024
280
     0
281
     0
  0
CLASS
  1
AMIMASTER
  2
AmiMaster
  3
AmiServices
 90
     1024
280
     0
281
     0
  0
CLASS
  1
ACMDATADICTIONARY
  2
AcmDataDictionary
  3
"AcmSymBB|Product Description: AutoCAD Mechanical|Company: Autodesk, Inc."
 90
     1024
280
     0
281
     0
  0
CLASS
  1
ACMDATAENTRYBLOCK
  2
AcmDataEntryBlock
  3
AcmSymBB|Product Description: AutoCAD Mechanical|Company: Autodesk, Inc.
 90
     1024
280
     0
281
     0
  0
CLASS
  1
ACIMSTRSYSVAR
  2
AcImStrSysVar
  3
AcMeServices
 90
     1024
280
     0
281
     0
  0
CLASS
  1
ACMSTANDARDANSI
  2
AcmStandardANSI
  3
"Amdt_StdImp|Product Description: AutoCAD Mechanical|Company: Autodesk, Inc."
 90
     1024
280
     0
281
     0
  0
CLASS
  1
AMGOBJPROPCFG
  2
AmgObjPropCfg
  3
"AmgLay|Product Description: AutoCAD Mechanical|Company: Autodesk, Inc."
 90
     1025
280
     0
281
     0
  0
CLASS
  1
ACMSURFSTANDARDANSI
  2
AcmSurfTextStdANSI
  3
"Amdt_StdImp|Product Description: AutoCAD Mechanical|Company: Autodesk, Inc."
 90
     1024
280
     0
281
     0
  0
CLASS
  1
ACMFCFSTANDARDANSI
  2
AcmFCFStdANSI
  3
"Amdt_StdImp|Product Description: AutoCAD Mechanical|Company: Autodesk, Inc."
 90
     1024
280
     0
281
     0
  0
CLASS
  1
ACMWELDSTANDARDANSI
  2
AcmWeldingStdANSI
  3
"Amdt_StdImp|Product Description: AutoCAD Mechanical|Company: Autodesk, Inc."
 90
     1024
280
     0
281
     0
  0
CLASS
  1
ACMIDSTANDARDANSI
  2
AcmIdStdANSI
  3
"Amdt_StdImp|Product Description: AutoCAD Mechanical|Company: Autodesk, Inc."
 90
     1024
280
     0
281
     0
  0
CLASS
  1
ACMDATUMSTANDARDANSI
  2
AcmDatumStdANSI
  3
"Amdt_StdImp|Product Description: AutoCAD Mechanical|Company: Autodesk, Inc."
 90
     1024
280
     0
281
     0
  0
CLASS
  1
ACMBOMSTANDARDANSI
  2
AcmBOMStdANSI
  3
"Amdt_StdImp|Product Description: AutoCAD Mechanical|Company: Autodesk, Inc."
 90
     1024
280
     0
281
     0
  0
CLASS
  1
ACMDETAILSTANDARDANSI
  2
AmdtDetailSymStdANSI
  3
"Amdt_StdImp|Product Description: AutoCAD Mechanical|Company: Autodesk, Inc."
 90
     1024
280
     0
281
     0
  0
CLASS
  1
ACMSECTIONSTANDARDANSI
  2
AmdtSectionSymStdANSI
  3
"Amdt_StdImp|Product Description: AutoCAD Mechanical|Company: Autodesk, Inc."
 90
     1024
280
     0
281
     0
  0
CLASS
  1
ACMCENTERLINESTANDARDANSI
  2
AmdtCenterLineStdANSI
  3
"Amdt_StdImp|Product Description: AutoCAD Mechanical|Company: Autodesk, Inc."
 90
     1024
280
     0
281
     0
  0
CLASS
  1
ACMNOTESTANDARDANSI
  2
AmdtNoteStdANSI
  3
"Amdt_StdImp|Product Description: AutoCAD Mechanical|Company: Autodesk, Inc."
 90
     1024
280
     0
281
     0
  0
CLASS
  1
ACAMGLAYSTD
  2
AcAmgLayStd
  3
"AmgLay|Product Description: AutoCAD Mechanical|Company: Autodesk, Inc."
 90
     1024
280
     0
281
     0
  0
CLASS
  1
ACAMGDIMSTD
  2
AcAmgDimStd
  3
"AmgDim|Product Description: AutoCAD Mechanical|Company: Autodesk, Inc."
 90
     1024
280
     0
281
     0
  0
CLASS
  1
ACAMGHOLECHARTSTDANSI
  2
AcAmgHoleChartStdANSI
  3
AmgDim|Product Description: AutoCAD Mechanical|Company: Autodesk, Inc.
 90
     1024
280
     0
281
     0
  0
CLASS
  1
ACAMGTITLESTD
  2
AcAmgTitleStd
  3
"AmgTitle|Product Description: AutoCAD Mechanical|Company: Autodesk, Inc."
 90
     4095
280
     0
281
     0
  0
CLASS
  1
LAYER_INDEX
  2
AcDbLayerIndex
  3
ObjectDBX Classes
 90
    32768
280
     0
281
     0
  0
CLASS
  1
IDBUFFER
  2
AcDbIdBuffer
  3
ObjectDBX Classes
 90
    32768
280
     0
281
     0
  0
CLASS
  1
DICTIONARYVAR
  2
AcDbDictionaryVar
  3
ObjectDBX Classes
 90
        0
280
     0
281
     0
  0
CLASS
  1
AM_DRAWING_MGR
  2
AcDmDwgMgr
  3
AcMechDwgViewMgmt
 90
     1024
280
     0
281
     0
  0
CLASS
  1
AM_DWG_DOCUMENT
  2
AcDmDwgDocument
  3
AcMechDwgViewMgmt
 90
     1024
280
     0
281
     0
  0
CLASS
  1
AM_DWG_SHEET
  2
AcDmSheet
  3
AcMechDwgViewMgmt
 90
     1024
280
     0
281
     0
  0
CLASS
  1
AM_VIEWDIMPARMAP
  2
AcDmViewDimParMap
  3
AcMechDwgViewMgmt
 90
     1024
280
     0
281
     0
  0
CLASS
  1
AM_DWGMGR_NAME
  2
AcDmDwgMgrName
  3
AcMechDwgViewMgmt
 90
     1024
280
     0
281
     0
  0
CLASS
  1
AMDTMENUSTATEMGR
  2
AmdtMenuStateMgr
  3
McadcomServices
 90
     1024
280
     0
281
     0
  0
CLASS
  1
AMDTMCOMMENUSTATE
  2
AmdtMcomMenuState
  3
McadcomServices
 90
     1024
280
     0
281
     0
  0
CLASS
  1
MAPIAMMOUDLE
  2
MApiAmModule
  3
MApiAmServices
 90
     1024
280
     0
281
     0
  0
CLASS
  1
AMDTADMENUSTATE
  2
AmdtAdMenuState
  3
DesignerServices
 90
     1024
280
     0
281
     0
  0
CLASS
  1
ADAPPL
  2
AcAdAppl
  3
DesignerServices
 90
     1024
280
     0
281
     0
  0
CLASS
  1
DEPMGR
  2
AcAdDepMgr
  3
DesignerServices
 90
     1024
280
     0
281
     0
  0
CLASS
  1
PARAMMGR
  2
AcAdParamMgr
  3
DesignerServices
 90
     1024
280
     0
281
     0
  0
CLASS
  1
PARAMSCOPE
  2
AcAdParamScope
  3
DesignerServices
 90
     1024
280
     0
281
     0
  0
CLASS
  1
NAMEDAPPL
  2
AcAdNamedAppl
  3
DesignerServices
 90
     1024
280
     0
281
     0
  0
CLASS
  1
AMDTDMMENUSTATE
  2
AmdtDmMenuState
  3
AcMechDwgViewMgmt
 90
     1024
280
     0
281
     0
  0
CLASS
  1
AMDTAMMENUSTATE
  2
AmdtAmMenuState
  3
DesignerAssemblies
 90
     1024
280
     0
281
     0
  0
CLASS
  1
ACAMPROJECT
  2
AcAmProject
  3
DesignerAssemblies
 90
     1024
280
     0
281
     0
  0
CLASS
  1
ACAMGRCOMPDEF
  2
AcAmGrCompDef
  3
DesignerAssemblies
 90
     1024
280
     0
281
     0
  0
CLASS
  1
ACCMCONTEXT
  2
AcCmContext
  3
DesignerAssemblies
 90
     1024
280
     0
281
     0
  0
CLASS
  1
ACAMCOMPDEF
  2
AcAmCompDef
  3
DesignerAssemblies
 90
     1024
280
     0
281
     0
  0
CLASS
  1
ACAMCOMPDEFMGR
  2
AcAmCompDefMgr
  3
DesignerAssemblies
 90
     1024
280
     0
281
     0
  0
CLASS
  1
AMCONTEXTMGR
  2
AcAmContextMgr
  3
DesignerAssemblies
 90
     1024
280
     0
281
     0
  0
CLASS
  1
ACAMCONTEXTMODELER
  2
AcAmContextModeler
  3
DesignerAssemblies
 90
     1024
280
     0
281
     0
  0
CLASS
  1
ACMTHREADLINESTANDARDANSI
  2
AmdtThreadLineStdANSI
  3
"Amdt_StdImp|Product Description: AutoCAD Mechanical|Company: Autodesk, Inc."
 90
     1024
280
     0
281
     0
  0
CLASS
  1
CATALOGSTATE
  2
AcAmCatalogState
  3
DesignerAssemblies
 90
     1024
280
     0
281
     0
  0
CLASS
  1
ACAMGRCOMPDEFSET
  2
AcAmGrCompDefSet
  3
DesignerAssemblies
 90
     1024
280
     0
281
     0
  0
CLASS
  1
AMDTBROWSERDBTAB
  2
AmdtBrowserDbTab
  3
McadcomServices
 90
     1024
280
     0
281
     0
  0
CLASS
  1
CBROWSERAPPOBJECT
  2
CBrowserAppObject
  3
McadcomServices
 90
     1024
280
     0
281
     0
  0
CLASS
  1
DM_PLACEHOLDER
  2
AcDmSelsetPlaceholder
  3
AcMechDwgViewMgmt
 90
     1024
280
     0
281
     0
  0
CLASS
  1
AMDTNOTETEMPLATEDB
  2
AmdtNoteTemplateDB
  3
AcmSymBB|Product Description: AutoCAD Mechanical|Company: Autodesk, Inc.
 90
     1024
280
     0
281
     0
  0
CLASS
  1
ACMSTANDARDISO
  2
AcmStandardISO
  3
"Amdt_StdImp|Product Description: AutoCAD Mechanical|Company: Autodesk, Inc."
 90
     1024
280
     0
281
     0
  0
CLASS
  1
AMDTEDGESTANDARDISO
  2
AmdtEdgeStdISO
  3
"Amdt_StdImp|Product Description: AutoCAD Mechanical|Company: Autodesk, Inc."
 90
     1024
280
     0
281
     0
  0
CLASS
  1
ACMSURFSTANDARDISO
  2
AcmSurfTextStdISO
  3
"Amdt_StdImp|Product Description: AutoCAD Mechanical|Company: Autodesk, Inc."
 90
     1024
280
     0
281
     0
  0
CLASS
  1
ACMFCFSTANDARDISO
  2
AcmFCFStdISO
  3
"Amdt_StdImp|Product Description: AutoCAD Mechanical|Company: Autodesk, Inc."
 90
     1024
280
     0
281
     0
  0
CLASS
  1
ACMWELDSTANDARDISO
  2
AcmWeldingStdISO
  3
"Amdt_StdImp|Product Description: AutoCAD Mechanical|Company: Autodesk, Inc."
 90
     1024
280
     0
281
     0
  0
CLASS
  1
ACMIDSTANDARDISO
  2
AcmIdStdISO
  3
"Amdt_StdImp|Product Description: AutoCAD Mechanical|Company: Autodesk, Inc."
 90
     1024
280
     0
281
     0
  0
CLASS
  1
ACMDATUMSTANDARDISO
  2
AcmDatumStdISO
  3
"Amdt_StdImp|Product Description: AutoCAD Mechanical|Company: Autodesk, Inc."
 90
     1024
280
     0
281
     0
  0
CLASS
  1
ACMBOMSTANDARDISO
  2
AcmBOMStdISO
  3
"Amdt_StdImp|Product Description: AutoCAD Mechanical|Company: Autodesk, Inc."
 90
     1024
280
     0
281
     0
  0
CLASS
  1
ACMDETAILSTANDARDISO
  2
AmdtDetailSymStdISO
  3
"Amdt_StdImp|Product Description: AutoCAD Mechanical|Company: Autodesk, Inc."
 90
     1024
280
     0
281
     0
  0
CLASS
  1
ACMSECTIONSTANDARDISO
  2
AmdtSectionSymStdISO
  3
"Amdt_StdImp|Product Description: AutoCAD Mechanical|Company: Autodesk, Inc."
 90
     1024
280
     0
281
     0
  0
CLASS
  1
ACMCENTERLINESTANDARDISO
  2
AmdtCenterLineStdISO
  3
"Amdt_StdImp|Product Description: AutoCAD Mechanical|Company: Autodesk, Inc."
 90
     1024
280
     0
281
     0
  0
CLASS
  1
ACMTHREADLINESTANDARDISO
  2
AmdtThreadLineStdISO
  3
"Amdt_StdImp|Product Description: AutoCAD Mechanical|Company: Autodesk, Inc."
 90
     1024
280
     0
281
     0
  0
CLASS
  1
ACMNOTESTANDARDISO
  2
AmdtNoteStdISO
  3
"Amdt_StdImp|Product Description: AutoCAD Mechanical|Company: Autodesk, Inc."
 90
     1024
280
     0
281
     0
  0
CLASS
  1
ACAMGHOLECHARTSTDISO
  2
AcAmgHoleChartStdISO
  3
AmgDim|Product Description: AutoCAD Mechanical|Company: Autodesk, Inc.
 90
     1024
280
     0
281
     0
  0
CLASS
  1
ACAMGFILTERDAT
  2
AcAmgFilterDat
  3
"AcadM|Product Description: AutoCAD Mechanical|Company: Autodesk, Inc."
 90
     1024
280
     0
281
     0
  0
CLASS
  1
ACMBOM
  2
AcmBom
  3
"AcmSymBB|Product Description: AutoCAD Mechanical|Company: Autodesk, Inc."
 90
     1024
280
     0
281
     0
  0
CLASS
  1
AMDTFORMULAUPDATEDISPATCHER
  2
AmdtFormulaUpdateDispatcher
  3
AcMeServices
 90
     1024
280
     0
281
     0
  0
CLASS
  1
ACMPARTLIST
  2
AcmPartList
  3
"AcmSymBB|Product Description: AutoCAD Mechanical|Company: Autodesk, Inc."
 90
     4095
280
     0
281
     1
  0
CLASS
  1
ACDBOPPOLYLINERES
  2
AcDbOpPolylineRes
  3
AcGrefServices
 90
    33792
280
     0
281
     0
  0
CLASS
  1
ACRFINSADJ
  2
AcRfInsAdjuster
  3
AcMeServices
 90
    33792
280
     0
281
     0
  0
CLASS
  1
TABLESTYLE
  2
AcDbTableStyle
  3
ObjectDBX Classes
 90
     4095
280
     0
281
     0
  0
CLASS
  1
VAACXREFPANELOBJECT
  2
VaAcXREFPanelObject
  3
VAAC_ADDIN
 90
    32768
280
     0
281
     0
  0
CLASS
  1
VAACIMAGEINVENTORY
  2
VaAcImageInventory
  3
VAAC_ADDIN
 90
    32768
280
     0
281
     0
  0
CLASS
  1
SORTENTSTABLE
  2
AcDbSortentsTable
  3
ObjectDBX Classes
 90
        0
280
     0
281
     0
  0
CLASS
  1
ACMDATAENTRYPART
  2
AcmDataEntryPart
  3
AcmSymBB|Product Description: AutoCAD Mechanical|Company: Autodesk, Inc.
 90
     1024
280
     0
281
     0
  0
CLASS
  1
ACMPARTREF
  2
AcmPartRef
  3
"AcmSymBB|Product Description: AutoCAD Mechanical|Company: Autodesk, Inc."
 90
     4095
280
     0
281
     1
  0
CLASS
  1
ACMBOMROW
  2
AcmBomRow
  3
"AcmSymBB|Product Description: AutoCAD Mechanical|Company: Autodesk, Inc."
 90
     1024
280
     0
281
     0
  0
CLASS
  1
ACMDATAENTRY
  2
AcmDataEntry
  3
AcmSymBB|Product Description: AutoCAD Mechanical|Company: Autodesk, Inc.
 90
     1024
280
     0
281
     0
  0
CLASS
  1
ACMBALLOON
  2
AcmBalloon
  3
"AcmSymBB|Product Description: AutoCAD Mechanical|Company: Autodesk, Inc."
 90
     4095
280
     0
281
     1
  0
CLASS
  1
MATERIAL
  2
AcDbMaterial
  3
ObjectDBX Classes
 90
     1153
280
     0
281
     0
  0
CLASS
  1
VISUALSTYLE
  2
AcDbVisualStyle
  3
ObjectDBX Classes
 90
     4095
280
     0
281
     0
  0
CLASS
  1
SCALE
  2
AcDbScale
  3
ObjectDBX Classes
 90
     1153
280
     0
281
     0
  0
CLASS
  1
MLEADERSTYLE
  2
AcDbMLeaderStyle
  3
ACDB_MLEADERSTYLE_CLASS
 90
     4095
280
     0
281
     0
  0
CLASS
  1
ACRFATTGENMGR
  2
AcRfAttGeneralMgr
  3
AcAttribServices
 90
     1024
280
     0
281
     0
  0
CLASS
  1
ACRFOBJATTMGR
  2
AcRfObjAttGroupMgr
  3
AcAttribServices
 90
     1024
280
     0
281
     0
  0
CLASS
  1
ACRFMCADAPIATTHOLDER
  2
AcRfMCADAPIAttHolder
  3
AcAttribServices
 90
     1024
280
     0
281
     0
  0
CLASS
  1
AMDTSYSATTR
  2
AmdtSystemAttribute
  3
AcAttribServices
 90
     1024
280
     0
281
     0
  0
CLASS
  1
ACMTAPERSTANDARDISO
  2
AcmTaperStdISO
  3
"Amdt_StdImp|Product Description: AutoCAD Mechanical|Company: Autodesk, Inc."
 90
     1024
280
     0
281
     0
  0
CLASS
  1
ACMANOOTATIONVIEWSTANDARDISO
  2
AmdtAnViewStdISO
  3
"Amdt_StdImp|Product Description: AutoCAD Mechanical|Company: Autodesk, Inc."
 90
     1024
280
     0
281
     0
  0
CLASS
  1
ACMTAPERSTANDARDANSI
  2
AcmTaperStdANSI
  3
"Amdt_StdImp|Product Description: AutoCAD Mechanical|Company: Autodesk, Inc."
 90
     1024
280
     0
281
     0
  0
CLASS
  1
ACMANOOTATIONVIEWSTANDARDANSI
  2
AmdtAnViewStdANSI
  3
"Amdt_StdImp|Product Description: AutoCAD Mechanical|Company: Autodesk, Inc."
 90
     1024
280
     0
281
     0
  0
CLASS
  1
EXACXREFPANELOBJECT
  2
ExAcXREFPanelObject
  3
EXAC_ESW
 90
     1025
280
     0
281
     0
  0
CLASS
  1
NPOCOLLECTION
  2
AcDbImpNonPersistentObjectsCollection
  3
ObjectDBX Classes
 90
     1153
280
     0
281
     0
  0
CLASS
  1
CELLSTYLEMAP
  2
AcDbCellStyleMap
  3
ObjectDBX Classes
 90
     1152
280
     0
281
     0
  0
ENDSEC
  0
SECTION
  2
TABLES
  0
TABLE
  2
VPORT
  5
8
102
{ACAD_XDICTIONARY
360
449D
102
}
330
0
100
AcDbSymbolTable
 70
     1
  0
VPORT
  5
43F0
330
8
100
AcDbSymbolTableRecord
100
AcDbViewportTableRecord
  2
*Active
 70
     0
 10
0.0
 20
0.0
 11
1.0
 21
1.0
 12
604.5369067773162
 22
420.0256424259266
 13
0.0
 23
0.0
 14
7.5
 24
7.5
 15
30.0
 25
30.0
 16
0.0
 26
0.0
 36
1.0
 17
0.0
 27
0.0
 37
0.0
 40
846.0744571116503
 41
1.766554433221099
 42
50.0
 43
0.0
 44
0.0
 50
0.0
 51
0.0
 71
    16
 72
   100
 73
     1
 74
     3
 75
     0
 76
     0
 77
     0
 78
     0
281
     0
 65
     1
110
0.0
120
0.0
130
0.0
111
1.0
121
0.0
131
0.0
112
0.0
122
1.0
132
0.0
 79
     0
146
0.0
  0
ENDTAB
  0
TABLE
  2
LTYPE
  5
5
330
0
100
AcDbSymbolTable
 70
    20
  0
LTYPE
  5
14
330
5
100
AcDbSymbolTableRecord
100
AcDbLinetypeTableRecord
  2
ByBlock
 70
     0
  3

 72
    65
 73
     0
 40
0.0
  0
LTYPE
  5
15
330
5
100
AcDbSymbolTableRecord
100
AcDbLinetypeTableRecord
  2
ByLayer
 70
     0
  3

 72
    65
 73
     0
 40
0.0
  0
LTYPE
  5
16
330
5
100
AcDbSymbolTableRecord
100
AcDbLinetypeTableRecord
  2
Continuous
 70
     0
  3
Solid line
 72
    65
 73
     0
 40
0.0
  0
LTYPE
  5
6C
330
5
100
AcDbSymbolTableRecord
100
AcDbLinetypeTableRecord
  2
AM_ISO02W050
 70
     0
  3
__ __ __ __ __ __ __ __ __ __ __ __ __ __ __
 72
    65
 73
     2
 40
7.5
 49
6.0
 74
     0
 49
-1.5
 74
     0
  0
LTYPE
  5
6D
330
5
100
AcDbSymbolTableRecord
100
AcDbLinetypeTableRecord
  2
AM_ISO08W050
 70
     0
  3
____ . ____ . ____ . ____ . ____ . ____ . ____
 72
    65
 73
     4
 40
18.0
 49
12.0
 74
     0
 49
-1.5
 74
     0
 49
3.0
 74
     0
 49
-1.5
 74
     0
  0
LTYPE
  5
6E
330
5
100
AcDbSymbolTableRecord
100
AcDbLinetypeTableRecord
  2
AM_ISO09W050
 70
     0
  3
_____ . . _____ . . _____ . . ____ .. ____
 72
    65
 73
     6
 40
22.5
 49
12.0
 74
     0
 49
-1.5
 74
     0
 49
3.0
 74
     0
 49
-1.5
 74
     0
 49
3.0
 74
     0
 49
-1.5
 74
     0
  0
LTYPE
  5
6F
330
5
100
AcDbSymbolTableRecord
100
AcDbLinetypeTableRecord
  2
Amconstr
 70
     0
  3
_______________________
 72
    65
 73
     2
 40
9999.0
 49
9999.0
 74
     0
 49
0.0
 74
     0
  0
LTYPE
  5
70
330
5
100
AcDbSymbolTableRecord
100
AcDbLinetypeTableRecord
  2
AM_ISO08W050x2
 70
     0
  3
__ . __ . __ . __ . __ . __
 72
    65
 73
     4
 40
9.0
 49
6.0
 74
     0
 49
-0.75
 74
     0
 49
1.5
 74
     0
 49
-0.75
 74
     0
  0
LTYPE
  5
71
330
5
100
AcDbSymbolTableRecord
100
AcDbLinetypeTableRecord
  2
AM_ISO02W050x2
 70
     0
  3
 _ _ _ _ _ _ _ _ _ _ _ _
 72
    65
 73
     2
 40
3.75
 49
3.0
 74
     0
 49
-0.75
 74
     0
  0
LTYPE
  5
74
330
5
100
AcDbSymbolTableRecord
100
AcDbLinetypeTableRecord
  2
Amzigzag
 70
     0
  3
/\/-/\/-/\/-/\/-/\/-/\/
 72
    65
 73
     2
 40
11.0001
 49
0.0001
 74
     4
 75
   135
340
73
 46
0.04
 50
0.0
 44
0.0
 45
0.0
 49
-11.0
 74
     0
  0
LTYPE
  5
75
330
5
100
AcDbSymbolTableRecord
100
AcDbLinetypeTableRecord
  2
HIDDEN
 70
     0
  3
Hidden __ __ __ __ __ __ __ __ __ __ __ __ __ _
 72
    65
 73
     2
 40
0.375
 49
0.25
 74
     0
 49
-0.125
 74
     0
  0
LTYPE
  5
76
330
5
100
AcDbSymbolTableRecord
100
AcDbLinetypeTableRecord
  2
CENTER
 70
     0
  3
Center ____ _ ____ _ ____ _ ____ _ ____ _ ____
 72
    65
 73
     4
 40
2.0
 49
1.25
 74
     0
 49
-0.25
 74
     0
 49
0.25
 74
     0
 49
-0.25
 74
     0
  0
LTYPE
  5
77
330
5
100
AcDbSymbolTableRecord
100
AcDbLinetypeTableRecord
  2
PHANTOM2
 70
     0
  3
Phantom (.5x) ___ _ _ ___ _ _ ___ _ _ ___ _ _
 72
    65
 73
     6
 40
1.25
 49
0.625
 74
     0
 49
-0.125
 74
     0
 49
0.125
 74
     0
 49
-0.125
 74
     0
 49
0.125
 74
     0
 49
-0.125
 74
     0
  0
LTYPE
  5
78
330
5
100
AcDbSymbolTableRecord
100
AcDbLinetypeTableRecord
  2
CENTER2
 70
     0
  3
Center (.5x) ___ _ ___ _ ___ _ ___ _ ___ _ ___
 72
    65
 73
     4
 40
1.125
 49
0.75
 74
     0
 49
-0.125
 74
     0
 49
0.125
 74
     0
 49
-0.125
 74
     0
  0
LTYPE
  5
79
330
5
100
AcDbSymbolTableRecord
100
AcDbLinetypeTableRecord
  2
HIDDEN2
 70
     0
  3
Hidden (.5x) _ _ _ _ _ _ _ _ _ _ _ _ _ _ _ _ _
 72
    65
 73
     2
 40
0.1875
 49
0.125
 74
     0
 49
-0.0625
 74
     0
  0
LTYPE
  5
7A
330
5
100
AcDbSymbolTableRecord
100
AcDbLinetypeTableRecord
  2
Amzigzag2
 70
     0
  3
/\/-/\/-/\/-/\/-/\/-/\/
 72
    65
 73
     2
 40
0.4401
 49
0.0001
 74
     4
 75
   135
340
73
 46
0.0016
 50
0.0
 44
0.0
 45
0.0
 49
-0.4400000000000001
 74
     0
  0
LTYPE
  5
87
330
5
100
AcDbSymbolTableRecord
100
AcDbLinetypeTableRecord
  2
ACANSTGB
 70
     0
  3
__ . . __ . .
 72
    65
 73
     6
 40
0.35433070866
 49
0.15748031496
 74
     0
 49
-0.03937007874
 74
     0
 49
0.03937007874
 74
     0
 49
-0.03937007874
 74
     0
 49
0.03937007874
 74
     0
 49
-0.03937007874
 74
     0
  0
LTYPE
  5
88
330
5
100
AcDbSymbolTableRecord
100
AcDbLinetypeTableRecord
  2
ACANSTGL
 70
     0
  3
_ _ _ _ _
 72
    65
 73
     2
 40
0.11811023622
 49
0.07874015748
 74
     0
 49
-0.03937007874
 74
     0
  0
LTYPE
  5
1DE
330
5
100
AcDbSymbolTableRecord
100
AcDbLinetypeTableRecord
  2
ACISOWELD
 70
     0
  3
_ _ _ _ _
 72
    65
 73
     2
 40
2.0
 49
2.0
 74
     0
 49
-1.0
 74
     0
  0
LTYPE
  5
1DF
330
5
100
AcDbSymbolTableRecord
100
AcDbLinetypeTableRecord
  2
ACISOTGB
 70
     0
  3
__ . . __ . .
 72
    65
 73
     6
 40
9.0
 49
4.0
 74
     0
 49
-1.0
 74
     0
 49
1.0
 74
     0
 49
-1.0
 74
     0
 49
1.0
 74
     0
 49
-1.0
 74
     0
  0
LTYPE
  5
1E0
330
5
100
AcDbSymbolTableRecord
100
AcDbLinetypeTableRecord
  2
ACISOTGL
 70
     0
  3
_ _ _ _ _
 72
    65
 73
     2
 40
3.0
 49
2.0
 74
     0
 49
-1.0
 74
     0
  0
LTYPE
  5
201
330
5
100
AcDbSymbolTableRecord
100
AcDbLinetypeTableRecord
  2
gen7a
 70
     0
  3
__ . __ . __
 72
    65
 73
     4
 40
6.875
 49
4.75
 74
     0
 49
-0.875
 74
     0
 49
0.375
 74
     0
 49
-0.875
 74
     0
  0
ENDTAB
  0
TABLE
  2
LAYER
  5
2
102
{ACAD_XDICTIONARY
360
2C1
102
}
330
0
100
AcDbSymbolTable
 70
    11
  0
LAYER
  5
10
102
{ACAD_XDICTIONARY
360
4486
102
}
330
2
100
AcDbSymbolTableRecord
100
AcDbLayerTableRecord
  2
0
 70
     0
 62
     7
  6
Continuous
370
    -3
390
F
  0
LAYER
  5
1F0
102
{ACAD_XDICTIONARY
360
4488
102
}
330
2
100
AcDbSymbolTableRecord
100
AcDbLayerTableRecord
  2
AM_5
 70
     0
 62
     3
  6
Continuous
370
    25
390
F
  0
LAYER
  5
204
330
2
100
AcDbSymbolTableRecord
100
AcDbLayerTableRecord
  2
Defpoints
 70
     0
 62
     7
  6
Continuous
290
     0
370
    -3
390
F
  0
LAYER
  5
23E
102
{ACAD_XDICTIONARY
360
448A
102
}
330
2
100
AcDbSymbolTableRecord
100
AcDbLayerTableRecord
  2
7A
 70
     0
 62
     4
  6
gen7a
370
    -3
390
F
  0
LAYER
  5
23F
102
{ACAD_XDICTIONARY
360
448C
102
}
330
2
100
AcDbSymbolTableRecord
100
AcDbLayerTableRecord
  2
RAHM2
 70
     0
 62
     1
  6
Continuous
370
    -3
390
F
  0
LAYER
  5
2AD
102
{ACAD_XDICTIONARY
360
448E
102
}
330
2
100
AcDbSymbolTableRecord
100
AcDbLayerTableRecord
  2
ｴｸｽﾃﾝｼｮﾝﾌﾚｰﾑ
 70
     0
 62
     7
  6
Continuous
370
    25
390
F
  0
LAYER
  5
3A72
102
{ACAD_XDICTIONARY
360
4490
102
}
330
2
100
AcDbSymbolTableRecord
100
AcDbLayerTableRecord
  2
AM_12
 70
     0
 62
     7
  6
Continuous
290
     0
370
    50
390
F
  0
LAYER
  5
3A73
102
{ACAD_XDICTIONARY
360
4492
102
}
330
2
100
AcDbSymbolTableRecord
100
AcDbLayerTableRecord
  2
AM_PAREF
 70
     0
 62
     4
  6
Continuous
290
     0
370
    25
390
F
  0
LAYER
  5
3BDA
102
{ACAD_XDICTIONARY
360
4494
102
}
330
2
100
AcDbSymbolTableRecord
100
AcDbLayerTableRecord
  2
AM_8
 70
     0
 62
     1
  6
Continuous
370
    25
390
F
  0
LAYER
  5
3BE4
102
{ACAD_XDICTIONARY
360
4496
102
}
330
2
100
AcDbSymbolTableRecord
100
AcDbLayerTableRecord
  2
ｶﾞｽｹｯﾄ
 70
     0
 62
     5
  6
Continuous
370
    25
390
F
1001
AcAecLayerStandard
1000

1000

  0
LAYER
  5
43D3
102
{ACAD_XDICTIONARY
360
4498
102
}
330
2
100
AcDbSymbolTableRecord
100
AcDbLayerTableRecord
  2
AM_CL
 70
     0
 62
     1
  6
Amconstr
370
    25
390
F
  0
ENDTAB
  0
TABLE
  2
STYLE
  5
3
330
0
100
AcDbSymbolTable
 70
     7
  0
STYLE
  5
11
330
3
100
AcDbSymbolTableRecord
100
AcDbTextStyleTableRecord
  2
STANDARD
 70
     0
 40
0.0
 41
1.0
 50
0.0
 71
     0
 42
0.2
  3
ISOCP.SHX
  4
EXTFONT.SHX
  0
STYLE
  5
73
330
3
100
AcDbSymbolTableRecord
100
AcDbTextStyleTableRecord
  2

 70
     1
 40
0.0
 41
1.0
 50
0.0
 71
     0
 42
0.2
  3
ltypeshp.shx
  4

  0
STYLE
  5
7B
330
3
100
AcDbSymbolTableRecord
100
AcDbTextStyleTableRecord
  2
ACANSTS
 70
     0
 40
1.0
 41
1.0
 50
0.0
 71
     0
 42
0.2
  3
isoct.shx
  4
extfont.shx
  0
STYLE
  5
86
330
3
100
AcDbSymbolTableRecord
100
AcDbTextStyleTableRecord
  2
ACANSGDT
 70
     0
 40
0.0
 41
1.0
 50
0.0
 71
     0
 42
0.2
  3
amgdtans.shx
  4

  0
STYLE
  5
1D0
330
3
100
AcDbSymbolTableRecord
100
AcDbTextStyleTableRecord
  2
ACISOTS
 70
     0
 40
1.0
 41
1.0
 50
0.0
 71
     0
 42
0.2
  3
isocp.shx
  4
extfont.shx
  0
STYLE
  5
1DD
330
3
100
AcDbSymbolTableRecord
100
AcDbTextStyleTableRecord
  2
ACISOGDT
 70
     0
 40
0.0
 41
1.0
 50
0.0
 71
     0
 42
0.2
  3
amgdt.shx
  4

  0
STYLE
  5
94C
330
3
100
AcDbSymbolTableRecord
100
AcDbTextStyleTableRecord
  2
takachi1
 70
     0
 40
2.5
 41
1.0
 50
0.0
 71
     0
 42
2.5
  3
MS PGothic.ttf
  4

1001
ACAD
1000
MS PGothic
1071
    32818
  0
ENDTAB
  0
TABLE
  2
VIEW
  5
6
330
0
100
AcDbSymbolTable
 70
     6
  0
VIEW
  5
2A6
330
6
100
AcDbSymbolTableRecord
100
AcDbViewTableRecord
  2
AM_VIEW1
 70
     0
 40
420.0000000000001
 10
335.2777777777779
 20
630.0000000000002
 41
670.5555555555557
 11
0.0
 21
0.0
 31
1.0
 12
0.0
 22
0.0
 32
0.0
 42
50.0
 43
0.0
 44
0.0
 50
0.0
 71
    16
281
     0
 72
     0
  0
VIEW
  5
2A7
330
6
100
AcDbSymbolTableRecord
100
AcDbViewTableRecord
  2
AM_VIEW2
 70
     0
 40
420.0000000000001
 10
873.7222222222222
 20
630.0000000000002
 41
670.5555555555557
 11
0.0
 21
0.0
 31
1.0
 12
0.0
 22
0.0
 32
0.0
 42
50.0
 43
0.0
 44
0.0
 50
0.0
 71
    16
281
     0
 72
     0
  0
VIEW
  5
2A8
330
6
100
AcDbSymbolTableRecord
100
AcDbViewTableRecord
  2
AM_VIEW3
 70
     0
 40
420.0000000000001
 10
335.2777777777779
 20
210.0
 41
670.5555555555557
 11
0.0
 21
0.0
 31
1.0
 12
0.0
 22
0.0
 32
0.0
 42
50.0
 43
0.0
 44
0.0
 50
0.0
 71
    16
281
     0
 72
     0
  0
VIEW
  5
2A9
330
6
100
AcDbSymbolTableRecord
100
AcDbViewTableRecord
  2
AM_VIEW4
 70
     0
 40
420.0000000000001
 10
873.7222222222222
 20
210.0
 41
670.5555555555557
 11
0.0
 21
0.0
 31
1.0
 12
0.0
 22
0.0
 32
0.0
 42
50.0
 43
0.0
 44
0.0
 50
0.0
 71
    16
281
     0
 72
     0
  0
VIEW
  5
2AA
330
6
100
AcDbSymbolTableRecord
100
AcDbViewTableRecord
  2
AM_VIEW5
 70
     0
 40
420.0000000000001
 10
604.4999999999999
 20
420.0000000000001
 41
670.5555555555556
 11
0.0
 21
0.0
 31
1.0
 12
0.0
 22
0.0
 32
0.0
 42
50.0
 43
0.0
 44
0.0
 50
0.0
 71
    16
281
     0
 72
     0
  0
VIEW
  5
2AB
330
6
100
AcDbSymbolTableRecord
100
AcDbViewTableRecord
  2
AM_VIEW6
 70
     0
 40
839.9916000000002
 10
604.4999999999999
 20
420.0000000000001
 41
1341.0977
 11
0.0
 21
0.0
 31
1.0
 12
0.0
 22
0.0
 32
0.0
 42
50.0
 43
0.0
 44
0.0
 50
0.0
 71
    16
281
     0
 72
     0
  0
ENDTAB
  0
TABLE
  2
UCS
  5
7
330
0
100
AcDbSymbolTable
 70
     0
  0
ENDTAB
  0
TABLE
  2
APPID
  5
9
330
0
100
AcDbSymbolTable
 70
    36
  0
APPID
  5
12
330
9
100
AcDbSymbolTableRecord
100
AcDbRegAppTableRecord
  2
ACAD
 70
     0
  0
APPID
  5
4E
330
9
100
AcDbSymbolTableRecord
100
AcDbRegAppTableRecord
  2
MCAD_NO_VIS
 70
     0
  0
APPID
  5
4F
330
9
100
AcDbSymbolTableRecord
100
AcDbRegAppTableRecord
  2
ACAD_TEMP_GRAPHIC
 70
     0
  0
APPID
  5
60
330
9
100
AcDbSymbolTableRecord
100
AcDbRegAppTableRecord
  2
ACATTRIBSERVICES
 70
     0
  0
APPID
  5
F7
330
9
100
AcDbSymbolTableRecord
100
AcDbRegAppTableRecord
  2
AD_DRAW
 70
     0
  0
APPID
  5
115
330
9
100
AcDbSymbolTableRecord
100
AcDbRegAppTableRecord
  2
DESIGNERASSEMBLIES
 70
     0
  0
APPID
  5
11A
330
9
100
AcDbSymbolTableRecord
100
AcDbRegAppTableRecord
  2
ACADM_DIM_EDIT
 70
     0
  0
APPID
  5
11B
330
9
100
AcDbSymbolTableRecord
100
AcDbRegAppTableRecord
  2
AMDT_DM_ADJ
 70
     0
  0
APPID
  5
20C
330
9
100
AcDbSymbolTableRecord
100
AcDbRegAppTableRecord
  2
GENIUS_GENREC_14
 70
     0
  0
APPID
  5
20D
330
9
100
AcDbSymbolTableRecord
100
AcDbRegAppTableRecord
  2
GENIUS_GENODEF_13
 70
     0
  0
APPID
  5
20E
330
9
100
AcDbSymbolTableRecord
100
AcDbRegAppTableRecord
  2
GENIUS_GENOBJ-N-REC_13
 70
     0
  0
APPID
  5
20F
330
9
100
AcDbSymbolTableRecord
100
AcDbRegAppTableRecord
  2
GENIUS_GENCFG_13
 70
     0
  0
APPID
  5
210
330
9
100
AcDbSymbolTableRecord
100
AcDbRegAppTableRecord
  2
GENIUS_GENCFG0_13
 70
     0
  0
APPID
  5
211
330
9
100
AcDbSymbolTableRecord
100
AcDbRegAppTableRecord
  2
GENIUS_GENCFG1_13
 70
     0
  0
APPID
  5
212
330
9
100
AcDbSymbolTableRecord
100
AcDbRegAppTableRecord
  2
GENIUS_GENCFG2_13
 70
     0
  0
APPID
  5
213
330
9
100
AcDbSymbolTableRecord
100
AcDbRegAppTableRecord
  2
GENIUS_GENCFG3_13
 70
     0
  0
APPID
  5
214
330
9
100
AcDbSymbolTableRecord
100
AcDbRegAppTableRecord
  2
GENIUS_GENCFG4_13
 70
     0
  0
APPID
  5
215
330
9
100
AcDbSymbolTableRecord
100
AcDbRegAppTableRecord
  2
GENIUS_GEVCFG0_13
 70
     0
  0
APPID
  5
216
330
9
100
AcDbSymbolTableRecord
100
AcDbRegAppTableRecord
  2
GENIUS_GENOENT_13
 70
     0
  0
APPID
  5
217
330
9
100
AcDbSymbolTableRecord
100
AcDbRegAppTableRecord
  2
GENIUS_GENDIMSH_14
 70
     0
  0
APPID
  5
218
330
9
100
AcDbSymbolTableRecord
100
AcDbRegAppTableRecord
  2
GENIUS_GENOBJ-N-CRS_13
 70
     0
  0
APPID
  5
219
330
9
100
AcDbSymbolTableRecord
100
AcDbRegAppTableRecord
  2
GENIUS_GENOREF_13
 70
     0
  0
APPID
  5
21A
330
9
100
AcDbSymbolTableRecord
100
AcDbRegAppTableRecord
  2
GENIUS_GENOLIS_13
 70
     0
  0
APPID
  5
21B
330
9
100
AcDbSymbolTableRecord
100
AcDbRegAppTableRecord
  2
GENIUS_GENOBJ-N-TIT_13
 70
     0
  0
APPID
  5
21C
330
9
100
AcDbSymbolTableRecord
100
AcDbRegAppTableRecord
  2
GENIUS_GENTITLE_13
 70
     0
  0
APPID
  5
21D
330
9
100
AcDbSymbolTableRecord
100
AcDbRegAppTableRecord
  2
GENIUS_GENSCREG_15
 70
     0
  0
APPID
  5
21E
330
9
100
AcDbSymbolTableRecord
100
AcDbRegAppTableRecord
  2
GENIUS_GENOBJ-N-SDF_13
 70
     0
  0
APPID
  5
21F
330
9
100
AcDbSymbolTableRecord
100
AcDbRegAppTableRecord
  2
GENIUS_GENOBJ-N-CEN_13
 70
     0
  0
APPID
  5
220
330
9
100
AcDbSymbolTableRecord
100
AcDbRegAppTableRecord
  2
GENIUS_GENOBJ-N-HTC_13
 70
     0
  0
APPID
  5
221
330
9
100
AcDbSymbolTableRecord
100
AcDbRegAppTableRecord
  2
GENIUS_GENHATCH_13
 70
     0
  0
APPID
  5
222
330
9
100
AcDbSymbolTableRecord
100
AcDbRegAppTableRecord
  2
GENIUS_GENOBJ-N-ZOO_13
 70
     0
  0
APPID
  5
223
330
9
100
AcDbSymbolTableRecord
100
AcDbRegAppTableRecord
  2
GENIUS_GENZOO_17
 70
     0
  0
APPID
  5
2273
330
9
100
AcDbSymbolTableRecord
100
AcDbRegAppTableRecord
  2
GENIUS_GENOBJ-N-FIL_13
 70
     0
  0
APPID
  5
2287
330
9
100
AcDbSymbolTableRecord
100
AcDbRegAppTableRecord
  2
GENIUS_GENCEN_19
 70
     0
  0
APPID
  5
3BE5
330
9
100
AcDbSymbolTableRecord
100
AcDbRegAppTableRecord
  2
AcAecLayerStandard
 70
     0
  0
APPID
  5
442F
330
9
100
AcDbSymbolTableRecord
100
AcDbRegAppTableRecord
  2
ACAD_MLEADERVER
 70
     0
  0
ENDTAB
  0
TABLE
  2
DIMSTYLE
  5
A
330
0
100
AcDbSymbolTable
 70
    15
100
AcDbDimStyleTable
 71
     2
340
1E7
340
8C
  0
DIMSTYLE
105
27
330
A
100
AcDbSymbolTableRecord
100
AcDbDimStyleTableRecord
  2
Standard
 70
     0
340
11
  0
DIMSTYLE
105
8C
330
A
100
AcDbSymbolTableRecord
100
AcDbDimStyleTableRecord
  2
AM_ANSI
 70
     0
  4
mm
 41
0.1
 42
0.05
 43
0.5
 44
0.1
 47
0.1
 48
0.1
 78
     7
 79
     2
140
0.12
141
0.0
146
0.71
147
0.06
176
   256
177
   256
178
     2
274
     4
284
     7
340
11
371
    -1
372
    -1
  0
DIMSTYLE
105
8D
330
A
100
AcDbSymbolTableRecord
100
AcDbDimStyleTableRecord
  2
AM_ANSI$3
 70
     0
  4
mm
 41
0.1
 42
0.05
 43
0.5
 44
0.1
 47
0.1
 48
0.1
 78
     7
 79
     2
140
0.12
141
0.0
146
0.71
147
0.06
176
   256
177
   256
178
     2
274
     4
284
     7
288
     1
289
     0
340
11
371
    -1
372
    -1
  0
DIMSTYLE
105
8E
330
A
100
AcDbSymbolTableRecord
100
AcDbDimStyleTableRecord
  2
AM_ANSI$4
 70
     0
  4
mm
 41
0.1
 42
0.05
 43
0.5
 44
0.1
 47
0.1
 48
0.1
 78
     7
 79
     2
140
0.12
141
0.0
146
0.71
147
0.06
176
   256
177
   256
178
     2
274
     4
284
     7
288
     1
289
     0
340
11
371
    -1
372
    -1
  0
DIMSTYLE
105
8F
330
A
100
AcDbSymbolTableRecord
100
AcDbDimStyleTableRecord
  2
AM_ANSI$7
 70
     0
  4
mm
 41
0.1
 42
0.05
 43
0.5
 44
0.1
 47
0.1
 48
0.1
 78
     7
 79
     2
140
0.24
141
0.0
146
0.71
147
0.06
176
   256
177
   256
178
     2
274
     4
284
     7
340
11
371
    -1
372
    -1
  0
DIMSTYLE
105
90
330
A
100
AcDbSymbolTableRecord
100
AcDbDimStyleTableRecord
  2
AM_ANSI$SF
 70
     0
  4
mm
 41
0.1
 42
0.05
 43
0.5
 44
0.1
 47
0.1
 48
0.1
 75
     1
 76
     1
 78
     7
 79
     2
140
0.12
141
0.0
146
0.71
147
0.06
176
   256
177
   256
178
     2
274
     4
284
     7
340
11
371
    -1
372
    -1
  0
DIMSTYLE
105
95
330
A
100
AcDbSymbolTableRecord
100
AcDbDimStyleTableRecord
  2
AM_ANSI$SH
 70
     0
  4
mm
 41
0.1
 42
0.05
 43
0.5
 44
0.1
 47
0.1
 48
0.1
 75
     1
 76
     1
 78
     7
 79
     2
140
0.12
141
0.0
146
0.71
147
0.06
173
     1
176
   256
177
   256
178
     2
274
     4
284
     7
340
11
343
91
371
    -1
372
    -1
  0
DIMSTYLE
105
1E7
330
A
100
AcDbSymbolTableRecord
100
AcDbDimStyleTableRecord
  2
AM_ISO
 70
     0
  4
"
 41
2.5
 42
1.0
 43
10.0
 44
1.0
 47
0.1
 48
0.1
 73
     0
 74
     0
 77
     1
 78
     8
 79
     2
140
3.5
141
0.0
143
0.0393701
146
0.71
147
1.5
172
     1
176
     3
177
     3
178
     2
271
     2
272
     2
283
     0
284
     8
340
11
341
1F8
342
1F8
371
    -1
372
    -1
  0
DIMSTYLE
105
1E8
330
A
100
AcDbSymbolTableRecord
100
AcDbDimStyleTableRecord
  2
AM_ISO$3
 70
     0
  4
"
 41
2.5
 42
1.0
 43
10.0
 44
1.0
 47
0.1
 48
0.1
 73
     0
 77
     1
 78
     8
 79
     2
140
3.5
141
0.0
143
0.0393701
146
0.71
147
1.5
176
     3
177
     3
178
     2
271
     2
272
     2
283
     0
284
     8
288
     1
289
     0
340
11
341
1F8
342
1F8
371
    -1
372
    -1
  0
DIMSTYLE
105
1E9
330
A
100
AcDbSymbolTableRecord
100
AcDbDimStyleTableRecord
  2
AM_ISO$4
 70
     0
  4
"
 41
2.5
 42
1.0
 43
10.0
 44
1.0
 47
0.1
 48
0.1
 73
     0
 77
     1
 78
     8
 79
     2
140
3.5
141
0.0
143
0.0393701
146
0.71
147
1.5
176
     3
177
     3
178
     2
271
     2
272
     2
283
     0
284
     8
288
     1
289
     0
340
11
341
1F8
342
1F8
371
    -1
372
    -1
  0
DIMSTYLE
105
1EA
330
A
100
AcDbSymbolTableRecord
100
AcDbDimStyleTableRecord
  2
AM_ISO$6
 70
     0
  4
"
 41
2.5
 42
1.0
 43
10.0
 44
1.0
 47
0.1
 48
0.1
 73
     0
 74
     0
 78
     8
 79
     2
140
3.5
141
0.0
143
0.0393701
146
0.71
147
1.5
172
     1
176
     3
177
     3
178
     2
271
     2
272
     2
283
     0
284
     8
340
11
341
1F8
342
1F8
371
    -1
372
    -1
  0
DIMSTYLE
105
1EB
330
A
100
AcDbSymbolTableRecord
100
AcDbDimStyleTableRecord
  2
AM_ISO$7
 70
     0
  4
"
 41
2.5
 42
1.0
 43
10.0
 44
1.0
 47
0.1
 48
0.1
 73
     0
 74
     0
 77
     1
 78
     8
 79
     2
140
5.0
141
0.0
143
0.0393701
146
0.71
147
1.5
172
     1
176
     3
177
     3
178
     2
271
     2
272
     2
283
     0
284
     8
340
11
341
1F8
342
1F8
371
    -1
372
    -1
  0
DIMSTYLE
105
1EC
330
A
100
AcDbSymbolTableRecord
100
AcDbDimStyleTableRecord
  2
AM_ISO$SF
 70
     0
  4
"
 41
2.5
 42
1.0
 43
10.0
 44
1.0
 47
0.1
 48
0.1
 73
     0
 74
     0
 75
     1
 76
     1
 77
     1
 78
     8
 79
     2
140
3.5
141
0.0
143
0.0393701
146
0.71
147
1.5
172
     1
176
   256
177
   256
178
     2
271
     2
272
     3
274
     4
283
     0
284
     8
340
11
371
    -1
372
    -1
  0
DIMSTYLE
105
1ED
330
A
100
AcDbSymbolTableRecord
100
AcDbDimStyleTableRecord
  2
AM_ISO$SH
 70
     0
  4
"
 41
2.5
 42
1.0
 43
10.0
 44
1.0
 47
0.1
 48
0.1
 73
     0
 74
     0
 75
     1
 76
     1
 77
     1
 78
     8
 79
     2
140
3.5
141
0.0
143
0.0393701
144
2.0
146
0.71
147
1.5
172
     1
173
     1
176
   256
177
   256
178
     2
271
     2
272
     3
274
     4
283
     0
284
     8
340
11
343
91
371
    -1
372
    -1
  0
DIMSTYLE
105
2334
102
{ACAD_REACTORS
330
42FA
330
3D55
330
4334
102
}
330
A
100
AcDbSymbolTableRecord
100
AcDbDimStyleTableRecord
  2
AM_ISO$0
 70
     0
  4
"
 41
2.5
 42
1.0
 43
10.0
 44
1.0
 47
0.1
 48
0.1
 73
     0
 74
     0
 77
     1
 78
     8
 79
     2
140
3.5
141
0.0
143
0.0393701
146
0.71
147
1.5
172
     1
176
     3
177
     3
178
     2
271
     2
272
     2
283
     0
284
     8
340
11
341
1F8
342
1F8
371
    -1
372
    -1
  0
ENDTAB
  0
TABLE
  2
BLOCK_RECORD
  5
1
330
0
100
AcDbSymbolTable
 70
    14
  0
BLOCK_RECORD
  5
1F
102
{ACAD_XDICTIONARY
360
99
102
}
330
1
100
AcDbSymbolTableRecord
100
AcDbBlockTableRecord
  2
*Model_Space
340
22
  0
BLOCK_RECORD
  5
23
330
1
100
AcDbSymbolTableRecord
100
AcDbBlockTableRecord
  2
*Paper_Space
340
26
  0
BLOCK_RECORD
  5
1B
330
1
100
AcDbSymbolTableRecord
100
AcDbBlockTableRecord
  2
*Paper_Space0
340
1E
  0
BLOCK_RECORD
  5
91
330
1
100
AcDbSymbolTableRecord
100
AcDbBlockTableRecord
  2
GENAXEH
340
0
  0
BLOCK_RECORD
  5
1F8
330
1
100
AcDbSymbolTableRecord
100
AcDbBlockTableRecord
  2
_Open30
340
0
102
{BLKREFS
331
4363
331
4364
331
436C
331
436D
331
4375
331
4376
102
}
  0
BLOCK_RECORD
  5
AE9
102
{ACAD_XDICTIONARY
360
AF1
102
}
330
1
100
AcDbSymbolTableRecord
100
AcDbBlockTableRecord
  2
TK-A3
340
0
102
{BLKREFS
331
C54
102
}
  0
BLOCK_RECORD
  5
AFC
102
{ACAD_XDICTIONARY
360
B55
102
}
330
1
100
AcDbSymbolTableRecord
100
AcDbBlockTableRecord
  2
TK-TITLE
340
0
102
{BLKREFS
331
C56
102
}
  0
BLOCK_RECORD
  5
3D56
330
1
100
AcDbSymbolTableRecord
100
AcDbBlockTableRecord
  2
*D6
340
0
  0
BLOCK_RECORD
  5
42FB
330
1
100
AcDbSymbolTableRecord
100
AcDbBlockTableRecord
  2
*D7
340
0
  0
BLOCK_RECORD
  5
4335
330
1
100
AcDbSymbolTableRecord
100
AcDbBlockTableRecord
  2
*D8
340
0
  0
BLOCK_RECORD
  5
4566
330
1
100
AcDbSymbolTableRecord
100
AcDbBlockTableRecord
  2
*S9
340
0
  0
BLOCK_RECORD
  5
456D
330
1
100
AcDbSymbolTableRecord
100
AcDbBlockTableRecord
  2
*S10
340
0
  0
BLOCK_RECORD
  5
4575
330
1
100
AcDbSymbolTableRecord
100
AcDbBlockTableRecord
  2
*S11
340
0
  0
BLOCK_RECORD
  5
457C
330
1
100
AcDbSymbolTableRecord
100
AcDbBlockTableRecord
  2
*S12
340
0
  0
BLOCK_RECORD
  5
4583
330
1
100
AcDbSymbolTableRecord
100
AcDbBlockTableRecord
  2
*S13
340
0
  0
ENDTAB
  0
ENDSEC
  0
SECTION
  2
BLOCKS
  0
BLOCK
  5
20
330
1F
100
AcDbEntity
  8
0
100
AcDbBlockBegin
  2
*Model_Space
 70
     0
 10
0.0
 20
0.0
 30
0.0
  3
*Model_Space
  1

  0
ENDBLK
  5
21
330
1F
100
AcDbEntity
  8
0
100
AcDbBlockEnd
  0
BLOCK
  5
24
330
23
100
AcDbEntity
 67
     1
  8
0
100
AcDbBlockBegin
  2
*Paper_Space
 70
     0
 10
0.0
 20
0.0
 30
0.0
  3
*Paper_Space
  1

  0
ENDBLK
  5
25
330
23
100
AcDbEntity
 67
     1
  8
0
100
AcDbBlockEnd
  0
BLOCK
  5
1C
330
1B
100
AcDbEntity
 67
     1
  8
0
100
AcDbBlockBegin
  2
*Paper_Space0
 70
     0
 10
0.0
 20
0.0
 30
0.0
  3
*Paper_Space0
  1

  0
VIEWPORT
  5
182
102
{ACAD_XDICTIONARY
360
45BD
102
}
330
1B
100
AcDbEntity
 67
     1
  8
0
100
AcDbViewport
 10
5.249999639556163
 20
3.999999883606677
 30
0.0
 40
14.57585398793907
 41
8.992999745766947
 68
     0
 69
     0
 12
5.249999639556163
 22
3.999999883606677
 13
0.0
 23
0.0
 14
10.0
 24
10.0
 15
10.0
 25
10.0
 16
0.0
 26
0.0
 36
1.0
 17
0.0
 27
0.0
 37
0.0
 42
50.0
 43
0.0
 44
0.0
 45
8.992999745766947
 50
0.0
 51
0.0
 72
   100
 90
    32800
  1

281
     0
 71
     1
 74
     0
110
0.0
120
0.0
130
0.0
111
1.0
121
0.0
131
0.0
112
0.0
122
1.0
132
0.0
 79
     0
146
0.0
  0
ENDBLK
  5
1D
330
1B
100
AcDbEntity
 67
     1
  8
0
100
AcDbBlockEnd
  0
BLOCK
  5
93
330
91
100
AcDbEntity
  8
0
100
AcDbBlockBegin
  2
GENAXEH
 70
     0
 10
0.0
 20
0.0
 30
0.0
  3
GENAXEH
  1

  0
LINE
  5
92
330
91
100
AcDbEntity
  8
0
100
AcDbLine
 10
-1.0
 20
0.0
 30
0.0
 11
1.0
 21
0.0
 31
0.0
  0
ENDBLK
  5
94
330
91
100
AcDbEntity
  8
0
100
AcDbBlockEnd
  0
BLOCK
  5
1F9
330
1F8
100
AcDbEntity
  8
0
100
AcDbBlockBegin
  2
_Open30
 70
     0
 10
0.0
 20
0.0
 30
0.0
  3
_Open30
  1

  0
LINE
  5
1FA
330
1F8
100
AcDbEntity
  8
0
  6
ByBlock
 62
     0
370
    -2
100
AcDbLine
 10
-1.0
 20
0.26794919
 30
0.0
 11
0.0
 21
0.0
 31
0.0
  0
LINE
  5
1FB
330
1F8
100
AcDbEntity
  8
0
  6
ByBlock
 62
     0
370
    -2
100
AcDbLine
 10
0.0
 20
0.0
 30
0.0
 11
-1.0
 21
-0.26794919
 31
0.0
  0
LINE
  5
1FC
330
1F8
100
AcDbEntity
  8
0
  6
ByBlock
 62
     0
370
    -2
100
AcDbLine
 10
0.0
 20
0.0
 30
0.0
 11
-1.0
 21
0.0
 31
0.0
  0
ENDBLK
  5
1FD
330
1F8
100
AcDbEntity
  8
0
100
AcDbBlockEnd
  0
BLOCK
  5
AF2
330
AE9
100
AcDbEntity
  8
0
100
AcDbBlockBegin
  2
TK-A3
 70
     0
 10
0.0
 20
0.0
 30
0.0
  3
TK-A3
  1

  0
LINE
  5
AEA
330
AE9
100
AcDbEntity
  8
0
100
AcDbLine
 10
359.0
 20
280.0
 30
0.0
 11
359.0
 21
275.0
 31
0.0
  0
MTEXT
  5
AEB
330
AE9
100
AcDbEntity
  8
0
100
AcDbMText
 10
402.3592953827349
 20
276.108542987227
 30
0.0
 40
2.5
 41
43.07840397728298
 71
     9
 72
     5
  1
(文書番号：TY-34)2008.02.08
 73
     1
 44
1.0
1001
ACAD
1000
MTEXTBEGIN
1070
    73
1070
     1
1070
    44
1040
1.0
1070
    74
1070
     0
1000
MTEXTEND
  0
LINE
  5
AEC
330
AE9
100
AcDbEntity
  8
0
100
AcDbLine
 10
359.0
 20
275.0
 30
0.0
 11
403.0
 21
275.0
 31
0.0
  0
TEXT
  5
AED
330
AE9
100
AcDbEntity
  8
0
 60
     1
100
AcDbText
 10
403.0
 20
0.0
 30
0.0
 40
2.5
  1
!GENTITLE-INSERT
100
AcDbText
  0
TEXT
  5
AEE
330
AE9
100
AcDbEntity
  8
0
 60
     1
100
AcDbText
 10
0.0
 20
0.0
 30
0.0
 40
2.5
  1
!GENTITLE-LL
100
AcDbText
  0
TEXT
  5
AEF
330
AE9
100
AcDbEntity
  8
0
 60
     1
100
AcDbText
 10
403.0
 20
280.0
 30
0.0
 40
2.5
  1
!GENTITLE-MAX
100
AcDbText
  0
LWPOLYLINE
  5
AF0
330
AE9
100
AcDbEntity
  8
0
100
AcDbPolyline
 90
        4
 70
     1
 43
0.0
 10
0.0
 20
0.0
 10
403.0
 20
0.0
 10
403.0
 20
280.0
 10
0.0
 20
280.0000000000001
1001
GENIUS_GENREC_14
1002
{
1000
PYDIR
1011
0.0000000000000178
1021
280.0
1031
0.0
1002
}
1002
{
1000
PXDIR
1011
403.0
1021
0.0
1031
0.0
1002
}
1002
{
1000
PORI
1011
0.0
1021
0.0
1031
0.0
1002
}
1002
{
1000
PINS
1011
0.0
1021
0.0
1031
0.0
1002
}
1002
{
1000
PINS2
1011
403.0
1021
280.0
1031
0.0
1002
}
1002
{
1000
C
1070
     1
1002
}
1001
GENIUS_GENODEF_13
1002
{
1000
HIER
1070
     0
1002
}
1002
{
1000
MANEDIT
1070
     0
1002
}
1002
{
1000
NOSEL
1070
     0
1002
}
1002
{
1000
BEHIND
1070
     0
1002
}
1002
{
1000
OTHER
1070
     0
1002
}
1002
{
1000
REACTOR
1002
}
1001
GENIUS_GENOBJ-N-REC_13
1002
{
1000
OWNER
1000
GEN
1002
}
  0
ENDBLK
  5
AF3
330
AE9
100
AcDbEntity
  8
0
100
AcDbBlockEnd
  0
BLOCK
  5
B56
330
AFC
100
AcDbEntity
  8
0
100
AcDbBlockBegin
  2
TK-TITLE
 70
     2
 10
0.0
 20
0.0
 30
0.0
  3
TK-TITLE
  1

  0
LINE
  5
AFD
330
AFC
100
AcDbEntity
  8
0
100
AcDbLine
 10
-167.0
 20
12.49999999999996
 30
0.0
 11
-193.0000000000001
 21
12.49999999999996
 31
0.0
  0
LINE
  5
AFE
330
AFC
100
AcDbEntity
  8
0
100
AcDbLine
 10
-167.0
 20
37.49999999999998
 30
0.0
 11
-193.0000000000001
 21
37.49999999999998
 31
0.0
  0
ATTDEF
  5
AFF
330
AFC
100
AcDbEntity
  8
0
100
AcDbText
 10
-180.2171951662138
 20
3.588342537610664
 30
0.0
 40
3.0
  1

 72
     1
 11
-180.2171951662138
 21
3.588342537610664
 31
0.0
100
AcDbAttributeDefinition
  3
日付
  2
GEN-TITLE-DAT
 70
     0
 74
     1
  0
MTEXT
  5
B00
330
AFC
100
AcDbEntity
  8
RAHM2
100
AcDbMText
 10
-191.8002551371315
 20
11.3010354072796
 30
0.0
 40
2.5
 41
60.0
 71
     1
 72
     5
  1
日付
 73
     1
 44
1.0
1001
ACAD
1000
MTEXTBEGIN
1070
    73
1070
     1
1070
    44
1040
1.0
1070
    74
1070
     0
1000
MTEXTEND
  0
ATTDEF
  5
B01
330
AFC
100
AcDbEntity
  8
0
100
AcDbText
 10
-177.824739614424
 20
28.29999999999998
 30
0.0
 40
3.0
  1

 72
     2
 11
-177.824739614424
 21
28.29999999999998
 31
0.0
100
AcDbAttributeDefinition
  3
尺度
  2
GEN-TITLE-SCA
 70
     0
 74
     1
  0
MTEXT
  5
B02
330
AFC
100
AcDbEntity
  8
RAHM2
100
AcDbMText
 10
-191.8002551371315
 20
36.30103540727966
 30
0.0
 40
2.5
 41
20.0
 71
     1
 72
     5
  1
尺度
 73
     1
 44
1.0
1001
ACAD
1000
MTEXTBEGIN
1070
    73
1070
     1
1070
    44
1040
1.0
1070
    74
1070
     0
1000
MTEXTEND
  0
MTEXT
  5
B03
330
AFC
100
AcDbEntity
  8
RAHM2
100
AcDbMText
 10
-191.8002551371315
 20
23.80103540727963
 30
0.0
 40
2.5
 41
20.0
 71
     1
 72
     5
  1
数量
 73
     1
 44
1.0
1001
ACAD
1000
MTEXTBEGIN
1070
    73
1070
     1
1070
    44
1040
1.0
1070
    74
1070
     0
1000
MTEXTEND
  0
ATTDEF
  5
B04
330
AFC
100
AcDbEntity
  8
0
100
AcDbText
 10
-175.6127409126095
 20
15.79999999999994
 30
0.0
 40
3.0
  1

 72
     2
 11
-175.6127409126095
 21
15.79999999999994
 31
0.0
100
AcDbAttributeDefinition
  3
数量
  2
GEN-TITLE-QTY
 70
     0
 74
     1
  0
LINE
  5
B05
330
AFC
100
AcDbEntity
  8
0
100
AcDbLine
 10
-193.0000000000001
 20
49.99999999999999
 30
0.0
 11
-193.0000000000001
 21
-0.0000000000000142
 31
0.0
  0
LINE
  5
B06
330
AFC
100
AcDbEntity
  8
7A
100
AcDbLine
 10
-184.7167418745796
 20
43.74999999999995
 30
0.0
 11
-170.9354334742943
 21
43.74999999999995
 31
0.0
1001
GENIUS_GENOREF_13
1005
B54
  0
LINE
  5
B07
330
AFC
100
AcDbEntity
  8
0
100
AcDbLine
 10
-179.7167418745796
 20
45.74999999999994
 30
0.0
 11
-171.7167418745796
 21
46.74999999999995
 31
0.0
  0
LINE
  5
B08
330
AFC
100
AcDbEntity
  8
0
100
AcDbLine
 10
-171.7167418745796
 20
40.74999999999994
 30
0.0
 11
-179.7167418745796
 21
41.74999999999995
 31
0.0
  0
LINE
  5
B09
330
AFC
100
AcDbEntity
  8
7A
100
AcDbLine
 10
-184.7167418745796
 20
43.74999999999995
 30
0.0
 11
-184.7167418745796
 21
47.32478664473144
 31
0.0
1001
GENIUS_GENOREF_13
1005
B54
  0
CIRCLE
  5
B0A
330
AFC
100
AcDbEntity
  8
0
100
AcDbCircle
 10
-184.7167418745796
 20
43.74999999999995
 30
0.0
 40
2.0
  0
CIRCLE
  5
B0B
330
AFC
100
AcDbEntity
  8
0
100
AcDbCircle
 10
-184.7167418745796
 20
43.74999999999995
 30
0.0
 40
3.0
  0
LINE
  5
B0C
330
AFC
100
AcDbEntity
  8
0
100
AcDbLine
 10
-179.7167418745796
 20
41.74999999999995
 30
0.0
 11
-179.7167418745796
 21
45.74999999999994
 31
0.0
  0
LINE
  5
B0D
330
AFC
100
AcDbEntity
  8
7A
100
AcDbLine
 10
-184.7167418745796
 20
43.74999999999995
 30
0.0
 11
-188.4397792458307
 21
43.74999999999995
 31
0.0
1001
GENIUS_GENOREF_13
1005
B54
  0
LINE
  5
B0E
330
AFC
100
AcDbEntity
  8
7A
100
AcDbLine
 10
-184.7167418745796
 20
43.74999999999995
 30
0.0
 11
-184.7167418745796
 21
40.03991724228473
 31
0.0
1001
GENIUS_GENOREF_13
1005
B54
  0
LINE
  5
B0F
330
AFC
100
AcDbEntity
  8
0
100
AcDbLine
 10
-171.7167418745796
 20
46.74999999999995
 30
0.0
 11
-171.7167418745796
 21
40.74999999999994
 31
0.0
  0
LINE
  5
B10
330
AFC
100
AcDbEntity
  8
0
100
AcDbLine
 10
-167.0
 20
24.99999999999997
 30
0.0
 11
-193.0000000000001
 21
24.99999999999997
 31
0.0
  0
LINE
  5
B11
330
AFC
100
AcDbEntity
  8
0
100
AcDbLine
 10
-167.0
 20
39.99999999999991
 30
0.0
 11
-96.0
 21
39.99999999999992
 31
0.0
  0
MTEXT
  5
B12
330
AFC
100
AcDbEntity
  8
RAHM2
100
AcDbMText
 10
-165.8002551371314
 20
38.80103540727956
 30
0.0
 40
2.5
 41
60.0
 71
     1
 72
     5
  1
表面処理
 73
     1
 44
1.0
1001
ACAD
1000
MTEXTBEGIN
1070
    73
1070
     1
1070
    44
1040
1.0
1070
    74
1070
     0
1000
MTEXTEND
  0
MTEXT
  5
B13
330
AFC
100
AcDbEntity
  8
RAHM2
100
AcDbMText
 10
-165.8002551371314
 20
48.80103540727955
 30
0.0
 40
2.5
 41
60.0
 71
     1
 72
     5
  1
材質
 73
     1
 44
1.0
1001
ACAD
1000
MTEXTBEGIN
1070
    73
1070
     1
1070
    44
1040
1.0
1070
    74
1070
     0
1000
MTEXTEND
  0
ATTDEF
  5
B14
330
AFC
100
AcDbEntity
  8
0
100
AcDbText
 10
-148.9618675835291
 20
33.29999999999991
 30
0.0
 40
3.0
  1

100
AcDbAttributeDefinition
  3
表面処理
  2
GEN-TITLE-MAT2
 70
     0
  0
ATTDEF
  5
B15
330
AFC
100
AcDbEntity
  8
0
100
AcDbText
 10
-148.9618675835291
 20
43.29999999999991
 30
0.0
 40
3.0
  1

100
AcDbAttributeDefinition
  3
材質
  2
GEN-TITLE-MAT1
 70
     0
  0
MTEXT
  5
B16
330
AFC
100
AcDbEntity
  8
0
100
AcDbMText
 10
-131.5000000000001
 20
24.99999999999992
 30
0.0
 40
3.5
 41
60.0
 71
     5
 72
     5
  1
\fＭＳ ゴシック|b0|i0|c128|p49;株式会社タカチ電機工業
 73
     1
 44
1.0
1001
ACAD
1000
MTEXTBEGIN
1070
    73
1070
     1
1070
    44
1040
1.0
1070
    74
1070
     0
1000
MTEXTEND
  0
LINE
  5
B17
330
AFC
100
AcDbEntity
  8
0
100
AcDbLine
 10
-167.0
 20
29.99999999999992
 30
0.0
 11
-96.0
 21
29.99999999999992
 31
0.0
  0
MTEXT
  5
B18
330
AFC
100
AcDbEntity
  8
RAHM2
100
AcDbMText
 10
-158.1250000000001
 20
18.80103540727956
 30
0.0
 40
2.5
 41
17.0
 71
     2
 72
     5
  1
承認
 73
     1
 44
1.0
1001
ACAD
1000
MTEXTBEGIN
1070
    73
1070
     1
1070
    44
1040
1.0
1070
    74
1070
     0
1000
MTEXTEND
  0
MTEXT
  5
B19
330
AFC
100
AcDbEntity
  8
RAHM2
100
AcDbMText
 10
-140.3750000000001
 20
18.80103540727958
 30
0.0
 40
2.5
 41
17.0
 71
     2
 72
     5
  1
承認
 73
     1
 44
1.0
1001
ACAD
1000
MTEXTBEGIN
1070
    73
1070
     1
1070
    44
1040
1.0
1070
    74
1070
     0
1000
MTEXTEND
  0
LINE
  5
B1A
330
AFC
100
AcDbEntity
  8
0
100
AcDbLine
 10
-149.2500000000001
 20
19.99999999999993
 30
0.0
 11
-149.2500000000001
 21
-0.0000000000000462
 31
0.0
  0
LINE
  5
B1B
330
AFC
100
AcDbEntity
  8
0
100
AcDbLine
 10
-167.0
 20
49.99999999999995
 30
0.0
 11
-167.0
 21
-0.0000000000000497
 31
0.0
  0
MTEXT
  5
B1C
330
AFC
100
AcDbEntity
  8
RAHM2
100
AcDbMText
 10
-122.6250000000001
 20
18.80103540727958
 30
0.0
 40
2.5
 41
17.0
 71
     2
 72
     5
  1
検図
 73
     1
 44
1.0
1001
ACAD
1000
MTEXTBEGIN
1070
    73
1070
     1
1070
    44
1040
1.0
1070
    74
1070
     0
1000
MTEXTEND
  0
LINE
  5
B1D
330
AFC
100
AcDbEntity
  8
0
100
AcDbLine
 10
-131.5000000000001
 20
19.99999999999993
 30
0.0
 11
-131.5000000000001
 21
-0.0000000000000533
 31
0.0
  0
LINE
  5
B1E
330
AFC
100
AcDbEntity
  8
0
100
AcDbLine
 10
-113.75
 20
19.99999999999993
 30
0.0
 11
-113.75
 21
-0.0000000000000533
 31
0.0
  0
LINE
  5
B1F
330
AFC
100
AcDbEntity
  8
0
100
AcDbLine
 10
-167.0
 20
19.99999999999993
 30
0.0
 11
-96.0
 21
19.99999999999993
 31
0.0
  0
MTEXT
  5
B20
330
AFC
100
AcDbEntity
  8
RAHM2
100
AcDbMText
 10
-104.875
 20
18.80103540727957
 30
0.0
 40
2.5
 41
17.0
 71
     2
 72
     5
  1
製図
 73
     1
 44
1.0
1001
ACAD
1000
MTEXTBEGIN
1070
    73
1070
     1
1070
    44
1040
1.0
1070
    74
1070
     0
1000
MTEXTEND
  0
MTEXT
  5
B21
330
AFC
100
AcDbEntity
  8
RAHM2
100
AcDbMText
 10
-16.85742592933491
 20
3.434762466565985
 30
0.0
 40
2.5
 41
7.936478436748416
 71
     5
 72
     5
  1
Rev.
 73
     1
 44
1.0
1001
ACAD
1000
MTEXTBEGIN
1070
    73
1070
     1
1070
    44
1040
1.0
1070
    74
1070
     0
1000
MTEXTEND
  0
LINE
  5
B22
330
AFC
100
AcDbEntity
  8
0
100
AcDbLine
 10
-21.17541926625711
 20
0.0
 30
0.0
 11
-21.17541926625734
 21
7.0
 31
0.0
  0
LINE
  5
B23
330
AFC
100
AcDbEntity
  8
RAHM2
100
AcDbLine
 10
-96.0
 20
29.99999999999992
 30
0.0
 11
0.0000000000001137
 21
30.00000000000003
 31
0.0
  0
LINE
  5
B24
330
AFC
100
AcDbEntity
  8
RAHM2
100
AcDbLine
 10
-96.0
 20
35.00000000000003
 30
0.0
 11
0.0000000000001137
 21
35.00000000000003
 31
0.0
  0
LINE
  5
B25
330
AFC
100
AcDbEntity
  8
RAHM2
100
AcDbLine
 10
-96.0
 20
39.99999999999993
 30
0.0
 11
0.0000000000001137
 21
40.00000000000002
 31
0.0
  0
LINE
  5
B26
330
AFC
100
AcDbEntity
  8
RAHM2
100
AcDbLine
 10
-96.0
 20
45.00000000000002
 30
0.0
 11
0.0000000000001137
 21
45.00000000000002
 31
0.0
  0
LINE
  5
B27
330
AFC
100
AcDbEntity
  8
0
100
AcDbLine
 10
-96.0
 20
7.0
 30
0.0
 11
0.0000000000001137
 21
7.0
 31
0.0
  0
LINE
  5
B28
330
AFC
100
AcDbEntity
  8
0
100
AcDbLine
 10
-96.0
 20
19.99999999999997
 30
0.0
 11
0.0000000000001137
 21
19.99999999999997
 31
0.0
  0
MTEXT
  5
B29
330
AFC
100
AcDbEntity
  8
RAHM2
100
AcDbMText
 10
-94.80025513713144
 20
5.801035407279627
 30
0.0
 40
2.5
 41
90.0
 71
     1
 72
     5
  1
図番
 73
     1
 44
1.0
1001
ACAD
1000
MTEXTBEGIN
1070
    73
1070
     1
1070
    44
1040
1.0
1070
    74
1070
     0
1000
MTEXTEND
  0
LINE
  5
B2A
330
AFC
100
AcDbEntity
  8
RAHM2
100
AcDbLine
 10
-88.57512886940355
 20
30.40000000000002
 30
0.0
 11
-91.0
 21
34.60000000000001
 31
0.0
  0
LINE
  5
B2B
330
AFC
100
AcDbEntity
  8
RAHM2
100
AcDbLine
 10
-91.0
 20
34.60000000000001
 30
0.0
 11
-93.42487113059645
 21
30.40000000000002
 31
0.0
  0
LINE
  5
B2C
330
AFC
100
AcDbEntity
  8
RAHM2
100
AcDbLine
 10
-86.0
 20
50.00000000000001
 30
0.0
 11
-86.0
 21
19.99999999999993
 31
0.0
  0
LINE
  5
B2D
330
AFC
100
AcDbEntity
  8
RAHM2
100
AcDbLine
 10
-93.42487113059645
 20
30.40000000000002
 30
0.0
 11
-88.57512886940355
 21
30.40000000000002
 31
0.0
  0
MTEXT
  5
B2E
330
AFC
100
AcDbEntity
  8
RAHM2
100
AcDbMText
 10
-91.0
 20
22.49999999999996
 30
0.0
 40
2.5
 41
10.0
 71
     5
 72
     5
  1
符号
 73
     1
 44
1.0
1001
ACAD
1000
MTEXTBEGIN
1070
    73
1070
     1
1070
    44
1040
1.0
1070
    74
1070
     0
1000
MTEXTEND
  0
MTEXT
  5
B2F
330
AFC
100
AcDbEntity
  8
RAHM2
100
AcDbMText
 10
-94.80025513713144
 20
18.8010354072796
 30
0.0
 40
2.5
 41
90.0
 71
     1
 72
     5
  1
品名
 73
     1
 44
1.0
1001
ACAD
1000
MTEXTBEGIN
1070
    73
1070
     1
1070
    44
1040
1.0
1070
    74
1070
     0
1000
MTEXTEND
  0
LINE
  5
B30
330
AFC
100
AcDbEntity
  8
RAHM2
100
AcDbLine
 10
-93.42487113059645
 20
45.40000000000001
 30
0.0
 11
-88.57512886940355
 21
45.40000000000001
 31
0.0
  0
LINE
  5
B31
330
AFC
100
AcDbEntity
  8
RAHM2
100
AcDbLine
 10
-88.57512886940355
 20
45.40000000000001
 30
0.0
 11
-91.0
 21
49.6
 31
0.0
  0
LINE
  5
B32
330
AFC
100
AcDbEntity
  8
RAHM2
100
AcDbLine
 10
-93.42487113059645
 20
40.40000000000001
 30
0.0
 11
-88.57512886940355
 21
40.40000000000001
 31
0.0
  0
LINE
  5
B33
330
AFC
100
AcDbEntity
  8
RAHM2
100
AcDbLine
 10
-88.57512886940355
 20
40.40000000000001
 30
0.0
 11
-91.0
 21
44.6
 31
0.0
  0
LINE
  5
B34
330
AFC
100
AcDbEntity
  8
RAHM2
100
AcDbLine
 10
-93.42487113059645
 20
35.40000000000002
 30
0.0
 11
-88.57512886940355
 21
35.40000000000002
 31
0.0
  0
LINE
  5
B35
330
AFC
100
AcDbEntity
  8
RAHM2
100
AcDbLine
 10
-88.57512886940355
 20
35.40000000000002
 30
0.0
 11
-91.0
 21
39.60000000000001
 31
0.0
  0
LINE
  5
B36
330
AFC
100
AcDbEntity
  8
RAHM2
100
AcDbLine
 10
-91.0
 20
39.60000000000001
 30
0.0
 11
-93.42487113059645
 21
35.40000000000002
 31
0.0
  0
LINE
  5
B37
330
AFC
100
AcDbEntity
  8
RAHM2
100
AcDbLine
 10
-91.0
 20
44.6
 30
0.0
 11
-93.42487113059645
 21
40.40000000000001
 31
0.0
  0
LINE
  5
B38
330
AFC
100
AcDbEntity
  8
RAHM2
100
AcDbLine
 10
-91.0
 20
49.6
 30
0.0
 11
-93.42487113059645
 21
45.40000000000001
 31
0.0
  0
LINE
  5
B39
330
AFC
100
AcDbEntity
  8
RAHM2
100
AcDbLine
 10
-31.82081941068907
 20
50.00000000000003
 30
0.0
 11
-31.82081941068918
 21
19.99999999999994
 31
0.0
  0
MTEXT
  5
B3A
330
AFC
100
AcDbEntity
  8
RAHM2
100
AcDbMText
 10
-59.0
 20
22.49999999999996
 30
0.0
 40
2.5
 41
45.0
 71
     5
 72
     5
  1
変更記事
 73
     1
 44
1.0
1001
ACAD
1000
MTEXTBEGIN
1070
    73
1070
     1
1070
    44
1040
1.0
1070
    74
1070
     0
1000
MTEXTEND
  0
LINE
  5
B3B
330
AFC
100
AcDbEntity
  8
RAHM2
100
AcDbLine
 10
-11.82081941068907
 20
50.00000000000003
 30
0.0
 11
-11.82081941068907
 21
19.99999999999994
 31
0.0
  0
MTEXT
  5
B3C
330
AFC
100
AcDbEntity
  8
RAHM2
100
AcDbMText
 10
-22.27910888308327
 20
32.50000000000003
 30
0.0
 40
2.5
 41
20.0
 71
     5
 72
     5
  1
・  ・   
 73
     1
 44
1.0
1001
ACAD
1000
MTEXTBEGIN
1070
    73
1070
     1
1070
    44
1040
1.0
1070
    74
1070
     0
1000
MTEXTEND
  0
MTEXT
  5
B3D
330
AFC
100
AcDbEntity
  8
RAHM2
100
AcDbMText
 10
-21.55893921569111
 20
22.49999999999997
 30
0.0
 40
2.5
 41
20.0
 71
     5
 72
     5
  1
年・月・日
 73
     1
 44
1.0
1001
ACAD
1000
MTEXTBEGIN
1070
    73
1070
     1
1070
    44
1040
1.0
1070
    74
1070
     0
1000
MTEXTEND
  0
MTEXT
  5
B3E
330
AFC
100
AcDbEntity
  8
RAHM2
100
AcDbMText
 10
-5.910409705344477
 20
22.49999999999997
 30
0.0
 40
2.5
 41
15.0
 71
     5
 72
     5
  1
担当
 73
     1
 44
1.0
1001
ACAD
1000
MTEXTBEGIN
1070
    73
1070
     1
1070
    44
1040
1.0
1070
    74
1070
     0
1000
MTEXTEND
  0
MTEXT
  5
B3F
330
AFC
100
AcDbEntity
  8
RAHM2
100
AcDbMText
 10
-22.27910888308327
 20
42.50000000000002
 30
0.0
 40
2.5
 41
20.0
 71
     5
 72
     5
  1
・  ・   
 73
     1
 44
1.0
1001
ACAD
1000
MTEXTBEGIN
1070
    73
1070
     1
1070
    44
1040
1.0
1070
    74
1070
     0
1000
MTEXTEND
  0
MTEXT
  5
B40
330
AFC
100
AcDbEntity
  8
RAHM2
100
AcDbMText
 10
-22.27910888308327
 20
37.50000000000003
 30
0.0
 40
2.5
 41
20.0
 71
     5
 72
     5
  1
・  ・   
 73
     1
 44
1.0
1001
ACAD
1000
MTEXTBEGIN
1070
    73
1070
     1
1070
    44
1040
1.0
1070
    74
1070
     0
1000
MTEXTEND
  0
MTEXT
  5
B41
330
AFC
100
AcDbEntity
  8
RAHM2
100
AcDbMText
 10
-22.27910888308327
 20
47.50000000000002
 30
0.0
 40
2.5
 41
20.0
 71
     5
 72
     5
  1
・  ・   
 73
     1
 44
1.0
1001
ACAD
1000
MTEXTBEGIN
1070
    73
1070
     1
1070
    44
1040
1.0
1070
    74
1070
     0
1000
MTEXTEND
  0
LINE
  5
B42
330
AFC
100
AcDbEntity
  8
RAHM2
100
AcDbLine
 10
-91.0
 20
29.60000000000001
 30
0.0
 11
-93.42487113059645
 21
25.40000000000002
 31
0.0
  0
LINE
  5
B43
330
AFC
100
AcDbEntity
  8
RAHM2
100
AcDbLine
 10
-88.57512886940355
 20
25.40000000000002
 30
0.0
 11
-91.0
 21
29.60000000000001
 31
0.0
  0
LINE
  5
B44
330
AFC
100
AcDbEntity
  8
RAHM2
100
AcDbLine
 10
-93.42487113059645
 20
25.40000000000002
 30
0.0
 11
-88.57512886940355
 21
25.40000000000002
 31
0.0
  0
LINE
  5
B45
330
AFC
100
AcDbEntity
  8
RAHM2
100
AcDbLine
 10
-96.0
 20
25.0
 30
0.0
 11
0.0000000000001137
 21
25.00000000000003
 31
0.0
  0
MTEXT
  5
B46
330
AFC
100
AcDbEntity
  8
RAHM2
100
AcDbMText
 10
-22.27910888308327
 20
27.50000000000003
 30
0.0
 40
2.5
 41
20.0
 71
     5
 72
     5
  1
・  ・   
 73
     1
 44
1.0
1001
ACAD
1000
MTEXTBEGIN
1070
    73
1070
     1
1070
    44
1040
1.0
1070
    74
1070
     0
1000
MTEXTEND
  0
TEXT
  5
B47
330
AFC
100
AcDbEntity
  8
RAHM2
100
AcDbText
 10
-91.81558635658019
 20
25.65000000000002
 30
0.0
 40
2.5
  1
1
 72
     1
 11
-91.19058635658019
 21
25.65000000000002
 31
0.0
100
AcDbText
 73
     1
  0
TEXT
  5
B48
330
AFC
100
AcDbEntity
  8
RAHM2
100
AcDbText
 10
-91.91833169291339
 20
30.65000000000002
 30
0.0
 40
2.5
  1
2
 72
     1
 11
-91.0
 21
30.65000000000002
 31
0.0
100
AcDbText
 73
     1
  0
TEXT
  5
B49
330
AFC
100
AcDbEntity
  8
RAHM2
100
AcDbText
 10
-91.92677669529663
 20
35.64999999999999
 30
0.0
 40
2.5
  1
3
 72
     1
 11
-91.0
 21
35.64999999999999
 31
0.0
100
AcDbText
 73
     1
  0
TEXT
  5
B4A
330
AFC
100
AcDbEntity
  8
RAHM2
100
AcDbText
 10
-92.0
 20
40.65000000000002
 30
0.0
 40
2.5
  1
4
 72
     1
 11
-91.0
 21
40.65000000000002
 31
0.0
100
AcDbText
 73
     1
  0
TEXT
  5
B4B
330
AFC
100
AcDbEntity
  8
RAHM2
100
AcDbText
 10
-91.92677669529663
 20
45.65000000000002
 30
0.0
 40
2.5
  1
5
 72
     1
 11
-91.0
 21
45.65000000000002
 31
0.0
100
AcDbText
 73
     1
  0
LINE
  5
B4C
330
AFC
100
AcDbEntity
  8
0
100
AcDbLine
 10
-193.0000000000001
 20
0.0
 30
0.0
 11
0.0
 21
0.0
 31
0.0
1001
GENIUS_GENREC_14
1002
{
1000
PYDIR
1011
-184.0
1021
50.0
1031
0.0
1002
}
1002
{
1000
PXDIR
1011
0.0
1021
0.0
1031
0.0
1002
}
1002
{
1000
PORI
1011
-184.0
1021
0.0
1031
0.0
1002
}
1002
{
1000
PINS
1011
-100.5
1021
25.0
1031
0.0
1002
}
1002
{
1000
HVAL
1000
50
1002
}
1002
{
1000
H
1070
     2
1002
}
1002
{
1000
WVAL
1000
167
1002
}
1002
{
1000
W
1070
     2
1002
}
1002
{
1000
C
1070
     4
1002
}
1001
GENIUS_GENODEF_13
1002
{
1000
HIER
1070
     0
1002
}
1002
{
1000
MANEDIT
1070
     0
1002
}
1002
{
1000
NOSEL
1070
     0
1002
}
1002
{
1000
BEHIND
1070
     0
1002
}
1002
{
1000
REACTOR
1002
}
1001
GENIUS_GENOBJ-N-REC_13
1002
{
1000
OWNER
1000
GEN
1002
}
  0
LINE
  5
B4D
330
AFC
100
AcDbEntity
  8
0
100
AcDbLine
 10
0.0
 20
50.0
 30
0.0
 11
-193.0000000000001
 21
50.00000000000002
 31
0.0
1001
GENIUS_GENREC_14
1002
{
1000
PYDIR
1011
-184.0
1021
50.0
1031
0.0
1002
}
1002
{
1000
PXDIR
1011
0.0
1021
0.0
1031
0.0
1002
}
1002
{
1000
PORI
1011
-184.0
1021
0.0
1031
0.0
1002
}
1002
{
1000
PINS
1011
-100.5
1021
25.0
1031
0.0
1002
}
1002
{
1000
HVAL
1000
50
1002
}
1002
{
1000
H
1070
     2
1002
}
1002
{
1000
WVAL
1000
167
1002
}
1002
{
1000
W
1070
     2
1002
}
1002
{
1000
C
1070
     4
1002
}
1001
GENIUS_GENODEF_13
1002
{
1000
HIER
1070
     0
1002
}
1002
{
1000
MANEDIT
1070
     0
1002
}
1002
{
1000
NOSEL
1070
     0
1002
}
1002
{
1000
BEHIND
1070
     0
1002
}
1002
{
1000
REACTOR
1002
}
1001
GENIUS_GENOBJ-N-REC_13
1002
{
1000
OWNER
1000
GEN
1002
}
  0
LINE
  5
B4E
330
AFC
100
AcDbEntity
  8
0
100
AcDbLine
 10
-96.0
 20
50.00000000000001
 30
0.0
 11
-96.0
 21
-0.0000000000000142
 31
0.0
1001
GENIUS_GENREC_14
1002
{
1000
PYDIR
1011
-96.0
1021
49.99999999999999
1031
0.0
1002
}
1002
{
1000
PXDIR
1011
88.0
1021
-0.0000000000000142
1031
0.0
1002
}
1002
{
1000
PORI
1011
-96.0
1021
-0.0000000000000142
1031
0.0
1002
}
1002
{
1000
PINS
1011
-12.5
1021
24.99999999999999
1031
0.0
1002
}
1002
{
1000
HVAL
1000
50
1002
}
1002
{
1000
H
1070
     2
1002
}
1002
{
1000
WVAL
1000
167
1002
}
1002
{
1000
W
1070
     2
1002
}
1002
{
1000
C
1070
     4
1002
}
1001
GENIUS_GENODEF_13
1002
{
1000
HIER
1070
     0
1002
}
1002
{
1000
MANEDIT
1070
     0
1002
}
1002
{
1000
NOSEL
1070
     0
1002
}
1002
{
1000
BEHIND
1070
     0
1002
}
1002
{
1000
REACTOR
1002
}
1001
GENIUS_GENOBJ-N-REC_13
1002
{
1000
OWNER
1000
GEN
1002
}
  0
ATTDEF
  5
B4F
330
AFC
100
AcDbEntity
  8
0
100
AcDbText
 10
-84.0
 20
1.999999999999957
 30
0.0
 40
3.0
  1

100
AcDbAttributeDefinition
  3
図番
  2
GEN-TITLE-NR1
 70
     0
  0
ATTDEF
  5
B50
330
AFC
100
AcDbEntity
  8
0
100
AcDbText
 10
-84.0
 20
9.149999999999948
 30
0.0
 40
2.5
  1

100
AcDbAttributeDefinition
  3
サブタイトル
  2
GEN-TITLE-DES2
 70
     0
  0
LINE
  5
B51
330
AFC
100
AcDbEntity
  8
0
100
AcDbLine
 10
0.0
 20
0.0
 30
0.0
 11
0.0
 21
50.0
 31
0.0
1001
GENIUS_GENREC_14
1002
{
1000
PYDIR
1011
-414.0
1021
291.0
1031
0.0
1002
}
1002
{
1000
PXDIR
1011
6.0
1021
-6.0
1031
0.0
1002
}
1002
{
1000
PORI
1011
-414.0
1021
-6.0
1031
0.0
1002
}
1002
{
1000
PINS
1011
-414.0
1021
-6.0
1031
0.0
1002
}
1002
{
1000
HVAL
1000
297
1002
}
1002
{
1000
H
1070
     2
1002
}
1002
{
1000
WVAL
1000
420
1002
}
1002
{
1000
W
1070
     2
1002
}
1002
{
1000
C
1070
     1
1002
}
1001
GENIUS_GENODEF_13
1002
{
1000
HIER
1070
     0
1002
}
1002
{
1000
MANEDIT
1070
     0
1002
}
1002
{
1000
NOSEL
1070
     0
1002
}
1002
{
1000
BEHIND
1070
     0
1002
}
1002
{
1000
OTHER
1070
     0
1002
}
1002
{
1000
REACTOR
1002
}
1001
GENIUS_GENOBJ-N-REC_13
1002
{
1000
OWNER
1000
GEN
1002
}
  0
ATTDEF
  5
B52
330
AFC
100
AcDbEntity
  8
0
100
AcDbText
 10
-84.14251901585329
 20
12.82790432564377
 30
0.0
 40
3.5
  1

100
AcDbAttributeDefinition
  3
品名
  2
GEN-TITLE-DES1
 70
     0
  0
ATTDEF
  5
B53
330
AFC
100
AcDbEntity
  8
0
100
AcDbText
 10
-8.002309189545826
 20
1.705189434395036
 30
0.0
 40
2.5
  1

100
AcDbAttributeDefinition
  3
Rev.
  2
GEN-TITLE-NR2
 70
     0
  0
POINT
  5
B54
330
AFC
100
AcDbEntity
  8
0
 60
     1
100
AcDbPoint
 10
-418.5355579819675
 20
-138.1104841268254
 30
0.0
1001
GENIUS_GENODEF_13
1002
{
1000
HIER
1070
    10
1002
}
1002
{
1000
MANEDIT
1070
     0
1002
}
1002
{
1000
NOSEL
1070
     0
1002
}
1002
{
1000
BEHIND
1070
     0
1002
}
1002
{
1000
REACTOR
1002
}
1001
GENIUS_GENOBJ-N-CRS_13
1002
{
1000
OWNER
1000
GEN
1002
}
1001
GENIUS_GENOENT_13
1002
{
1000
MYREF
1005
B54
1002
}
1002
{
1000
GRP
1005
0
1002
}
1001
GENIUS_GENOLIS_13
1002
{
1000
ENT
1005
B0E
1005
B0D
1005
B09
1005
B06
1002
}
  0
ENDBLK
  5
B57
330
AFC
100
AcDbEntity
  8
0
100
AcDbBlockEnd
  0
BLOCK
  5
3D8E
330
3D56
100
AcDbEntity
  8
0
100
AcDbBlockBegin
  2
*D6
 70
     1
 10
0.0
 20
0.0
 30
0.0
  3
*D6
  1

  0
LINE
  5
4360
330
3D56
100
AcDbEntity
  8
AM_5
 62
     3
100
AcDbLine
 10
732.648636400645
 20
622.4999999999997
 30
0.0
 11
732.648636400645
 21
659.0000010100002
 31
0.0
  0
LINE
  5
4361
330
3D56
100
AcDbEntity
  8
AM_5
 62
     3
100
AcDbLine
 10
787.648636400645
 20
622.535730633532
 30
0.0
 11
787.648636400645
 21
659.0000010100002
 31
0.0
  0
LINE
  5
4362
330
3D56
100
AcDbEntity
  8
AM_5
 62
     3
100
AcDbLine
 10
740.148636400645
 20
656.0000010100002
 30
0.0
 11
780.148636400645
 21
656.0000010100002
 31
0.0
  0
INSERT
  5
4363
330
3D56
100
AcDbEntity
  8
AM_5
 62
     3
100
AcDbBlockReference
  2
_Open30
 10
732.648636400645
 20
656.0000010100002
 30
0.0
 41
7.5
 42
7.5
 43
7.5
 50
180.0
  0
INSERT
  5
4364
330
3D56
100
AcDbEntity
  8
AM_5
 62
     3
100
AcDbBlockReference
  2
_Open30
 10
787.648636400645
 20
656.0000010100002
 30
0.0
 41
7.5
 42
7.5
 43
7.5
  0
MTEXT
  5
4365
330
3D56
100
AcDbEntity
  8
AM_5
 62
     2
100
AcDbMText
 10
760.148636400645
 20
665.7500010100002
 30
0.0
 40
10.5
 41
0.0
 71
     5
 72
     1
  1
55
 73
     1
 44
1.0
1001
ACAD
1000
MTEXTBEGIN
1070
    73
1070
     1
1070
    44
1040
1.0
1070
    74
1070
     0
1000
MTEXTEND
  0
POINT
  5
4366
330
3D56
100
AcDbEntity
  8
Defpoints
 62
     0
100
AcDbPoint
 10
732.648636400645
 20
619.4999999999997
 30
0.0
  0
POINT
  5
4367
330
3D56
100
AcDbEntity
  8
Defpoints
 62
     0
100
AcDbPoint
 10
787.648636400645
 20
619.535730633532
 30
0.0
  0
POINT
  5
4368
330
3D56
100
AcDbEntity
  8
Defpoints
 62
     0
100
AcDbPoint
 10
787.648636400645
 20
656.0000010100002
 30
0.0
  0
ENDBLK
  5
3D8F
330
3D56
100
AcDbEntity
  8
0
100
AcDbBlockEnd
  0
BLOCK
  5
4311
330
42FB
100
AcDbEntity
  8
0
100
AcDbBlockBegin
  2
*D7
 70
     1
 10
0.0
 20
0.0
 30
0.0
  3
*D7
  1

  0
LINE
  5
4369
330
42FB
100
AcDbEntity
  8
AM_5
 62
     3
100
AcDbLine
 10
350.3800840851639
 20
620.0000000000001
 30
0.0
 11
304.3800830751639
 21
620.0000000000001
 31
0.0
  0
LINE
  5
436A
330
42FB
100
AcDbEntity
  8
AM_5
 62
     3
100
AcDbLine
 10
350.3800840851639
 20
219.9999999999998
 30
0.0
 11
304.3800830751639
 21
219.9999999999998
 31
0.0
  0
LINE
  5
436B
330
42FB
100
AcDbEntity
  8
AM_5
 62
     3
100
AcDbLine
 10
307.3800830751639
 20
612.5
 30
0.0
 11
307.3800830751638
 21
227.4999999999998
 31
0.0
  0
INSERT
  5
436C
330
42FB
100
AcDbEntity
  8
AM_5
 62
     3
100
AcDbBlockReference
  2
_Open30
 10
307.3800830751639
 20
620.0000000000001
 30
0.0
 41
7.5
 42
7.5
 43
7.5
 50
90.0
  0
INSERT
  5
436D
330
42FB
100
AcDbEntity
  8
AM_5
 62
     3
100
AcDbBlockReference
  2
_Open30
 10
307.3800830751638
 20
219.9999999999998
 30
0.0
 41
7.5
 42
7.5
 43
7.5
 50
270.0
  0
MTEXT
  5
436E
330
42FB
100
AcDbEntity
  8
AM_5
 62
     2
100
AcDbMText
 10
297.6300830751638
 20
420.0000000000001
 30
0.0
 40
10.5
 41
0.0
 71
     5
 72
     1
  1
400
 11
0.0000000000000001
 21
1.0
 31
0.0
 73
     1
 44
1.0
1001
ACAD
1000
MTEXTBEGIN
1070
    73
1070
     1
1070
    44
1040
1.0
1070
    74
1070
     0
1000
MTEXTEND
  0
POINT
  5
436F
330
42FB
100
AcDbEntity
  8
Defpoints
 62
     0
100
AcDbPoint
 10
353.380084085164
 20
620.0000000000001
 30
0.0
  0
POINT
  5
4370
330
42FB
100
AcDbEntity
  8
Defpoints
 62
     0
100
AcDbPoint
 10
353.380084085164
 20
219.9999999999998
 30
0.0
  0
POINT
  5
4371
330
42FB
100
AcDbEntity
  8
Defpoints
 62
     0
100
AcDbPoint
 10
307.3800830751638
 20
219.9999999999998
 30
0.0
  0
ENDBLK
  5
4312
330
42FB
100
AcDbEntity
  8
0
100
AcDbBlockEnd
  0
BLOCK
  5
434B
330
4335
100
AcDbEntity
  8
0
100
AcDbBlockBegin
  2
*D8
 70
     1
 10
0.0
 20
0.0
 30
0.0
  3
*D8
  1

  0
LINE
  5
4372
330
4335
100
AcDbEntity
  8
AM_5
 62
     3
100
AcDbLine
 10
343.380084085164
 20
612.9999999999999
 30
0.0
 11
343.380084085164
 21
659.0000010100002
 31
0.0
  0
LINE
  5
4373
330
4335
100
AcDbEntity
  8
AM_5
 62
     3
100
AcDbLine
 10
543.3800840851642
 20
613.0
 30
0.0
 11
543.3800840851642
 21
659.0000010100002
 31
0.0
  0
LINE
  5
4374
330
4335
100
AcDbEntity
  8
AM_5
 62
     3
100
AcDbLine
 10
350.880084085164
 20
656.0000010100002
 30
0.0
 11
535.8800840851642
 21
656.0000010100002
 31
0.0
  0
INSERT
  5
4375
330
4335
100
AcDbEntity
  8
AM_5
 62
     3
100
AcDbBlockReference
  2
_Open30
 10
343.380084085164
 20
656.0000010100002
 30
0.0
 41
7.5
 42
7.5
 43
7.5
 50
180.0
  0
INSERT
  5
4376
330
4335
100
AcDbEntity
  8
AM_5
 62
     3
100
AcDbBlockReference
  2
_Open30
 10
543.3800840851642
 20
656.0000010100002
 30
0.0
 41
7.5
 42
7.5
 43
7.5
  0
MTEXT
  5
4377
330
4335
100
AcDbEntity
  8
AM_5
 62
     2
100
AcDbMText
 10
443.380084085164
 20
665.7510344745672
 30
0.0
 40
10.5
 41
0.0
 71
     5
 72
     1
  1
200
 73
     1
 44
1.0
1001
ACAD
1000
MTEXTBEGIN
1070
    73
1070
     1
1070
    44
1040
1.0
1070
    74
1070
     0
1000
MTEXTEND
  0
POINT
  5
4378
330
4335
100
AcDbEntity
  8
Defpoints
 62
     0
100
AcDbPoint
 10
343.380084085164
 20
609.9999999999998
 30
0.0
  0
POINT
  5
4379
330
4335
100
AcDbEntity
  8
Defpoints
 62
     0
100
AcDbPoint
 10
543.3800840851642
 20
610.0
 30
0.0
  0
POINT
  5
437A
330
4335
100
AcDbEntity
  8
Defpoints
 62
     0
100
AcDbPoint
 10
543.3800840851642
 20
656.0000010100002
 30
0.0
  0
ENDBLK
  5
434C
330
4335
100
AcDbEntity
  8
0
100
AcDbBlockEnd
  0
BLOCK
  5
456A
330
4566
100
AcDbEntity
  8
0
100
AcDbBlockBegin
  2
*S9
 70
     1
 10
0.0
 20
0.0
 30
0.0
  3
*S9
  1

  0
CIRCLE
  5
4567
330
4566
100
AcDbEntity
  8
AM_12
 62
     4
100
AcDbCircle
 10
760.017387870158
 20
233.2689263370958
 30
0.0
 40
5.25
  0
LINE
  5
4568
330
4566
100
AcDbEntity
  8
AM_12
 62
     4
100
AcDbLine
 10
754.767387870158
 20
228.0189263370957
 30
0.0
 11
765.267387870158
 21
238.5189263370957
 31
0.0
  0
LINE
  5
4569
330
4566
100
AcDbEntity
  8
AM_12
 62
     4
100
AcDbLine
 10
754.767387870158
 20
238.5189263370957
 30
0.0
 11
765.267387870158
 21
228.0189263370957
 31
0.0
  0
ENDBLK
  5
456B
330
4566
100
AcDbEntity
  8
0
100
AcDbBlockEnd
  0
BLOCK
  5
4572
330
456D
100
AcDbEntity
  8
0
100
AcDbBlockBegin
  2
*S10
 70
     1
 10
0.0
 20
0.0
 30
0.0
  3
*S10
  1

  0
LINE
  5
456E
330
456D
100
AcDbEntity
  8
AM_5
 62
     3
100
AcDbLine
 10
725.0187104044215
 20
190.7966339911217
 30
0.0
 11
753.3400182609319
 21
225.1656717377521
 31
0.0
  0
TRACE
  5
456F
330
456D
100
AcDbEntity
  8
AM_5
  6
Continuous
 62
     3
100
AcDbTrace
 10
754.4068319627622
 20
224.2865793553056
 30
0.0
 11
752.2732045591015
 21
226.0447641201987
 31
0.0
 12
760.017387870158
 22
233.2689263370958
 32
0.0
 13
760.017387870158
 23
233.2689263370958
 33
0.0
  0
MTEXT
  5
4570
330
456D
100
AcDbEntity
  8
AM_5
 62
     7
100
AcDbMText
 10
713.3333135882757
 20
176.6159384422703
 30
0.0
 40
10.5
 41
0.0
 71
     5
 72
     5
  1
1
  7
ACISOTS
 73
     1
 44
1.0
1001
ACAD
1000
MTEXTBEGIN
1070
    73
1070
     1
1070
    44
1040
1.0
1070
    74
1070
     0
1000
MTEXTEND
  0
CIRCLE
  5
4571
330
456D
100
AcDbEntity
  8
AM_5
 62
     3
100
AcDbCircle
 10
713.3333135882757
 20
176.6159384422703
 30
0.0
 40
18.375
  0
ENDBLK
  5
4573
330
456D
100
AcDbEntity
  8
0
100
AcDbBlockEnd
  0
BLOCK
  5
4579
330
4575
100
AcDbEntity
  8
0
100
AcDbBlockBegin
  2
*S11
 70
     1
 10
0.0
 20
0.0
 30
0.0
  3
*S11
  1

  0
CIRCLE
  5
4576
330
4575
100
AcDbEntity
  8
AM_12
 62
     4
100
AcDbCircle
 10
1197.416759743489
 20
774.7476993165555
 30
0.0
 40
5.25
  0
LINE
  5
4577
330
4575
100
AcDbEntity
  8
AM_12
 62
     4
100
AcDbLine
 10
1192.166759743489
 20
769.4976993165555
 30
0.0
 11
1202.666759743489
 21
779.9976993165556
 31
0.0
  0
LINE
  5
4578
330
4575
100
AcDbEntity
  8
AM_12
 62
     4
100
AcDbLine
 10
1192.166759743489
 20
779.9976993165556
 30
0.0
 11
1202.666759743489
 21
769.4976993165555
 31
0.0
  0
ENDBLK
  5
457A
330
4575
100
AcDbEntity
  8
0
100
AcDbBlockEnd
  0
BLOCK
  5
4580
330
457C
100
AcDbEntity
  8
0
100
AcDbBlockBegin
  2
*S12
 70
     1
 10
0.0
 20
0.0
 30
0.0
  3
*S12
  1

  0
CIRCLE
  5
457D
330
457C
100
AcDbEntity
  8
AM_12
 62
     4
100
AcDbCircle
 10
1197.850576780116
 20
755.9332025182298
 30
0.0
 40
5.25
  0
LINE
  5
457E
330
457C
100
AcDbEntity
  8
AM_12
 62
     4
100
AcDbLine
 10
1192.600576780116
 20
750.6832025182298
 30
0.0
 11
1203.100576780116
 21
761.1832025182297
 31
0.0
  0
LINE
  5
457F
330
457C
100
AcDbEntity
  8
AM_12
 62
     4
100
AcDbLine
 10
1192.600576780116
 20
761.1832025182297
 30
0.0
 11
1203.100576780116
 21
750.6832025182298
 31
0.0
  0
ENDBLK
  5
4581
330
457C
100
AcDbEntity
  8
0
100
AcDbBlockEnd
  0
BLOCK
  5
45B1
330
4583
100
AcDbEntity
  8
0
100
AcDbBlockBegin
  2
*S13
 70
     1
 10
0.0
 20
0.0
 30
0.0
  3
*S13
  1

  0
LINE
  5
4584
330
4583
100
AcDbEntity
  8
0
 62
     1
100
AcDbLine
 10
594.0
 20
784.4249999999999
 30
0.0
 11
1209.0
 21
784.4249999999999
 31
0.0
  0
LINE
  5
4585
330
4583
100
AcDbEntity
  8
0
 62
     1
100
AcDbLine
 10
594.0
 20
765.8999999999999
 30
0.0
 11
1209.0
 21
765.8999999999999
 31
0.0
  0
MTEXT
  5
4586
330
4583
100
AcDbEntity
  8
0
 62
     2
100
AcDbMText
 10
616.5
 20
798.8999999999999
 30
0.0
 40
10.5
 41
39.59999999999999
 71
     2
 72
     5
  1
1
  7
ACISOTS
 73
     1
 44
1.0
1001
ACAD
1000
MTEXTBEGIN
1070
    73
1070
     1
1070
    44
1040
1.0
1070
    74
1070
     0
1000
MTEXTEND
  0
LINE
  5
4587
330
4583
100
AcDbEntity
  8
0
 62
     1
100
AcDbLine
 10
639.0
 20
802.95
 30
0.0
 11
639.0
 21
784.4249999999999
 31
0.0
  0
MTEXT
  5
4588
330
4583
100
AcDbEntity
  8
0
 62
     2
100
AcDbMText
 10
641.7
 20
798.8999999999999
 30
0.0
 40
10.5
 41
174.6
 71
     1
 72
     5
  1
エクステンションフレーム
  7
ACISOTS
 73
     1
 44
1.0
1001
ACAD
1000
MTEXTBEGIN
1070
    73
1070
     1
1070
    44
1040
1.0
1070
    74
1070
     0
1000
MTEXTEND
  0
LINE
  5
4589
330
4583
100
AcDbEntity
  8
0
 62
     1
100
AcDbLine
 10
819.0
 20
802.95
 30
0.0
 11
819.0
 21
784.4249999999999
 31
0.0
  0
MTEXT
  5
458A
330
4583
100
AcDbEntity
  8
0
 62
     2
100
AcDbMText
 10
841.5
 20
798.8999999999999
 30
0.0
 40
10.5
 41
39.59999999999999
 71
     2
 72
     5
  1
1
  7
ACISOTS
 73
     1
 44
1.0
1001
ACAD
1000
MTEXTBEGIN
1070
    73
1070
     1
1070
    44
1040
1.0
1070
    74
1070
     0
1000
MTEXTEND
  0
LINE
  5
458B
330
4583
100
AcDbEntity
  8
0
 62
     1
100
AcDbLine
 10
864.0
 20
802.95
 30
0.0
 11
864.0
 21
784.4249999999999
 31
0.0
  0
MTEXT
  5
458C
330
4583
100
AcDbEntity
  8
0
 62
     2
100
AcDbMText
 10
866.6999999999999
 20
798.8999999999999
 30
0.0
 40
10.5
 41
204.6
 71
     1
 72
     5
  1
ポリカーボネートグラスファイバー
  7
ACISOTS
 73
     1
 44
1.0
1001
ACAD
1000
MTEXTBEGIN
1070
    73
1070
     1
1070
    44
1040
1.0
1070
    74
1070
     0
1000
MTEXTEND
  0
LINE
  5
458D
330
4583
100
AcDbEntity
  8
0
 62
     1
100
AcDbLine
 10
1074.0
 20
802.95
 30
0.0
 11
1074.0
 21
784.4249999999999
 31
0.0
  0
MTEXT
  5
458E
330
4583
100
AcDbEntity
  8
0
 62
     2
100
AcDbMText
 10
1076.7
 20
798.8999999999999
 30
0.0
 40
10.5
 41
129.6
 71
     1
 72
     5
  1
ホワイトグレー
  7
ACISOTS
 73
     1
 44
1.0
1001
ACAD
1000
MTEXTBEGIN
1070
    73
1070
     1
1070
    44
1040
1.0
1070
    74
1070
     0
1000
MTEXTEND
  0
MTEXT
  5
458F
330
4583
100
AcDbEntity
  8
0
 62
     2
100
AcDbMText
 10
616.5
 20
780.3749999999999
 30
0.0
 40
10.5
 41
39.59999999999999
 71
     2
 72
     5
  1
2
  7
ACISOTS
 73
     1
 44
1.0
1001
ACAD
1000
MTEXTBEGIN
1070
    73
1070
     1
1070
    44
1040
1.0
1070
    74
1070
     0
1000
MTEXTEND
  0
LINE
  5
4590
330
4583
100
AcDbEntity
  8
0
 62
     1
100
AcDbLine
 10
639.0
 20
784.4249999999999
 30
0.0
 11
639.0
 21
765.8999999999999
 31
0.0
  0
MTEXT
  5
4591
330
4583
100
AcDbEntity
  8
0
 62
     2
100
AcDbMText
 10
641.7
 20
780.3749999999999
 30
0.0
 40
10.5
 41
174.6
 71
     1
 72
     5
  1
フレームスクリュー(専用)
  7
ACISOTS
 73
     1
 44
1.0
1001
ACAD
1000
MTEXTBEGIN
1070
    73
1070
     1
1070
    44
1040
1.0
1070
    74
1070
     0
1000
MTEXTEND
  0
LINE
  5
4592
330
4583
100
AcDbEntity
  8
0
 62
     1
100
AcDbLine
 10
819.0
 20
784.4249999999999
 30
0.0
 11
819.0
 21
765.8999999999999
 31
0.0
  0
MTEXT
  5
4593
330
4583
100
AcDbEntity
  8
0
 62
     2
100
AcDbMText
 10
841.5
 20
780.3749999999999
 30
0.0
 40
10.5
 41
39.59999999999999
 71
     2
 72
     5
  1
4
  7
ACISOTS
 73
     1
 44
1.0
1001
ACAD
1000
MTEXTBEGIN
1070
    73
1070
     1
1070
    44
1040
1.0
1070
    74
1070
     0
1000
MTEXTEND
  0
LINE
  5
4594
330
4583
100
AcDbEntity
  8
0
 62
     1
100
AcDbLine
 10
864.0
 20
784.4249999999999
 30
0.0
 11
864.0
 21
765.8999999999999
 31
0.0
  0
MTEXT
  5
4595
330
4583
100
AcDbEntity
  8
0
 62
     2
100
AcDbMText
 10
866.6999999999999
 20
780.3749999999999
 30
0.0
 40
10.5
 41
204.6
 71
     1
 72
     5
  1
-
  7
ACISOTS
 73
     1
 44
1.0
1001
ACAD
1000
MTEXTBEGIN
1070
    73
1070
     1
1070
    44
1040
1.0
1070
    74
1070
     0
1000
MTEXTEND
  0
LINE
  5
4596
330
4583
100
AcDbEntity
  8
0
 62
     1
100
AcDbLine
 10
1074.0
 20
784.4249999999999
 30
0.0
 11
1074.0
 21
765.8999999999999
 31
0.0
  0
MTEXT
  5
4597
330
4583
100
AcDbEntity
  8
0
 62
     2
100
AcDbMText
 10
1076.7
 20
780.3749999999999
 30
0.0
 40
10.5
 41
129.6
 71
     1
 72
     5
  1
ブラック
  7
ACISOTS
 73
     1
 44
1.0
1001
ACAD
1000
MTEXTBEGIN
1070
    73
1070
     1
1070
    44
1040
1.0
1070
    74
1070
     0
1000
MTEXTEND
  0
MTEXT
  5
4598
330
4583
100
AcDbEntity
  8
0
 62
     2
100
AcDbMText
 10
616.5
 20
761.85
 30
0.0
 40
10.5
 41
39.59999999999999
 71
     2
 72
     5
  1
3
  7
ACISOTS
 73
     1
 44
1.0
1001
ACAD
1000
MTEXTBEGIN
1070
    73
1070
     1
1070
    44
1040
1.0
1070
    74
1070
     0
1000
MTEXTEND
  0
LINE
  5
4599
330
4583
100
AcDbEntity
  8
0
 62
     1
100
AcDbLine
 10
639.0
 20
765.8999999999999
 30
0.0
 11
639.0
 21
747.3749999999999
 31
0.0
  0
MTEXT
  5
459A
330
4583
100
AcDbEntity
  8
0
 62
     2
100
AcDbMText
 10
641.7
 20
761.85
 30
0.0
 40
10.5
 41
174.6
 71
     1
 72
     5
  1
スクリューヘッド(専用)
  7
ACISOTS
 73
     1
 44
1.0
1001
ACAD
1000
MTEXTBEGIN
1070
    73
1070
     1
1070
    44
1040
1.0
1070
    74
1070
     0
1000
MTEXTEND
  0
LINE
  5
459B
330
4583
100
AcDbEntity
  8
0
 62
     1
100
AcDbLine
 10
819.0
 20
765.8999999999999
 30
0.0
 11
819.0
 21
747.3749999999999
 31
0.0
  0
MTEXT
  5
459C
330
4583
100
AcDbEntity
  8
0
 62
     2
100
AcDbMText
 10
841.5
 20
761.85
 30
0.0
 40
10.5
 41
39.59999999999999
 71
     2
 72
     5
  1
1
  7
ACISOTS
 73
     1
 44
1.0
1001
ACAD
1000
MTEXTBEGIN
1070
    73
1070
     1
1070
    44
1040
1.0
1070
    74
1070
     0
1000
MTEXTEND
  0
LINE
  5
459D
330
4583
100
AcDbEntity
  8
0
 62
     1
100
AcDbLine
 10
864.0
 20
765.8999999999999
 30
0.0
 11
864.0
 21
747.3749999999999
 31
0.0
  0
MTEXT
  5
459E
330
4583
100
AcDbEntity
  8
0
 62
     2
100
AcDbMText
 10
866.6999999999999
 20
761.85
 30
0.0
 40
10.5
 41
204.6
 71
     1
 72
     5
  1
-
  7
ACISOTS
 73
     1
 44
1.0
1001
ACAD
1000
MTEXTBEGIN
1070
    73
1070
     1
1070
    44
1040
1.0
1070
    74
1070
     0
1000
MTEXTEND
  0
LINE
  5
459F
330
4583
100
AcDbEntity
  8
0
 62
     1
100
AcDbLine
 10
1074.0
 20
765.8999999999999
 30
0.0
 11
1074.0
 21
747.3749999999999
 31
0.0
  0
MTEXT
  5
45A0
330
4583
100
AcDbEntity
  8
0
 62
     2
100
AcDbMText
 10
1076.7
 20
761.85
 30
0.0
 40
10.5
 41
129.6
 71
     1
 72
     5
  1
ホワイトグレー
  7
ACISOTS
 73
     1
 44
1.0
1001
ACAD
1000
MTEXTBEGIN
1070
    73
1070
     1
1070
    44
1040
1.0
1070
    74
1070
     0
1000
MTEXTEND
  0
LINE
  5
45A1
330
4583
100
AcDbEntity
  8
0
 62
     1
100
AcDbLine
 10
594.0
 20
802.95
 30
0.0
 11
1209.0
 21
802.95
 31
0.0
  0
MTEXT
  5
45A2
330
4583
100
AcDbEntity
  8
0
 62
     2
100
AcDbMText
 10
616.5
 20
817.4249999999998
 30
0.0
 40
10.5
 41
39.59999999999999
 71
     2
 72
     5
  1
照番
  7
ACISOTS
 73
     1
 44
1.0
1001
ACAD
1000
MTEXTBEGIN
1070
    73
1070
     1
1070
    44
1040
1.0
1070
    74
1070
     0
1000
MTEXTEND
  0
LINE
  5
45A3
330
4583
100
AcDbEntity
  8
0
 62
     1
100
AcDbLine
 10
639.0
 20
821.475
 30
0.0
 11
639.0
 21
802.95
 31
0.0
  0
MTEXT
  5
45A4
330
4583
100
AcDbEntity
  8
0
 62
     2
100
AcDbMText
 10
729.0
 20
817.4249999999998
 30
0.0
 40
10.5
 41
174.6
 71
     2
 72
     5
  1
名称
  7
ACISOTS
 73
     1
 44
1.0
1001
ACAD
1000
MTEXTBEGIN
1070
    73
1070
     1
1070
    44
1040
1.0
1070
    74
1070
     0
1000
MTEXTEND
  0
LINE
  5
45A5
330
4583
100
AcDbEntity
  8
0
 62
     1
100
AcDbLine
 10
819.0
 20
821.475
 30
0.0
 11
819.0
 21
802.95
 31
0.0
  0
MTEXT
  5
45A6
330
4583
100
AcDbEntity
  8
0
 62
     2
100
AcDbMText
 10
841.5
 20
817.4249999999998
 30
0.0
 40
10.5
 41
39.59999999999999
 71
     2
 72
     5
  1
数量
  7
ACISOTS
 73
     1
 44
1.0
1001
ACAD
1000
MTEXTBEGIN
1070
    73
1070
     1
1070
    44
1040
1.0
1070
    74
1070
     0
1000
MTEXTEND
  0
LINE
  5
45A7
330
4583
100
AcDbEntity
  8
0
 62
     1
100
AcDbLine
 10
864.0
 20
821.475
 30
0.0
 11
864.0
 21
802.95
 31
0.0
  0
MTEXT
  5
45A8
330
4583
100
AcDbEntity
  8
0
 62
     2
100
AcDbMText
 10
969.0
 20
817.4249999999998
 30
0.0
 40
10.5
 41
204.6
 71
     2
 72
     5
  1
材質
  7
ACISOTS
 73
     1
 44
1.0
1001
ACAD
1000
MTEXTBEGIN
1070
    73
1070
     1
1070
    44
1040
1.0
1070
    74
1070
     0
1000
MTEXTEND
  0
LINE
  5
45A9
330
4583
100
AcDbEntity
  8
0
 62
     1
100
AcDbLine
 10
1074.0
 20
821.475
 30
0.0
 11
1074.0
 21
802.95
 31
0.0
  0
MTEXT
  5
45AA
330
4583
100
AcDbEntity
  8
0
 62
     2
100
AcDbMText
 10
1141.5
 20
817.4249999999998
 30
0.0
 40
10.5
 41
129.6
 71
     2
 72
     5
  1
色・表面処理
  7
ACISOTS
 73
     1
 44
1.0
1001
ACAD
1000
MTEXTBEGIN
1070
    73
1070
     1
1070
    44
1040
1.0
1070
    74
1070
     0
1000
MTEXTEND
  0
MTEXT
  5
45AB
330
4583
100
AcDbEntity
  8
0
 62
     2
100
AcDbMText
 10
901.5
 20
830.7375
 30
0.0
 40
10.5
 41
0.0
 71
     5
 72
     5
  1
構成内容
  7
ACISOTS
 73
     1
 44
1.0
1001
ACAD
1000
MTEXTBEGIN
1070
    73
1070
     1
1070
    44
1040
1.0
1070
    74
1070
     0
1000
MTEXTEND
  0
LINE
  5
45AC
330
4583
100
AcDbEntity
  8
0
 62
     1
100
AcDbLine
 10
594.0
 20
821.475
 30
0.0
 11
1209.0
 21
821.475
 31
0.0
  0
LINE
  5
45AD
330
4583
100
AcDbEntity
  8
0
 62
     7
100
AcDbLine
 10
594.0
 20
840.0
 30
0.0
 11
1209.0
 21
840.0
 31
0.0
  0
LINE
  5
45AE
330
4583
100
AcDbEntity
  8
0
 62
     7
100
AcDbLine
 10
1209.0
 20
840.0
 30
0.0
 11
1209.0
 21
747.3749999999999
 31
0.0
  0
LINE
  5
45AF
330
4583
100
AcDbEntity
  8
0
 62
     7
100
AcDbLine
 10
1209.0
 20
747.3749999999999
 30
0.0
 11
594.0
 21
747.3749999999999
 31
0.0
  0
LINE
  5
45B0
330
4583
100
AcDbEntity
  8
0
 62
     7
100
AcDbLine
 10
594.0
 20
747.3749999999999
 30
0.0
 11
594.0
 21
840.0
 31
0.0
  0
ENDBLK
  5
45B2
330
4583
100
AcDbEntity
  8
0
100
AcDbBlockEnd
  0
ENDSEC
  0
SECTION
  2
ENTITIES
  0
INSERT
  5
C54
330
1F
100
AcDbEntity
  8
0
370
     0
100
AcDbBlockReference
  2
TK-A3
 10
0.0
 20
0.0
 30
0.0
 41
3.0
 42
3.0
 43
3.0
1001
GENIUS_GENOREF_13
1005
C61
1001
GENIUS_GENODEF_13
1002
{
1000
HIER
1070
     0
1002
}
1002
{
1000
MANEDIT
1070
     0
1002
}
1002
{
1000
NOSEL
1070
     0
1002
}
1002
{
1000
BEHIND
1070
     0
1002
}
1002
{
1000
OTHER
1070
     0
1002
}
1002
{
1000
REACTOR
1002
}
1001
GENIUS_GENOBJ-N-SDF_13
1002
{
1000
OWNER
1000
GEN
1002
}
1001
GENIUS_GENSCREG_15
1040
3.0
1040
1.0
1011
0.0
1021
0.0
1031
0.0
1011
1209.0
1021
840.0000000000002
1031
0.0
1070
     3
  0
INSERT
  5
C56
330
1F
100
AcDbEntity
  8
0
370
     0
100
AcDbBlockReference
 66
     1
  2
TK-TITLE
 10
1209.0
 20
0.0
 30
0.0
 41
3.0
 42
3.0
 43
3.0
1001
GENIUS_GENOREF_13
1005
C61
  0
ATTRIB
  5
42C5
330
C56
100
AcDbEntity
  8
0
100
AcDbText
 10
638.7626861549017
 20
10.76502761283199
 30
0.0
 40
9.0
  1
2008/10/31
 72
     1
 11
668.3484145013584
 21
10.76502761283199
 31
0.0
100
AcDbAttribute
  2
GEN-TITLE-DAT
 70
     0
 74
     1
  0
ATTRIB
  5
42C6
330
C56
100
AcDbEntity
  8
0
100
AcDbText
 10
663.0029889505919
 20
84.89999999999993
 30
0.0
 40
9.0
  1
1:3
 72
     2
 11
675.5257811567278
 21
84.89999999999993
 31
0.0
100
AcDbAttribute
  2
GEN-TITLE-SCA
 70
     0
 74
     1
  0
ATTRIB
  5
42C7
330
C56
100
AcDbEntity
  8
0
100
AcDbText
 10
682.1617772621713
 20
47.39999999999982
 30
0.0
 40
9.0
  1

 72
     2
 11
682.1617772621713
 21
47.39999999999982
 31
0.0
100
AcDbAttribute
  2
GEN-TITLE-QTY
 70
     0
 74
     1
  0
ATTRIB
  5
42C8
330
C56
100
AcDbEntity
  8
0
100
AcDbText
 10
762.1143972494125
 20
99.89999999999973
 30
0.0
 40
9.0
  1

100
AcDbAttribute
  2
GEN-TITLE-MAT2
 70
     0
  0
ATTRIB
  5
42C9
330
C56
100
AcDbEntity
  8
0
100
AcDbText
 10
762.1143972494125
 20
129.8999999999997
 30
0.0
 40
9.0
  1

100
AcDbAttribute
  2
GEN-TITLE-MAT1
 70
     0
  0
ATTRIB
  5
42CA
330
C56
100
AcDbEntity
  8
0
100
AcDbText
 10
957.0
 20
5.999999999999872
 30
0.0
 40
9.0
  1

100
AcDbAttribute
  2
GEN-TITLE-NR1
 70
     0
  0
ATTRIB
  5
42CB
330
C56
100
AcDbEntity
  8
0
100
AcDbText
 10
957.0
 20
27.44999999999985
 30
0.0
 40
7.5
  1
OPCE型エクステンションフレーム
100
AcDbAttribute
  2
GEN-TITLE-DES2
 70
     0
  0
ATTRIB
  5
42CC
330
C56
100
AcDbEntity
  8
0
100
AcDbText
 10
956.5724429524401
 20
38.48371297693132
 30
0.0
 40
10.5
  1
OPCE2040
100
AcDbAttribute
  2
GEN-TITLE-DES1
 70
     0
  0
ATTRIB
  5
42CD
330
C56
100
AcDbEntity
  8
0
100
AcDbText
 10
1184.993072431362
 20
5.115568303185108
 30
0.0
 40
7.5
  1

100
AcDbAttribute
  2
GEN-TITLE-NR2
 70
     0
  0
SEQEND
  5
42C4
330
C56
100
AcDbEntity
  8
0
370
     0
  0
POINT
  5
C61
330
1F
100
AcDbEntity
  8
0
 60
     1
100
AcDbPoint
 10
0.0
 20
0.0
 30
0.0
1001
GENIUS_GENOENT_13
1002
{
1000
MYREF
1005
C61
1002
}
1002
{
1000
GRP
1005
0
1002
}
1001
GENIUS_GENOBJ-N-TIT_13
1002
{
1000
OWNER
1000
GEN
1002
}
1001
GENIUS_GENODEF_13
1002
{
1000
HIER
1070
     1
1002
}
1002
{
1000
MANEDIT
1070
     0
1002
}
1002
{
1000
NOSEL
1070
     0
1002
}
1002
{
1000
BEHIND
1070
     0
1002
}
1002
{
1000
OTHER
1070
     0
1002
}
1002
{
1000
REACTOR
1002
}
1001
GENIUS_GENOLIS_13
1002
{
1000
ENT
1005
C56
1005
C54
1005
42C3
1002
}
1001
GENIUS_GENTITLE_13
1002
{
1000
BORDER
1000
TK-A3
1002
}
1002
{
1000
TITLE
1000
TK-TITLE
1002
}
1002
{
1000
SCALE
1000
1:3
1002
}
1002
{
1000
TITLESTD
1000
ISO
1002
}
1002
{
1000
HRA
1005
C54
1002
}
1002
{
1000
HTIT
1005
C56
1002
}
1002
{
1000
GENIUSID
1005
C61
1002
}
1002
{
1000
INVTXTID
1005
0
1002
}
1002
{
1000
UNCHG
1002
{
1000
GEN-TITLE-SIZ
1000
GEN-TITLE-SCA
1002
}
1002
}
  0
LINE
  5
16EE
330
1F
100
AcDbEntity
  8
ｴｸｽﾃﾝｼｮﾝﾌﾚｰﾑ
100
AcDbLine
 10
508.8300840851642
 20
620.0000000000002
 30
0.0
 11
377.930084085164
 21
620.0
 31
0.0
  0
LINE
  5
16FC
330
1F
100
AcDbEntity
  8
ｴｸｽﾃﾝｼｮﾝﾌﾚｰﾑ
100
AcDbLine
 10
508.3956140851641
 20
616.6155300000002
 30
0.0
 11
378.3645540851638
 21
616.61553
 31
0.0
  0
LINE
  5
1708
330
1F
100
AcDbEntity
  8
ｴｸｽﾃﾝｼｮﾝﾌﾚｰﾑ
100
AcDbLine
 10
378.3296340851639
 20
615.4155299999997
 30
0.0
 11
508.4305340851641
 21
615.4155300000001
 31
0.0
  0
LINE
  5
170B
330
1F
100
AcDbEntity
  8
ｴｸｽﾃﾝｼｮﾝﾌﾚｰﾑ
100
AcDbLine
 10
508.0513940851641
 20
612.1213200000003
 30
0.0
 11
378.7087740851639
 21
612.1213199999998
 31
0.0
  0
LINE
  5
1A7A
330
1F
100
AcDbEntity
  8
ｴｸｽﾃﾝｼｮﾝﾌﾚｰﾑ
100
AcDbLine
 10
373.8300840851639
 20
620.0
 30
0.0
 11
371.930084085164
 21
620.0
 31
0.0
  0
LINE
  5
1A7B
330
1F
100
AcDbEntity
  8
ｴｸｽﾃﾝｼｮﾝﾌﾚｰﾑ
100
AcDbLine
 10
367.8300840851639
 20
620.0
 30
0.0
 11
353.380084085164
 21
620.0
 31
0.0
  0
LINE
  5
1A85
330
1F
100
AcDbEntity
  8
ｴｸｽﾃﾝｼｮﾝﾌﾚｰﾑ
100
AcDbLine
 10
374.3645290851899
 20
617.0155299999999
 30
0.0
 11
362.7871140851639
 21
617.0155299999999
 31
0.0
  0
LINE
  5
1AA7
330
1F
100
AcDbEntity
  8
ｴｸｽﾃﾝｼｮﾝﾌﾚｰﾑ
100
AcDbLine
 10
377.7303547696707
 20
606.9251199834342
 30
0.0
 11
375.7091043267385
 21
608.1948054802746
 31
0.0
  0
LINE
  5
1AAF
330
1F
100
AcDbEntity
  8
ｴｸｽﾃﾝｼｮﾝﾌﾚｰﾑ
100
AcDbLine
 10
357.5260640851638
 20
599.6063399999999
 30
0.0
 11
363.7737340851639
 21
605.8539999999999
 31
0.0
  0
LINE
  5
1AB1
330
1F
100
AcDbEntity
  8
ｴｸｽﾃﾝｼｮﾝﾌﾚｰﾑ
100
AcDbLine
 10
378.4087740851638
 20
609.3655299999999
 30
0.0
 11
378.4087740851638
 21
611.8213199999999
 31
0.0
  0
LINE
  5
1ACA
330
1F
100
AcDbEntity
  8
ｴｸｽﾃﾝｼｮﾝﾌﾚｰﾑ
100
AcDbLine
 10
374.6614367390475
 20
606.5655557304932
 30
0.0
 11
376.6422017338578
 21
605.2418294604762
 31
0.0
  0
LINE
  5
1AD5
330
1F
100
AcDbEntity
  8
ｴｸｽﾃﾝｼｮﾝﾌﾚｰﾑ
100
AcDbLine
 10
364.5695640851638
 20
607.0155299999998
 30
0.0
 11
371.8645440851639
 21
607.0155299999998
 31
0.0
  0
LINE
  5
1AD6
330
1F
100
AcDbEntity
  8
ｴｸｽﾃﾝｼｮﾝﾌﾚｰﾑ
100
AcDbLine
 10
365.6122240851638
 20
606.6155299999999
 30
0.0
 11
371.8645440851639
 21
606.6155299999999
 31
0.0
  0
LINE
  5
1AD7
330
1F
100
AcDbEntity
  8
ｴｸｽﾃﾝｼｮﾝﾌﾚｰﾑ
100
AcDbLine
 10
371.8645440851639
 20
605.4504299999999
 30
0.0
 11
365.6122240851638
 21
605.4504299999999
 31
0.0
  0
LINE
  5
1AE5
330
1F
100
AcDbEntity
  8
ｴｸｽﾃﾝｼｮﾝﾌﾚｰﾑ
100
AcDbLine
 10
364.5975940851639
 20
605.0301599999999
 30
0.0
 11
358.3499240851638
 21
598.7824899999999
 31
0.0
  0
LINE
  5
1AED
330
1F
100
AcDbEntity
  8
ｴｸｽﾃﾝｼｮﾝﾌﾚｰﾑ
100
AcDbLine
 10
375.9296340851639
 20
613.0155299999999
 30
0.0
 11
375.9296340851639
 21
609.5155299999999
 31
0.0
  0
LINE
  5
1AF1
330
1F
100
AcDbEntity
  8
ｴｸｽﾃﾝｼｮﾝﾌﾚｰﾑ
100
AcDbLine
 10
368.5730140851639
 20
603.0713199999999
 30
0.0
 11
372.1145440851639
 21
603.0713199999999
 31
0.0
  0
LINE
  5
1AF3
330
1F
100
AcDbEntity
  8
ｴｸｽﾃﾝｼｮﾝﾌﾚｰﾑ
100
AcDbLine
 10
360.5413843511433
 20
597.8214999999998
 30
0.0
 11
365.5585840851639
 21
602.8387099999998
 31
0.0
  0
LINE
  5
1B01
330
1F
100
AcDbEntity
  8
ｴｸｽﾃﾝｼｮﾝﾌﾚｰﾑ
100
AcDbLine
 10
374.7645640851639
 20
609.5155299999999
 30
0.0
 11
374.7645640851639
 21
613.0155299999999
 31
0.0
  0
LINE
  5
1B02
330
1F
100
AcDbEntity
  8
ｴｸｽﾃﾝｼｮﾝﾌﾚｰﾑ
100
AcDbLine
 10
374.3645440851639
 20
609.5155299999999
 30
0.0
 11
374.3645440851639
 21
613.0155299999999
 31
0.0
  0
LINE
  5
1B03
330
1F
100
AcDbEntity
  8
ｴｸｽﾃﾝｼｮﾝﾌﾚｰﾑ
100
AcDbLine
 10
370.3730240851638
 20
601.27131
 30
0.0
 11
372.2089640851639
 21
601.27131
 31
0.0
  0
LINE
  5
1B1A
330
1F
100
AcDbEntity
  8
ｴｸｽﾃﾝｼｮﾝﾌﾚｰﾑ
100
AcDbLine
 10
372.2089640851639
 20
601.27131
 30
0.0
 11
372.8417940851639
 21
600.6384899999999
 31
0.0
  0
LINE
  5
1B1D
330
1F
100
AcDbEntity
  8
ｴｸｽﾃﾝｼｮﾝﾌﾚｰﾑ
100
AcDbLine
 10
367.4557263671884
 20
604.1886077179754
 30
0.0
 11
370.3730240851638
 21
601.27131
 31
0.0
  0
LINE
  5
1B2D
330
1F
100
AcDbEntity
  8
ｴｸｽﾃﾝｼｮﾝﾌﾚｰﾑ
100
AcDbLine
 10
370.0133540851639
 20
597.8100699999998
 30
0.0
 11
365.5585840851639
 21
602.2648399999999
 31
0.0
  0
LINE
  5
1B4D
330
1F
100
AcDbEntity
  8
ｴｸｽﾃﾝｼｮﾝﾌﾚｰﾑ
100
AcDbLine
 10
372.8417940851639
 20
600.6384899999999
 30
0.0
 11
370.0133540851639
 21
597.8100699999998
 31
0.0
  0
LINE
  5
1B7C
330
1F
100
AcDbEntity
  8
ｴｸｽﾃﾝｼｮﾝﾌﾚｰﾑ
100
AcDbLine
 10
365.5585840851639
 20
602.2648399999999
 30
0.0
 11
365.5585840851639
 21
605.4494370606213
 31
0.0
  0
ARC
  5
1C0C
330
1F
100
AcDbEntity
  8
ｴｸｽﾃﾝｼｮﾝﾌﾚｰﾑ
100
AcDbCircle
 10
372.1145440851639
 20
609.3655299999999
 30
0.0
 40
6.294209999999999
100
AcDbArc
 50
338.2298552169081
 51
0.0
  0
ARC
  5
1C0D
330
1F
100
AcDbEntity
  8
ｴｸｽﾃﾝｼｮﾝﾌﾚｰﾑ
100
AcDbCircle
 10
372.1145440851639
 20
609.3655299999999
 30
0.0
 40
6.294209999999999
100
AcDbArc
 50
269.999989999999
 51
315.9669374407438
  0
ARC
  5
1C22
330
1F
100
AcDbEntity
  8
ｴｸｽﾃﾝｼｮﾝﾌﾚｰﾑ
100
AcDbCircle
 10
371.8645440851639
 20
609.5155299999999
 30
0.0
 40
2.5
100
AcDbArc
 50
269.999989999999
 51
0.0
  0
ARC
  5
1C23
330
1F
100
AcDbEntity
  8
ｴｸｽﾃﾝｼｮﾝﾌﾚｰﾑ
100
AcDbCircle
 10
364.5695640851638
 20
608.0155299999999
 30
0.0
 40
1.0
100
AcDbArc
 50
170.6875499999997
 51
270.0
  0
ARC
  5
1C24
330
1F
100
AcDbEntity
  8
ｴｸｽﾃﾝｼｮﾝﾌﾚｰﾑ
100
AcDbCircle
 10
353.7145640851638
 20
609.7955299999999
 30
0.0
 40
10.0
100
AcDbArc
 50
350.6875599999983
 51
34.43384999999793
  0
ARC
  5
1C25
330
1F
100
AcDbEntity
  8
ｴｸｽﾃﾝｼｮﾝﾌﾚｰﾑ
100
AcDbCircle
 10
362.7871140851639
 20
616.0155299999999
 30
0.0
 40
1.0
100
AcDbArc
 50
89.99998999999899
 51
214.4338600000021
  0
ARC
  5
1C32
330
1F
100
AcDbEntity
  8
ｴｸｽﾃﾝｼｮﾝﾌﾚｰﾑ
100
AcDbCircle
 10
365.6122240851638
 20
604.0155299999999
 30
0.0
 40
1.43491
100
AcDbArc
 50
89.99998999999899
 51
135.0
  0
ARC
  5
1C33
330
1F
100
AcDbEntity
  8
ｴｸｽﾃﾝｼｮﾝﾌﾚｰﾑ
100
AcDbCircle
 10
371.8645440851639
 20
609.5155299999999
 30
0.0
 40
4.06509
100
AcDbArc
 50
269.999989999999
 51
0.0
  0
ARC
  5
1C35
330
1F
100
AcDbEntity
  8
ｴｸｽﾃﾝｼｮﾝﾌﾚｰﾑ
100
AcDbCircle
 10
378.3645540851638
 20
613.0155299999999
 30
0.0
 40
3.6
100
AcDbArc
 50
89.99998999999899
 51
179.999989999999
  0
ARC
  5
1C36
330
1F
100
AcDbEntity
  8
ｴｸｽﾃﾝｼｮﾝﾌﾚｰﾑ
100
AcDbCircle
 10
371.8645440851639
 20
609.5155299999999
 30
0.0
 40
2.9
100
AcDbArc
 50
269.999989999999
 51
0.0
  0
ARC
  5
1C37
330
1F
100
AcDbEntity
  8
ｴｸｽﾃﾝｼｮﾝﾌﾚｰﾑ
100
AcDbCircle
 10
365.6122240851638
 20
604.0155299999999
 30
0.0
 40
2.6
100
AcDbArc
 50
89.99998999999899
 51
135.0
  0
LINE
  5
1E03
330
1F
100
AcDbEntity
  8
ｴｸｽﾃﾝｼｮﾝﾌﾚｰﾑ
100
AcDbLine
 10
537.2807416406375
 20
777.2479878736527
 30
0.0
 11
542.9158147164324
 21
777.2479878736527
 31
0.0
  0
LINE
  5
1E60
330
1F
100
AcDbEntity
  8
ｴｸｽﾃﾝｼｮﾝﾌﾚｰﾑ
100
AcDbLine
 10
542.8800840829007
 20
722.2479878736527
 30
0.0
 11
540.4235400598312
 21
722.2479878736527
 31
0.0
  0
LINE
  5
1E67
330
1F
100
AcDbEntity
  8
ｴｸｽﾃﾝｼｮﾝﾌﾚｰﾑ
100
AcDbLine
 10
542.8800840829007
 20
723.7479878736527
 30
0.0
 11
543.3800840829007
 21
724.0479878736529
 31
0.0
  0
LINE
  5
1E6D
330
1F
100
AcDbEntity
  8
ｴｸｽﾃﾝｼｮﾝﾌﾚｰﾑ
100
AcDbLine
 10
349.6934883805302
 20
779.6479878736525
 30
0.0
 11
537.0666797875345
 21
779.6479878736528
 31
0.0
  0
LINE
  5
1EBE
330
1F
100
AcDbEntity
  8
ｴｸｽﾃﾝｼｮﾝﾌﾚｰﾑ
100
AcDbLine
 10
346.7645540851638
 20
718.2479878736525
 30
0.0
 11
539.9956140829007
 21
718.2479878736527
 31
0.0
  0
LINE
  5
27A3
330
1F
100
AcDbEntity
  8
ｴｸｽﾃﾝｼｮﾝﾌﾚｰﾑ
100
AcDbLine
 10
367.4557263671884
 20
604.1886077179754
 30
0.0
 11
367.4552341996608
 21
605.4504299999999
 31
0.0
  0
CIRCLE
  5
27A8
330
1F
100
AcDbEntity
  8
ｴｸｽﾃﾝｼｮﾝﾌﾚｰﾑ
100
AcDbCircle
 10
378.7145540851639
 20
605.0955299999999
 30
0.0
 40
2.077509999999989
  0
ARC
  5
27DA
330
1F
100
AcDbEntity
  8
ｴｸｽﾃﾝｼｮﾝﾌﾚｰﾑ
100
AcDbCircle
 10
378.7087740851639
 20
611.8213199999999
 30
0.0
 40
0.3
100
AcDbArc
 50
90.0
 51
180.0
1001
GENIUS_GENODEF_13
1002
{
1000
HIER
1070
     0
1002
}
1002
{
1000
MANEDIT
1070
     0
1002
}
1002
{
1000
NOSEL
1070
     0
1002
}
1002
{
1000
BEHIND
1070
     0
1002
}
1002
{
1000
OTHER
1070
     0
1002
}
1002
{
1000
REACTOR
1002
}
1001
GENIUS_GENOBJ-N-FIL_13
1002
{
1000
OWNER
1000
GEN
1002
}
  0
ARC
  5
2806
330
1F
100
AcDbEntity
  8
ｴｸｽﾃﾝｼｮﾝﾌﾚｰﾑ
100
AcDbCircle
 10
378.3296340851639
 20
613.0155299999999
 30
0.0
 40
2.399999999999999
100
AcDbArc
 50
90.0
 51
180.0
1001
GENIUS_GENODEF_13
1002
{
1000
HIER
1070
     0
1002
}
1002
{
1000
MANEDIT
1070
     0
1002
}
1002
{
1000
NOSEL
1070
     0
1002
}
1002
{
1000
BEHIND
1070
     0
1002
}
1002
{
1000
OTHER
1070
     0
1002
}
1002
{
1000
REACTOR
1002
}
1001
GENIUS_GENOBJ-N-FIL_13
1002
{
1000
OWNER
1000
GEN
1002
}
  0
ARC
  5
2841
330
1F
100
AcDbEntity
  8
ｴｸｽﾃﾝｼｮﾝﾌﾚｰﾑ
100
AcDbCircle
 10
378.3645540851638
 20
613.0155299999999
 30
0.0
 40
4.000020000000096
100
AcDbArc
 50
143.1302742406297
 51
179.999989999999
  0
ARC
  5
2870
330
1F
100
AcDbEntity
  8
ｴｸｽﾃﾝｼｮﾝﾌﾚｰﾑ
100
AcDbCircle
 10
374.3645290851898
 20
616.0155299999999
 30
0.0
 40
1.0
100
AcDbArc
 50
323.1302742406252
 51
89.99999999999674
1001
GENIUS_GENOBJ-N-FIL_13
1002
{
1000
OWNER
1000
GEN
1002
}
1001
GENIUS_GENODEF_13
1002
{
1000
HIER
1070
     0
1002
}
1002
{
1000
MANEDIT
1070
     0
1002
}
1002
{
1000
NOSEL
1070
     0
1002
}
1002
{
1000
BEHIND
1070
     0
1002
}
1002
{
1000
OTHER
1070
     0
1002
}
1002
{
1000
REACTOR
1002
}
  0
ARC
  5
28A3
330
1F
100
AcDbEntity
  8
ｴｸｽﾃﾝｼｮﾝﾌﾚｰﾑ
100
AcDbCircle
 10
353.380084085164
 20
609.9999999999998
 30
0.0
 40
10.0
100
AcDbArc
 50
90.0
 51
180.0
1001
GENIUS_GENOBJ-N-FIL_13
1002
{
1000
OWNER
1000
GEN
1002
}
1001
GENIUS_GENODEF_13
1002
{
1000
HIER
1070
     0
1002
}
1002
{
1000
MANEDIT
1070
     0
1002
}
1002
{
1000
NOSEL
1070
     0
1002
}
1002
{
1000
BEHIND
1070
     0
1002
}
1002
{
1000
OTHER
1070
     0
1002
}
1002
{
1000
REACTOR
1002
}
  0
LINE
  5
28AD
330
1F
100
AcDbEntity
  8
ｴｸｽﾃﾝｼｮﾝﾌﾚｰﾑ
100
AcDbLine
 10
533.3800840851639
 20
619.5000000000002
 30
0.0
 11
353.380084085164
 21
619.5
 31
0.0
  0
ARC
  5
28B3
330
1F
100
AcDbEntity
  8
ｴｸｽﾃﾝｼｮﾝﾌﾚｰﾑ
100
AcDbCircle
 10
353.380084085164
 20
609.9999999999998
 30
0.0
 40
9.5
100
AcDbArc
 50
90.0
 51
180.0
1001
GENIUS_GENOBJ-N-FIL_13
1002
{
1000
OWNER
1000
GEN
1002
}
1001
GENIUS_GENODEF_13
1002
{
1000
HIER
1070
     0
1002
}
1002
{
1000
MANEDIT
1070
     0
1002
}
1002
{
1000
NOSEL
1070
     0
1002
}
1002
{
1000
BEHIND
1070
     0
1002
}
1002
{
1000
OTHER
1070
     0
1002
}
1002
{
1000
REACTOR
1002
}
  0
LINE
  5
28E7
330
1F
100
AcDbEntity
  8
ｴｸｽﾃﾝｼｮﾝﾌﾚｰﾑ
100
AcDbLine
 10
377.630084085164
 20
619.6999999999998
 30
0.0
 11
374.130084085164
 21
619.6999999999998
 31
0.0
  0
ARC
  5
2977
330
1F
100
AcDbEntity
  8
ｴｸｽﾃﾝｼｮﾝﾌﾚｰﾑ
100
AcDbCircle
 10
377.9300840851638
 20
619.7
 30
0.0
 40
0.3
100
AcDbArc
 50
89.9999999999772
 51
180.0000000000227
1001
GENIUS_GENOBJ-N-FIL_13
1002
{
1000
OWNER
1000
GEN
1002
}
1001
GENIUS_GENODEF_13
1002
{
1000
HIER
1070
     0
1002
}
1002
{
1000
MANEDIT
1070
     0
1002
}
1002
{
1000
NOSEL
1070
     0
1002
}
1002
{
1000
BEHIND
1070
     0
1002
}
1002
{
1000
OTHER
1070
     0
1002
}
1002
{
1000
REACTOR
1002
}
  0
ARC
  5
2979
330
1F
100
AcDbEntity
  8
ｴｸｽﾃﾝｼｮﾝﾌﾚｰﾑ
100
AcDbCircle
 10
373.830084085164
 20
619.7
 30
0.0
 40
0.3
100
AcDbArc
 50
359.9999999999675
 51
90.00000000000978
1001
GENIUS_GENOBJ-N-FIL_13
1002
{
1000
OWNER
1000
GEN
1002
}
1001
GENIUS_GENODEF_13
1002
{
1000
HIER
1070
     0
1002
}
1002
{
1000
MANEDIT
1070
     0
1002
}
1002
{
1000
NOSEL
1070
     0
1002
}
1002
{
1000
BEHIND
1070
     0
1002
}
1002
{
1000
OTHER
1070
     0
1002
}
1002
{
1000
REACTOR
1002
}
  0
ARC
  5
297B
330
1F
100
AcDbEntity
  8
ｴｸｽﾃﾝｼｮﾝﾌﾚｰﾑ
100
AcDbCircle
 10
371.9300840851639
 20
619.7
 30
0.0
 40
0.3
100
AcDbArc
 50
89.99999999998697
 51
180.0000000000227
1001
GENIUS_GENOBJ-N-FIL_13
1002
{
1000
OWNER
1000
GEN
1002
}
1001
GENIUS_GENODEF_13
1002
{
1000
HIER
1070
     0
1002
}
1002
{
1000
MANEDIT
1070
     0
1002
}
1002
{
1000
NOSEL
1070
     0
1002
}
1002
{
1000
BEHIND
1070
     0
1002
}
1002
{
1000
OTHER
1070
     0
1002
}
1002
{
1000
REACTOR
1002
}
  0
ARC
  5
297D
330
1F
100
AcDbEntity
  8
ｴｸｽﾃﾝｼｮﾝﾌﾚｰﾑ
100
AcDbCircle
 10
367.830084085164
 20
619.7
 30
0.0
 40
0.3
100
AcDbArc
 50
359.9999999999675
 51
90.00000000000978
1001
GENIUS_GENOBJ-N-FIL_13
1002
{
1000
OWNER
1000
GEN
1002
}
1001
GENIUS_GENODEF_13
1002
{
1000
HIER
1070
     0
1002
}
1002
{
1000
MANEDIT
1070
     0
1002
}
1002
{
1000
NOSEL
1070
     0
1002
}
1002
{
1000
BEHIND
1070
     0
1002
}
1002
{
1000
OTHER
1070
     0
1002
}
1002
{
1000
REACTOR
1002
}
  0
LINE
  5
297E
330
1F
100
AcDbEntity
  8
ｴｸｽﾃﾝｼｮﾝﾌﾚｰﾑ
100
AcDbLine
 10
371.630084085164
 20
619.6999999999998
 30
0.0
 11
368.130084085164
 21
619.6999999999998
 31
0.0
  0
LINE
  5
2B3C
330
1F
100
AcDbEntity
  8
ｴｸｽﾃﾝｼｮﾝﾌﾚｰﾑ
100
AcDbLine
 10
343.3800840851641
 20
254.5499999999997
 30
0.0
 11
343.380084085164
 21
585.4499999999999
 31
0.0
  0
LINE
  5
2B3D
330
1F
100
AcDbEntity
  8
ｴｸｽﾃﾝｼｮﾝﾌﾚｰﾑ
100
AcDbLine
 10
343.8800840851639
 20
229.9999999999999
 30
0.0
 11
343.8800840851639
 21
609.9999999999998
 31
0.0
  0
LINE
  5
2B3E
330
1F
100
AcDbEntity
  8
ｴｸｽﾃﾝｼｮﾝﾌﾚｰﾑ
100
AcDbLine
 10
346.7645540851642
 20
254.9844699999996
 30
0.0
 11
346.764554085164
 21
585.0155299999999
 31
0.0
  0
LINE
  5
2B3F
330
1F
100
AcDbEntity
  8
ｴｸｽﾃﾝｼｮﾝﾌﾚｰﾑ
100
AcDbLine
 10
347.9645540851641
 20
585.05045
 30
0.0
 11
347.964554085164
 21
254.9495499999998
 31
0.0
  0
LINE
  5
2B40
330
1F
100
AcDbEntity
  8
ｴｸｽﾃﾝｼｮﾝﾌﾚｰﾑ
100
AcDbLine
 10
351.2587640851639
 20
255.3286899999996
 30
0.0
 11
351.258764085164
 21
584.67131
 31
0.0
  0
LINE
  5
2B41
330
1F
100
AcDbEntity
  8
ｴｸｽﾃﾝｼｮﾝﾌﾚｰﾑ
100
AcDbLine
 10
343.380084085164
 20
589.5499999999999
 30
0.0
 11
343.380084085164
 21
591.4499999999999
 31
0.0
  0
LINE
  5
2B42
330
1F
100
AcDbEntity
  8
ｴｸｽﾃﾝｼｮﾝﾌﾚｰﾑ
100
AcDbLine
 10
343.380084085164
 20
595.5499999999999
 30
0.0
 11
343.380084085164
 21
609.9999999999998
 31
0.0
  0
LINE
  5
2B43
330
1F
100
AcDbEntity
  8
ｴｸｽﾃﾝｼｮﾝﾌﾚｰﾑ
100
AcDbLine
 10
346.364554085164
 20
589.0155549999739
 30
0.0
 11
346.364554085164
 21
600.59297
 31
0.0
  0
LINE
  5
2B44
330
1F
100
AcDbEntity
  8
ｴｸｽﾃﾝｼｮﾝﾌﾚｰﾑ
100
AcDbLine
 10
356.4549641017297
 20
585.6497293154931
 30
0.0
 11
355.1852786048894
 21
587.6709797584254
 31
0.0
  0
LINE
  5
2B45
330
1F
100
AcDbEntity
  8
ｴｸｽﾃﾝｼｮﾝﾌﾚｰﾑ
100
AcDbLine
 10
354.014554085164
 20
584.97131
 30
0.0
 11
351.5587640851641
 21
584.97131
 31
0.0
  0
ARC
  5
2B46
330
1F
100
AcDbEntity
  8
ｴｸｽﾃﾝｼｮﾝﾌﾚｰﾑ
100
AcDbCircle
 10
351.5587640851641
 20
584.67131
 30
0.0
 40
0.3
100
AcDbArc
 50
90.0
 51
180.0
1001
GENIUS_GENODEF_13
1002
{
1000
HIER
1070
     0
1002
}
1002
{
1000
MANEDIT
1070
     0
1002
}
1002
{
1000
NOSEL
1070
     0
1002
}
1002
{
1000
BEHIND
1070
     0
1002
}
1002
{
1000
OTHER
1070
     0
1002
}
1002
{
1000
REACTOR
1002
}
1001
GENIUS_GENOBJ-N-FIL_13
1002
{
1000
OWNER
1000
GEN
1002
}
  0
LINE
  5
2B47
330
1F
100
AcDbEntity
  8
ｴｸｽﾃﾝｼｮﾝﾌﾚｰﾑ
100
AcDbLine
 10
356.8145283546706
 20
588.7186473461163
 30
0.0
 11
358.1382546246877
 21
586.7378823513062
 31
0.0
  0
LINE
  5
2B48
330
1F
100
AcDbEntity
  8
ｴｸｽﾃﾝｼｮﾝﾌﾚｰﾑ
100
AcDbLine
 10
356.364554085164
 20
598.8105200000001
 30
0.0
 11
356.364554085164
 21
591.5155399999999
 31
0.0
  0
LINE
  5
2B49
330
1F
100
AcDbEntity
  8
ｴｸｽﾃﾝｼｮﾝﾌﾚｰﾑ
100
AcDbLine
 10
356.764554085164
 20
597.76786
 30
0.0
 11
356.764554085164
 21
591.5155399999999
 31
0.0
  0
LINE
  5
2B4A
330
1F
100
AcDbEntity
  8
ｴｸｽﾃﾝｼｮﾝﾌﾚｰﾑ
100
AcDbLine
 10
357.929654085164
 20
591.5155399999999
 30
0.0
 11
357.929654085164
 21
597.76786
 31
0.0
  0
LINE
  5
2B4B
330
1F
100
AcDbEntity
  8
ｴｸｽﾃﾝｼｮﾝﾌﾚｰﾑ
100
AcDbLine
 10
350.364554085164
 20
587.4504499999999
 30
0.0
 11
353.864554085164
 21
587.4504499999999
 31
0.0
  0
ARC
  5
2B4C
330
1F
100
AcDbEntity
  8
ｴｸｽﾃﾝｼｮﾝﾌﾚｰﾑ
100
AcDbCircle
 10
350.364554085164
 20
585.05045
 30
0.0
 40
2.399999999999999
100
AcDbArc
 50
90.0
 51
180.0
1001
GENIUS_GENODEF_13
1002
{
1000
HIER
1070
     0
1002
}
1002
{
1000
MANEDIT
1070
     0
1002
}
1002
{
1000
NOSEL
1070
     0
1002
}
1002
{
1000
BEHIND
1070
     0
1002
}
1002
{
1000
OTHER
1070
     0
1002
}
1002
{
1000
REACTOR
1002
}
1001
GENIUS_GENOBJ-N-FIL_13
1002
{
1000
OWNER
1000
GEN
1002
}
  0
LINE
  5
2B4D
330
1F
100
AcDbEntity
  8
ｴｸｽﾃﾝｼｮﾝﾌﾚｰﾑ
100
AcDbLine
 10
360.308764085164
 20
594.8070699999999
 30
0.0
 11
360.308764085164
 21
591.26554
 31
0.0
  0
LINE
  5
2B4E
330
1F
100
AcDbEntity
  8
ｴｸｽﾃﾝｼｮﾝﾌﾚｰﾑ
100
AcDbLine
 10
353.864554085164
 20
588.6155199999999
 30
0.0
 11
350.364554085164
 21
588.6155199999999
 31
0.0
  0
LINE
  5
2B4F
330
1F
100
AcDbEntity
  8
ｴｸｽﾃﾝｼｮﾝﾌﾚｰﾑ
100
AcDbLine
 10
353.864554085164
 20
589.01554
 30
0.0
 11
350.364554085164
 21
589.01554
 31
0.0
  0
LINE
  5
2B50
330
1F
100
AcDbEntity
  8
ｴｸｽﾃﾝｼｮﾝﾌﾚｰﾑ
100
AcDbLine
 10
362.108774085164
 20
593.00706
 30
0.0
 11
362.108774085164
 21
591.17112
 31
0.0
  0
LINE
  5
2B51
330
1F
100
AcDbEntity
  8
ｴｸｽﾃﾝｼｮﾝﾌﾚｰﾑ
100
AcDbLine
 10
362.108774085164
 20
591.17112
 30
0.0
 11
362.741594085164
 21
590.5382900000001
 31
0.0
  0
LINE
  5
2B52
330
1F
100
AcDbEntity
  8
ｴｸｽﾃﾝｼｮﾝﾌﾚｰﾑ
100
AcDbLine
 10
359.1914763671884
 20
595.9243577179755
 30
0.0
 11
362.108774085164
 21
593.00706
 31
0.0
  0
LINE
  5
2B53
330
1F
100
AcDbEntity
  8
ｴｸｽﾃﾝｼｮﾝﾌﾚｰﾑ
100
AcDbLine
 10
365.570014085164
 20
593.36673
 30
0.0
 11
361.115244085164
 21
597.8214999999998
 31
0.0
  0
LINE
  5
2B54
330
1F
100
AcDbEntity
  8
ｴｸｽﾃﾝｼｮﾝﾌﾚｰﾑ
100
AcDbLine
 10
362.741594085164
 20
590.5382900000001
 30
0.0
 11
365.570014085164
 21
593.36673
 31
0.0
  0
LINE
  5
2B55
330
1F
100
AcDbEntity
  8
ｴｸｽﾃﾝｼｮﾝﾌﾚｰﾑ
100
AcDbLine
 10
359.1914763671884
 20
595.9243577179755
 30
0.0
 11
357.929654085164
 21
595.924849885503
 31
0.0
  0
LINE
  5
2B56
330
1F
100
AcDbEntity
  8
ｴｸｽﾃﾝｼｮﾝﾌﾚｰﾑ
100
AcDbLine
 10
361.115244085164
 20
597.8214999999998
 30
0.0
 11
357.9306470245426
 21
597.8214999999998
 31
0.0
  0
ARC
  5
2B57
330
1F
100
AcDbEntity
  8
ｴｸｽﾃﾝｼｮﾝﾌﾚｰﾑ
100
AcDbCircle
 10
354.014554085164
 20
591.26554
 30
0.0
 40
6.294209999999999
100
AcDbArc
 50
270.0
 51
291.770144783092
  0
ARC
  5
2B58
330
1F
100
AcDbEntity
  8
ｴｸｽﾃﾝｼｮﾝﾌﾚｰﾑ
100
AcDbCircle
 10
354.014554085164
 20
591.26554
 30
0.0
 40
6.294209999999999
100
AcDbArc
 50
314.0330625592539
 51
0.0000100000010064
  0
ARC
  5
2B59
330
1F
100
AcDbEntity
  8
ｴｸｽﾃﾝｼｮﾝﾌﾚｰﾑ
100
AcDbCircle
 10
353.864554085164
 20
591.5155399999999
 30
0.0
 40
2.5
100
AcDbArc
 50
270.0
 51
0.0000100000010064
  0
ARC
  5
2B5A
330
1F
100
AcDbEntity
  8
ｴｸｽﾃﾝｼｮﾝﾌﾚｰﾑ
100
AcDbCircle
 10
355.3645540851639
 20
598.8105200000001
 30
0.0
 40
1.0
100
AcDbArc
 50
0.0
 51
99.3124500000003
  0
ARC
  5
2B5B
330
1F
100
AcDbEntity
  8
ｴｸｽﾃﾝｼｮﾝﾌﾚｰﾑ
100
AcDbCircle
 10
353.584554085164
 20
609.6655200000001
 30
0.0
 40
10.0
100
AcDbArc
 50
235.5661500000021
 51
279.3124399999985
  0
ARC
  5
2B5C
330
1F
100
AcDbEntity
  8
ｴｸｽﾃﾝｼｮﾝﾌﾚｰﾑ
100
AcDbCircle
 10
347.3645540851639
 20
600.59297
 30
0.0
 40
1.0
100
AcDbArc
 50
55.56613999999793
 51
180.0000100000009
  0
ARC
  5
2B5D
330
1F
100
AcDbEntity
  8
ｴｸｽﾃﾝｼｮﾝﾌﾚｰﾑ
100
AcDbCircle
 10
359.3645540851639
 20
597.76786
 30
0.0
 40
1.43491
100
AcDbArc
 50
135.0
 51
180.0000100000009
  0
ARC
  5
2B5E
330
1F
100
AcDbEntity
  8
ｴｸｽﾃﾝｼｮﾝﾌﾚｰﾑ
100
AcDbCircle
 10
353.864554085164
 20
591.5155399999999
 30
0.0
 40
4.06509
100
AcDbArc
 50
270.0
 51
0.0000100000010064
  0
ARC
  5
2B5F
330
1F
100
AcDbEntity
  8
ｴｸｽﾃﾝｼｮﾝﾌﾚｰﾑ
100
AcDbCircle
 10
350.364554085164
 20
585.0155299999999
 30
0.0
 40
3.6
100
AcDbArc
 50
90.00000999999775
 51
180.0000100000009
  0
ARC
  5
2B60
330
1F
100
AcDbEntity
  8
ｴｸｽﾃﾝｼｮﾝﾌﾚｰﾑ
100
AcDbCircle
 10
350.364554085164
 20
585.0155299999999
 30
0.0
 40
4.000020000000096
100
AcDbArc
 50
90.00000999999775
 51
126.8697257593702
  0
ARC
  5
2B61
330
1F
100
AcDbEntity
  8
ｴｸｽﾃﾝｼｮﾝﾌﾚｰﾑ
100
AcDbCircle
 10
347.3645540851639
 20
589.015554999974
 30
0.0
 40
1.0
100
AcDbArc
 50
180.0000000000032
 51
306.8697257593748
1001
GENIUS_GENOBJ-N-FIL_13
1002
{
1000
OWNER
1000
GEN
1002
}
1001
GENIUS_GENODEF_13
1002
{
1000
HIER
1070
     0
1002
}
1002
{
1000
MANEDIT
1070
     0
1002
}
1002
{
1000
NOSEL
1070
     0
1002
}
1002
{
1000
BEHIND
1070
     0
1002
}
1002
{
1000
OTHER
1070
     0
1002
}
1002
{
1000
REACTOR
1002
}
  0
ARC
  5
2B62
330
1F
100
AcDbEntity
  8
ｴｸｽﾃﾝｼｮﾝﾌﾚｰﾑ
100
AcDbCircle
 10
353.864554085164
 20
591.5155399999999
 30
0.0
 40
2.9
100
AcDbArc
 50
270.0
 51
0.0000100000010064
  0
ARC
  5
2B63
330
1F
100
AcDbEntity
  8
ｴｸｽﾃﾝｼｮﾝﾌﾚｰﾑ
100
AcDbCircle
 10
359.3645540851639
 20
597.76786
 30
0.0
 40
2.6
100
AcDbArc
 50
135.0
 51
180.0000100000009
  0
CIRCLE
  5
2B6C
330
1F
100
AcDbEntity
  8
ｴｸｽﾃﾝｼｮﾝﾌﾚｰﾑ
100
AcDbCircle
 10
358.284554085164
 20
584.66553
 30
0.0
 40
2.077509999999989
  0
LINE
  5
2B6D
330
1F
100
AcDbEntity
  8
ｴｸｽﾃﾝｼｮﾝﾌﾚｰﾑ
100
AcDbLine
 10
343.680084085164
 20
585.7499999999999
 30
0.0
 11
343.680084085164
 21
589.2499999999999
 31
0.0
  0
LINE
  5
2B6E
330
1F
100
AcDbEntity
  8
ｴｸｽﾃﾝｼｮﾝﾌﾚｰﾑ
100
AcDbLine
 10
343.680084085164
 20
591.7499999999998
 30
0.0
 11
343.680084085164
 21
595.2499999999998
 31
0.0
  0
ARC
  5
2B6F
330
1F
100
AcDbEntity
  8
ｴｸｽﾃﾝｼｮﾝﾌﾚｰﾑ
100
AcDbCircle
 10
343.6800840851638
 20
585.45
 30
0.0
 40
0.3
100
AcDbArc
 50
89.9999999999772
 51
180.0000000000227
1001
GENIUS_GENOBJ-N-FIL_13
1002
{
1000
OWNER
1000
GEN
1002
}
1001
GENIUS_GENODEF_13
1002
{
1000
HIER
1070
     0
1002
}
1002
{
1000
MANEDIT
1070
     0
1002
}
1002
{
1000
NOSEL
1070
     0
1002
}
1002
{
1000
BEHIND
1070
     0
1002
}
1002
{
1000
OTHER
1070
     0
1002
}
1002
{
1000
REACTOR
1002
}
  0
ARC
  5
2B70
330
1F
100
AcDbEntity
  8
ｴｸｽﾃﾝｼｮﾝﾌﾚｰﾑ
100
AcDbCircle
 10
343.6800840851638
 20
589.5499999999998
 30
0.0
 40
0.3
100
AcDbArc
 50
179.9999999999902
 51
270.0000000000326
1001
GENIUS_GENOBJ-N-FIL_13
1002
{
1000
OWNER
1000
GEN
1002
}
1001
GENIUS_GENODEF_13
1002
{
1000
HIER
1070
     0
1002
}
1002
{
1000
MANEDIT
1070
     0
1002
}
1002
{
1000
NOSEL
1070
     0
1002
}
1002
{
1000
BEHIND
1070
     0
1002
}
1002
{
1000
OTHER
1070
     0
1002
}
1002
{
1000
REACTOR
1002
}
  0
ARC
  5
2B71
330
1F
100
AcDbEntity
  8
ｴｸｽﾃﾝｼｮﾝﾌﾚｰﾑ
100
AcDbCircle
 10
343.6800840851638
 20
591.4499999999999
 30
0.0
 40
0.3
100
AcDbArc
 50
89.9999999999772
 51
180.0000000000097
1001
GENIUS_GENOBJ-N-FIL_13
1002
{
1000
OWNER
1000
GEN
1002
}
1001
GENIUS_GENODEF_13
1002
{
1000
HIER
1070
     0
1002
}
1002
{
1000
MANEDIT
1070
     0
1002
}
1002
{
1000
NOSEL
1070
     0
1002
}
1002
{
1000
BEHIND
1070
     0
1002
}
1002
{
1000
OTHER
1070
     0
1002
}
1002
{
1000
REACTOR
1002
}
  0
ARC
  5
2B72
330
1F
100
AcDbEntity
  8
ｴｸｽﾃﾝｼｮﾝﾌﾚｰﾑ
100
AcDbCircle
 10
343.6800840851638
 20
595.5499999999998
 30
0.0
 40
0.3
100
AcDbArc
 50
179.9999999999902
 51
270.0000000000326
1001
GENIUS_GENOBJ-N-FIL_13
1002
{
1000
OWNER
1000
GEN
1002
}
1001
GENIUS_GENODEF_13
1002
{
1000
HIER
1070
     0
1002
}
1002
{
1000
MANEDIT
1070
     0
1002
}
1002
{
1000
NOSEL
1070
     0
1002
}
1002
{
1000
BEHIND
1070
     0
1002
}
1002
{
1000
OTHER
1070
     0
1002
}
1002
{
1000
REACTOR
1002
}
  0
LINE
  5
2C6D
330
1F
100
AcDbEntity
  8
ｴｸｽﾃﾝｼｮﾝﾌﾚｰﾑ
100
AcDbLine
 10
508.8300840851643
 20
219.9999999999999
 30
0.0
 11
377.930084085164
 21
219.9999999999999
 31
0.0
  0
LINE
  5
2C6E
330
1F
100
AcDbEntity
  8
ｴｸｽﾃﾝｼｮﾝﾌﾚｰﾑ
100
AcDbLine
 10
533.380084085164
 20
220.4999999999999
 30
0.0
 11
353.380084085164
 21
220.4999999999999
 31
0.0
  0
LINE
  5
2C6F
330
1F
100
AcDbEntity
  8
ｴｸｽﾃﾝｼｮﾝﾌﾚｰﾑ
100
AcDbLine
 10
508.3956140851642
 20
223.3844699999998
 30
0.0
 11
378.3645540851638
 21
223.3844699999998
 31
0.0
  0
LINE
  5
2C70
330
1F
100
AcDbEntity
  8
ｴｸｽﾃﾝｼｮﾝﾌﾚｰﾑ
100
AcDbLine
 10
378.3296340851639
 20
224.5844700000001
 30
0.0
 11
508.4305340851642
 21
224.5844699999997
 31
0.0
  0
LINE
  5
2C71
330
1F
100
AcDbEntity
  8
ｴｸｽﾃﾝｼｮﾝﾌﾚｰﾑ
100
AcDbLine
 10
508.0513940851642
 20
227.8786799999999
 30
0.0
 11
378.7087740851639
 21
227.8786799999999
 31
0.0
  0
LINE
  5
2C72
330
1F
100
AcDbEntity
  8
ｴｸｽﾃﾝｼｮﾝﾌﾚｰﾑ
100
AcDbLine
 10
373.8300840851639
 20
219.9999999999999
 30
0.0
 11
371.930084085164
 21
219.9999999999999
 31
0.0
  0
LINE
  5
2C73
330
1F
100
AcDbEntity
  8
ｴｸｽﾃﾝｼｮﾝﾌﾚｰﾑ
100
AcDbLine
 10
367.8300840851639
 20
219.9999999999999
 30
0.0
 11
353.380084085164
 21
219.9999999999999
 31
0.0
  0
LINE
  5
2C74
330
1F
100
AcDbEntity
  8
ｴｸｽﾃﾝｼｮﾝﾌﾚｰﾑ
100
AcDbLine
 10
374.3645290851899
 20
222.98447
 30
0.0
 11
362.7871140851639
 21
222.98447
 31
0.0
  0
LINE
  5
2C75
330
1F
100
AcDbEntity
  8
ｴｸｽﾃﾝｼｮﾝﾌﾚｰﾑ
100
AcDbLine
 10
377.7303547696707
 20
233.0748800165657
 30
0.0
 11
375.7091043267385
 21
231.8051945197252
 31
0.0
  0
LINE
  5
2C76
330
1F
100
AcDbEntity
  8
ｴｸｽﾃﾝｼｮﾝﾌﾚｰﾑ
100
AcDbLine
 10
357.5260640851638
 20
240.3936600000001
 30
0.0
 11
363.7737340851639
 21
234.1460000000001
 31
0.0
  0
LINE
  5
2C77
330
1F
100
AcDbEntity
  8
ｴｸｽﾃﾝｼｮﾝﾌﾚｰﾑ
100
AcDbLine
 10
378.4087740851638
 20
230.6344699999999
 30
0.0
 11
378.4087740851638
 21
228.1786799999999
 31
0.0
  0
ARC
  5
2C78
330
1F
100
AcDbEntity
  8
ｴｸｽﾃﾝｼｮﾝﾌﾚｰﾑ
100
AcDbCircle
 10
378.7087740851639
 20
228.1786799999998
 30
0.0
 40
0.3
100
AcDbArc
 50
180.0
 51
270.0
1001
GENIUS_GENODEF_13
1002
{
1000
HIER
1070
     0
1002
}
1002
{
1000
MANEDIT
1070
     0
1002
}
1002
{
1000
NOSEL
1070
     0
1002
}
1002
{
1000
BEHIND
1070
     0
1002
}
1002
{
1000
OTHER
1070
     0
1002
}
1002
{
1000
REACTOR
1002
}
1001
GENIUS_GENOBJ-N-FIL_13
1002
{
1000
OWNER
1000
GEN
1002
}
  0
LINE
  5
2C79
330
1F
100
AcDbEntity
  8
ｴｸｽﾃﾝｼｮﾝﾌﾚｰﾑ
100
AcDbLine
 10
374.6614367390475
 20
233.4344442695066
 30
0.0
 11
376.6422017338578
 21
234.7581705395236
 31
0.0
  0
LINE
  5
2C7A
330
1F
100
AcDbEntity
  8
ｴｸｽﾃﾝｼｮﾝﾌﾚｰﾑ
100
AcDbLine
 10
364.5695640851638
 20
232.98447
 30
0.0
 11
371.8645440851639
 21
232.98447
 31
0.0
  0
LINE
  5
2C7B
330
1F
100
AcDbEntity
  8
ｴｸｽﾃﾝｼｮﾝﾌﾚｰﾑ
100
AcDbLine
 10
365.6122240851638
 20
233.3844699999998
 30
0.0
 11
371.8645440851639
 21
233.3844699999998
 31
0.0
  0
LINE
  5
2C7C
330
1F
100
AcDbEntity
  8
ｴｸｽﾃﾝｼｮﾝﾌﾚｰﾑ
100
AcDbLine
 10
371.8645440851639
 20
234.54957
 30
0.0
 11
365.6122240851638
 21
234.54957
 31
0.0
  0
LINE
  5
2C7D
330
1F
100
AcDbEntity
  8
ｴｸｽﾃﾝｼｮﾝﾌﾚｰﾑ
100
AcDbLine
 10
364.5975940851639
 20
234.9698400000001
 30
0.0
 11
358.3499240851638
 21
241.2175099999998
 31
0.0
  0
LINE
  5
2C7E
330
1F
100
AcDbEntity
  8
ｴｸｽﾃﾝｼｮﾝﾌﾚｰﾑ
100
AcDbLine
 10
375.9296340851639
 20
226.98447
 30
0.0
 11
375.9296340851639
 21
230.48447
 31
0.0
  0
ARC
  5
2C7F
330
1F
100
AcDbEntity
  8
ｴｸｽﾃﾝｼｮﾝﾌﾚｰﾑ
100
AcDbCircle
 10
378.3296340851639
 20
226.9844699999999
 30
0.0
 40
2.399999999999999
100
AcDbArc
 50
180.0
 51
270.0
1001
GENIUS_GENODEF_13
1002
{
1000
HIER
1070
     0
1002
}
1002
{
1000
MANEDIT
1070
     0
1002
}
1002
{
1000
NOSEL
1070
     0
1002
}
1002
{
1000
BEHIND
1070
     0
1002
}
1002
{
1000
OTHER
1070
     0
1002
}
1002
{
1000
REACTOR
1002
}
1001
GENIUS_GENOBJ-N-FIL_13
1002
{
1000
OWNER
1000
GEN
1002
}
  0
LINE
  5
2C80
330
1F
100
AcDbEntity
  8
ｴｸｽﾃﾝｼｮﾝﾌﾚｰﾑ
100
AcDbLine
 10
368.5730140851639
 20
236.9286799999999
 30
0.0
 11
372.1145440851639
 21
236.9286799999999
 31
0.0
  0
LINE
  5
2C81
330
1F
100
AcDbEntity
  8
ｴｸｽﾃﾝｼｮﾝﾌﾚｰﾑ
100
AcDbLine
 10
360.5413843511433
 20
242.1784999999999
 30
0.0
 11
365.5585840851639
 21
237.1612899999999
 31
0.0
  0
LINE
  5
2C82
330
1F
100
AcDbEntity
  8
ｴｸｽﾃﾝｼｮﾝﾌﾚｰﾑ
100
AcDbLine
 10
374.7645640851639
 20
230.48447
 30
0.0
 11
374.7645640851639
 21
226.98447
 31
0.0
  0
LINE
  5
2C83
330
1F
100
AcDbEntity
  8
ｴｸｽﾃﾝｼｮﾝﾌﾚｰﾑ
100
AcDbLine
 10
374.3645440851639
 20
230.48447
 30
0.0
 11
374.3645440851639
 21
226.98447
 31
0.0
  0
LINE
  5
2C84
330
1F
100
AcDbEntity
  8
ｴｸｽﾃﾝｼｮﾝﾌﾚｰﾑ
100
AcDbLine
 10
370.3730240851638
 20
238.7286899999998
 30
0.0
 11
372.2089640851639
 21
238.7286899999998
 31
0.0
  0
LINE
  5
2C85
330
1F
100
AcDbEntity
  8
ｴｸｽﾃﾝｼｮﾝﾌﾚｰﾑ
100
AcDbLine
 10
372.2089640851639
 20
238.7286899999998
 30
0.0
 11
372.8417940851639
 21
239.3615100000001
 31
0.0
  0
LINE
  5
2C86
330
1F
100
AcDbEntity
  8
ｴｸｽﾃﾝｼｮﾝﾌﾚｰﾑ
100
AcDbLine
 10
367.4557263671884
 20
235.8113922820245
 30
0.0
 11
370.3730240851638
 21
238.7286899999998
 31
0.0
  0
LINE
  5
2C87
330
1F
100
AcDbEntity
  8
ｴｸｽﾃﾝｼｮﾝﾌﾚｰﾑ
100
AcDbLine
 10
370.0133540851639
 20
242.1899299999999
 30
0.0
 11
365.5585840851639
 21
237.7351600000001
 31
0.0
  0
LINE
  5
2C88
330
1F
100
AcDbEntity
  8
ｴｸｽﾃﾝｼｮﾝﾌﾚｰﾑ
100
AcDbLine
 10
372.8417940851639
 20
239.3615100000001
 30
0.0
 11
370.0133540851639
 21
242.1899299999999
 31
0.0
  0
LINE
  5
2C89
330
1F
100
AcDbEntity
  8
ｴｸｽﾃﾝｼｮﾝﾌﾚｰﾑ
100
AcDbLine
 10
367.4557263671884
 20
235.8113922820245
 30
0.0
 11
367.4552341996608
 21
234.54957
 31
0.0
  0
LINE
  5
2C8A
330
1F
100
AcDbEntity
  8
ｴｸｽﾃﾝｼｮﾝﾌﾚｰﾑ
100
AcDbLine
 10
365.5585840851639
 20
237.7351600000001
 30
0.0
 11
365.5585840851639
 21
234.5505629393787
 31
0.0
  0
ARC
  5
2C8B
330
1F
100
AcDbEntity
  8
ｴｸｽﾃﾝｼｮﾝﾌﾚｰﾑ
100
AcDbCircle
 10
353.380084085164
 20
229.9999999999998
 30
0.0
 40
10.0
100
AcDbArc
 50
180.0
 51
270.0
1001
GENIUS_GENOBJ-N-FIL_13
1002
{
1000
OWNER
1000
GEN
1002
}
1001
GENIUS_GENODEF_13
1002
{
1000
HIER
1070
     0
1002
}
1002
{
1000
MANEDIT
1070
     0
1002
}
1002
{
1000
NOSEL
1070
     0
1002
}
1002
{
1000
BEHIND
1070
     0
1002
}
1002
{
1000
OTHER
1070
     0
1002
}
1002
{
1000
REACTOR
1002
}
  0
ARC
  5
2C8C
330
1F
100
AcDbEntity
  8
ｴｸｽﾃﾝｼｮﾝﾌﾚｰﾑ
100
AcDbCircle
 10
353.380084085164
 20
229.9999999999998
 30
0.0
 40
9.5
100
AcDbArc
 50
180.0
 51
270.0
1001
GENIUS_GENOBJ-N-FIL_13
1002
{
1000
OWNER
1000
GEN
1002
}
1001
GENIUS_GENODEF_13
1002
{
1000
HIER
1070
     0
1002
}
1002
{
1000
MANEDIT
1070
     0
1002
}
1002
{
1000
NOSEL
1070
     0
1002
}
1002
{
1000
BEHIND
1070
     0
1002
}
1002
{
1000
OTHER
1070
     0
1002
}
1002
{
1000
REACTOR
1002
}
  0
ARC
  5
2C8D
330
1F
100
AcDbEntity
  8
ｴｸｽﾃﾝｼｮﾝﾌﾚｰﾑ
100
AcDbCircle
 10
372.1145440851639
 20
230.6344699999997
 30
0.0
 40
6.294209999999999
100
AcDbArc
 50
0.0
 51
21.77014478309193
  0
ARC
  5
2C8E
330
1F
100
AcDbEntity
  8
ｴｸｽﾃﾝｼｮﾝﾌﾚｰﾑ
100
AcDbCircle
 10
372.1145440851639
 20
230.6344699999997
 30
0.0
 40
6.294209999999999
100
AcDbArc
 50
44.03306255925617
 51
90.00001000000102
  0
ARC
  5
2C90
330
1F
100
AcDbEntity
  8
ｴｸｽﾃﾝｼｮﾝﾌﾚｰﾑ
100
AcDbCircle
 10
371.8645440851639
 20
230.4844699999999
 30
0.0
 40
2.5
100
AcDbArc
 50
0.0
 51
90.00001000000102
  0
ARC
  5
2C91
330
1F
100
AcDbEntity
  8
ｴｸｽﾃﾝｼｮﾝﾌﾚｰﾑ
100
AcDbCircle
 10
364.5695640851638
 20
231.9844699999999
 30
0.0
 40
1.0
100
AcDbArc
 50
90.0
 51
189.3124500000003
  0
ARC
  5
2C92
330
1F
100
AcDbEntity
  8
ｴｸｽﾃﾝｼｮﾝﾌﾚｰﾑ
100
AcDbCircle
 10
353.7145640851638
 20
230.2044699999999
 30
0.0
 40
10.0
100
AcDbArc
 50
325.5661500000021
 51
9.312440000001712
  0
ARC
  5
2C93
330
1F
100
AcDbEntity
  8
ｴｸｽﾃﾝｼｮﾝﾌﾚｰﾑ
100
AcDbCircle
 10
362.7871140851639
 20
223.9844699999999
 30
0.0
 40
1.0
100
AcDbArc
 50
145.5661399999979
 51
270.000010000001
  0
ARC
  5
2C95
330
1F
100
AcDbEntity
  8
ｴｸｽﾃﾝｼｮﾝﾌﾚｰﾑ
100
AcDbCircle
 10
365.6122240851638
 20
235.9844699999999
 30
0.0
 40
1.43491
100
AcDbArc
 50
225.0
 51
270.000010000001
  0
ARC
  5
2C96
330
1F
100
AcDbEntity
  8
ｴｸｽﾃﾝｼｮﾝﾌﾚｰﾑ
100
AcDbCircle
 10
371.8645440851639
 20
230.4844699999999
 30
0.0
 40
4.06509
100
AcDbArc
 50
0.0
 51
90.00001000000102
  0
ARC
  5
2C97
330
1F
100
AcDbEntity
  8
ｴｸｽﾃﾝｼｮﾝﾌﾚｰﾑ
100
AcDbCircle
 10
378.3645540851638
 20
226.9844699999999
 30
0.0
 40
3.6
100
AcDbArc
 50
180.0000099999977
 51
270.000010000001
  0
ARC
  5
2C98
330
1F
100
AcDbEntity
  8
ｴｸｽﾃﾝｼｮﾝﾌﾚｰﾑ
100
AcDbCircle
 10
378.3645540851638
 20
226.9844699999999
 30
0.0
 40
4.000020000000096
100
AcDbArc
 50
180.0000099999977
 51
216.8697257593703
  0
ARC
  5
2C99
330
1F
100
AcDbEntity
  8
ｴｸｽﾃﾝｼｮﾝﾌﾚｰﾑ
100
AcDbCircle
 10
374.3645290851898
 20
223.9844699999999
 30
0.0
 40
1.0
100
AcDbArc
 50
270.0000000000033
 51
36.86972575937485
1001
GENIUS_GENOBJ-N-FIL_13
1002
{
1000
OWNER
1000
GEN
1002
}
1001
GENIUS_GENODEF_13
1002
{
1000
HIER
1070
     0
1002
}
1002
{
1000
MANEDIT
1070
     0
1002
}
1002
{
1000
NOSEL
1070
     0
1002
}
1002
{
1000
BEHIND
1070
     0
1002
}
1002
{
1000
OTHER
1070
     0
1002
}
1002
{
1000
REACTOR
1002
}
  0
ARC
  5
2C9A
330
1F
100
AcDbEntity
  8
ｴｸｽﾃﾝｼｮﾝﾌﾚｰﾑ
100
AcDbCircle
 10
371.8645440851639
 20
230.4844699999999
 30
0.0
 40
2.9
100
AcDbArc
 50
0.0
 51
90.00001000000102
  0
ARC
  5
2C9B
330
1F
100
AcDbEntity
  8
ｴｸｽﾃﾝｼｮﾝﾌﾚｰﾑ
100
AcDbCircle
 10
365.6122240851638
 20
235.9844699999999
 30
0.0
 40
2.6
100
AcDbArc
 50
225.0
 51
270.000010000001
  0
CIRCLE
  5
2CC2
330
1F
100
AcDbEntity
  8
ｴｸｽﾃﾝｼｮﾝﾌﾚｰﾑ
100
AcDbCircle
 10
378.7145540851639
 20
234.9044699999997
 30
0.0
 40
2.077509999999989
  0
LINE
  5
2CC3
330
1F
100
AcDbEntity
  8
ｴｸｽﾃﾝｼｮﾝﾌﾚｰﾑ
100
AcDbLine
 10
377.630084085164
 20
220.3000000000001
 30
0.0
 11
374.130084085164
 21
220.3000000000001
 31
0.0
  0
LINE
  5
2CC4
330
1F
100
AcDbEntity
  8
ｴｸｽﾃﾝｼｮﾝﾌﾚｰﾑ
100
AcDbLine
 10
371.630084085164
 20
220.3000000000001
 30
0.0
 11
368.130084085164
 21
220.3000000000001
 31
0.0
  0
ARC
  5
2CC5
330
1F
100
AcDbEntity
  8
ｴｸｽﾃﾝｼｮﾝﾌﾚｰﾑ
100
AcDbCircle
 10
377.9300840851638
 20
220.2999999999997
 30
0.0
 40
0.3
100
AcDbArc
 50
179.9999999999772
 51
270.0000000000196
1001
GENIUS_GENOBJ-N-FIL_13
1002
{
1000
OWNER
1000
GEN
1002
}
1001
GENIUS_GENODEF_13
1002
{
1000
HIER
1070
     0
1002
}
1002
{
1000
MANEDIT
1070
     0
1002
}
1002
{
1000
NOSEL
1070
     0
1002
}
1002
{
1000
BEHIND
1070
     0
1002
}
1002
{
1000
OTHER
1070
     0
1002
}
1002
{
1000
REACTOR
1002
}
  0
ARC
  5
2CC6
330
1F
100
AcDbEntity
  8
ｴｸｽﾃﾝｼｮﾝﾌﾚｰﾑ
100
AcDbCircle
 10
373.830084085164
 20
220.2999999999997
 30
0.0
 40
0.3
100
AcDbArc
 50
269.999999999987
 51
0.0000000000325689
1001
GENIUS_GENOBJ-N-FIL_13
1002
{
1000
OWNER
1000
GEN
1002
}
1001
GENIUS_GENODEF_13
1002
{
1000
HIER
1070
     0
1002
}
1002
{
1000
MANEDIT
1070
     0
1002
}
1002
{
1000
NOSEL
1070
     0
1002
}
1002
{
1000
BEHIND
1070
     0
1002
}
1002
{
1000
OTHER
1070
     0
1002
}
1002
{
1000
REACTOR
1002
}
  0
ARC
  5
2CC7
330
1F
100
AcDbEntity
  8
ｴｸｽﾃﾝｼｮﾝﾌﾚｰﾑ
100
AcDbCircle
 10
371.9300840851639
 20
220.2999999999997
 30
0.0
 40
0.3
100
AcDbArc
 50
179.9999999999772
 51
270.0000000000098
1001
GENIUS_GENOBJ-N-FIL_13
1002
{
1000
OWNER
1000
GEN
1002
}
1001
GENIUS_GENODEF_13
1002
{
1000
HIER
1070
     0
1002
}
1002
{
1000
MANEDIT
1070
     0
1002
}
1002
{
1000
NOSEL
1070
     0
1002
}
1002
{
1000
BEHIND
1070
     0
1002
}
1002
{
1000
OTHER
1070
     0
1002
}
1002
{
1000
REACTOR
1002
}
  0
ARC
  5
2CC8
330
1F
100
AcDbEntity
  8
ｴｸｽﾃﾝｼｮﾝﾌﾚｰﾑ
100
AcDbCircle
 10
367.830084085164
 20
220.2999999999997
 30
0.0
 40
0.3
100
AcDbArc
 50
269.999999999987
 51
0.0000000000325689
1001
GENIUS_GENOBJ-N-FIL_13
1002
{
1000
OWNER
1000
GEN
1002
}
1001
GENIUS_GENODEF_13
1002
{
1000
HIER
1070
     0
1002
}
1002
{
1000
MANEDIT
1070
     0
1002
}
1002
{
1000
NOSEL
1070
     0
1002
}
1002
{
1000
BEHIND
1070
     0
1002
}
1002
{
1000
OTHER
1070
     0
1002
}
1002
{
1000
REACTOR
1002
}
  0
LINE
  5
2CCD
330
1F
100
AcDbEntity
  8
ｴｸｽﾃﾝｼｮﾝﾌﾚｰﾑ
100
AcDbLine
 10
343.380084085164
 20
250.4499999999999
 30
0.0
 11
343.380084085164
 21
248.5500000000001
 31
0.0
  0
LINE
  5
2CCE
330
1F
100
AcDbEntity
  8
ｴｸｽﾃﾝｼｮﾝﾌﾚｰﾑ
100
AcDbLine
 10
343.380084085164
 20
244.4499999999999
 30
0.0
 11
343.380084085164
 21
229.9999999999999
 31
0.0
  0
LINE
  5
2CCF
330
1F
100
AcDbEntity
  8
ｴｸｽﾃﾝｼｮﾝﾌﾚｰﾑ
100
AcDbLine
 10
346.364554085164
 20
250.9844450000259
 30
0.0
 11
346.364554085164
 21
239.40703
 31
0.0
  0
LINE
  5
2CD0
330
1F
100
AcDbEntity
  8
ｴｸｽﾃﾝｼｮﾝﾌﾚｰﾑ
100
AcDbLine
 10
356.4549641017297
 20
254.3502706845067
 30
0.0
 11
355.1852786048894
 21
252.3290202415745
 31
0.0
  0
LINE
  5
2CD1
330
1F
100
AcDbEntity
  8
ｴｸｽﾃﾝｼｮﾝﾌﾚｰﾑ
100
AcDbLine
 10
354.014554085164
 20
255.0286899999997
 30
0.0
 11
351.5587640851641
 21
255.0286899999997
 31
0.0
  0
ARC
  5
2CD2
330
1F
100
AcDbEntity
  8
ｴｸｽﾃﾝｼｮﾝﾌﾚｰﾑ
100
AcDbCircle
 10
351.5587640851641
 20
255.3286899999996
 30
0.0
 40
0.3
100
AcDbArc
 50
180.0
 51
270.0
1001
GENIUS_GENODEF_13
1002
{
1000
HIER
1070
     0
1002
}
1002
{
1000
MANEDIT
1070
     0
1002
}
1002
{
1000
NOSEL
1070
     0
1002
}
1002
{
1000
BEHIND
1070
     0
1002
}
1002
{
1000
OTHER
1070
     0
1002
}
1002
{
1000
REACTOR
1002
}
1001
GENIUS_GENOBJ-N-FIL_13
1002
{
1000
OWNER
1000
GEN
1002
}
  0
LINE
  5
2CD3
330
1F
100
AcDbEntity
  8
ｴｸｽﾃﾝｼｮﾝﾌﾚｰﾑ
100
AcDbLine
 10
356.8145283546706
 20
251.2813526538836
 30
0.0
 11
358.1382546246877
 21
253.2621176486935
 31
0.0
  0
LINE
  5
2CD4
330
1F
100
AcDbEntity
  8
ｴｸｽﾃﾝｼｮﾝﾌﾚｰﾑ
100
AcDbLine
 10
356.364554085164
 20
241.1894799999999
 30
0.0
 11
356.364554085164
 21
248.4844599999998
 31
0.0
  0
LINE
  5
2CD5
330
1F
100
AcDbEntity
  8
ｴｸｽﾃﾝｼｮﾝﾌﾚｰﾑ
100
AcDbLine
 10
356.764554085164
 20
242.2321399999997
 30
0.0
 11
356.764554085164
 21
248.4844599999998
 31
0.0
  0
LINE
  5
2CD6
330
1F
100
AcDbEntity
  8
ｴｸｽﾃﾝｼｮﾝﾌﾚｰﾑ
100
AcDbLine
 10
357.929654085164
 20
248.4844599999998
 30
0.0
 11
357.929654085164
 21
242.2321399999997
 31
0.0
  0
LINE
  5
2CD7
330
1F
100
AcDbEntity
  8
ｴｸｽﾃﾝｼｮﾝﾌﾚｰﾑ
100
AcDbLine
 10
350.364554085164
 20
252.5495499999999
 30
0.0
 11
353.864554085164
 21
252.5495499999999
 31
0.0
  0
ARC
  5
2CD8
330
1F
100
AcDbEntity
  8
ｴｸｽﾃﾝｼｮﾝﾌﾚｰﾑ
100
AcDbCircle
 10
350.364554085164
 20
254.9495499999998
 30
0.0
 40
2.399999999999999
100
AcDbArc
 50
180.0
 51
270.0
1001
GENIUS_GENODEF_13
1002
{
1000
HIER
1070
     0
1002
}
1002
{
1000
MANEDIT
1070
     0
1002
}
1002
{
1000
NOSEL
1070
     0
1002
}
1002
{
1000
BEHIND
1070
     0
1002
}
1002
{
1000
OTHER
1070
     0
1002
}
1002
{
1000
REACTOR
1002
}
1001
GENIUS_GENOBJ-N-FIL_13
1002
{
1000
OWNER
1000
GEN
1002
}
  0
LINE
  5
2CD9
330
1F
100
AcDbEntity
  8
ｴｸｽﾃﾝｼｮﾝﾌﾚｰﾑ
100
AcDbLine
 10
360.308764085164
 20
245.1929299999998
 30
0.0
 11
360.308764085164
 21
248.7344599999998
 31
0.0
  0
LINE
  5
2CDA
330
1F
100
AcDbEntity
  8
ｴｸｽﾃﾝｼｮﾝﾌﾚｰﾑ
100
AcDbLine
 10
353.864554085164
 20
251.3844799999998
 30
0.0
 11
350.364554085164
 21
251.3844799999998
 31
0.0
  0
LINE
  5
2CDB
330
1F
100
AcDbEntity
  8
ｴｸｽﾃﾝｼｮﾝﾌﾚｰﾑ
100
AcDbLine
 10
353.864554085164
 20
250.9844599999998
 30
0.0
 11
350.364554085164
 21
250.9844599999998
 31
0.0
  0
LINE
  5
2CDC
330
1F
100
AcDbEntity
  8
ｴｸｽﾃﾝｼｮﾝﾌﾚｰﾑ
100
AcDbLine
 10
362.108774085164
 20
246.9929399999998
 30
0.0
 11
362.108774085164
 21
248.8288799999999
 31
0.0
  0
LINE
  5
2CDD
330
1F
100
AcDbEntity
  8
ｴｸｽﾃﾝｼｮﾝﾌﾚｰﾑ
100
AcDbLine
 10
362.108774085164
 20
248.8288799999999
 30
0.0
 11
362.741594085164
 21
249.4617099999999
 31
0.0
  0
LINE
  5
2CDE
330
1F
100
AcDbEntity
  8
ｴｸｽﾃﾝｼｮﾝﾌﾚｰﾑ
100
AcDbLine
 10
359.1914763671884
 20
244.0756422820244
 30
0.0
 11
362.108774085164
 21
246.9929399999998
 31
0.0
  0
LINE
  5
2CDF
330
1F
100
AcDbEntity
  8
ｴｸｽﾃﾝｼｮﾝﾌﾚｰﾑ
100
AcDbLine
 10
365.570014085164
 20
246.6332699999999
 30
0.0
 11
361.115244085164
 21
242.1784999999999
 31
0.0
  0
LINE
  5
2CE0
330
1F
100
AcDbEntity
  8
ｴｸｽﾃﾝｼｮﾝﾌﾚｰﾑ
100
AcDbLine
 10
362.741594085164
 20
249.4617099999999
 30
0.0
 11
365.570014085164
 21
246.6332699999999
 31
0.0
  0
LINE
  5
2CE1
330
1F
100
AcDbEntity
  8
ｴｸｽﾃﾝｼｮﾝﾌﾚｰﾑ
100
AcDbLine
 10
359.1914763671884
 20
244.0756422820244
 30
0.0
 11
357.929654085164
 21
244.0751501144967
 31
0.0
  0
LINE
  5
2CE2
330
1F
100
AcDbEntity
  8
ｴｸｽﾃﾝｼｮﾝﾌﾚｰﾑ
100
AcDbLine
 10
361.115244085164
 20
242.1784999999999
 30
0.0
 11
357.9306470245426
 21
242.1784999999999
 31
0.0
  0
ARC
  5
2CE3
330
1F
100
AcDbEntity
  8
ｴｸｽﾃﾝｼｮﾝﾌﾚｰﾑ
100
AcDbCircle
 10
354.014554085164
 20
248.7344599999997
 30
0.0
 40
6.294209999999999
100
AcDbArc
 50
68.22985521690807
 51
90.0
  0
ARC
  5
2CE4
330
1F
100
AcDbEntity
  8
ｴｸｽﾃﾝｼｮﾝﾌﾚｰﾑ
100
AcDbCircle
 10
354.014554085164
 20
248.7344599999997
 30
0.0
 40
6.294209999999999
100
AcDbArc
 50
359.999989999999
 51
45.96693744074609
  0
ARC
  5
2CE5
330
1F
100
AcDbEntity
  8
ｴｸｽﾃﾝｼｮﾝﾌﾚｰﾑ
100
AcDbCircle
 10
353.864554085164
 20
248.4844599999997
 30
0.0
 40
2.5
100
AcDbArc
 50
359.999989999999
 51
90.0
  0
ARC
  5
2CE6
330
1F
100
AcDbEntity
  8
ｴｸｽﾃﾝｼｮﾝﾌﾚｰﾑ
100
AcDbCircle
 10
355.3645540851639
 20
241.1894799999998
 30
0.0
 40
1.0
100
AcDbArc
 50
260.6875499999997
 51
0.0
  0
ARC
  5
2CE7
330
1F
100
AcDbEntity
  8
ｴｸｽﾃﾝｼｮﾝﾌﾚｰﾑ
100
AcDbCircle
 10
353.584554085164
 20
230.3344799999997
 30
0.0
 40
10.0
100
AcDbArc
 50
80.68755999999829
 51
124.4338499999979
  0
ARC
  5
2CE8
330
1F
100
AcDbEntity
  8
ｴｸｽﾃﾝｼｮﾝﾌﾚｰﾑ
100
AcDbCircle
 10
347.3645540851639
 20
239.4070299999999
 30
0.0
 40
1.0
100
AcDbArc
 50
179.999989999999
 51
304.4338600000021
  0
ARC
  5
2CE9
330
1F
100
AcDbEntity
  8
ｴｸｽﾃﾝｼｮﾝﾌﾚｰﾑ
100
AcDbCircle
 10
359.3645540851639
 20
242.2321399999996
 30
0.0
 40
1.43491
100
AcDbArc
 50
179.999989999999
 51
225.0
  0
ARC
  5
2CEA
330
1F
100
AcDbEntity
  8
ｴｸｽﾃﾝｼｮﾝﾌﾚｰﾑ
100
AcDbCircle
 10
353.864554085164
 20
248.4844599999997
 30
0.0
 40
4.06509
100
AcDbArc
 50
359.999989999999
 51
90.0
  0
ARC
  5
2CEB
330
1F
100
AcDbEntity
  8
ｴｸｽﾃﾝｼｮﾝﾌﾚｰﾑ
100
AcDbCircle
 10
350.364554085164
 20
254.9844699999996
 30
0.0
 40
3.6
100
AcDbArc
 50
179.999989999999
 51
269.999989999999
  0
ARC
  5
2CEC
330
1F
100
AcDbEntity
  8
ｴｸｽﾃﾝｼｮﾝﾌﾚｰﾑ
100
AcDbCircle
 10
350.364554085164
 20
254.9844699999996
 30
0.0
 40
4.000020000000096
100
AcDbArc
 50
233.1302742406297
 51
269.999989999999
  0
ARC
  5
2CED
330
1F
100
AcDbEntity
  8
ｴｸｽﾃﾝｼｮﾝﾌﾚｰﾑ
100
AcDbCircle
 10
347.3645540851639
 20
250.9844450000258
 30
0.0
 40
1.0
100
AcDbArc
 50
53.13027424062514
 51
179.9999999999967
1001
GENIUS_GENOBJ-N-FIL_13
1002
{
1000
OWNER
1000
GEN
1002
}
1001
GENIUS_GENODEF_13
1002
{
1000
HIER
1070
     0
1002
}
1002
{
1000
MANEDIT
1070
     0
1002
}
1002
{
1000
NOSEL
1070
     0
1002
}
1002
{
1000
BEHIND
1070
     0
1002
}
1002
{
1000
OTHER
1070
     0
1002
}
1002
{
1000
REACTOR
1002
}
  0
ARC
  5
2CEE
330
1F
100
AcDbEntity
  8
ｴｸｽﾃﾝｼｮﾝﾌﾚｰﾑ
100
AcDbCircle
 10
353.864554085164
 20
248.4844599999997
 30
0.0
 40
2.9
100
AcDbArc
 50
359.999989999999
 51
90.0
  0
ARC
  5
2CEF
330
1F
100
AcDbEntity
  8
ｴｸｽﾃﾝｼｮﾝﾌﾚｰﾑ
100
AcDbCircle
 10
359.3645540851639
 20
242.2321399999996
 30
0.0
 40
2.6
100
AcDbArc
 50
179.999989999999
 51
225.0
  0
CIRCLE
  5
2CF8
330
1F
100
AcDbEntity
  8
ｴｸｽﾃﾝｼｮﾝﾌﾚｰﾑ
100
AcDbCircle
 10
358.284554085164
 20
255.3344699999998
 30
0.0
 40
2.077509999999989
  0
LINE
  5
2CF9
330
1F
100
AcDbEntity
  8
ｴｸｽﾃﾝｼｮﾝﾌﾚｰﾑ
100
AcDbLine
 10
343.680084085164
 20
254.2499999999999
 30
0.0
 11
343.680084085164
 21
250.7499999999999
 31
0.0
  0
LINE
  5
2CFA
330
1F
100
AcDbEntity
  8
ｴｸｽﾃﾝｼｮﾝﾌﾚｰﾑ
100
AcDbLine
 10
343.680084085164
 20
248.2499999999999
 30
0.0
 11
343.680084085164
 21
244.7499999999999
 31
0.0
  0
ARC
  5
2CFB
330
1F
100
AcDbEntity
  8
ｴｸｽﾃﾝｼｮﾝﾌﾚｰﾑ
100
AcDbCircle
 10
343.6800840851638
 20
254.5499999999997
 30
0.0
 40
0.3
100
AcDbArc
 50
179.9999999999772
 51
270.0000000000196
1001
GENIUS_GENOBJ-N-FIL_13
1002
{
1000
OWNER
1000
GEN
1002
}
1001
GENIUS_GENODEF_13
1002
{
1000
HIER
1070
     0
1002
}
1002
{
1000
MANEDIT
1070
     0
1002
}
1002
{
1000
NOSEL
1070
     0
1002
}
1002
{
1000
BEHIND
1070
     0
1002
}
1002
{
1000
OTHER
1070
     0
1002
}
1002
{
1000
REACTOR
1002
}
  0
ARC
  5
2CFC
330
1F
100
AcDbEntity
  8
ｴｸｽﾃﾝｼｮﾝﾌﾚｰﾑ
100
AcDbCircle
 10
343.6800840851638
 20
250.4499999999998
 30
0.0
 40
0.3
100
AcDbArc
 50
89.99999999996743
 51
180.0000000000097
1001
GENIUS_GENOBJ-N-FIL_13
1002
{
1000
OWNER
1000
GEN
1002
}
1001
GENIUS_GENODEF_13
1002
{
1000
HIER
1070
     0
1002
}
1002
{
1000
MANEDIT
1070
     0
1002
}
1002
{
1000
NOSEL
1070
     0
1002
}
1002
{
1000
BEHIND
1070
     0
1002
}
1002
{
1000
OTHER
1070
     0
1002
}
1002
{
1000
REACTOR
1002
}
  0
ARC
  5
2CFD
330
1F
100
AcDbEntity
  8
ｴｸｽﾃﾝｼｮﾝﾌﾚｰﾑ
100
AcDbCircle
 10
343.6800840851638
 20
248.5499999999997
 30
0.0
 40
0.3
100
AcDbArc
 50
179.9999999999902
 51
270.0000000000196
1001
GENIUS_GENOBJ-N-FIL_13
1002
{
1000
OWNER
1000
GEN
1002
}
1001
GENIUS_GENODEF_13
1002
{
1000
HIER
1070
     0
1002
}
1002
{
1000
MANEDIT
1070
     0
1002
}
1002
{
1000
NOSEL
1070
     0
1002
}
1002
{
1000
BEHIND
1070
     0
1002
}
1002
{
1000
OTHER
1070
     0
1002
}
1002
{
1000
REACTOR
1002
}
  0
ARC
  5
2CFE
330
1F
100
AcDbEntity
  8
ｴｸｽﾃﾝｼｮﾝﾌﾚｰﾑ
100
AcDbCircle
 10
343.6800840851638
 20
244.4499999999998
 30
0.0
 40
0.3
100
AcDbArc
 50
89.99999999996743
 51
180.0000000000097
1001
GENIUS_GENOBJ-N-FIL_13
1002
{
1000
OWNER
1000
GEN
1002
}
1001
GENIUS_GENODEF_13
1002
{
1000
HIER
1070
     0
1002
}
1002
{
1000
MANEDIT
1070
     0
1002
}
1002
{
1000
NOSEL
1070
     0
1002
}
1002
{
1000
BEHIND
1070
     0
1002
}
1002
{
1000
OTHER
1070
     0
1002
}
1002
{
1000
REACTOR
1002
}
  0
LINE
  5
2E57
330
1F
100
AcDbEntity
  8
ｴｸｽﾃﾝｼｮﾝﾌﾚｰﾑ
100
AcDbLine
 10
512.9300840851641
 20
620.0000000000002
 30
0.0
 11
514.8300840851639
 21
620.0000000000002
 31
0.0
  0
LINE
  5
2E58
330
1F
100
AcDbEntity
  8
ｴｸｽﾃﾝｼｮﾝﾌﾚｰﾑ
100
AcDbLine
 10
518.9300840851641
 20
620.0000000000002
 30
0.0
 11
533.3800840851639
 21
620.0000000000002
 31
0.0
  0
LINE
  5
2E59
330
1F
100
AcDbEntity
  8
ｴｸｽﾃﾝｼｮﾝﾌﾚｰﾑ
100
AcDbLine
 10
512.395639085138
 20
617.0155300000001
 30
0.0
 11
523.9730540851641
 21
617.0155300000001
 31
0.0
  0
LINE
  5
2E5A
330
1F
100
AcDbEntity
  8
ｴｸｽﾃﾝｼｮﾝﾌﾚｰﾑ
100
AcDbLine
 10
509.0298134006574
 20
606.9251199834345
 30
0.0
 11
511.0510638435895
 21
608.1948054802747
 31
0.0
  0
LINE
  5
2E5B
330
1F
100
AcDbEntity
  8
ｴｸｽﾃﾝｼｮﾝﾌﾚｰﾑ
100
AcDbLine
 10
529.2341040851641
 20
599.6063400000001
 30
0.0
 11
522.986434085164
 21
605.8540000000001
 31
0.0
  0
LINE
  5
2E5C
330
1F
100
AcDbEntity
  8
ｴｸｽﾃﾝｼｮﾝﾌﾚｰﾑ
100
AcDbLine
 10
508.3513940851643
 20
609.3655300000001
 30
0.0
 11
508.3513940851643
 21
611.8213200000001
 31
0.0
  0
ARC
  5
2E5D
330
1F
100
AcDbEntity
  8
ｴｸｽﾃﾝｼｮﾝﾌﾚｰﾑ
100
AcDbCircle
 10
508.0513940851641
 20
611.82132
 30
0.0
 40
0.3
100
AcDbArc
 50
0.0
 51
90.0
1001
GENIUS_GENODEF_13
1002
{
1000
HIER
1070
     0
1002
}
1002
{
1000
MANEDIT
1070
     0
1002
}
1002
{
1000
NOSEL
1070
     0
1002
}
1002
{
1000
BEHIND
1070
     0
1002
}
1002
{
1000
OTHER
1070
     0
1002
}
1002
{
1000
REACTOR
1002
}
1001
GENIUS_GENOBJ-N-FIL_13
1002
{
1000
OWNER
1000
GEN
1002
}
  0
LINE
  5
2E5E
330
1F
100
AcDbEntity
  8
ｴｸｽﾃﾝｼｮﾝﾌﾚｰﾑ
100
AcDbLine
 10
512.0987314312805
 20
606.5655557304934
 30
0.0
 11
510.1179664364702
 21
605.2418294604763
 31
0.0
  0
LINE
  5
2E5F
330
1F
100
AcDbEntity
  8
ｴｸｽﾃﾝｼｮﾝﾌﾚｰﾑ
100
AcDbLine
 10
522.1906040851641
 20
607.0155300000001
 30
0.0
 11
514.8956240851642
 21
607.0155300000001
 31
0.0
  0
LINE
  5
2E60
330
1F
100
AcDbEntity
  8
ｴｸｽﾃﾝｼｮﾝﾌﾚｰﾑ
100
AcDbLine
 10
521.1479440851643
 20
606.6155300000001
 30
0.0
 11
514.8956240851642
 21
606.6155300000001
 31
0.0
  0
LINE
  5
2E61
330
1F
100
AcDbEntity
  8
ｴｸｽﾃﾝｼｮﾝﾌﾚｰﾑ
100
AcDbLine
 10
514.8956240851642
 20
605.4504300000002
 30
0.0
 11
521.1479440851643
 21
605.4504300000002
 31
0.0
  0
LINE
  5
2E62
330
1F
100
AcDbEntity
  8
ｴｸｽﾃﾝｼｮﾝﾌﾚｰﾑ
100
AcDbLine
 10
522.1625740851639
 20
605.0301600000001
 30
0.0
 11
528.4102440851642
 21
598.7824900000001
 31
0.0
  0
LINE
  5
2E63
330
1F
100
AcDbEntity
  8
ｴｸｽﾃﾝｼｮﾝﾌﾚｰﾑ
100
AcDbLine
 10
510.8305340851642
 20
613.0155300000001
 30
0.0
 11
510.8305340851642
 21
609.5155300000001
 31
0.0
  0
ARC
  5
2E64
330
1F
100
AcDbEntity
  8
ｴｸｽﾃﾝｼｮﾝﾌﾚｰﾑ
100
AcDbCircle
 10
508.4305340851641
 20
613.01553
 30
0.0
 40
2.399999999999999
100
AcDbArc
 50
0.0
 51
90.0
1001
GENIUS_GENODEF_13
1002
{
1000
HIER
1070
     0
1002
}
1002
{
1000
MANEDIT
1070
     0
1002
}
1002
{
1000
NOSEL
1070
     0
1002
}
1002
{
1000
BEHIND
1070
     0
1002
}
1002
{
1000
OTHER
1070
     0
1002
}
1002
{
1000
REACTOR
1002
}
1001
GENIUS_GENOBJ-N-FIL_13
1002
{
1000
OWNER
1000
GEN
1002
}
  0
LINE
  5
2E65
330
1F
100
AcDbEntity
  8
ｴｸｽﾃﾝｼｮﾝﾌﾚｰﾑ
100
AcDbLine
 10
518.1871540851642
 20
603.07132
 30
0.0
 11
514.6456240851643
 21
603.07132
 31
0.0
  0
LINE
  5
2E66
330
1F
100
AcDbEntity
  8
ｴｸｽﾃﾝｼｮﾝﾌﾚｰﾑ
100
AcDbLine
 10
526.2187838191847
 20
597.8215000000001
 30
0.0
 11
521.2015840851639
 21
602.8387100000001
 31
0.0
  0
LINE
  5
2E67
330
1F
100
AcDbEntity
  8
ｴｸｽﾃﾝｼｮﾝﾌﾚｰﾑ
100
AcDbLine
 10
511.9956040851642
 20
609.5155300000001
 30
0.0
 11
511.9956040851642
 21
613.0155300000001
 31
0.0
  0
LINE
  5
2E68
330
1F
100
AcDbEntity
  8
ｴｸｽﾃﾝｼｮﾝﾌﾚｰﾑ
100
AcDbLine
 10
512.3956240851643
 20
609.5155300000001
 30
0.0
 11
512.3956240851643
 21
613.0155300000001
 31
0.0
  0
LINE
  5
2E69
330
1F
100
AcDbEntity
  8
ｴｸｽﾃﾝｼｮﾝﾌﾚｰﾑ
100
AcDbLine
 10
516.3871440851643
 20
601.2713100000001
 30
0.0
 11
514.5512040851641
 21
601.2713100000001
 31
0.0
  0
LINE
  5
2E6A
330
1F
100
AcDbEntity
  8
ｴｸｽﾃﾝｼｮﾝﾌﾚｰﾑ
100
AcDbLine
 10
514.5512040851641
 20
601.2713100000001
 30
0.0
 11
513.9183740851641
 21
600.6384900000001
 31
0.0
  0
LINE
  5
2E6B
330
1F
100
AcDbEntity
  8
ｴｸｽﾃﾝｼｮﾝﾌﾚｰﾑ
100
AcDbLine
 10
519.3044418031396
 20
604.1886077179757
 30
0.0
 11
516.3871440851643
 21
601.2713100000001
 31
0.0
  0
LINE
  5
2E6C
330
1F
100
AcDbEntity
  8
ｴｸｽﾃﾝｼｮﾝﾌﾚｰﾑ
100
AcDbLine
 10
516.7468140851641
 20
597.8100700000001
 30
0.0
 11
521.2015840851639
 21
602.2648400000001
 31
0.0
  0
LINE
  5
2E6D
330
1F
100
AcDbEntity
  8
ｴｸｽﾃﾝｼｮﾝﾌﾚｰﾑ
100
AcDbLine
 10
513.9183740851641
 20
600.6384900000001
 30
0.0
 11
516.7468140851641
 21
597.8100700000001
 31
0.0
  0
LINE
  5
2E6E
330
1F
100
AcDbEntity
  8
ｴｸｽﾃﾝｼｮﾝﾌﾚｰﾑ
100
AcDbLine
 10
519.3044418031396
 20
604.1886077179757
 30
0.0
 11
519.3049339706671
 21
605.4504300000002
 31
0.0
  0
LINE
  5
2E6F
330
1F
100
AcDbEntity
  8
ｴｸｽﾃﾝｼｮﾝﾌﾚｰﾑ
100
AcDbLine
 10
521.2015840851639
 20
602.2648400000001
 30
0.0
 11
521.2015840851639
 21
605.4494370606215
 31
0.0
  0
ARC
  5
2E70
330
1F
100
AcDbEntity
  8
ｴｸｽﾃﾝｼｮﾝﾌﾚｰﾑ
100
AcDbCircle
 10
533.3800840851641
 20
610.0
 30
0.0
 40
10.0
100
AcDbArc
 50
0.0
 51
90.0
1001
GENIUS_GENOBJ-N-FIL_13
1002
{
1000
OWNER
1000
GEN
1002
}
1001
GENIUS_GENODEF_13
1002
{
1000
HIER
1070
     0
1002
}
1002
{
1000
MANEDIT
1070
     0
1002
}
1002
{
1000
NOSEL
1070
     0
1002
}
1002
{
1000
BEHIND
1070
     0
1002
}
1002
{
1000
OTHER
1070
     0
1002
}
1002
{
1000
REACTOR
1002
}
  0
ARC
  5
2E71
330
1F
100
AcDbEntity
  8
ｴｸｽﾃﾝｼｮﾝﾌﾚｰﾑ
100
AcDbCircle
 10
533.3800840851641
 20
610.0
 30
0.0
 40
9.5
100
AcDbArc
 50
0.0
 51
90.0
1001
GENIUS_GENOBJ-N-FIL_13
1002
{
1000
OWNER
1000
GEN
1002
}
1001
GENIUS_GENODEF_13
1002
{
1000
HIER
1070
     0
1002
}
1002
{
1000
MANEDIT
1070
     0
1002
}
1002
{
1000
NOSEL
1070
     0
1002
}
1002
{
1000
BEHIND
1070
     0
1002
}
1002
{
1000
OTHER
1070
     0
1002
}
1002
{
1000
REACTOR
1002
}
  0
ARC
  5
2E72
330
1F
100
AcDbEntity
  8
ｴｸｽﾃﾝｼｮﾝﾌﾚｰﾑ
100
AcDbCircle
 10
514.6456240851643
 20
609.36553
 30
0.0
 40
6.294209999999999
100
AcDbArc
 50
180.0
 51
201.7701447830919
  0
ARC
  5
2E73
330
1F
100
AcDbEntity
  8
ｴｸｽﾃﾝｼｮﾝﾌﾚｰﾑ
100
AcDbCircle
 10
514.6456240851643
 20
609.36553
 30
0.0
 40
6.294209999999999
100
AcDbArc
 50
224.0330625592561
 51
270.000010000001
  0
ARC
  5
2E75
330
1F
100
AcDbEntity
  8
ｴｸｽﾃﾝｼｮﾝﾌﾚｰﾑ
100
AcDbCircle
 10
514.8956240851642
 20
609.51553
 30
0.0
 40
2.5
100
AcDbArc
 50
180.0
 51
270.000010000001
  0
ARC
  5
2E76
330
1F
100
AcDbEntity
  8
ｴｸｽﾃﾝｼｮﾝﾌﾚｰﾑ
100
AcDbCircle
 10
522.1906040851641
 20
608.01553
 30
0.0
 40
1.0
100
AcDbArc
 50
270.0
 51
9.312450000000309
  0
ARC
  5
2E77
330
1F
100
AcDbEntity
  8
ｴｸｽﾃﾝｼｮﾝﾌﾚｰﾑ
100
AcDbCircle
 10
533.0456040851641
 20
609.7955300000001
 30
0.0
 40
10.0
100
AcDbArc
 50
145.5661500000021
 51
189.3124400000017
  0
ARC
  5
2E78
330
1F
100
AcDbEntity
  8
ｴｸｽﾃﾝｼｮﾝﾌﾚｰﾑ
100
AcDbCircle
 10
523.9730540851641
 20
616.0155300000001
 30
0.0
 40
1.0
100
AcDbArc
 50
325.5661399999979
 51
90.00001000000102
  0
ARC
  5
2E7A
330
1F
100
AcDbEntity
  8
ｴｸｽﾃﾝｼｮﾝﾌﾚｰﾑ
100
AcDbCircle
 10
521.1479440851643
 20
604.01553
 30
0.0
 40
1.43491
100
AcDbArc
 50
45.0
 51
90.00001000000102
  0
ARC
  5
2E7B
330
1F
100
AcDbEntity
  8
ｴｸｽﾃﾝｼｮﾝﾌﾚｰﾑ
100
AcDbCircle
 10
514.8956240851642
 20
609.51553
 30
0.0
 40
4.06509
100
AcDbArc
 50
180.0
 51
270.000010000001
  0
ARC
  5
2E7C
330
1F
100
AcDbEntity
  8
ｴｸｽﾃﾝｼｮﾝﾌﾚｰﾑ
100
AcDbCircle
 10
508.3956140851642
 20
613.01553
 30
0.0
 40
3.6
100
AcDbArc
 50
0.0000100000010064
 51
90.00001000000102
  0
ARC
  5
2E7D
330
1F
100
AcDbEntity
  8
ｴｸｽﾃﾝｼｮﾝﾌﾚｰﾑ
100
AcDbCircle
 10
508.3956140851642
 20
613.01553
 30
0.0
 40
4.000020000000096
100
AcDbArc
 50
0.0000100000010064
 51
36.8697257593703
  0
ARC
  5
2E7E
330
1F
100
AcDbEntity
  8
ｴｸｽﾃﾝｼｮﾝﾌﾚｰﾑ
100
AcDbCircle
 10
512.3956390851382
 20
616.0155300000001
 30
0.0
 40
1.0
100
AcDbArc
 50
90.00000000000325
 51
216.8697257593748
1001
GENIUS_GENOBJ-N-FIL_13
1002
{
1000
OWNER
1000
GEN
1002
}
1001
GENIUS_GENODEF_13
1002
{
1000
HIER
1070
     0
1002
}
1002
{
1000
MANEDIT
1070
     0
1002
}
1002
{
1000
NOSEL
1070
     0
1002
}
1002
{
1000
BEHIND
1070
     0
1002
}
1002
{
1000
OTHER
1070
     0
1002
}
1002
{
1000
REACTOR
1002
}
  0
ARC
  5
2E7F
330
1F
100
AcDbEntity
  8
ｴｸｽﾃﾝｼｮﾝﾌﾚｰﾑ
100
AcDbCircle
 10
514.8956240851642
 20
609.51553
 30
0.0
 40
2.9
100
AcDbArc
 50
180.0
 51
270.000010000001
  0
ARC
  5
2E80
330
1F
100
AcDbEntity
  8
ｴｸｽﾃﾝｼｮﾝﾌﾚｰﾑ
100
AcDbCircle
 10
521.1479440851643
 20
604.01553
 30
0.0
 40
2.6
100
AcDbArc
 50
45.0
 51
90.00001000000102
  0
CIRCLE
  5
2EAA
330
1F
100
AcDbEntity
  8
ｴｸｽﾃﾝｼｮﾝﾌﾚｰﾑ
100
AcDbCircle
 10
508.0456140851642
 20
605.09553
 30
0.0
 40
2.077509999999989
  0
LINE
  5
2EAB
330
1F
100
AcDbEntity
  8
ｴｸｽﾃﾝｼｮﾝﾌﾚｰﾑ
100
AcDbLine
 10
509.1300840851639
 20
619.7
 30
0.0
 11
512.6300840851639
 21
619.7
 31
0.0
  0
LINE
  5
2EAC
330
1F
100
AcDbEntity
  8
ｴｸｽﾃﾝｼｮﾝﾌﾚｰﾑ
100
AcDbLine
 10
515.1300840851639
 20
619.7
 30
0.0
 11
518.630084085164
 21
619.7
 31
0.0
  0
ARC
  5
2EAD
330
1F
100
AcDbEntity
  8
ｴｸｽﾃﾝｼｮﾝﾌﾚｰﾑ
100
AcDbCircle
 10
508.8300840851642
 20
619.7000000000002
 30
0.0
 40
0.3
100
AcDbArc
 50
359.9999999999772
 51
90.00000000001953
1001
GENIUS_GENOBJ-N-FIL_13
1002
{
1000
OWNER
1000
GEN
1002
}
1001
GENIUS_GENODEF_13
1002
{
1000
HIER
1070
     0
1002
}
1002
{
1000
MANEDIT
1070
     0
1002
}
1002
{
1000
NOSEL
1070
     0
1002
}
1002
{
1000
BEHIND
1070
     0
1002
}
1002
{
1000
OTHER
1070
     0
1002
}
1002
{
1000
REACTOR
1002
}
  0
ARC
  5
2EAE
330
1F
100
AcDbEntity
  8
ｴｸｽﾃﾝｼｮﾝﾌﾚｰﾑ
100
AcDbCircle
 10
512.9300840851641
 20
619.7000000000002
 30
0.0
 40
0.3
100
AcDbArc
 50
89.99999999998697
 51
180.0000000000325
1001
GENIUS_GENOBJ-N-FIL_13
1002
{
1000
OWNER
1000
GEN
1002
}
1001
GENIUS_GENODEF_13
1002
{
1000
HIER
1070
     0
1002
}
1002
{
1000
MANEDIT
1070
     0
1002
}
1002
{
1000
NOSEL
1070
     0
1002
}
1002
{
1000
BEHIND
1070
     0
1002
}
1002
{
1000
OTHER
1070
     0
1002
}
1002
{
1000
REACTOR
1002
}
  0
ARC
  5
2EAF
330
1F
100
AcDbEntity
  8
ｴｸｽﾃﾝｼｮﾝﾌﾚｰﾑ
100
AcDbCircle
 10
514.8300840851642
 20
619.7000000000002
 30
0.0
 40
0.3
100
AcDbArc
 50
359.9999999999772
 51
90.00000000000978
1001
GENIUS_GENOBJ-N-FIL_13
1002
{
1000
OWNER
1000
GEN
1002
}
1001
GENIUS_GENODEF_13
1002
{
1000
HIER
1070
     0
1002
}
1002
{
1000
MANEDIT
1070
     0
1002
}
1002
{
1000
NOSEL
1070
     0
1002
}
1002
{
1000
BEHIND
1070
     0
1002
}
1002
{
1000
OTHER
1070
     0
1002
}
1002
{
1000
REACTOR
1002
}
  0
ARC
  5
2EB0
330
1F
100
AcDbEntity
  8
ｴｸｽﾃﾝｼｮﾝﾌﾚｰﾑ
100
AcDbCircle
 10
518.9300840851641
 20
619.7000000000002
 30
0.0
 40
0.3
100
AcDbArc
 50
89.99999999998697
 51
180.0000000000325
1001
GENIUS_GENOBJ-N-FIL_13
1002
{
1000
OWNER
1000
GEN
1002
}
1001
GENIUS_GENODEF_13
1002
{
1000
HIER
1070
     0
1002
}
1002
{
1000
MANEDIT
1070
     0
1002
}
1002
{
1000
NOSEL
1070
     0
1002
}
1002
{
1000
BEHIND
1070
     0
1002
}
1002
{
1000
OTHER
1070
     0
1002
}
1002
{
1000
REACTOR
1002
}
  0
LINE
  5
2EB1
330
1F
100
AcDbEntity
  8
ｴｸｽﾃﾝｼｮﾝﾌﾚｰﾑ
100
AcDbLine
 10
543.380084085164
 20
254.5499999999998
 30
0.0
 11
543.3800840851639
 21
585.45
 31
0.0
  0
LINE
  5
2EB2
330
1F
100
AcDbEntity
  8
ｴｸｽﾃﾝｼｮﾝﾌﾚｰﾑ
100
AcDbLine
 10
542.880084085164
 20
229.9999999999999
 30
0.0
 11
542.8800840851639
 21
610.0
 31
0.0
  0
LINE
  5
2EB3
330
1F
100
AcDbEntity
  8
ｴｸｽﾃﾝｼｮﾝﾌﾚｰﾑ
100
AcDbLine
 10
539.995614085164
 20
254.9844699999998
 30
0.0
 11
539.995614085164
 21
585.0155300000001
 31
0.0
  0
LINE
  5
2EB4
330
1F
100
AcDbEntity
  8
ｴｸｽﾃﾝｼｮﾝﾌﾚｰﾑ
100
AcDbLine
 10
538.7956140851639
 20
585.0504500000003
 30
0.0
 11
538.7956140851646
 21
254.9495499999999
 31
0.0
  0
LINE
  5
2EB5
330
1F
100
AcDbEntity
  8
ｴｸｽﾃﾝｼｮﾝﾌﾚｰﾑ
100
AcDbLine
 10
535.5014040851642
 20
255.3286899999997
 30
0.0
 11
535.5014040851641
 21
584.6713100000003
 31
0.0
  0
LINE
  5
2EB6
330
1F
100
AcDbEntity
  8
ｴｸｽﾃﾝｼｮﾝﾌﾚｰﾑ
100
AcDbLine
 10
543.3800840851639
 20
589.5500000000001
 30
0.0
 11
543.3800840851639
 21
591.45
 31
0.0
  0
LINE
  5
2EB7
330
1F
100
AcDbEntity
  8
ｴｸｽﾃﾝｼｮﾝﾌﾚｰﾑ
100
AcDbLine
 10
543.3800840851639
 20
595.55
 30
0.0
 11
543.3800840851639
 21
610.0
 31
0.0
  0
LINE
  5
2EB8
330
1F
100
AcDbEntity
  8
ｴｸｽﾃﾝｼｮﾝﾌﾚｰﾑ
100
AcDbLine
 10
540.395614085164
 20
589.015554999974
 30
0.0
 11
540.395614085164
 21
600.5929700000002
 31
0.0
  0
LINE
  5
2EB9
330
1F
100
AcDbEntity
  8
ｴｸｽﾃﾝｼｮﾝﾌﾚｰﾑ
100
AcDbLine
 10
530.3052040685982
 20
585.6497293154933
 30
0.0
 11
531.5748895654386
 21
587.6709797584257
 31
0.0
  0
LINE
  5
2EBA
330
1F
100
AcDbEntity
  8
ｴｸｽﾃﾝｼｮﾝﾌﾚｰﾑ
100
AcDbLine
 10
532.745614085164
 20
584.9713100000002
 30
0.0
 11
535.2014040851639
 21
584.9713100000002
 31
0.0
  0
ARC
  5
2EBB
330
1F
100
AcDbEntity
  8
ｴｸｽﾃﾝｼｮﾝﾌﾚｰﾑ
100
AcDbCircle
 10
535.2014040851639
 20
584.6713100000001
 30
0.0
 40
0.3
100
AcDbArc
 50
0.0
 51
90.0
1001
GENIUS_GENODEF_13
1002
{
1000
HIER
1070
     0
1002
}
1002
{
1000
MANEDIT
1070
     0
1002
}
1002
{
1000
NOSEL
1070
     0
1002
}
1002
{
1000
BEHIND
1070
     0
1002
}
1002
{
1000
OTHER
1070
     0
1002
}
1002
{
1000
REACTOR
1002
}
1001
GENIUS_GENOBJ-N-FIL_13
1002
{
1000
OWNER
1000
GEN
1002
}
  0
LINE
  5
2EBC
330
1F
100
AcDbEntity
  8
ｴｸｽﾃﾝｼｮﾝﾌﾚｰﾑ
100
AcDbLine
 10
529.9456398156575
 20
588.7186473461165
 30
0.0
 11
528.6219135456402
 21
586.7378823513064
 31
0.0
  0
LINE
  5
2EBD
330
1F
100
AcDbEntity
  8
ｴｸｽﾃﾝｼｮﾝﾌﾚｰﾑ
100
AcDbLine
 10
530.395614085164
 20
598.8105200000003
 30
0.0
 11
530.395614085164
 21
591.5155400000002
 31
0.0
  0
LINE
  5
2EBE
330
1F
100
AcDbEntity
  8
ｴｸｽﾃﾝｼｮﾝﾌﾚｰﾑ
100
AcDbLine
 10
529.995614085164
 20
597.7678600000002
 30
0.0
 11
529.995614085164
 21
591.5155400000002
 31
0.0
  0
LINE
  5
2EBF
330
1F
100
AcDbEntity
  8
ｴｸｽﾃﾝｼｮﾝﾌﾚｰﾑ
100
AcDbLine
 10
528.830514085164
 20
591.5155400000002
 30
0.0
 11
528.830514085164
 21
597.7678600000002
 31
0.0
  0
LINE
  5
2EC0
330
1F
100
AcDbEntity
  8
ｴｸｽﾃﾝｼｮﾝﾌﾚｰﾑ
100
AcDbLine
 10
536.395614085164
 20
587.4504500000001
 30
0.0
 11
532.8956140851641
 21
587.4504500000001
 31
0.0
  0
ARC
  5
2EC1
330
1F
100
AcDbEntity
  8
ｴｸｽﾃﾝｼｮﾝﾌﾚｰﾑ
100
AcDbCircle
 10
536.395614085164
 20
585.0504500000002
 30
0.0
 40
2.399999999999999
100
AcDbArc
 50
0.0
 51
90.0
1001
GENIUS_GENODEF_13
1002
{
1000
HIER
1070
     0
1002
}
1002
{
1000
MANEDIT
1070
     0
1002
}
1002
{
1000
NOSEL
1070
     0
1002
}
1002
{
1000
BEHIND
1070
     0
1002
}
1002
{
1000
OTHER
1070
     0
1002
}
1002
{
1000
REACTOR
1002
}
1001
GENIUS_GENOBJ-N-FIL_13
1002
{
1000
OWNER
1000
GEN
1002
}
  0
LINE
  5
2EC2
330
1F
100
AcDbEntity
  8
ｴｸｽﾃﾝｼｮﾝﾌﾚｰﾑ
100
AcDbLine
 10
526.4514040851639
 20
594.8070700000001
 30
0.0
 11
526.4514040851639
 21
591.2655400000002
 31
0.0
  0
LINE
  5
2EC3
330
1F
100
AcDbEntity
  8
ｴｸｽﾃﾝｼｮﾝﾌﾚｰﾑ
100
AcDbLine
 10
532.8956140851641
 20
588.6155200000001
 30
0.0
 11
536.395614085164
 21
588.6155200000001
 31
0.0
  0
LINE
  5
2EC4
330
1F
100
AcDbEntity
  8
ｴｸｽﾃﾝｼｮﾝﾌﾚｰﾑ
100
AcDbLine
 10
532.8956140851641
 20
589.0155400000002
 30
0.0
 11
536.395614085164
 21
589.0155400000002
 31
0.0
  0
LINE
  5
2EC5
330
1F
100
AcDbEntity
  8
ｴｸｽﾃﾝｼｮﾝﾌﾚｰﾑ
100
AcDbLine
 10
524.651394085164
 20
593.0070600000002
 30
0.0
 11
524.651394085164
 21
591.1711200000003
 31
0.0
  0
LINE
  5
2EC6
330
1F
100
AcDbEntity
  8
ｴｸｽﾃﾝｼｮﾝﾌﾚｰﾑ
100
AcDbLine
 10
524.651394085164
 20
591.1711200000003
 30
0.0
 11
524.0185740851639
 21
590.5382900000002
 31
0.0
  0
LINE
  5
2EC7
330
1F
100
AcDbEntity
  8
ｴｸｽﾃﾝｼｮﾝﾌﾚｰﾑ
100
AcDbLine
 10
527.5686918031396
 20
595.9243577179758
 30
0.0
 11
524.651394085164
 21
593.0070600000002
 31
0.0
  0
LINE
  5
2EC8
330
1F
100
AcDbEntity
  8
ｴｸｽﾃﾝｼｮﾝﾌﾚｰﾑ
100
AcDbLine
 10
521.190154085164
 20
593.3667300000003
 30
0.0
 11
525.6449240851639
 21
597.8215000000001
 31
0.0
  0
LINE
  5
2EC9
330
1F
100
AcDbEntity
  8
ｴｸｽﾃﾝｼｮﾝﾌﾚｰﾑ
100
AcDbLine
 10
524.0185740851639
 20
590.5382900000002
 30
0.0
 11
521.190154085164
 21
593.3667300000003
 31
0.0
  0
LINE
  5
2ECA
330
1F
100
AcDbEntity
  8
ｴｸｽﾃﾝｼｮﾝﾌﾚｰﾑ
100
AcDbLine
 10
527.5686918031396
 20
595.9243577179758
 30
0.0
 11
528.830514085164
 21
595.9248498855032
 31
0.0
  0
LINE
  5
2ECB
330
1F
100
AcDbEntity
  8
ｴｸｽﾃﾝｼｮﾝﾌﾚｰﾑ
100
AcDbLine
 10
525.6449240851639
 20
597.8215000000001
 30
0.0
 11
528.8295211457854
 21
597.8215000000001
 31
0.0
  0
ARC
  5
2ECC
330
1F
100
AcDbEntity
  8
ｴｸｽﾃﾝｼｮﾝﾌﾚｰﾑ
100
AcDbCircle
 10
532.745614085164
 20
591.2655400000001
 30
0.0
 40
6.294209999999999
100
AcDbArc
 50
248.2298552169081
 51
270.0
  0
ARC
  5
2ECD
330
1F
100
AcDbEntity
  8
ｴｸｽﾃﾝｼｮﾝﾌﾚｰﾑ
100
AcDbCircle
 10
532.745614085164
 20
591.2655400000001
 30
0.0
 40
6.294209999999999
100
AcDbArc
 50
179.999989999999
 51
225.9669374407461
  0
ARC
  5
2ECE
330
1F
100
AcDbEntity
  8
ｴｸｽﾃﾝｼｮﾝﾌﾚｰﾑ
100
AcDbCircle
 10
532.8956140851641
 20
591.5155400000001
 30
0.0
 40
2.5
100
AcDbArc
 50
179.999989999999
 51
270.0
  0
ARC
  5
2ECF
330
1F
100
AcDbEntity
  8
ｴｸｽﾃﾝｼｮﾝﾌﾚｰﾑ
100
AcDbCircle
 10
531.395614085164
 20
598.8105200000002
 30
0.0
 40
1.0
100
AcDbArc
 50
80.68754999999969
 51
180.0
  0
ARC
  5
2ED0
330
1F
100
AcDbEntity
  8
ｴｸｽﾃﾝｼｮﾝﾌﾚｰﾑ
100
AcDbCircle
 10
533.175614085164
 20
609.6655200000002
 30
0.0
 40
10.0
100
AcDbArc
 50
260.6875599999983
 51
304.4338499999979
  0
ARC
  5
2ED1
330
1F
100
AcDbEntity
  8
ｴｸｽﾃﾝｼｮﾝﾌﾚｰﾑ
100
AcDbCircle
 10
539.395614085164
 20
600.5929700000002
 30
0.0
 40
1.0
100
AcDbArc
 50
359.999989999999
 51
124.433860000002
  0
ARC
  5
2ED2
330
1F
100
AcDbEntity
  8
ｴｸｽﾃﾝｼｮﾝﾌﾚｰﾑ
100
AcDbCircle
 10
527.395614085164
 20
597.7678600000001
 30
0.0
 40
1.43491
100
AcDbArc
 50
359.999989999999
 51
45.0
  0
ARC
  5
2ED3
330
1F
100
AcDbEntity
  8
ｴｸｽﾃﾝｼｮﾝﾌﾚｰﾑ
100
AcDbCircle
 10
532.8956140851641
 20
591.5155400000001
 30
0.0
 40
4.06509
100
AcDbArc
 50
179.999989999999
 51
270.0
  0
ARC
  5
2ED4
330
1F
100
AcDbEntity
  8
ｴｸｽﾃﾝｼｮﾝﾌﾚｰﾑ
100
AcDbCircle
 10
536.395614085164
 20
585.0155300000001
 30
0.0
 40
3.6
100
AcDbArc
 50
359.999989999999
 51
89.99998999999899
  0
ARC
  5
2ED5
330
1F
100
AcDbEntity
  8
ｴｸｽﾃﾝｼｮﾝﾌﾚｰﾑ
100
AcDbCircle
 10
536.395614085164
 20
585.0155300000001
 30
0.0
 40
4.000020000000096
100
AcDbArc
 50
53.13027424062971
 51
89.99998999999899
  0
ARC
  5
2ED6
330
1F
100
AcDbEntity
  8
ｴｸｽﾃﾝｼｮﾝﾌﾚｰﾑ
100
AcDbCircle
 10
539.395614085164
 20
589.0155549999741
 30
0.0
 40
1.0
100
AcDbArc
 50
233.1302742406251
 51
359.9999999999968
1001
GENIUS_GENOBJ-N-FIL_13
1002
{
1000
OWNER
1000
GEN
1002
}
1001
GENIUS_GENODEF_13
1002
{
1000
HIER
1070
     0
1002
}
1002
{
1000
MANEDIT
1070
     0
1002
}
1002
{
1000
NOSEL
1070
     0
1002
}
1002
{
1000
BEHIND
1070
     0
1002
}
1002
{
1000
OTHER
1070
     0
1002
}
1002
{
1000
REACTOR
1002
}
  0
ARC
  5
2ED7
330
1F
100
AcDbEntity
  8
ｴｸｽﾃﾝｼｮﾝﾌﾚｰﾑ
100
AcDbCircle
 10
532.8956140851641
 20
591.5155400000001
 30
0.0
 40
2.9
100
AcDbArc
 50
179.999989999999
 51
270.0
  0
ARC
  5
2ED8
330
1F
100
AcDbEntity
  8
ｴｸｽﾃﾝｼｮﾝﾌﾚｰﾑ
100
AcDbCircle
 10
527.395614085164
 20
597.7678600000001
 30
0.0
 40
2.6
100
AcDbArc
 50
359.999989999999
 51
45.0
  0
CIRCLE
  5
2EE1
330
1F
100
AcDbEntity
  8
ｴｸｽﾃﾝｼｮﾝﾌﾚｰﾑ
100
AcDbCircle
 10
528.475614085164
 20
584.6655300000001
 30
0.0
 40
2.077509999999989
  0
LINE
  5
2EE2
330
1F
100
AcDbEntity
  8
ｴｸｽﾃﾝｼｮﾝﾌﾚｰﾑ
100
AcDbLine
 10
543.080084085164
 20
585.7499999999999
 30
0.0
 11
543.080084085164
 21
589.25
 31
0.0
  0
LINE
  5
2EE3
330
1F
100
AcDbEntity
  8
ｴｸｽﾃﾝｼｮﾝﾌﾚｰﾑ
100
AcDbLine
 10
543.080084085164
 20
591.75
 30
0.0
 11
543.080084085164
 21
595.2499999999999
 31
0.0
  0
ARC
  5
2EE4
330
1F
100
AcDbEntity
  8
ｴｸｽﾃﾝｼｮﾝﾌﾚｰﾑ
100
AcDbCircle
 10
543.0800840851642
 20
585.4500000000001
 30
0.0
 40
0.3
100
AcDbArc
 50
359.9999999999772
 51
90.00000000001953
1001
GENIUS_GENOBJ-N-FIL_13
1002
{
1000
OWNER
1000
GEN
1002
}
1001
GENIUS_GENODEF_13
1002
{
1000
HIER
1070
     0
1002
}
1002
{
1000
MANEDIT
1070
     0
1002
}
1002
{
1000
NOSEL
1070
     0
1002
}
1002
{
1000
BEHIND
1070
     0
1002
}
1002
{
1000
OTHER
1070
     0
1002
}
1002
{
1000
REACTOR
1002
}
  0
ARC
  5
2EE5
330
1F
100
AcDbEntity
  8
ｴｸｽﾃﾝｼｮﾝﾌﾚｰﾑ
100
AcDbCircle
 10
543.0800840851642
 20
589.5499999999999
 30
0.0
 40
0.3
100
AcDbArc
 50
269.9999999999674
 51
0.0000000000097707
1001
GENIUS_GENOBJ-N-FIL_13
1002
{
1000
OWNER
1000
GEN
1002
}
1001
GENIUS_GENODEF_13
1002
{
1000
HIER
1070
     0
1002
}
1002
{
1000
MANEDIT
1070
     0
1002
}
1002
{
1000
NOSEL
1070
     0
1002
}
1002
{
1000
BEHIND
1070
     0
1002
}
1002
{
1000
OTHER
1070
     0
1002
}
1002
{
1000
REACTOR
1002
}
  0
ARC
  5
2EE6
330
1F
100
AcDbEntity
  8
ｴｸｽﾃﾝｼｮﾝﾌﾚｰﾑ
100
AcDbCircle
 10
543.0800840851642
 20
591.45
 30
0.0
 40
0.3
100
AcDbArc
 50
359.9999999999902
 51
90.00000000001953
1001
GENIUS_GENOBJ-N-FIL_13
1002
{
1000
OWNER
1000
GEN
1002
}
1001
GENIUS_GENODEF_13
1002
{
1000
HIER
1070
     0
1002
}
1002
{
1000
MANEDIT
1070
     0
1002
}
1002
{
1000
NOSEL
1070
     0
1002
}
1002
{
1000
BEHIND
1070
     0
1002
}
1002
{
1000
OTHER
1070
     0
1002
}
1002
{
1000
REACTOR
1002
}
  0
ARC
  5
2EE7
330
1F
100
AcDbEntity
  8
ｴｸｽﾃﾝｼｮﾝﾌﾚｰﾑ
100
AcDbCircle
 10
543.0800840851642
 20
595.5499999999999
 30
0.0
 40
0.3
100
AcDbArc
 50
269.9999999999674
 51
0.0000000000097707
1001
GENIUS_GENOBJ-N-FIL_13
1002
{
1000
OWNER
1000
GEN
1002
}
1001
GENIUS_GENODEF_13
1002
{
1000
HIER
1070
     0
1002
}
1002
{
1000
MANEDIT
1070
     0
1002
}
1002
{
1000
NOSEL
1070
     0
1002
}
1002
{
1000
BEHIND
1070
     0
1002
}
1002
{
1000
OTHER
1070
     0
1002
}
1002
{
1000
REACTOR
1002
}
  0
LINE
  5
2EFA
330
1F
100
AcDbEntity
  8
ｴｸｽﾃﾝｼｮﾝﾌﾚｰﾑ
100
AcDbLine
 10
512.9300840851642
 20
219.9999999999999
 30
0.0
 11
514.8300840851638
 21
219.9999999999999
 31
0.0
  0
LINE
  5
2EFB
330
1F
100
AcDbEntity
  8
ｴｸｽﾃﾝｼｮﾝﾌﾚｰﾑ
100
AcDbLine
 10
518.9300840851642
 20
219.9999999999999
 30
0.0
 11
533.380084085164
 21
219.9999999999999
 31
0.0
  0
LINE
  5
2EFC
330
1F
100
AcDbEntity
  8
ｴｸｽﾃﾝｼｮﾝﾌﾚｰﾑ
100
AcDbLine
 10
512.3956390851381
 20
222.98447
 30
0.0
 11
523.9730540851642
 21
222.98447
 31
0.0
  0
LINE
  5
2EFD
330
1F
100
AcDbEntity
  8
ｴｸｽﾃﾝｼｮﾝﾌﾚｰﾑ
100
AcDbLine
 10
509.0298134006572
 20
233.0748800165657
 30
0.0
 11
511.0510638435894
 21
231.8051945197252
 31
0.0
  0
LINE
  5
2EFE
330
1F
100
AcDbEntity
  8
ｴｸｽﾃﾝｼｮﾝﾌﾚｰﾑ
100
AcDbLine
 10
529.2341040851643
 20
240.3936600000001
 30
0.0
 11
522.9864340851641
 21
234.1460000000001
 31
0.0
  0
LINE
  5
2EFF
330
1F
100
AcDbEntity
  8
ｴｸｽﾃﾝｼｮﾝﾌﾚｰﾑ
100
AcDbLine
 10
508.3513940851641
 20
230.6344699999999
 30
0.0
 11
508.3513940851641
 21
228.1786799999999
 31
0.0
  0
ARC
  5
2F00
330
1F
100
AcDbEntity
  8
ｴｸｽﾃﾝｼｮﾝﾌﾚｰﾑ
100
AcDbCircle
 10
508.0513940851639
 20
228.1786799999999
 30
0.0
 40
0.3
100
AcDbArc
 50
270.0
 51
0.0
1001
GENIUS_GENODEF_13
1002
{
1000
HIER
1070
     0
1002
}
1002
{
1000
MANEDIT
1070
     0
1002
}
1002
{
1000
NOSEL
1070
     0
1002
}
1002
{
1000
BEHIND
1070
     0
1002
}
1002
{
1000
OTHER
1070
     0
1002
}
1002
{
1000
REACTOR
1002
}
1001
GENIUS_GENOBJ-N-FIL_13
1002
{
1000
OWNER
1000
GEN
1002
}
  0
LINE
  5
2F01
330
1F
100
AcDbEntity
  8
ｴｸｽﾃﾝｼｮﾝﾌﾚｰﾑ
100
AcDbLine
 10
512.0987314312806
 20
233.4344442695066
 30
0.0
 11
510.1179664364703
 21
234.7581705395236
 31
0.0
  0
LINE
  5
2F02
330
1F
100
AcDbEntity
  8
ｴｸｽﾃﾝｼｮﾝﾌﾚｰﾑ
100
AcDbLine
 10
522.190604085164
 20
232.98447
 30
0.0
 11
514.8956240851641
 21
232.98447
 31
0.0
  0
LINE
  5
2F03
330
1F
100
AcDbEntity
  8
ｴｸｽﾃﾝｼｮﾝﾌﾚｰﾑ
100
AcDbLine
 10
521.1479440851642
 20
233.3844699999998
 30
0.0
 11
514.8956240851641
 21
233.3844699999998
 31
0.0
  0
LINE
  5
2F04
330
1F
100
AcDbEntity
  8
ｴｸｽﾃﾝｼｮﾝﾌﾚｰﾑ
100
AcDbLine
 10
514.8956240851641
 20
234.54957
 30
0.0
 11
521.1479440851642
 21
234.54957
 31
0.0
  0
LINE
  5
2F05
330
1F
100
AcDbEntity
  8
ｴｸｽﾃﾝｼｮﾝﾌﾚｰﾑ
100
AcDbLine
 10
522.1625740851641
 20
234.9698400000001
 30
0.0
 11
528.4102440851643
 21
241.2175099999998
 31
0.0
  0
LINE
  5
2F06
330
1F
100
AcDbEntity
  8
ｴｸｽﾃﾝｼｮﾝﾌﾚｰﾑ
100
AcDbLine
 10
510.8305340851641
 20
226.98447
 30
0.0
 11
510.8305340851641
 21
230.48447
 31
0.0
  0
ARC
  5
2F07
330
1F
100
AcDbEntity
  8
ｴｸｽﾃﾝｼｮﾝﾌﾚｰﾑ
100
AcDbCircle
 10
508.430534085164
 20
226.98447
 30
0.0
 40
2.399999999999999
100
AcDbArc
 50
270.0
 51
0.0
1001
GENIUS_GENODEF_13
1002
{
1000
HIER
1070
     0
1002
}
1002
{
1000
MANEDIT
1070
     0
1002
}
1002
{
1000
NOSEL
1070
     0
1002
}
1002
{
1000
BEHIND
1070
     0
1002
}
1002
{
1000
OTHER
1070
     0
1002
}
1002
{
1000
REACTOR
1002
}
1001
GENIUS_GENOBJ-N-FIL_13
1002
{
1000
OWNER
1000
GEN
1002
}
  0
LINE
  5
2F08
330
1F
100
AcDbEntity
  8
ｴｸｽﾃﾝｼｮﾝﾌﾚｰﾑ
100
AcDbLine
 10
518.1871540851641
 20
236.9286799999999
 30
0.0
 11
514.6456240851641
 21
236.9286799999999
 31
0.0
  0
LINE
  5
2F09
330
1F
100
AcDbEntity
  8
ｴｸｽﾃﾝｼｮﾝﾌﾚｰﾑ
100
AcDbLine
 10
526.2187838191848
 20
242.1784999999999
 30
0.0
 11
521.201584085164
 21
237.1612899999999
 31
0.0
  0
LINE
  5
2F0A
330
1F
100
AcDbEntity
  8
ｴｸｽﾃﾝｼｮﾝﾌﾚｰﾑ
100
AcDbLine
 10
511.9956040851641
 20
230.48447
 30
0.0
 11
511.9956040851641
 21
226.98447
 31
0.0
  0
LINE
  5
2F0B
330
1F
100
AcDbEntity
  8
ｴｸｽﾃﾝｼｮﾝﾌﾚｰﾑ
100
AcDbLine
 10
512.3956240851641
 20
230.48447
 30
0.0
 11
512.3956240851641
 21
226.98447
 31
0.0
  0
LINE
  5
2F0C
330
1F
100
AcDbEntity
  8
ｴｸｽﾃﾝｼｮﾝﾌﾚｰﾑ
100
AcDbLine
 10
516.3871440851642
 20
238.7286899999998
 30
0.0
 11
514.551204085164
 21
238.7286899999998
 31
0.0
  0
LINE
  5
2F0D
330
1F
100
AcDbEntity
  8
ｴｸｽﾃﾝｼｮﾝﾌﾚｰﾑ
100
AcDbLine
 10
514.551204085164
 20
238.7286899999998
 30
0.0
 11
513.918374085164
 21
239.3615100000001
 31
0.0
  0
LINE
  5
2F0E
330
1F
100
AcDbEntity
  8
ｴｸｽﾃﾝｼｮﾝﾌﾚｰﾑ
100
AcDbLine
 10
519.3044418031395
 20
235.8113922820245
 30
0.0
 11
516.3871440851642
 21
238.7286899999998
 31
0.0
  0
LINE
  5
2F0F
330
1F
100
AcDbEntity
  8
ｴｸｽﾃﾝｼｮﾝﾌﾚｰﾑ
100
AcDbLine
 10
516.7468140851642
 20
242.1899299999999
 30
0.0
 11
521.201584085164
 21
237.7351600000001
 31
0.0
  0
LINE
  5
2F10
330
1F
100
AcDbEntity
  8
ｴｸｽﾃﾝｼｮﾝﾌﾚｰﾑ
100
AcDbLine
 10
513.918374085164
 20
239.3615100000001
 30
0.0
 11
516.7468140851642
 21
242.1899299999999
 31
0.0
  0
LINE
  5
2F11
330
1F
100
AcDbEntity
  8
ｴｸｽﾃﾝｼｮﾝﾌﾚｰﾑ
100
AcDbLine
 10
519.3044418031395
 20
235.8113922820245
 30
0.0
 11
519.3049339706671
 21
234.54957
 31
0.0
  0
LINE
  5
2F12
330
1F
100
AcDbEntity
  8
ｴｸｽﾃﾝｼｮﾝﾌﾚｰﾑ
100
AcDbLine
 10
521.201584085164
 20
237.7351600000001
 30
0.0
 11
521.201584085164
 21
234.5505629393787
 31
0.0
  0
ARC
  5
2F13
330
1F
100
AcDbEntity
  8
ｴｸｽﾃﾝｼｮﾝﾌﾚｰﾑ
100
AcDbCircle
 10
533.380084085164
 20
229.9999999999999
 30
0.0
 40
10.0
100
AcDbArc
 50
270.0
 51
0.0
1001
GENIUS_GENOBJ-N-FIL_13
1002
{
1000
OWNER
1000
GEN
1002
}
1001
GENIUS_GENODEF_13
1002
{
1000
HIER
1070
     0
1002
}
1002
{
1000
MANEDIT
1070
     0
1002
}
1002
{
1000
NOSEL
1070
     0
1002
}
1002
{
1000
BEHIND
1070
     0
1002
}
1002
{
1000
OTHER
1070
     0
1002
}
1002
{
1000
REACTOR
1002
}
  0
ARC
  5
2F14
330
1F
100
AcDbEntity
  8
ｴｸｽﾃﾝｼｮﾝﾌﾚｰﾑ
100
AcDbCircle
 10
533.380084085164
 20
229.9999999999999
 30
0.0
 40
9.5
100
AcDbArc
 50
270.0
 51
0.0
1001
GENIUS_GENOBJ-N-FIL_13
1002
{
1000
OWNER
1000
GEN
1002
}
1001
GENIUS_GENODEF_13
1002
{
1000
HIER
1070
     0
1002
}
1002
{
1000
MANEDIT
1070
     0
1002
}
1002
{
1000
NOSEL
1070
     0
1002
}
1002
{
1000
BEHIND
1070
     0
1002
}
1002
{
1000
OTHER
1070
     0
1002
}
1002
{
1000
REACTOR
1002
}
  0
ARC
  5
2F15
330
1F
100
AcDbEntity
  8
ｴｸｽﾃﾝｼｮﾝﾌﾚｰﾑ
100
AcDbCircle
 10
514.6456240851641
 20
230.6344699999999
 30
0.0
 40
6.294209999999999
100
AcDbArc
 50
158.2298552169081
 51
180.0
  0
ARC
  5
2F16
330
1F
100
AcDbEntity
  8
ｴｸｽﾃﾝｼｮﾝﾌﾚｰﾑ
100
AcDbCircle
 10
514.6456240851641
 20
230.6344699999999
 30
0.0
 40
6.294209999999999
100
AcDbArc
 50
89.99998999999899
 51
135.9669374407438
  0
ARC
  5
2F18
330
1F
100
AcDbEntity
  8
ｴｸｽﾃﾝｼｮﾝﾌﾚｰﾑ
100
AcDbCircle
 10
514.8956240851641
 20
230.48447
 30
0.0
 40
2.5
100
AcDbArc
 50
89.99998999999899
 51
180.0
  0
ARC
  5
2F19
330
1F
100
AcDbEntity
  8
ｴｸｽﾃﾝｼｮﾝﾌﾚｰﾑ
100
AcDbCircle
 10
522.190604085164
 20
231.98447
 30
0.0
 40
1.0
100
AcDbArc
 50
350.6875499999997
 51
90.0
  0
ARC
  5
2F1A
330
1F
100
AcDbEntity
  8
ｴｸｽﾃﾝｼｮﾝﾌﾚｰﾑ
100
AcDbCircle
 10
533.0456040851641
 20
230.20447
 30
0.0
 40
10.0
100
AcDbArc
 50
170.6875599999983
 51
214.4338499999979
  0
ARC
  5
2F1B
330
1F
100
AcDbEntity
  8
ｴｸｽﾃﾝｼｮﾝﾌﾚｰﾑ
100
AcDbCircle
 10
523.9730540851639
 20
223.98447
 30
0.0
 40
1.0
100
AcDbArc
 50
269.999989999999
 51
34.43386000000207
  0
ARC
  5
2F1D
330
1F
100
AcDbEntity
  8
ｴｸｽﾃﾝｼｮﾝﾌﾚｰﾑ
100
AcDbCircle
 10
521.1479440851642
 20
235.98447
 30
0.0
 40
1.43491
100
AcDbArc
 50
269.999989999999
 51
315.0
  0
ARC
  5
2F1E
330
1F
100
AcDbEntity
  8
ｴｸｽﾃﾝｼｮﾝﾌﾚｰﾑ
100
AcDbCircle
 10
514.8956240851641
 20
230.48447
 30
0.0
 40
4.06509
100
AcDbArc
 50
89.99998999999899
 51
180.0
  0
ARC
  5
2F1F
330
1F
100
AcDbEntity
  8
ｴｸｽﾃﾝｼｮﾝﾌﾚｰﾑ
100
AcDbCircle
 10
508.3956140851642
 20
226.98447
 30
0.0
 40
3.6
100
AcDbArc
 50
269.999989999999
 51
359.9999900000022
  0
ARC
  5
2F20
330
1F
100
AcDbEntity
  8
ｴｸｽﾃﾝｼｮﾝﾌﾚｰﾑ
100
AcDbCircle
 10
508.3956140851642
 20
226.98447
 30
0.0
 40
4.000020000000096
100
AcDbArc
 50
323.1302742406297
 51
359.9999900000022
  0
ARC
  5
2F21
330
1F
100
AcDbEntity
  8
ｴｸｽﾃﾝｼｮﾝﾌﾚｰﾑ
100
AcDbCircle
 10
512.3956390851381
 20
223.98447
 30
0.0
 40
1.0
100
AcDbArc
 50
143.1302742406251
 51
269.9999999999968
1001
GENIUS_GENOBJ-N-FIL_13
1002
{
1000
OWNER
1000
GEN
1002
}
1001
GENIUS_GENODEF_13
1002
{
1000
HIER
1070
     0
1002
}
1002
{
1000
MANEDIT
1070
     0
1002
}
1002
{
1000
NOSEL
1070
     0
1002
}
1002
{
1000
BEHIND
1070
     0
1002
}
1002
{
1000
OTHER
1070
     0
1002
}
1002
{
1000
REACTOR
1002
}
  0
ARC
  5
2F22
330
1F
100
AcDbEntity
  8
ｴｸｽﾃﾝｼｮﾝﾌﾚｰﾑ
100
AcDbCircle
 10
514.8956240851641
 20
230.48447
 30
0.0
 40
2.9
100
AcDbArc
 50
89.99998999999899
 51
180.0
  0
ARC
  5
2F23
330
1F
100
AcDbEntity
  8
ｴｸｽﾃﾝｼｮﾝﾌﾚｰﾑ
100
AcDbCircle
 10
521.1479440851642
 20
235.98447
 30
0.0
 40
2.6
100
AcDbArc
 50
269.999989999999
 51
315.0
  0
CIRCLE
  5
2F4A
330
1F
100
AcDbEntity
  8
ｴｸｽﾃﾝｼｮﾝﾌﾚｰﾑ
100
AcDbCircle
 10
508.045614085164
 20
234.9044699999998
 30
0.0
 40
2.077509999999989
  0
LINE
  5
2F4B
330
1F
100
AcDbEntity
  8
ｴｸｽﾃﾝｼｮﾝﾌﾚｰﾑ
100
AcDbLine
 10
509.1300840851641
 20
220.3000000000001
 30
0.0
 11
512.630084085164
 21
220.3000000000001
 31
0.0
  0
LINE
  5
2F4C
330
1F
100
AcDbEntity
  8
ｴｸｽﾃﾝｼｮﾝﾌﾚｰﾑ
100
AcDbLine
 10
515.130084085164
 20
220.3000000000001
 30
0.0
 11
518.630084085164
 21
220.3000000000001
 31
0.0
  0
ARC
  5
2F4D
330
1F
100
AcDbEntity
  8
ｴｸｽﾃﾝｼｮﾝﾌﾚｰﾑ
100
AcDbCircle
 10
508.8300840851641
 20
220.2999999999998
 30
0.0
 40
0.3
100
AcDbArc
 50
269.9999999999772
 51
0.0000000000227982
1001
GENIUS_GENOBJ-N-FIL_13
1002
{
1000
OWNER
1000
GEN
1002
}
1001
GENIUS_GENODEF_13
1002
{
1000
HIER
1070
     0
1002
}
1002
{
1000
MANEDIT
1070
     0
1002
}
1002
{
1000
NOSEL
1070
     0
1002
}
1002
{
1000
BEHIND
1070
     0
1002
}
1002
{
1000
OTHER
1070
     0
1002
}
1002
{
1000
REACTOR
1002
}
  0
ARC
  5
2F4E
330
1F
100
AcDbEntity
  8
ｴｸｽﾃﾝｼｮﾝﾌﾚｰﾑ
100
AcDbCircle
 10
512.930084085164
 20
220.2999999999998
 30
0.0
 40
0.3
100
AcDbArc
 50
179.9999999999674
 51
270.0000000000098
1001
GENIUS_GENOBJ-N-FIL_13
1002
{
1000
OWNER
1000
GEN
1002
}
1001
GENIUS_GENODEF_13
1002
{
1000
HIER
1070
     0
1002
}
1002
{
1000
MANEDIT
1070
     0
1002
}
1002
{
1000
NOSEL
1070
     0
1002
}
1002
{
1000
BEHIND
1070
     0
1002
}
1002
{
1000
OTHER
1070
     0
1002
}
1002
{
1000
REACTOR
1002
}
  0
ARC
  5
2F4F
330
1F
100
AcDbEntity
  8
ｴｸｽﾃﾝｼｮﾝﾌﾚｰﾑ
100
AcDbCircle
 10
514.8300840851641
 20
220.2999999999998
 30
0.0
 40
0.3
100
AcDbArc
 50
269.999999999987
 51
0.0000000000227982
1001
GENIUS_GENOBJ-N-FIL_13
1002
{
1000
OWNER
1000
GEN
1002
}
1001
GENIUS_GENODEF_13
1002
{
1000
HIER
1070
     0
1002
}
1002
{
1000
MANEDIT
1070
     0
1002
}
1002
{
1000
NOSEL
1070
     0
1002
}
1002
{
1000
BEHIND
1070
     0
1002
}
1002
{
1000
OTHER
1070
     0
1002
}
1002
{
1000
REACTOR
1002
}
  0
ARC
  5
2F50
330
1F
100
AcDbEntity
  8
ｴｸｽﾃﾝｼｮﾝﾌﾚｰﾑ
100
AcDbCircle
 10
518.930084085164
 20
220.2999999999998
 30
0.0
 40
0.3
100
AcDbArc
 50
179.9999999999674
 51
270.0000000000098
1001
GENIUS_GENOBJ-N-FIL_13
1002
{
1000
OWNER
1000
GEN
1002
}
1001
GENIUS_GENODEF_13
1002
{
1000
HIER
1070
     0
1002
}
1002
{
1000
MANEDIT
1070
     0
1002
}
1002
{
1000
NOSEL
1070
     0
1002
}
1002
{
1000
BEHIND
1070
     0
1002
}
1002
{
1000
OTHER
1070
     0
1002
}
1002
{
1000
REACTOR
1002
}
  0
LINE
  5
2F55
330
1F
100
AcDbEntity
  8
ｴｸｽﾃﾝｼｮﾝﾌﾚｰﾑ
100
AcDbLine
 10
543.380084085164
 20
250.4499999999999
 30
0.0
 11
543.380084085164
 21
248.5500000000001
 31
0.0
  0
LINE
  5
2F56
330
1F
100
AcDbEntity
  8
ｴｸｽﾃﾝｼｮﾝﾌﾚｰﾑ
100
AcDbLine
 10
543.380084085164
 20
244.4499999999999
 30
0.0
 11
543.380084085164
 21
229.9999999999999
 31
0.0
  0
LINE
  5
2F57
330
1F
100
AcDbEntity
  8
ｴｸｽﾃﾝｼｮﾝﾌﾚｰﾑ
100
AcDbLine
 10
540.3956140851642
 20
250.9844450000259
 30
0.0
 11
540.3956140851642
 21
239.40703
 31
0.0
  0
LINE
  5
2F58
330
1F
100
AcDbEntity
  8
ｴｸｽﾃﾝｼｮﾝﾌﾚｰﾑ
100
AcDbLine
 10
530.3052040685984
 20
254.3502706845067
 30
0.0
 11
531.5748895654387
 21
252.3290202415745
 31
0.0
  0
LINE
  5
2F59
330
1F
100
AcDbEntity
  8
ｴｸｽﾃﾝｼｮﾝﾌﾚｰﾑ
100
AcDbLine
 10
532.7456140851641
 20
255.0286899999997
 30
0.0
 11
535.201404085164
 21
255.0286899999997
 31
0.0
  0
ARC
  5
2F5A
330
1F
100
AcDbEntity
  8
ｴｸｽﾃﾝｼｮﾝﾌﾚｰﾑ
100
AcDbCircle
 10
535.2014040851639
 20
255.3286899999997
 30
0.0
 40
0.3
100
AcDbArc
 50
270.0
 51
0.0
1001
GENIUS_GENODEF_13
1002
{
1000
HIER
1070
     0
1002
}
1002
{
1000
MANEDIT
1070
     0
1002
}
1002
{
1000
NOSEL
1070
     0
1002
}
1002
{
1000
BEHIND
1070
     0
1002
}
1002
{
1000
OTHER
1070
     0
1002
}
1002
{
1000
REACTOR
1002
}
1001
GENIUS_GENOBJ-N-FIL_13
1002
{
1000
OWNER
1000
GEN
1002
}
  0
LINE
  5
2F5B
330
1F
100
AcDbEntity
  8
ｴｸｽﾃﾝｼｮﾝﾌﾚｰﾑ
100
AcDbLine
 10
529.9456398156573
 20
251.2813526538836
 30
0.0
 11
528.6219135456404
 21
253.2621176486935
 31
0.0
  0
LINE
  5
2F5C
330
1F
100
AcDbEntity
  8
ｴｸｽﾃﾝｼｮﾝﾌﾚｰﾑ
100
AcDbLine
 10
530.3956140851641
 20
241.1894799999999
 30
0.0
 11
530.3956140851641
 21
248.4844599999998
 31
0.0
  0
LINE
  5
2F5D
330
1F
100
AcDbEntity
  8
ｴｸｽﾃﾝｼｮﾝﾌﾚｰﾑ
100
AcDbLine
 10
529.9956140851641
 20
242.2321399999997
 30
0.0
 11
529.9956140851641
 21
248.4844599999998
 31
0.0
  0
LINE
  5
2F5E
330
1F
100
AcDbEntity
  8
ｴｸｽﾃﾝｼｮﾝﾌﾚｰﾑ
100
AcDbLine
 10
528.8305140851639
 20
248.4844599999998
 30
0.0
 11
528.8305140851639
 21
242.2321399999997
 31
0.0
  0
LINE
  5
2F5F
330
1F
100
AcDbEntity
  8
ｴｸｽﾃﾝｼｮﾝﾌﾚｰﾑ
100
AcDbLine
 10
536.3956140851642
 20
252.5495499999999
 30
0.0
 11
532.8956140851642
 21
252.5495499999999
 31
0.0
  0
ARC
  5
2F60
330
1F
100
AcDbEntity
  8
ｴｸｽﾃﾝｼｮﾝﾌﾚｰﾑ
100
AcDbCircle
 10
536.3956140851639
 20
254.9495499999999
 30
0.0
 40
2.399999999999999
100
AcDbArc
 50
270.0
 51
0.0
1001
GENIUS_GENODEF_13
1002
{
1000
HIER
1070
     0
1002
}
1002
{
1000
MANEDIT
1070
     0
1002
}
1002
{
1000
NOSEL
1070
     0
1002
}
1002
{
1000
BEHIND
1070
     0
1002
}
1002
{
1000
OTHER
1070
     0
1002
}
1002
{
1000
REACTOR
1002
}
1001
GENIUS_GENOBJ-N-FIL_13
1002
{
1000
OWNER
1000
GEN
1002
}
  0
LINE
  5
2F61
330
1F
100
AcDbEntity
  8
ｴｸｽﾃﾝｼｮﾝﾌﾚｰﾑ
100
AcDbLine
 10
526.4514040851641
 20
245.1929299999998
 30
0.0
 11
526.4514040851641
 21
248.7344599999998
 31
0.0
  0
LINE
  5
2F62
330
1F
100
AcDbEntity
  8
ｴｸｽﾃﾝｼｮﾝﾌﾚｰﾑ
100
AcDbLine
 10
532.8956140851642
 20
251.3844799999998
 30
0.0
 11
536.3956140851642
 21
251.3844799999998
 31
0.0
  0
LINE
  5
2F63
330
1F
100
AcDbEntity
  8
ｴｸｽﾃﾝｼｮﾝﾌﾚｰﾑ
100
AcDbLine
 10
532.8956140851642
 20
250.9844599999998
 30
0.0
 11
536.3956140851642
 21
250.9844599999998
 31
0.0
  0
LINE
  5
2F64
330
1F
100
AcDbEntity
  8
ｴｸｽﾃﾝｼｮﾝﾌﾚｰﾑ
100
AcDbLine
 10
524.6513940851641
 20
246.9929399999998
 30
0.0
 11
524.6513940851641
 21
248.8288799999999
 31
0.0
  0
LINE
  5
2F65
330
1F
100
AcDbEntity
  8
ｴｸｽﾃﾝｼｮﾝﾌﾚｰﾑ
100
AcDbLine
 10
524.6513940851641
 20
248.8288799999999
 30
0.0
 11
524.0185740851639
 21
249.4617099999999
 31
0.0
  0
LINE
  5
2F66
330
1F
100
AcDbEntity
  8
ｴｸｽﾃﾝｼｮﾝﾌﾚｰﾑ
100
AcDbLine
 10
527.5686918031396
 20
244.0756422820244
 30
0.0
 11
524.6513940851641
 21
246.9929399999998
 31
0.0
  0
LINE
  5
2F67
330
1F
100
AcDbEntity
  8
ｴｸｽﾃﾝｼｮﾝﾌﾚｰﾑ
100
AcDbLine
 10
521.190154085164
 20
246.6332699999999
 30
0.0
 11
525.6449240851639
 21
242.1784999999999
 31
0.0
  0
LINE
  5
2F68
330
1F
100
AcDbEntity
  8
ｴｸｽﾃﾝｼｮﾝﾌﾚｰﾑ
100
AcDbLine
 10
524.0185740851639
 20
249.4617099999999
 30
0.0
 11
521.190154085164
 21
246.6332699999999
 31
0.0
  0
LINE
  5
2F69
330
1F
100
AcDbEntity
  8
ｴｸｽﾃﾝｼｮﾝﾌﾚｰﾑ
100
AcDbLine
 10
527.5686918031396
 20
244.0756422820244
 30
0.0
 11
528.8305140851639
 21
244.0751501144967
 31
0.0
  0
LINE
  5
2F6A
330
1F
100
AcDbEntity
  8
ｴｸｽﾃﾝｼｮﾝﾌﾚｰﾑ
100
AcDbLine
 10
525.6449240851639
 20
242.1784999999999
 30
0.0
 11
528.8295211457852
 21
242.1784999999999
 31
0.0
  0
ARC
  5
2F6B
330
1F
100
AcDbEntity
  8
ｴｸｽﾃﾝｼｮﾝﾌﾚｰﾑ
100
AcDbCircle
 10
532.7456140851638
 20
248.7344599999998
 30
0.0
 40
6.294209999999999
100
AcDbArc
 50
90.0
 51
111.7701447830919
  0
ARC
  5
2F6C
330
1F
100
AcDbEntity
  8
ｴｸｽﾃﾝｼｮﾝﾌﾚｰﾑ
100
AcDbCircle
 10
532.7456140851638
 20
248.7344599999998
 30
0.0
 40
6.294209999999999
100
AcDbArc
 50
134.0330625592539
 51
180.0000100000009
  0
ARC
  5
2F6D
330
1F
100
AcDbEntity
  8
ｴｸｽﾃﾝｼｮﾝﾌﾚｰﾑ
100
AcDbCircle
 10
532.8956140851639
 20
248.4844599999998
 30
0.0
 40
2.5
100
AcDbArc
 50
90.0
 51
180.0000100000009
  0
ARC
  5
2F6E
330
1F
100
AcDbEntity
  8
ｴｸｽﾃﾝｼｮﾝﾌﾚｰﾑ
100
AcDbCircle
 10
531.3956140851639
 20
241.1894799999999
 30
0.0
 40
1.0
100
AcDbArc
 50
180.0
 51
279.3124500000003
  0
ARC
  5
2F6F
330
1F
100
AcDbEntity
  8
ｴｸｽﾃﾝｼｮﾝﾌﾚｰﾑ
100
AcDbCircle
 10
533.1756140851639
 20
230.3344799999999
 30
0.0
 40
10.0
100
AcDbArc
 50
55.56615000000207
 51
99.3124400000017
  0
ARC
  5
2F70
330
1F
100
AcDbEntity
  8
ｴｸｽﾃﾝｼｮﾝﾌﾚｰﾑ
100
AcDbCircle
 10
539.3956140851639
 20
239.40703
 30
0.0
 40
1.0
100
AcDbArc
 50
235.5661399999979
 51
0.0000100000010064
  0
ARC
  5
2F71
330
1F
100
AcDbEntity
  8
ｴｸｽﾃﾝｼｮﾝﾌﾚｰﾑ
100
AcDbCircle
 10
527.3956140851639
 20
242.2321399999997
 30
0.0
 40
1.43491
100
AcDbArc
 50
315.0
 51
0.0000100000010064
  0
ARC
  5
2F72
330
1F
100
AcDbEntity
  8
ｴｸｽﾃﾝｼｮﾝﾌﾚｰﾑ
100
AcDbCircle
 10
532.8956140851639
 20
248.4844599999998
 30
0.0
 40
4.06509
100
AcDbArc
 50
90.0
 51
180.0000100000009
  0
ARC
  5
2F73
330
1F
100
AcDbEntity
  8
ｴｸｽﾃﾝｼｮﾝﾌﾚｰﾑ
100
AcDbCircle
 10
536.3956140851639
 20
254.9844699999998
 30
0.0
 40
3.6
100
AcDbArc
 50
270.0000099999978
 51
0.0000100000010064
  0
ARC
  5
2F74
330
1F
100
AcDbEntity
  8
ｴｸｽﾃﾝｼｮﾝﾌﾚｰﾑ
100
AcDbCircle
 10
536.3956140851639
 20
254.9844699999998
 30
0.0
 40
4.000020000000096
100
AcDbArc
 50
270.0000099999978
 51
306.8697257593703
  0
ARC
  5
2F75
330
1F
100
AcDbEntity
  8
ｴｸｽﾃﾝｼｮﾝﾌﾚｰﾑ
100
AcDbCircle
 10
539.3956140851639
 20
250.9844450000259
 30
0.0
 40
1.0
100
AcDbArc
 50
0.0000000000032569
 51
126.8697257593748
1001
GENIUS_GENOBJ-N-FIL_13
1002
{
1000
OWNER
1000
GEN
1002
}
1001
GENIUS_GENODEF_13
1002
{
1000
HIER
1070
     0
1002
}
1002
{
1000
MANEDIT
1070
     0
1002
}
1002
{
1000
NOSEL
1070
     0
1002
}
1002
{
1000
BEHIND
1070
     0
1002
}
1002
{
1000
OTHER
1070
     0
1002
}
1002
{
1000
REACTOR
1002
}
  0
ARC
  5
2F76
330
1F
100
AcDbEntity
  8
ｴｸｽﾃﾝｼｮﾝﾌﾚｰﾑ
100
AcDbCircle
 10
532.8956140851639
 20
248.4844599999998
 30
0.0
 40
2.9
100
AcDbArc
 50
90.0
 51
180.0000100000009
  0
ARC
  5
2F77
330
1F
100
AcDbEntity
  8
ｴｸｽﾃﾝｼｮﾝﾌﾚｰﾑ
100
AcDbCircle
 10
527.3956140851639
 20
242.2321399999997
 30
0.0
 40
2.6
100
AcDbArc
 50
315.0
 51
0.0000100000010064
  0
CIRCLE
  5
2F80
330
1F
100
AcDbEntity
  8
ｴｸｽﾃﾝｼｮﾝﾌﾚｰﾑ
100
AcDbCircle
 10
528.4756140851639
 20
255.3344699999999
 30
0.0
 40
2.077509999999989
  0
LINE
  5
2F81
330
1F
100
AcDbEntity
  8
ｴｸｽﾃﾝｼｮﾝﾌﾚｰﾑ
100
AcDbLine
 10
543.0800840851638
 20
254.2499999999999
 30
0.0
 11
543.0800840851638
 21
250.7499999999999
 31
0.0
  0
LINE
  5
2F82
330
1F
100
AcDbEntity
  8
ｴｸｽﾃﾝｼｮﾝﾌﾚｰﾑ
100
AcDbLine
 10
543.0800840851638
 20
248.2499999999999
 30
0.0
 11
543.0800840851638
 21
244.7499999999999
 31
0.0
  0
ARC
  5
2F83
330
1F
100
AcDbEntity
  8
ｴｸｽﾃﾝｼｮﾝﾌﾚｰﾑ
100
AcDbCircle
 10
543.0800840851641
 20
254.5499999999998
 30
0.0
 40
0.3
100
AcDbArc
 50
269.9999999999772
 51
0.0000000000227982
1001
GENIUS_GENOBJ-N-FIL_13
1002
{
1000
OWNER
1000
GEN
1002
}
1001
GENIUS_GENODEF_13
1002
{
1000
HIER
1070
     0
1002
}
1002
{
1000
MANEDIT
1070
     0
1002
}
1002
{
1000
NOSEL
1070
     0
1002
}
1002
{
1000
BEHIND
1070
     0
1002
}
1002
{
1000
OTHER
1070
     0
1002
}
1002
{
1000
REACTOR
1002
}
  0
ARC
  5
2F84
330
1F
100
AcDbEntity
  8
ｴｸｽﾃﾝｼｮﾝﾌﾚｰﾑ
100
AcDbCircle
 10
543.0800840851641
 20
250.4499999999999
 30
0.0
 40
0.3
100
AcDbArc
 50
359.9999999999902
 51
90.00000000003257
1001
GENIUS_GENOBJ-N-FIL_13
1002
{
1000
OWNER
1000
GEN
1002
}
1001
GENIUS_GENODEF_13
1002
{
1000
HIER
1070
     0
1002
}
1002
{
1000
MANEDIT
1070
     0
1002
}
1002
{
1000
NOSEL
1070
     0
1002
}
1002
{
1000
BEHIND
1070
     0
1002
}
1002
{
1000
OTHER
1070
     0
1002
}
1002
{
1000
REACTOR
1002
}
  0
ARC
  5
2F85
330
1F
100
AcDbEntity
  8
ｴｸｽﾃﾝｼｮﾝﾌﾚｰﾑ
100
AcDbCircle
 10
543.0800840851641
 20
248.5499999999998
 30
0.0
 40
0.3
100
AcDbArc
 50
269.9999999999772
 51
0.0000000000097707
1001
GENIUS_GENOBJ-N-FIL_13
1002
{
1000
OWNER
1000
GEN
1002
}
1001
GENIUS_GENODEF_13
1002
{
1000
HIER
1070
     0
1002
}
1002
{
1000
MANEDIT
1070
     0
1002
}
1002
{
1000
NOSEL
1070
     0
1002
}
1002
{
1000
BEHIND
1070
     0
1002
}
1002
{
1000
OTHER
1070
     0
1002
}
1002
{
1000
REACTOR
1002
}
  0
ARC
  5
2F86
330
1F
100
AcDbEntity
  8
ｴｸｽﾃﾝｼｮﾝﾌﾚｰﾑ
100
AcDbCircle
 10
543.0800840851641
 20
244.4499999999999
 30
0.0
 40
0.3
100
AcDbArc
 50
359.9999999999902
 51
90.00000000003257
1001
GENIUS_GENOBJ-N-FIL_13
1002
{
1000
OWNER
1000
GEN
1002
}
1001
GENIUS_GENODEF_13
1002
{
1000
HIER
1070
     0
1002
}
1002
{
1000
MANEDIT
1070
     0
1002
}
1002
{
1000
NOSEL
1070
     0
1002
}
1002
{
1000
BEHIND
1070
     0
1002
}
1002
{
1000
OTHER
1070
     0
1002
}
1002
{
1000
REACTOR
1002
}
  0
LINE
  5
30AF
330
1F
100
AcDbEntity
  8
ｴｸｽﾃﾝｼｮﾝﾌﾚｰﾑ
100
AcDbLine
 10
543.3800840829007
 20
724.0479878736529
 30
0.0
 11
542.9158147164324
 21
777.2479878736527
 31
0.0
  0
LINE
  5
30C7
330
1F
100
AcDbEntity
  8
ｴｸｽﾃﾝｼｮﾝﾌﾚｰﾑ
100
AcDbLine
 10
535.5892712452917
 20
769.5794083445536
 30
0.0
 11
535.5014040829009
 21
779.6479878736528
 31
0.0
  0
LINE
  5
316D
330
1F
100
AcDbEntity
  8
ｴｸｽﾃﾝｼｮﾝﾌﾚｰﾑ
100
AcDbLine
 10
538.3956140829008
 20
719.0479878736529
 30
0.0
 11
537.9730951018467
 21
767.4638675666293
 31
0.0
  0
LINE
  5
31A0
330
1F
100
AcDbEntity
  8
ｴｸｽﾃﾝｼｮﾝﾌﾚｰﾑ
100
AcDbLine
 10
540.3956140829007
 20
719.0479878736529
 30
0.0
 11
539.9956140829007
 21
718.2479878736527
 31
0.0
  0
LINE
  5
31A2
330
1F
100
AcDbEntity
  8
ｴｸｽﾃﾝｼｮﾝﾌﾚｰﾑ
100
AcDbLine
 10
538.7956140829004
 20
718.2479878736527
 30
0.0
 11
538.3956140829008
 21
719.0479878736529
 31
0.0
  0
LINE
  5
321E
330
1F
100
AcDbEntity
  8
ｴｸｽﾃﾝｼｮﾝﾌﾚｰﾑ
100
AcDbLine
 10
540.4235400598312
 20
722.2479878736527
 30
0.0
 11
540.3956140829007
 21
719.0479878736529
 31
0.0
  0
LINE
  5
3317
330
1F
100
AcDbEntity
  8
ｴｸｽﾃﾝｼｮﾝﾌﾚｰﾑ
100
AcDbLine
 10
536.0892331683642
 20
768.7221094762677
 30
0.0
 11
537.8231065249273
 21
767.7210572271152
 31
0.0
  0
ARC
  5
331D
330
1F
100
AcDbEntity
  8
ｴｸｽﾃﾝｼｮﾝﾌﾚｰﾑ
100
AcDbCircle
 10
536.5892331683645
 20
769.5881348800522
 30
0.0
 40
1.0
100
AcDbArc
 50
180.5000000000078
 51
239.9999999999995
1001
GENIUS_GENODEF_13
1002
{
1000
HIER
1070
     0
1002
}
1002
{
1000
MANEDIT
1070
     0
1002
}
1002
{
1000
NOSEL
1070
     0
1002
}
1002
{
1000
BEHIND
1070
     0
1002
}
1002
{
1000
OTHER
1070
     0
1002
}
1002
{
1000
REACTOR
1002
}
1001
GENIUS_GENOBJ-N-FIL_13
1002
{
1000
OWNER
1000
GEN
1002
}
  0
LINE
  5
3321
330
1F
100
AcDbEntity
  8
ｴｸｽﾃﾝｼｮﾝﾌﾚｰﾑ
100
AcDbLine
 10
542.8800840829007
 20
723.7479878736527
 30
0.0
 11
542.8800840829007
 21
722.2479878736527
 31
0.0
  0
LINE
  5
33DA
330
1F
100
AcDbEntity
  8
ｴｸｽﾃﾝｼｮﾝﾌﾚｰﾑ
100
AcDbLine
 10
540.9685525507837
 20
771.9322801097561
 30
0.0
 11
541.0132118871596
 21
777.0497331807525
 31
0.0
  0
LINE
  5
33F6
330
1F
100
AcDbEntity
  8
ｴｸｽﾃﾝｼｮﾝﾌﾚｰﾑ
100
AcDbLine
 10
537.3322759912211
 20
771.9322801097561
 30
0.0
 11
537.2666721721474
 21
779.4497331807526
 31
0.0
  0
LINE
  5
3401
330
1F
100
AcDbEntity
  8
ｴｸｽﾃﾝｼｮﾝﾌﾚｰﾑ
100
AcDbLine
 10
539.1686210892684
 20
770.1479878736528
 30
0.0
 11
539.132207452736
 21
770.1479878736528
 31
0.0
  0
ARC
  5
342D
330
1F
100
AcDbEntity
  8
ｴｸｽﾃﾝｼｮﾝﾌﾚｰﾑ
100
AcDbCircle
 10
539.1686210892686
 20
771.947987873653
 30
0.0
 40
1.8
100
AcDbArc
 50
270.0
 51
359.4999999999987
1001
GENIUS_GENODEF_13
1002
{
1000
HIER
1070
     0
1002
}
1002
{
1000
MANEDIT
1070
     0
1002
}
1002
{
1000
NOSEL
1070
     0
1002
}
1002
{
1000
BEHIND
1070
     0
1002
}
1002
{
1000
OTHER
1070
     0
1002
}
1002
{
1000
REACTOR
1002
}
1001
GENIUS_GENOBJ-N-FIL_13
1002
{
1000
OWNER
1000
GEN
1002
}
  0
ARC
  5
342F
330
1F
100
AcDbEntity
  8
ｴｸｽﾃﾝｼｮﾝﾌﾚｰﾑ
100
AcDbCircle
 10
539.1322074527362
 20
771.947987873653
 30
0.0
 40
1.8
100
AcDbArc
 50
180.5000000000013
 51
270.0
1001
GENIUS_GENODEF_13
1002
{
1000
HIER
1070
     0
1002
}
1002
{
1000
MANEDIT
1070
     0
1002
}
1002
{
1000
NOSEL
1070
     0
1002
}
1002
{
1000
BEHIND
1070
     0
1002
}
1002
{
1000
OTHER
1070
     0
1002
}
1002
{
1000
REACTOR
1002
}
1001
GENIUS_GENOBJ-N-FIL_13
1002
{
1000
OWNER
1000
GEN
1002
}
  0
ARC
  5
3433
330
1F
100
AcDbEntity
  8
ｴｸｽﾃﾝｼｮﾝﾌﾚｰﾑ
100
AcDbCircle
 10
541.2132042717725
 20
777.0479878736529
 30
0.0
 40
0.2
100
AcDbArc
 50
90.0
 51
179.4999999999987
1001
GENIUS_GENODEF_13
1002
{
1000
HIER
1070
     0
1002
}
1002
{
1000
MANEDIT
1070
     0
1002
}
1002
{
1000
NOSEL
1070
     0
1002
}
1002
{
1000
BEHIND
1070
     0
1002
}
1002
{
1000
OTHER
1070
     0
1002
}
1002
{
1000
REACTOR
1002
}
1001
GENIUS_GENOBJ-N-FIL_13
1002
{
1000
OWNER
1000
GEN
1002
}
  0
ARC
  5
3435
330
1F
100
AcDbEntity
  8
ｴｸｽﾃﾝｼｮﾝﾌﾚｰﾑ
100
AcDbCircle
 10
537.0666797875345
 20
779.447987873653
 30
0.0
 40
0.2
100
AcDbArc
 50
0.500000000001317
 51
90.0
1001
GENIUS_GENOBJ-N-FIL_13
1002
{
1000
OWNER
1000
GEN
1002
}
1001
GENIUS_GENODEF_13
1002
{
1000
HIER
1070
     0
1002
}
1002
{
1000
MANEDIT
1070
     0
1002
}
1002
{
1000
NOSEL
1070
     0
1002
}
1002
{
1000
BEHIND
1070
     0
1002
}
1002
{
1000
OTHER
1070
     0
1002
}
1002
{
1000
REACTOR
1002
}
  0
LINE
  5
3495
330
1F
100
AcDbEntity
  8
ｴｸｽﾃﾝｼｮﾝﾌﾚｰﾑ
100
AcDbLine
 10
510.1231240829009
 20
726.747977873653
 30
0.0
 11
510.5847754763007
 21
779.6479878736528
 31
0.0
  0
LINE
  5
349B
330
1F
100
AcDbEntity
  8
ｴｸｽﾃﾝｼｮﾝﾌﾚｰﾑ
100
AcDbLine
 10
513.9183740829006
 20
726.747977873653
 30
0.0
 11
513.4567226895009
 21
779.6479878736528
 31
0.0
  0
LINE
  5
34A1
330
1F
100
AcDbEntity
  8
ｴｸｽﾃﾝｼｮﾝﾌﾚｰﾑ
100
AcDbLine
 10
516.7468140829008
 20
726.747977873653
 30
0.0
 11
516.7468140829008
 21
779.6479878736528
 31
0.0
  0
LINE
  5
34A7
330
1F
100
AcDbEntity
  8
ｴｸｽﾃﾝｼｮﾝﾌﾚｰﾑ
100
AcDbLine
 10
521.1901540829006
 20
726.747977873653
 30
0.0
 11
520.7285026895009
 21
779.6479878736528
 31
0.0
  0
LINE
  5
34AD
330
1F
100
AcDbEntity
  8
ｴｸｽﾃﾝｼｮﾝﾌﾚｰﾑ
100
AcDbLine
 10
524.0185740829004
 20
726.747977873653
 30
0.0
 11
524.0185740829004
 21
779.6479878736528
 31
0.0
  0
LINE
  5
34B3
330
1F
100
AcDbEntity
  8
ｴｸｽﾃﾝｼｮﾝﾌﾚｰﾑ
100
AcDbLine
 10
524.6513940829007
 20
726.747977873653
 30
0.0
 11
525.1130454763004
 21
779.6479878736528
 31
0.0
  0
LINE
  5
34B9
330
1F
100
AcDbEntity
  8
ｴｸｽﾃﾝｼｮﾝﾌﾚｰﾑ
100
AcDbLine
 10
526.3981040829007
 20
726.747977873653
 30
0.0
 11
525.9364526895009
 21
779.6479878736528
 31
0.0
  0
LINE
  5
34BF
330
1F
100
AcDbEntity
  8
ｴｸｽﾃﾝｼｮﾝﾌﾚｰﾑ
100
AcDbLine
 10
530.5531240829008
 20
726.747977873653
 30
0.0
 11
531.0147754763005
 21
779.6479878736528
 31
0.0
  0
LINE
  5
34CF
330
1F
100
AcDbEntity
  8
ｴｸｽﾃﾝｼｮﾝﾌﾚｰﾑ
100
AcDbLine
 10
505.9681040829008
 20
726.747977873653
 30
0.0
 11
531.5748895631753
 21
726.747977873653
 31
0.0
  0
LINE
  5
34D4
330
1F
100
AcDbEntity
  8
ｴｸｽﾃﾝｼｮﾝﾌﾚｰﾑ
100
AcDbLine
 10
505.506452689501
 20
779.6479878736528
 30
0.0
 11
505.9681040829008
 21
726.747977873653
 31
0.0
  0
LINE
  5
34EB
330
1F
100
AcDbEntity
  8
ｴｸｽﾃﾝｼｮﾝﾌﾚｰﾑ
100
AcDbLine
 10
531.5748895631753
 20
726.747977873653
 30
0.0
 11
532.036540956575
 21
779.6479878736528
 31
0.0
  0
LINE
  5
352B
330
1F
100
AcDbEntity
  8
ｴｸｽﾃﾝｼｮﾝﾌﾚｰﾑ
100
AcDbLine
 10
528.4305140829009
 20
719.0479878736529
 30
0.0
 11
528.3633172881804
 21
726.747977873653
 31
0.0
  0
LINE
  5
352C
330
1F
100
AcDbEntity
  8
ｴｸｽﾃﾝｼｮﾝﾌﾚｰﾑ
100
AcDbLine
 10
528.8305140829005
 20
718.2479878736527
 30
0.0
 11
528.4305140829009
 21
719.0479878736529
 31
0.0
  0
LINE
  5
352D
330
1F
100
AcDbEntity
  8
ｴｸｽﾃﾝｼｮﾝﾌﾚｰﾑ
100
AcDbLine
 10
510.4305340829008
 20
719.0479878736529
 30
0.0
 11
510.3633372881808
 21
726.747977873653
 31
0.0
  0
LINE
  5
352E
330
1F
100
AcDbEntity
  8
ｴｸｽﾃﾝｼｮﾝﾌﾚｰﾑ
100
AcDbLine
 10
510.8305340829009
 20
718.2479878736527
 30
0.0
 11
510.4305340829008
 21
719.0479878736529
 31
0.0
  0
LINE
  5
36F9
330
1F
100
AcDbEntity
  8
ｴｸｽﾃﾝｼｮﾝﾌﾚｰﾑ
100
AcDbLine
 10
343.8800840851641
 20
722.2479878736525
 30
0.0
 11
374.3017081082331
 21
722.2479878736525
 31
0.0
  0
LINE
  5
36FA
330
1F
100
AcDbEntity
  8
ｴｸｽﾃﾝｼｮﾝﾌﾚｰﾑ
100
AcDbLine
 10
343.8800840851641
 20
723.7479878736524
 30
0.0
 11
343.3800840851639
 21
724.0479878736526
 31
0.0
  0
LINE
  5
36FB
330
1F
100
AcDbEntity
  8
ｴｸｽﾃﾝｼｮﾝﾌﾚｰﾑ
100
AcDbLine
 10
343.3800840851639
 20
724.0479878736526
 30
0.0
 11
343.844353451632
 21
777.2479878736525
 31
0.0
  0
LINE
  5
36FC
330
1F
100
AcDbEntity
  8
ｴｸｽﾃﾝｼｮﾝﾌﾚｰﾑ
100
AcDbLine
 10
343.8800840851641
 20
723.7479878736524
 30
0.0
 11
343.8800840851641
 21
722.2479878736525
 31
0.0
  0
LINE
  5
36FD
330
1F
100
AcDbEntity
  8
ｴｸｽﾃﾝｼｮﾝﾌﾚｰﾑ
100
AcDbLine
 10
346.3366281082335
 20
722.2479878736525
 30
0.0
 11
346.364554085164
 21
719.0479878736526
 31
0.0
  0
LINE
  5
36FE
330
1F
100
AcDbEntity
  8
ｴｸｽﾃﾝｼｮﾝﾌﾚｰﾑ
100
AcDbLine
 10
346.364554085164
 20
719.0479878736526
 30
0.0
 11
346.7645540851638
 21
718.2479878736525
 31
0.0
  0
ARC
  5
3728
330
1F
100
AcDbEntity
  8
ｴｸｽﾃﾝｼｮﾝﾌﾚｰﾑ
100
AcDbCircle
 10
349.6934883805302
 20
779.4479878736527
 30
0.0
 40
0.2
100
AcDbArc
 50
90.0
 51
179.4999999999987
1001
GENIUS_GENOBJ-N-FIL_13
1002
{
1000
OWNER
1000
GEN
1002
}
1001
GENIUS_GENODEF_13
1002
{
1000
HIER
1070
     0
1002
}
1002
{
1000
MANEDIT
1070
     0
1002
}
1002
{
1000
NOSEL
1070
     0
1002
}
1002
{
1000
BEHIND
1070
     0
1002
}
1002
{
1000
OTHER
1070
     0
1002
}
1002
{
1000
REACTOR
1002
}
  0
LINE
  5
3729
330
1F
100
AcDbEntity
  8
ｴｸｽﾃﾝｼｮﾝﾌﾚｰﾑ
100
AcDbLine
 10
349.4742816557134
 20
777.2479878736525
 30
0.0
 11
349.4934959959173
 21
779.4497331807523
 31
0.0
  0
ARC
  5
37DB
330
1F
100
AcDbEntity
  8
ｴｸｽﾃﾝｼｮﾝﾌﾚｰﾑ
100
AcDbCircle
 10
537.6731065249274
 20
767.46124960598
 30
0.0
 40
0.3
100
AcDbArc
 50
0.500000000001317
 51
59.99999999999946
1001
GENIUS_GENODEF_13
1002
{
1000
HIER
1070
     0
1002
}
1002
{
1000
MANEDIT
1070
     0
1002
}
1002
{
1000
NOSEL
1070
     0
1002
}
1002
{
1000
BEHIND
1070
     0
1002
}
1002
{
1000
OTHER
1070
     0
1002
}
1002
{
1000
REACTOR
1002
}
1001
GENIUS_GENOBJ-N-FIL_13
1002
{
1000
OWNER
1000
GEN
1002
}
  0
LINE
  5
39A5
330
1F
100
AcDbEntity
  8
ｴｸｽﾃﾝｼｮﾝﾌﾚｰﾑ
100
AcDbLine
 10
349.6934883805302
 20
77.01498474090624
 30
0.0
 11
537.0666797875344
 21
77.01498474090624
 31
0.0
  0
LINE
  5
39A6
330
1F
100
AcDbEntity
  8
ｴｸｽﾃﾝｼｮﾝﾌﾚｰﾑ
100
AcDbLine
 10
343.844353451632
 20
79.41498474090633
 30
0.0
 11
542.9158147164327
 21
79.41498474090633
 31
0.0
  0
LINE
  5
39A7
330
1F
100
AcDbEntity
  8
ｴｸｽﾃﾝｼｮﾝﾌﾚｰﾑ
100
AcDbLine
 10
343.3800840851639
 20
132.6149847409061
 30
0.0
 11
368.1300840851641
 21
132.6149847409061
 31
0.0
  0
LINE
  5
39A8
330
1F
100
AcDbEntity
  8
ｴｸｽﾃﾝｼｮﾝﾌﾚｰﾑ
100
AcDbLine
 10
371.6300740851639
 20
132.6149847409061
 30
0.0
 11
374.1300840851641
 21
132.6149847409061
 31
0.0
  0
LINE
  5
39A9
330
1F
100
AcDbEntity
  8
ｴｸｽﾃﾝｼｮﾝﾌﾚｰﾑ
100
AcDbLine
 10
377.6300840851638
 20
132.6149847409061
 30
0.0
 11
509.130084082901
 21
132.6149847409061
 31
0.0
  0
LINE
  5
39AA
330
1F
100
AcDbEntity
  8
ｴｸｽﾃﾝｼｮﾝﾌﾚｰﾑ
100
AcDbLine
 10
343.8800840851641
 20
132.9149847409063
 30
0.0
 11
542.8800840829008
 21
132.9149847409063
 31
0.0
  0
LINE
  5
39AB
330
1F
100
AcDbEntity
  8
ｴｸｽﾃﾝｼｮﾝﾌﾚｰﾑ
100
AcDbLine
 10
346.7645540851638
 20
138.4149847409063
 30
0.0
 11
539.9956140829008
 21
138.4149847409063
 31
0.0
  0
LINE
  5
39AC
330
1F
100
AcDbEntity
  8
ｴｸｽﾃﾝｼｮﾝﾌﾚｰﾑ
100
AcDbLine
 10
377.6300840851638
 20
79.41498474090633
 30
0.0
 11
377.6300840851638
 21
132.9149847409063
 31
0.0
  0
LINE
  5
39AD
330
1F
100
AcDbEntity
  8
ｴｸｽﾃﾝｼｮﾝﾌﾚｰﾑ
100
AcDbLine
 10
374.1300840851641
 20
79.41498474090633
 30
0.0
 11
374.1300840851641
 21
132.9149847409063
 31
0.0
  0
LINE
  5
39AE
330
1F
100
AcDbEntity
  8
ｴｸｽﾃﾝｼｮﾝﾌﾚｰﾑ
100
AcDbLine
 10
371.6300740851639
 20
79.41498474090633
 30
0.0
 11
371.6300740851639
 21
132.9149847409063
 31
0.0
  0
LINE
  5
39AF
330
1F
100
AcDbEntity
  8
ｴｸｽﾃﾝｼｮﾝﾌﾚｰﾑ
100
AcDbLine
 10
368.1300840851641
 20
79.41498474090633
 30
0.0
 11
368.1300840851641
 21
132.9149847409063
 31
0.0
  0
LINE
  5
39B0
330
1F
100
AcDbEntity
  8
ｴｸｽﾃﾝｼｮﾝﾌﾚｰﾑ
100
AcDbLine
 10
356.3366205504965
 20
134.4149847409063
 30
0.0
 11
356.3645465274269
 21
137.6149847409064
 31
0.0
  0
LINE
  5
39B1
330
1F
100
AcDbEntity
  8
ｴｸｽﾃﾝｼｮﾝﾌﾚｰﾑ
100
AcDbLine
 10
356.3645465274269
 20
137.6149847409064
 30
0.0
 11
356.7645465274268
 21
138.4149847409063
 31
0.0
  0
LINE
  5
39B2
330
1F
100
AcDbEntity
  8
ｴｸｽﾃﾝｼｮﾝﾌﾚｰﾑ
100
AcDbLine
 10
374.3366305504963
 20
134.4149847409063
 30
0.0
 11
374.3645565274268
 21
137.6149847409064
 31
0.0
  0
LINE
  5
39B3
330
1F
100
AcDbEntity
  8
ｴｸｽﾃﾝｼｮﾝﾌﾚｰﾑ
100
AcDbLine
 10
374.3645565274268
 20
137.6149847409064
 30
0.0
 11
374.7645565274268
 21
138.4149847409063
 31
0.0
  0
LINE
  5
39B4
330
1F
100
AcDbEntity
  8
ｴｸｽﾃﾝｼｮﾝﾌﾚｰﾑ
100
AcDbLine
 10
343.8800840851641
 20
134.4149847409063
 30
0.0
 11
542.8800840829008
 21
134.414984740902
 31
0.0
  0
LINE
  5
39B5
330
1F
100
AcDbEntity
  8
ｴｸｽﾃﾝｼｮﾝﾌﾚｰﾑ
100
AcDbLine
 10
343.8800840851641
 20
132.9149847409063
 30
0.0
 11
343.3800840851639
 21
132.6149847409064
 31
0.0
  0
LINE
  5
39B6
330
1F
100
AcDbEntity
  8
ｴｸｽﾃﾝｼｮﾝﾌﾚｰﾑ
100
AcDbLine
 10
343.3800840851639
 20
132.6149847409064
 30
0.0
 11
343.844353451632
 21
79.41498474090633
 31
0.0
  0
LINE
  5
39B7
330
1F
100
AcDbEntity
  8
ｴｸｽﾃﾝｼｮﾝﾌﾚｰﾑ
100
AcDbLine
 10
343.8800840851641
 20
132.9149847409063
 30
0.0
 11
343.8800840851641
 21
134.4149847409063
 31
0.0
  0
LINE
  5
39B8
330
1F
100
AcDbEntity
  8
ｴｸｽﾃﾝｼｮﾝﾌﾚｰﾑ
100
AcDbLine
 10
346.3366281082335
 20
134.4149847409063
 30
0.0
 11
346.364554085164
 21
137.6149847409064
 31
0.0
  0
LINE
  5
39B9
330
1F
100
AcDbEntity
  8
ｴｸｽﾃﾝｼｮﾝﾌﾚｰﾑ
100
AcDbLine
 10
346.364554085164
 20
137.6149847409064
 30
0.0
 11
346.7645540851638
 21
138.4149847409063
 31
0.0
  0
ARC
  5
39BA
330
1F
100
AcDbEntity
  8
ｴｸｽﾃﾝｼｮﾝﾌﾚｰﾑ
100
AcDbCircle
 10
349.6934883805301
 20
77.21498474090617
 30
0.0
 40
0.2
100
AcDbArc
 50
180.5000000000013
 51
270.0
1001
GENIUS_GENOBJ-N-FIL_13
1002
{
1000
OWNER
1000
GEN
1002
}
1001
GENIUS_GENODEF_13
1002
{
1000
HIER
1070
     0
1002
}
1002
{
1000
MANEDIT
1070
     0
1002
}
1002
{
1000
NOSEL
1070
     0
1002
}
1002
{
1000
BEHIND
1070
     0
1002
}
1002
{
1000
OTHER
1070
     0
1002
}
1002
{
1000
REACTOR
1002
}
  0
LINE
  5
39BB
330
1F
100
AcDbEntity
  8
ｴｸｽﾃﾝｼｮﾝﾌﾚｰﾑ
100
AcDbLine
 10
349.4742816557134
 20
79.41498474090633
 30
0.0
 11
349.4934959959173
 21
77.2132394338065
 31
0.0
  0
ARC
  5
39BC
330
1F
100
AcDbEntity
  8
ｴｸｽﾃﾝｼｮﾝﾌﾚｰﾑ
100
AcDbCircle
 10
359.6911842046408
 20
77.21498474090617
 30
0.0
 40
0.2
100
AcDbArc
 50
180.5000000000013
 51
270.0
1001
GENIUS_GENOBJ-N-FIL_13
1002
{
1000
OWNER
1000
GEN
1002
}
1001
GENIUS_GENODEF_13
1002
{
1000
HIER
1070
     0
1002
}
1002
{
1000
MANEDIT
1070
     0
1002
}
1002
{
1000
NOSEL
1070
     0
1002
}
1002
{
1000
BEHIND
1070
     0
1002
}
1002
{
1000
OTHER
1070
     0
1002
}
1002
{
1000
REACTOR
1002
}
  0
LINE
  5
39BD
330
1F
100
AcDbEntity
  8
ｴｸｽﾃﾝｼｮﾝﾌﾚｰﾑ
100
AcDbLine
 10
359.4719774798241
 20
79.41498474090633
 30
0.0
 11
359.491191820028
 21
77.2132394338065
 31
0.0
  0
ARC
  5
39BE
330
1F
100
AcDbEntity
  8
ｴｸｽﾃﾝｼｮﾝﾌﾚｰﾑ
100
AcDbCircle
 10
377.6911942046407
 20
77.21498474090617
 30
0.0
 40
0.2
100
AcDbArc
 50
180.5000000000013
 51
270.0
1001
GENIUS_GENOBJ-N-FIL_13
1002
{
1000
OWNER
1000
GEN
1002
}
1001
GENIUS_GENODEF_13
1002
{
1000
HIER
1070
     0
1002
}
1002
{
1000
MANEDIT
1070
     0
1002
}
1002
{
1000
NOSEL
1070
     0
1002
}
1002
{
1000
BEHIND
1070
     0
1002
}
1002
{
1000
OTHER
1070
     0
1002
}
1002
{
1000
REACTOR
1002
}
  0
LINE
  5
39BF
330
1F
100
AcDbEntity
  8
ｴｸｽﾃﾝｼｮﾝﾌﾚｰﾑ
100
AcDbLine
 10
377.4719874798241
 20
79.41498474090633
 30
0.0
 11
377.491201820028
 21
77.2132394338065
 31
0.0
  0
LINE
  5
39C1
330
1F
100
AcDbEntity
  8
ｴｸｽﾃﾝｼｮﾝﾌﾚｰﾑ
100
AcDbLine
 10
543.3800840829007
 20
132.6149847409061
 30
0.0
 11
518.6300840829008
 21
132.6149847409061
 31
0.0
  0
LINE
  5
39C2
330
1F
100
AcDbEntity
  8
ｴｸｽﾃﾝｼｮﾝﾌﾚｰﾑ
100
AcDbLine
 10
515.130094082901
 20
132.6149847409061
 30
0.0
 11
512.6300840829007
 21
132.6149847409061
 31
0.0
  0
LINE
  5
39C3
330
1F
100
AcDbEntity
  8
ｴｸｽﾃﾝｼｮﾝﾌﾚｰﾑ
100
AcDbLine
 10
509.130084082901
 20
79.41498474090633
 30
0.0
 11
509.130084082901
 21
132.9149847409063
 31
0.0
  0
LINE
  5
39C4
330
1F
100
AcDbEntity
  8
ｴｸｽﾃﾝｼｮﾝﾌﾚｰﾑ
100
AcDbLine
 10
512.6300840829007
 20
79.41498474090633
 30
0.0
 11
512.6300840829007
 21
132.9149847409063
 31
0.0
  0
LINE
  5
39C5
330
1F
100
AcDbEntity
  8
ｴｸｽﾃﾝｼｮﾝﾌﾚｰﾑ
100
AcDbLine
 10
515.130094082901
 20
79.41498474090633
 30
0.0
 11
515.130094082901
 21
132.9149847409063
 31
0.0
  0
LINE
  5
39C6
330
1F
100
AcDbEntity
  8
ｴｸｽﾃﾝｼｮﾝﾌﾚｰﾑ
100
AcDbLine
 10
518.6300840829008
 20
79.41498474090633
 30
0.0
 11
518.6300840829008
 21
132.9149847409063
 31
0.0
  0
LINE
  5
39C7
330
1F
100
AcDbEntity
  8
ｴｸｽﾃﾝｼｮﾝﾌﾚｰﾑ
100
AcDbLine
 10
530.4235476175684
 20
134.4149847409063
 30
0.0
 11
530.3956216406379
 21
137.6149847409064
 31
0.0
  0
LINE
  5
39C8
330
1F
100
AcDbEntity
  8
ｴｸｽﾃﾝｼｮﾝﾌﾚｰﾑ
100
AcDbLine
 10
530.3956216406379
 20
137.6149847409064
 30
0.0
 11
529.995621640638
 21
138.4149847409063
 31
0.0
  0
LINE
  5
39C9
330
1F
100
AcDbEntity
  8
ｴｸｽﾃﾝｼｮﾝﾌﾚｰﾑ
100
AcDbLine
 10
512.4235376175684
 20
134.4149847409063
 30
0.0
 11
512.395611640638
 21
137.6149847409064
 31
0.0
  0
LINE
  5
39CA
330
1F
100
AcDbEntity
  8
ｴｸｽﾃﾝｼｮﾝﾌﾚｰﾑ
100
AcDbLine
 10
512.395611640638
 20
137.6149847409064
 30
0.0
 11
511.9956116406381
 21
138.4149847409063
 31
0.0
  0
LINE
  5
39CB
330
1F
100
AcDbEntity
  8
ｴｸｽﾃﾝｼｮﾝﾌﾚｰﾑ
100
AcDbLine
 10
542.8800840829008
 20
132.9149847409063
 30
0.0
 11
543.380084082901
 21
132.6149847409064
 31
0.0
  0
LINE
  5
39CC
330
1F
100
AcDbEntity
  8
ｴｸｽﾃﾝｼｮﾝﾌﾚｰﾑ
100
AcDbLine
 10
543.380084082901
 20
132.6149847409064
 30
0.0
 11
542.9158147164327
 21
79.41498474090633
 31
0.0
  0
LINE
  5
39CD
330
1F
100
AcDbEntity
  8
ｴｸｽﾃﾝｼｮﾝﾌﾚｰﾑ
100
AcDbLine
 10
542.8800840829008
 20
132.9149847409063
 30
0.0
 11
542.8800840829008
 21
134.4149847409063
 31
0.0
  0
LINE
  5
39CE
330
1F
100
AcDbEntity
  8
ｴｸｽﾃﾝｼｮﾝﾌﾚｰﾑ
100
AcDbLine
 10
540.4235400598313
 20
134.4149847409063
 30
0.0
 11
540.3956140829008
 21
137.6149847409064
 31
0.0
  0
LINE
  5
39CF
330
1F
100
AcDbEntity
  8
ｴｸｽﾃﾝｼｮﾝﾌﾚｰﾑ
100
AcDbLine
 10
540.3956140829008
 20
137.6149847409064
 30
0.0
 11
539.9956140829011
 21
138.4149847409063
 31
0.0
  0
ARC
  5
39D0
330
1F
100
AcDbEntity
  8
ｴｸｽﾃﾝｼｮﾝﾌﾚｰﾑ
100
AcDbCircle
 10
537.0666797875347
 20
77.21498474090629
 30
0.0
 40
0.2
100
AcDbArc
 50
270.0
 51
359.4999999999987
1001
GENIUS_GENOBJ-N-FIL_13
1002
{
1000
OWNER
1000
GEN
1002
}
1001
GENIUS_GENODEF_13
1002
{
1000
HIER
1070
     0
1002
}
1002
{
1000
MANEDIT
1070
     0
1002
}
1002
{
1000
NOSEL
1070
     0
1002
}
1002
{
1000
BEHIND
1070
     0
1002
}
1002
{
1000
OTHER
1070
     0
1002
}
1002
{
1000
REACTOR
1002
}
  0
LINE
  5
39D1
330
1F
100
AcDbEntity
  8
ｴｸｽﾃﾝｼｮﾝﾌﾚｰﾑ
100
AcDbLine
 10
537.2858865123514
 20
79.41498474090633
 30
0.0
 11
537.2666721721475
 21
77.2132394338065
 31
0.0
  0
ARC
  5
39D2
330
1F
100
AcDbEntity
  8
ｴｸｽﾃﾝｼｮﾝﾌﾚｰﾑ
100
AcDbCircle
 10
527.0689839634237
 20
77.21498474090629
 30
0.0
 40
0.2
100
AcDbArc
 50
270.0
 51
359.4999999999987
1001
GENIUS_GENOBJ-N-FIL_13
1002
{
1000
OWNER
1000
GEN
1002
}
1001
GENIUS_GENODEF_13
1002
{
1000
HIER
1070
     0
1002
}
1002
{
1000
MANEDIT
1070
     0
1002
}
1002
{
1000
NOSEL
1070
     0
1002
}
1002
{
1000
BEHIND
1070
     0
1002
}
1002
{
1000
OTHER
1070
     0
1002
}
1002
{
1000
REACTOR
1002
}
  0
LINE
  5
39D3
330
1F
100
AcDbEntity
  8
ｴｸｽﾃﾝｼｮﾝﾌﾚｰﾑ
100
AcDbLine
 10
527.2881906882408
 20
79.41498474090633
 30
0.0
 11
527.2689763480366
 21
77.2132394338065
 31
0.0
  0
ARC
  5
39D4
330
1F
100
AcDbEntity
  8
ｴｸｽﾃﾝｼｮﾝﾌﾚｰﾑ
100
AcDbCircle
 10
509.0689739634237
 20
77.21498474090629
 30
0.0
 40
0.2
100
AcDbArc
 50
270.0
 51
359.4999999999987
1001
GENIUS_GENOBJ-N-FIL_13
1002
{
1000
OWNER
1000
GEN
1002
}
1001
GENIUS_GENODEF_13
1002
{
1000
HIER
1070
     0
1002
}
1002
{
1000
MANEDIT
1070
     0
1002
}
1002
{
1000
NOSEL
1070
     0
1002
}
1002
{
1000
BEHIND
1070
     0
1002
}
1002
{
1000
OTHER
1070
     0
1002
}
1002
{
1000
REACTOR
1002
}
  0
LINE
  5
39D5
330
1F
100
AcDbEntity
  8
ｴｸｽﾃﾝｼｮﾝﾌﾚｰﾑ
100
AcDbLine
 10
509.2881806882408
 20
79.41498474090633
 30
0.0
 11
509.2689663480369
 21
77.2132394338065
 31
0.0
  0
LINE
  5
39E9
330
1F
100
AcDbEntity
  8
ｴｸｽﾃﾝｼｮﾝﾌﾚｰﾑ
100
AcDbLine
 10
790.0486364006451
 20
613.6865957046336
 30
0.0
 11
790.0486364006451
 21
226.3134042953665
 31
0.0
  0
LINE
  5
39EA
330
1F
100
AcDbEntity
  8
ｴｸｽﾃﾝｼｮﾝﾌﾚｰﾑ
100
AcDbLine
 10
787.648636400645
 20
619.535730633532
 30
0.0
 11
787.6486364006447
 21
220.4642693664681
 31
0.0
  0
LINE
  5
39EB
330
1F
100
AcDbEntity
  8
ｴｸｽﾃﾝｼｮﾝﾌﾚｰﾑ
100
AcDbLine
 10
734.4486364006452
 20
620.0
 30
0.0
 11
734.4486364006452
 21
595.2499999999998
 31
0.0
  0
LINE
  5
39EC
330
1F
100
AcDbEntity
  8
ｴｸｽﾃﾝｼｮﾝﾌﾚｰﾑ
100
AcDbLine
 10
734.4486364006452
 20
591.75001
 30
0.0
 11
734.4486364006452
 21
589.2499999999999
 31
0.0
  0
LINE
  5
39ED
330
1F
100
AcDbEntity
  8
ｴｸｽﾃﾝｼｮﾝﾌﾚｰﾑ
100
AcDbLine
 10
734.4486364006452
 20
585.75
 30
0.0
 11
734.4486364006452
 21
254.2500000000001
 31
0.0
  0
LINE
  5
39EE
330
1F
100
AcDbEntity
  8
ｴｸｽﾃﾝｼｮﾝﾌﾚｰﾑ
100
AcDbLine
 10
734.148636400645
 20
619.4999999999997
 30
0.0
 11
734.148636400645
 21
220.5000000000008
 31
0.0
  0
LINE
  5
39EF
330
1F
100
AcDbEntity
  8
ｴｸｽﾃﾝｼｮﾝﾌﾚｰﾑ
100
AcDbLine
 10
728.648636400645
 20
616.6155300000002
 30
0.0
 11
728.648636400645
 21
223.3844700000001
 31
0.0
  0
LINE
  5
39F0
330
1F
100
AcDbEntity
  8
ｴｸｽﾃﾝｼｮﾝﾌﾚｰﾑ
100
AcDbLine
 10
787.648636400645
 20
585.75
 30
0.0
 11
734.148636400645
 21
585.75
 31
0.0
  0
LINE
  5
39F1
330
1F
100
AcDbEntity
  8
ｴｸｽﾃﾝｼｮﾝﾌﾚｰﾑ
100
AcDbLine
 10
787.648636400645
 20
589.2499999999999
 30
0.0
 11
734.148636400645
 21
589.2499999999999
 31
0.0
  0
LINE
  5
39F2
330
1F
100
AcDbEntity
  8
ｴｸｽﾃﾝｼｮﾝﾌﾚｰﾑ
100
AcDbLine
 10
787.648636400645
 20
591.75001
 30
0.0
 11
734.148636400645
 21
591.75001
 31
0.0
  0
LINE
  5
39F3
330
1F
100
AcDbEntity
  8
ｴｸｽﾃﾝｼｮﾝﾌﾚｰﾑ
100
AcDbLine
 10
787.648636400645
 20
595.2499999999998
 30
0.0
 11
734.148636400645
 21
595.2499999999998
 31
0.0
  0
LINE
  5
39F4
330
1F
100
AcDbEntity
  8
ｴｸｽﾃﾝｼｮﾝﾌﾚｰﾑ
100
AcDbLine
 10
732.648636400645
 20
607.0434635346674
 30
0.0
 11
729.4486364006452
 21
607.015537557737
 31
0.0
  0
LINE
  5
39F5
330
1F
100
AcDbEntity
  8
ｴｸｽﾃﾝｼｮﾝﾌﾚｰﾑ
100
AcDbLine
 10
729.4486364006452
 20
607.015537557737
 30
0.0
 11
728.648636400645
 21
606.6155375577371
 31
0.0
  0
LINE
  5
39F6
330
1F
100
AcDbEntity
  8
ｴｸｽﾃﾝｼｮﾝﾌﾚｰﾑ
100
AcDbLine
 10
732.648636400645
 20
589.0434535346675
 30
0.0
 11
729.4486364006452
 21
589.015527557737
 31
0.0
  0
LINE
  5
39F7
330
1F
100
AcDbEntity
  8
ｴｸｽﾃﾝｼｮﾝﾌﾚｰﾑ
100
AcDbLine
 10
729.4486364006452
 20
589.015527557737
 30
0.0
 11
728.648636400645
 21
588.6155275577372
 31
0.0
  0
LINE
  5
39F8
330
1F
100
AcDbEntity
  8
ｴｸｽﾃﾝｼｮﾝﾌﾚｰﾑ
100
AcDbLine
 10
732.648636400645
 20
619.4999999999997
 30
0.0
 11
732.6486364006519
 21
220.5000000000004
 31
0.0
  0
LINE
  5
39F9
330
1F
100
AcDbEntity
  8
ｴｸｽﾃﾝｼｮﾝﾌﾚｰﾑ
100
AcDbLine
 10
734.148636400645
 20
619.4999999999997
 30
0.0
 11
734.4486364006452
 21
620.0000000000002
 31
0.0
  0
LINE
  5
39FA
330
1F
100
AcDbEntity
  8
ｴｸｽﾃﾝｼｮﾝﾌﾚｰﾑ
100
AcDbLine
 10
734.4486364006452
 20
620.0000000000002
 30
0.0
 11
787.648636400645
 21
619.535730633532
 31
0.0
  0
LINE
  5
39FB
330
1F
100
AcDbEntity
  8
ｴｸｽﾃﾝｼｮﾝﾌﾚｰﾑ
100
AcDbLine
 10
734.148636400645
 20
619.4999999999997
 30
0.0
 11
732.648636400645
 21
619.4999999999997
 31
0.0
  0
LINE
  5
39FC
330
1F
100
AcDbEntity
  8
ｴｸｽﾃﾝｼｮﾝﾌﾚｰﾑ
100
AcDbLine
 10
732.648636400645
 20
617.0434559769303
 30
0.0
 11
729.4486364006452
 21
617.0155299999999
 31
0.0
  0
LINE
  5
39FD
330
1F
100
AcDbEntity
  8
ｴｸｽﾃﾝｼｮﾝﾌﾚｰﾑ
100
AcDbLine
 10
729.4486364006452
 20
617.0155299999999
 30
0.0
 11
728.648636400645
 21
616.6155300000002
 31
0.0
  0
ARC
  5
39FE
330
1F
100
AcDbEntity
  8
ｴｸｽﾃﾝｼｮﾝﾌﾚｰﾑ
100
AcDbCircle
 10
789.8486364006449
 20
613.6865957046339
 30
0.0
 40
0.2
100
AcDbArc
 50
0.0
 51
89.50000000000192
1001
GENIUS_GENOBJ-N-FIL_13
1002
{
1000
OWNER
1000
GEN
1002
}
1001
GENIUS_GENODEF_13
1002
{
1000
HIER
1070
     0
1002
}
1002
{
1000
MANEDIT
1070
     0
1002
}
1002
{
1000
NOSEL
1070
     0
1002
}
1002
{
1000
BEHIND
1070
     0
1002
}
1002
{
1000
OTHER
1070
     0
1002
}
1002
{
1000
REACTOR
1002
}
  0
LINE
  5
39FF
330
1F
100
AcDbEntity
  8
ｴｸｽﾃﾝｼｮﾝﾌﾚｰﾑ
100
AcDbLine
 10
787.648636400645
 20
613.9058024294506
 30
0.0
 11
789.8503817077444
 21
613.8865880892465
 31
0.0
  0
ARC
  5
3A00
330
1F
100
AcDbEntity
  8
ｴｸｽﾃﾝｼｮﾝﾌﾚｰﾑ
100
AcDbCircle
 10
789.8486364006449
 20
603.6888998805229
 30
0.0
 40
0.2
100
AcDbArc
 50
0.0
 51
89.50000000000192
1001
GENIUS_GENOBJ-N-FIL_13
1002
{
1000
OWNER
1000
GEN
1002
}
1001
GENIUS_GENODEF_13
1002
{
1000
HIER
1070
     0
1002
}
1002
{
1000
MANEDIT
1070
     0
1002
}
1002
{
1000
NOSEL
1070
     0
1002
}
1002
{
1000
BEHIND
1070
     0
1002
}
1002
{
1000
OTHER
1070
     0
1002
}
1002
{
1000
REACTOR
1002
}
  0
LINE
  5
3A01
330
1F
100
AcDbEntity
  8
ｴｸｽﾃﾝｼｮﾝﾌﾚｰﾑ
100
AcDbLine
 10
787.648636400645
 20
603.9081066053398
 30
0.0
 11
789.8503817077444
 21
603.8888922651358
 31
0.0
  0
ARC
  5
3A02
330
1F
100
AcDbEntity
  8
ｴｸｽﾃﾝｼｮﾝﾌﾚｰﾑ
100
AcDbCircle
 10
789.8486364006449
 20
585.6888898805229
 30
0.0
 40
0.2
100
AcDbArc
 50
0.0
 51
89.50000000000192
1001
GENIUS_GENOBJ-N-FIL_13
1002
{
1000
OWNER
1000
GEN
1002
}
1001
GENIUS_GENODEF_13
1002
{
1000
HIER
1070
     0
1002
}
1002
{
1000
MANEDIT
1070
     0
1002
}
1002
{
1000
NOSEL
1070
     0
1002
}
1002
{
1000
BEHIND
1070
     0
1002
}
1002
{
1000
OTHER
1070
     0
1002
}
1002
{
1000
REACTOR
1002
}
  0
LINE
  5
3A03
330
1F
100
AcDbEntity
  8
ｴｸｽﾃﾝｼｮﾝﾌﾚｰﾑ
100
AcDbLine
 10
787.648636400645
 20
585.9080966053398
 30
0.0
 11
789.8503817077444
 21
585.8888822651358
 31
0.0
  0
LINE
  5
3A05
330
1F
100
AcDbEntity
  8
ｴｸｽﾃﾝｼｮﾝﾌﾚｰﾑ
100
AcDbLine
 10
734.4486364006452
 20
220.0000000000001
 30
0.0
 11
734.4486364006452
 21
244.7500000000003
 31
0.0
  0
LINE
  5
3A06
330
1F
100
AcDbEntity
  8
ｴｸｽﾃﾝｼｮﾝﾌﾚｰﾑ
100
AcDbLine
 10
734.4486364006452
 20
248.2499900000001
 30
0.0
 11
734.4486364006452
 21
250.7500000000003
 31
0.0
  0
LINE
  5
3A07
330
1F
100
AcDbEntity
  8
ｴｸｽﾃﾝｼｮﾝﾌﾚｰﾑ
100
AcDbLine
 10
787.6486364006453
 20
254.2500000000001
 30
0.0
 11
734.1486364006453
 21
254.2500000000001
 31
0.0
  0
LINE
  5
3A08
330
1F
100
AcDbEntity
  8
ｴｸｽﾃﾝｼｮﾝﾌﾚｰﾑ
100
AcDbLine
 10
787.6486364006453
 20
250.7500000000003
 30
0.0
 11
734.1486364006453
 21
250.7500000000003
 31
0.0
  0
LINE
  5
3A09
330
1F
100
AcDbEntity
  8
ｴｸｽﾃﾝｼｮﾝﾌﾚｰﾑ
100
AcDbLine
 10
787.6486364006453
 20
248.2499900000001
 30
0.0
 11
734.1486364006453
 21
248.2499900000001
 31
0.0
  0
LINE
  5
3A0A
330
1F
100
AcDbEntity
  8
ｴｸｽﾃﾝｼｮﾝﾌﾚｰﾑ
100
AcDbLine
 10
787.6486364006453
 20
244.7500000000003
 30
0.0
 11
734.1486364006453
 21
244.7500000000003
 31
0.0
  0
LINE
  5
3A0B
330
1F
100
AcDbEntity
  8
ｴｸｽﾃﾝｼｮﾝﾌﾚｰﾑ
100
AcDbLine
 10
732.6486364006452
 20
232.9565364653328
 30
0.0
 11
729.4486364006452
 21
232.9844624422632
 31
0.0
  0
LINE
  5
3A0C
330
1F
100
AcDbEntity
  8
ｴｸｽﾃﾝｼｮﾝﾌﾚｰﾑ
100
AcDbLine
 10
729.4486364006452
 20
232.9844624422632
 30
0.0
 11
728.648636400645
 21
233.3844624422633
 31
0.0
  0
LINE
  5
3A0D
330
1F
100
AcDbEntity
  8
ｴｸｽﾃﾝｼｮﾝﾌﾚｰﾑ
100
AcDbLine
 10
732.6486364006452
 20
250.9565464653327
 30
0.0
 11
729.4486364006452
 21
250.9844724422631
 31
0.0
  0
LINE
  5
3A0E
330
1F
100
AcDbEntity
  8
ｴｸｽﾃﾝｼｮﾝﾌﾚｰﾑ
100
AcDbLine
 10
729.4486364006452
 20
250.9844724422631
 30
0.0
 11
728.648636400645
 21
251.384472442263
 31
0.0
  0
LINE
  5
3A0F
330
1F
100
AcDbEntity
  8
ｴｸｽﾃﾝｼｮﾝﾌﾚｰﾑ
100
AcDbLine
 10
734.1486364006453
 20
220.5000000000004
 30
0.0
 11
734.4486364006452
 21
220.0000000000001
 31
0.0
  0
LINE
  5
3A10
330
1F
100
AcDbEntity
  8
ｴｸｽﾃﾝｼｮﾝﾌﾚｰﾑ
100
AcDbLine
 10
734.4486364006452
 20
220.0000000000001
 30
0.0
 11
787.6486364006453
 21
220.4642693664683
 31
0.0
  0
LINE
  5
3A11
330
1F
100
AcDbEntity
  8
ｴｸｽﾃﾝｼｮﾝﾌﾚｰﾑ
100
AcDbLine
 10
734.1486364006453
 20
220.5000000000004
 30
0.0
 11
732.6486364006452
 21
220.5000000000004
 31
0.0
  0
LINE
  5
3A12
330
1F
100
AcDbEntity
  8
ｴｸｽﾃﾝｼｮﾝﾌﾚｰﾑ
100
AcDbLine
 10
732.6486364006452
 20
222.9565440230698
 30
0.0
 11
729.4486364006452
 21
222.9844700000002
 31
0.0
  0
LINE
  5
3A13
330
1F
100
AcDbEntity
  8
ｴｸｽﾃﾝｼｮﾝﾌﾚｰﾑ
100
AcDbLine
 10
729.4486364006452
 20
222.9844700000002
 30
0.0
 11
728.648636400645
 21
223.3844700000001
 31
0.0
  0
ARC
  5
3A14
330
1F
100
AcDbEntity
  8
ｴｸｽﾃﾝｼｮﾝﾌﾚｰﾑ
100
AcDbCircle
 10
789.8486364006453
 20
226.3134042953664
 30
0.0
 40
0.2
100
AcDbArc
 50
270.499999999998
 51
0.0
1001
GENIUS_GENOBJ-N-FIL_13
1002
{
1000
OWNER
1000
GEN
1002
}
1001
GENIUS_GENODEF_13
1002
{
1000
HIER
1070
     0
1002
}
1002
{
1000
MANEDIT
1070
     0
1002
}
1002
{
1000
NOSEL
1070
     0
1002
}
1002
{
1000
BEHIND
1070
     0
1002
}
1002
{
1000
OTHER
1070
     0
1002
}
1002
{
1000
REACTOR
1002
}
  0
LINE
  5
3A15
330
1F
100
AcDbEntity
  8
ｴｸｽﾃﾝｼｮﾝﾌﾚｰﾑ
100
AcDbLine
 10
787.6486364006453
 20
226.0941975705497
 30
0.0
 11
789.8503817077449
 21
226.1134119107536
 31
0.0
  0
ARC
  5
3A16
330
1F
100
AcDbEntity
  8
ｴｸｽﾃﾝｼｮﾝﾌﾚｰﾑ
100
AcDbCircle
 10
789.8486364006453
 20
236.311100119477
 30
0.0
 40
0.2
100
AcDbArc
 50
270.499999999998
 51
0.0
1001
GENIUS_GENOBJ-N-FIL_13
1002
{
1000
OWNER
1000
GEN
1002
}
1001
GENIUS_GENODEF_13
1002
{
1000
HIER
1070
     0
1002
}
1002
{
1000
MANEDIT
1070
     0
1002
}
1002
{
1000
NOSEL
1070
     0
1002
}
1002
{
1000
BEHIND
1070
     0
1002
}
1002
{
1000
OTHER
1070
     0
1002
}
1002
{
1000
REACTOR
1002
}
  0
LINE
  5
3A17
330
1F
100
AcDbEntity
  8
ｴｸｽﾃﾝｼｮﾝﾌﾚｰﾑ
100
AcDbLine
 10
787.6486364006453
 20
236.0918933946603
 30
0.0
 11
789.8503817077449
 21
236.1111077348643
 31
0.0
  0
ARC
  5
3A18
330
1F
100
AcDbEntity
  8
ｴｸｽﾃﾝｼｮﾝﾌﾚｰﾑ
100
AcDbCircle
 10
789.848636400645
 20
254.3111101194772
 30
0.0
 40
0.2
100
AcDbArc
 50
270.499999999998
 51
0.0
1001
GENIUS_GENOBJ-N-FIL_13
1002
{
1000
OWNER
1000
GEN
1002
}
1001
GENIUS_GENODEF_13
1002
{
1000
HIER
1070
     0
1002
}
1002
{
1000
MANEDIT
1070
     0
1002
}
1002
{
1000
NOSEL
1070
     0
1002
}
1002
{
1000
BEHIND
1070
     0
1002
}
1002
{
1000
OTHER
1070
     0
1002
}
1002
{
1000
REACTOR
1002
}
  0
LINE
  5
3A19
330
1F
100
AcDbEntity
  8
ｴｸｽﾃﾝｼｮﾝﾌﾚｰﾑ
100
AcDbLine
 10
787.6486364006453
 20
254.0919033946603
 30
0.0
 11
789.8503817077449
 21
254.1111177348645
 31
0.0
  0
INSERT
  5
3A74
102
{ACAD_REACTORS
330
3A71
102
}
330
1F
100
AcDbEntity
  8
AM_12
100
AcDbBlockReference
  2
*S9
 10
0.0
 20
0.0
 30
0.0
  0
INSERT
  5
3A79
102
{ACAD_REACTORS
330
3A78
102
}
330
1F
100
AcDbEntity
  8
AM_5
100
AcDbBlockReference
  2
*S10
 10
0.0
 20
0.0
 30
0.0
  0
INSERT
  5
3A9B
102
{ACAD_REACTORS
330
3A9A
102
}
330
1F
100
AcDbEntity
  8
AM_12
100
AcDbBlockReference
  2
*S11
 10
0.0
 20
0.0
 30
0.0
  0
INSERT
  5
3A9F
102
{ACAD_REACTORS
330
3A9E
102
}
330
1F
100
AcDbEntity
  8
AM_12
100
AcDbBlockReference
  2
*S12
 10
0.0
 20
0.0
 30
0.0
  0
CIRCLE
  5
3B2D
330
1F
100
AcDbEntity
  8
ｴｸｽﾃﾝｼｮﾝﾌﾚｰﾑ
100
AcDbCircle
 10
353.380084085164
 20
609.9999999999998
 30
0.0
 40
7.504189999999999
  0
CIRCLE
  5
3B2E
330
1F
100
AcDbEntity
  8
ｴｸｽﾃﾝｼｮﾝﾌﾚｰﾑ
100
AcDbCircle
 10
353.380084085164
 20
609.9999999999998
 30
0.0
 40
8.699999999999999
  0
LINE
  5
3B2F
330
1F
100
AcDbEntity
  8
ｴｸｽﾃﾝｼｮﾝﾌﾚｰﾑ
100
AcDbLine
 10
359.2119350376699
 20
605.2774602146877
 30
0.0
 11
360.1412539498397
 21
604.5249125978663
 31
0.0
  0
LINE
  5
3B30
330
1F
100
AcDbEntity
  8
ｴｸｽﾃﾝｼｮﾝﾌﾚｰﾑ
100
AcDbLine
 10
360.8431653471678
 20
609.2155985512314
 30
0.0
 11
362.0324245748681
 21
609.0906023695715
 31
0.0
  0
LINE
  5
3B31
330
1F
100
AcDbEntity
  8
ｴｸｽﾃﾝｼｮﾝﾌﾚｰﾑ
100
AcDbLine
 10
360.8431653471678
 20
610.7844014487685
 30
0.0
 11
362.0324245748681
 21
610.9093976304285
 31
0.0
  0
LINE
  5
3B32
330
1F
100
AcDbEntity
  8
ｴｸｽﾃﾝｼｮﾝﾌﾚｰﾑ
100
AcDbLine
 10
359.2119350376699
 20
614.7225397853121
 30
0.0
 11
360.1412539498397
 21
615.4750874021333
 31
0.0
  0
LINE
  5
3B33
330
1F
100
AcDbEntity
  8
ｴｸｽﾃﾝｼｮﾝﾌﾚｰﾑ
100
AcDbLine
 10
358.1026238704763
 20
615.8318509525056
 30
0.0
 11
358.8551714872977
 21
616.7611698646756
 31
0.0
  0
LINE
  5
3B34
330
1F
100
AcDbEntity
  8
ｴｸｽﾃﾝｼｮﾝﾌﾚｰﾑ
100
AcDbLine
 10
354.1644855339325
 20
617.4630812620034
 30
0.0
 11
354.2894817155927
 21
618.6523404897038
 31
0.0
  0
LINE
  5
3B35
330
1F
100
AcDbEntity
  8
ｴｸｽﾃﾝｼｮﾝﾌﾚｰﾑ
100
AcDbLine
 10
352.5956826363955
 20
617.4630812620034
 30
0.0
 11
352.4706864547355
 21
618.6523404897038
 31
0.0
  0
LINE
  5
3B36
330
1F
100
AcDbEntity
  8
ｴｸｽﾃﾝｼｮﾝﾌﾚｰﾑ
100
AcDbLine
 10
348.6575442998518
 20
615.8318509525056
 30
0.0
 11
347.9049966830304
 21
616.7611698646756
 31
0.0
  0
LINE
  5
3B37
330
1F
100
AcDbEntity
  8
ｴｸｽﾃﾝｼｮﾝﾌﾚｰﾑ
100
AcDbLine
 10
358.1026238704762
 20
604.168149047494
 30
0.0
 11
358.8551714872975
 21
603.2388301353241
 31
0.0
  0
LINE
  5
3B38
330
1F
100
AcDbEntity
  8
ｴｸｽﾃﾝｼｮﾝﾌﾚｰﾑ
100
AcDbLine
 10
354.1644855339324
 20
602.5369187379961
 30
0.0
 11
354.2894817155925
 21
601.3476595102957
 31
0.0
  0
LINE
  5
3B39
330
1F
100
AcDbEntity
  8
ｴｸｽﾃﾝｼｮﾝﾌﾚｰﾑ
100
AcDbLine
 10
352.5956826363954
 20
602.5369187379961
 30
0.0
 11
352.4706864547353
 21
601.3476595102957
 31
0.0
  0
LINE
  5
3B3A
330
1F
100
AcDbEntity
  8
ｴｸｽﾃﾝｼｮﾝﾌﾚｰﾑ
100
AcDbLine
 10
348.6575442998517
 20
604.168149047494
 30
0.0
 11
347.9049966830304
 21
603.2388301353241
 31
0.0
  0
LINE
  5
3B3B
330
1F
100
AcDbEntity
  8
ｴｸｽﾃﾝｼｮﾝﾌﾚｰﾑ
100
AcDbLine
 10
347.5482331326582
 20
605.2774602146874
 30
0.0
 11
346.6189142204884
 21
604.5249125978663
 31
0.0
  0
LINE
  5
3B3C
330
1F
100
AcDbEntity
  8
ｴｸｽﾃﾝｼｮﾝﾌﾚｰﾑ
100
AcDbLine
 10
345.9170028231603
 20
609.2155985512313
 30
0.0
 11
344.72774359546
 21
609.0906023695712
 31
0.0
  0
LINE
  5
3B3D
330
1F
100
AcDbEntity
  8
ｴｸｽﾃﾝｼｮﾝﾌﾚｰﾑ
100
AcDbLine
 10
345.9170028231603
 20
610.7844014487683
 30
0.0
 11
344.72774359546
 21
610.9093976304283
 31
0.0
  0
LINE
  5
3B3E
330
1F
100
AcDbEntity
  8
ｴｸｽﾃﾝｼｮﾝﾌﾚｰﾑ
100
AcDbLine
 10
347.5482331326581
 20
614.7225397853121
 30
0.0
 11
346.6189142204882
 21
615.4750874021333
 31
0.0
  0
CIRCLE
  5
3B51
330
1F
100
AcDbEntity
  8
ｴｸｽﾃﾝｼｮﾝﾌﾚｰﾑ
100
AcDbCircle
 10
353.380084085164
 20
229.9999999999998
 30
0.0
 40
7.504189999999999
  0
CIRCLE
  5
3B52
330
1F
100
AcDbEntity
  8
ｴｸｽﾃﾝｼｮﾝﾌﾚｰﾑ
100
AcDbCircle
 10
353.380084085164
 20
229.9999999999998
 30
0.0
 40
8.699999999999999
  0
LINE
  5
3B53
330
1F
100
AcDbEntity
  8
ｴｸｽﾃﾝｼｮﾝﾌﾚｰﾑ
100
AcDbLine
 10
359.2119350376699
 20
225.2774602146877
 30
0.0
 11
360.1412539498397
 21
224.5249125978663
 31
0.0
  0
LINE
  5
3B54
330
1F
100
AcDbEntity
  8
ｴｸｽﾃﾝｼｮﾝﾌﾚｰﾑ
100
AcDbLine
 10
360.8431653471678
 20
229.2155985512315
 30
0.0
 11
362.0324245748681
 21
229.0906023695715
 31
0.0
  0
LINE
  5
3B55
330
1F
100
AcDbEntity
  8
ｴｸｽﾃﾝｼｮﾝﾌﾚｰﾑ
100
AcDbLine
 10
360.8431653471678
 20
230.7844014487685
 30
0.0
 11
362.0324245748681
 21
230.9093976304286
 31
0.0
  0
LINE
  5
3B56
330
1F
100
AcDbEntity
  8
ｴｸｽﾃﾝｼｮﾝﾌﾚｰﾑ
100
AcDbLine
 10
359.2119350376699
 20
234.7225397853123
 30
0.0
 11
360.1412539498397
 21
235.4750874021334
 31
0.0
  0
LINE
  5
3B57
330
1F
100
AcDbEntity
  8
ｴｸｽﾃﾝｼｮﾝﾌﾚｰﾑ
100
AcDbLine
 10
358.1026238704763
 20
235.8318509525058
 30
0.0
 11
358.8551714872977
 21
236.7611698646755
 31
0.0
  0
LINE
  5
3B58
330
1F
100
AcDbEntity
  8
ｴｸｽﾃﾝｼｮﾝﾌﾚｰﾑ
100
AcDbLine
 10
354.1644855339325
 20
237.4630812620036
 30
0.0
 11
354.2894817155927
 21
238.652340489704
 31
0.0
  0
LINE
  5
3B59
330
1F
100
AcDbEntity
  8
ｴｸｽﾃﾝｼｮﾝﾌﾚｰﾑ
100
AcDbLine
 10
352.5956826363955
 20
237.4630812620036
 30
0.0
 11
352.4706864547355
 21
238.652340489704
 31
0.0
  0
LINE
  5
3B5A
330
1F
100
AcDbEntity
  8
ｴｸｽﾃﾝｼｮﾝﾌﾚｰﾑ
100
AcDbLine
 10
348.6575442998518
 20
235.8318509525058
 30
0.0
 11
347.9049966830304
 21
236.7611698646757
 31
0.0
  0
LINE
  5
3B5B
330
1F
100
AcDbEntity
  8
ｴｸｽﾃﾝｼｮﾝﾌﾚｰﾑ
100
AcDbLine
 10
358.1026238704762
 20
224.168149047494
 30
0.0
 11
358.8551714872975
 21
223.2388301353243
 31
0.0
  0
LINE
  5
3B5C
330
1F
100
AcDbEntity
  8
ｴｸｽﾃﾝｼｮﾝﾌﾚｰﾑ
100
AcDbLine
 10
354.1644855339324
 20
222.5369187379962
 30
0.0
 11
354.2894817155925
 21
221.3476595102958
 31
0.0
  0
LINE
  5
3B5D
330
1F
100
AcDbEntity
  8
ｴｸｽﾃﾝｼｮﾝﾌﾚｰﾑ
100
AcDbLine
 10
352.5956826363954
 20
222.5369187379962
 30
0.0
 11
352.4706864547353
 21
221.3476595102958
 31
0.0
  0
LINE
  5
3B5E
330
1F
100
AcDbEntity
  8
ｴｸｽﾃﾝｼｮﾝﾌﾚｰﾑ
100
AcDbLine
 10
348.6575442998517
 20
224.168149047494
 30
0.0
 11
347.9049966830304
 21
223.2388301353243
 31
0.0
  0
LINE
  5
3B5F
330
1F
100
AcDbEntity
  8
ｴｸｽﾃﾝｼｮﾝﾌﾚｰﾑ
100
AcDbLine
 10
347.5482331326582
 20
225.2774602146875
 30
0.0
 11
346.6189142204884
 21
224.5249125978663
 31
0.0
  0
LINE
  5
3B60
330
1F
100
AcDbEntity
  8
ｴｸｽﾃﾝｼｮﾝﾌﾚｰﾑ
100
AcDbLine
 10
345.9170028231603
 20
229.2155985512312
 30
0.0
 11
344.72774359546
 21
229.0906023695712
 31
0.0
  0
LINE
  5
3B61
330
1F
100
AcDbEntity
  8
ｴｸｽﾃﾝｼｮﾝﾌﾚｰﾑ
100
AcDbLine
 10
345.9170028231603
 20
230.7844014487683
 30
0.0
 11
344.72774359546
 21
230.9093976304283
 31
0.0
  0
LINE
  5
3B62
330
1F
100
AcDbEntity
  8
ｴｸｽﾃﾝｼｮﾝﾌﾚｰﾑ
100
AcDbLine
 10
347.5482331326581
 20
234.7225397853121
 30
0.0
 11
346.6189142204882
 21
235.4750874021334
 31
0.0
  0
CIRCLE
  5
3B63
330
1F
100
AcDbEntity
  8
ｴｸｽﾃﾝｼｮﾝﾌﾚｰﾑ
100
AcDbCircle
 10
533.380084085164
 20
229.9999999999999
 30
0.0
 40
7.504189999999999
  0
CIRCLE
  5
3B64
330
1F
100
AcDbEntity
  8
ｴｸｽﾃﾝｼｮﾝﾌﾚｰﾑ
100
AcDbCircle
 10
533.380084085164
 20
229.9999999999999
 30
0.0
 40
8.699999999999999
  0
LINE
  5
3B65
330
1F
100
AcDbEntity
  8
ｴｸｽﾃﾝｼｮﾝﾌﾚｰﾑ
100
AcDbLine
 10
539.2119350376699
 20
225.2774602146877
 30
0.0
 11
540.1412539498399
 21
224.5249125978663
 31
0.0
  0
LINE
  5
3B66
330
1F
100
AcDbEntity
  8
ｴｸｽﾃﾝｼｮﾝﾌﾚｰﾑ
100
AcDbLine
 10
540.8431653471677
 20
229.2155985512315
 30
0.0
 11
542.0324245748681
 21
229.0906023695715
 31
0.0
  0
LINE
  5
3B67
330
1F
100
AcDbEntity
  8
ｴｸｽﾃﾝｼｮﾝﾌﾚｰﾑ
100
AcDbLine
 10
540.8431653471677
 20
230.7844014487685
 30
0.0
 11
542.0324245748681
 21
230.9093976304286
 31
0.0
  0
LINE
  5
3B68
330
1F
100
AcDbEntity
  8
ｴｸｽﾃﾝｼｮﾝﾌﾚｰﾑ
100
AcDbLine
 10
539.2119350376699
 20
234.7225397853123
 30
0.0
 11
540.1412539498399
 21
235.4750874021334
 31
0.0
  0
LINE
  5
3B69
330
1F
100
AcDbEntity
  8
ｴｸｽﾃﾝｼｮﾝﾌﾚｰﾑ
100
AcDbLine
 10
538.1026238704764
 20
235.8318509525058
 30
0.0
 11
538.8551714872979
 21
236.7611698646755
 31
0.0
  0
LINE
  5
3B6A
330
1F
100
AcDbEntity
  8
ｴｸｽﾃﾝｼｮﾝﾌﾚｰﾑ
100
AcDbLine
 10
534.1644855339327
 20
237.4630812620036
 30
0.0
 11
534.2894817155927
 21
238.652340489704
 31
0.0
  0
LINE
  5
3B6B
330
1F
100
AcDbEntity
  8
ｴｸｽﾃﾝｼｮﾝﾌﾚｰﾑ
100
AcDbLine
 10
532.5956826363956
 20
237.4630812620036
 30
0.0
 11
532.4706864547356
 21
238.652340489704
 31
0.0
  0
LINE
  5
3B6C
330
1F
100
AcDbEntity
  8
ｴｸｽﾃﾝｼｮﾝﾌﾚｰﾑ
100
AcDbLine
 10
528.6575442998518
 20
235.8318509525058
 30
0.0
 11
527.9049966830305
 21
236.7611698646757
 31
0.0
  0
LINE
  5
3B6D
330
1F
100
AcDbEntity
  8
ｴｸｽﾃﾝｼｮﾝﾌﾚｰﾑ
100
AcDbLine
 10
538.1026238704762
 20
224.168149047494
 30
0.0
 11
538.8551714872976
 21
223.2388301353243
 31
0.0
  0
LINE
  5
3B6E
330
1F
100
AcDbEntity
  8
ｴｸｽﾃﾝｼｮﾝﾌﾚｰﾑ
100
AcDbLine
 10
534.1644855339325
 20
222.5369187379962
 30
0.0
 11
534.2894817155925
 21
221.3476595102958
 31
0.0
  0
LINE
  5
3B6F
330
1F
100
AcDbEntity
  8
ｴｸｽﾃﾝｼｮﾝﾌﾚｰﾑ
100
AcDbLine
 10
532.5956826363953
 20
222.5369187379962
 30
0.0
 11
532.4706864547354
 21
221.3476595102958
 31
0.0
  0
LINE
  5
3B70
330
1F
100
AcDbEntity
  8
ｴｸｽﾃﾝｼｮﾝﾌﾚｰﾑ
100
AcDbLine
 10
528.6575442998518
 20
224.168149047494
 30
0.0
 11
527.9049966830305
 21
223.2388301353243
 31
0.0
  0
LINE
  5
3B71
330
1F
100
AcDbEntity
  8
ｴｸｽﾃﾝｼｮﾝﾌﾚｰﾑ
100
AcDbLine
 10
527.5482331326582
 20
225.2774602146875
 30
0.0
 11
526.6189142204884
 21
224.5249125978663
 31
0.0
  0
LINE
  5
3B72
330
1F
100
AcDbEntity
  8
ｴｸｽﾃﾝｼｮﾝﾌﾚｰﾑ
100
AcDbLine
 10
525.9170028231603
 20
229.2155985512312
 30
0.0
 11
524.7277435954599
 21
229.0906023695712
 31
0.0
  0
LINE
  5
3B73
330
1F
100
AcDbEntity
  8
ｴｸｽﾃﾝｼｮﾝﾌﾚｰﾑ
100
AcDbLine
 10
525.9170028231603
 20
230.7844014487683
 30
0.0
 11
524.7277435954601
 21
230.9093976304283
 31
0.0
  0
LINE
  5
3B74
330
1F
100
AcDbEntity
  8
ｴｸｽﾃﾝｼｮﾝﾌﾚｰﾑ
100
AcDbLine
 10
527.5482331326582
 20
234.7225397853121
 30
0.0
 11
526.6189142204882
 21
235.4750874021334
 31
0.0
  0
CIRCLE
  5
3B87
330
1F
100
AcDbEntity
  8
ｴｸｽﾃﾝｼｮﾝﾌﾚｰﾑ
100
AcDbCircle
 10
533.3800840851641
 20
610.0
 30
0.0
 40
7.504189999999999
  0
CIRCLE
  5
3B88
330
1F
100
AcDbEntity
  8
ｴｸｽﾃﾝｼｮﾝﾌﾚｰﾑ
100
AcDbCircle
 10
533.3800840851641
 20
610.0
 30
0.0
 40
8.699999999999999
  0
LINE
  5
3B89
330
1F
100
AcDbEntity
  8
ｴｸｽﾃﾝｼｮﾝﾌﾚｰﾑ
100
AcDbLine
 10
539.2119350376701
 20
605.2774602146879
 30
0.0
 11
540.14125394984
 21
604.5249125978664
 31
0.0
  0
LINE
  5
3B8A
330
1F
100
AcDbEntity
  8
ｴｸｽﾃﾝｼｮﾝﾌﾚｰﾑ
100
AcDbLine
 10
540.8431653471678
 20
609.2155985512315
 30
0.0
 11
542.0324245748682
 21
609.0906023695715
 31
0.0
  0
LINE
  5
3B8B
330
1F
100
AcDbEntity
  8
ｴｸｽﾃﾝｼｮﾝﾌﾚｰﾑ
100
AcDbLine
 10
540.8431653471678
 20
610.7844014487686
 30
0.0
 11
542.0324245748682
 21
610.9093976304286
 31
0.0
  0
LINE
  5
3B8C
330
1F
100
AcDbEntity
  8
ｴｸｽﾃﾝｼｮﾝﾌﾚｰﾑ
100
AcDbLine
 10
539.2119350376701
 20
614.7225397853124
 30
0.0
 11
540.14125394984
 21
615.4750874021336
 31
0.0
  0
LINE
  5
3B8D
330
1F
100
AcDbEntity
  8
ｴｸｽﾃﾝｼｮﾝﾌﾚｰﾑ
100
AcDbLine
 10
538.1026238704765
 20
615.8318509525058
 30
0.0
 11
538.8551714872977
 21
616.7611698646758
 31
0.0
  0
LINE
  5
3B8E
330
1F
100
AcDbEntity
  8
ｴｸｽﾃﾝｼｮﾝﾌﾚｰﾑ
100
AcDbLine
 10
534.1644855339326
 20
617.4630812620037
 30
0.0
 11
534.2894817155928
 21
618.6523404897041
 31
0.0
  0
LINE
  5
3B8F
330
1F
100
AcDbEntity
  8
ｴｸｽﾃﾝｼｮﾝﾌﾚｰﾑ
100
AcDbLine
 10
532.5956826363957
 20
617.4630812620037
 30
0.0
 11
532.4706864547355
 21
618.6523404897041
 31
0.0
  0
LINE
  5
3B90
330
1F
100
AcDbEntity
  8
ｴｸｽﾃﾝｼｮﾝﾌﾚｰﾑ
100
AcDbLine
 10
528.6575442998517
 20
615.8318509525058
 30
0.0
 11
527.9049966830306
 21
616.7611698646758
 31
0.0
  0
LINE
  5
3B91
330
1F
100
AcDbEntity
  8
ｴｸｽﾃﾝｼｮﾝﾌﾚｰﾑ
100
AcDbLine
 10
538.1026238704763
 20
604.1681490474942
 30
0.0
 11
538.8551714872977
 21
603.2388301353243
 31
0.0
  0
LINE
  5
3B92
330
1F
100
AcDbEntity
  8
ｴｸｽﾃﾝｼｮﾝﾌﾚｰﾑ
100
AcDbLine
 10
534.1644855339326
 20
602.5369187379964
 30
0.0
 11
534.2894817155926
 21
601.347659510296
 31
0.0
  0
LINE
  5
3B93
330
1F
100
AcDbEntity
  8
ｴｸｽﾃﾝｼｮﾝﾌﾚｰﾑ
100
AcDbLine
 10
532.5956826363952
 20
602.5369187379964
 30
0.0
 11
532.4706864547355
 21
601.347659510296
 31
0.0
  0
LINE
  5
3B94
330
1F
100
AcDbEntity
  8
ｴｸｽﾃﾝｼｮﾝﾌﾚｰﾑ
100
AcDbLine
 10
528.6575442998517
 20
604.1681490474942
 30
0.0
 11
527.9049966830306
 21
603.2388301353243
 31
0.0
  0
LINE
  5
3B95
330
1F
100
AcDbEntity
  8
ｴｸｽﾃﾝｼｮﾝﾌﾚｰﾑ
100
AcDbLine
 10
527.5482331326583
 20
605.2774602146877
 30
0.0
 11
526.6189142204884
 21
604.5249125978665
 31
0.0
  0
LINE
  5
3B96
330
1F
100
AcDbEntity
  8
ｴｸｽﾃﾝｼｮﾝﾌﾚｰﾑ
100
AcDbLine
 10
525.9170028231604
 20
609.2155985512315
 30
0.0
 11
524.72774359546
 21
609.0906023695715
 31
0.0
  0
LINE
  5
3B97
330
1F
100
AcDbEntity
  8
ｴｸｽﾃﾝｼｮﾝﾌﾚｰﾑ
100
AcDbLine
 10
525.9170028231604
 20
610.7844014487685
 30
0.0
 11
524.72774359546
 21
610.9093976304285
 31
0.0
  0
LINE
  5
3B98
330
1F
100
AcDbEntity
  8
ｴｸｽﾃﾝｼｮﾝﾌﾚｰﾑ
100
AcDbLine
 10
527.5482331326583
 20
614.7225397853124
 30
0.0
 11
526.6189142204884
 21
615.4750874021336
 31
0.0
  0
HATCH
  5
3BD9
330
1F
100
AcDbEntity
  8
AM_8
100
AcDbHatch
 10
0.0
 20
0.0
 30
0.0
210
0.0
220
0.0
230
1.0
  2
_U
 70
     0
 71
     0
 91
        1
 92
        1
 93
       22
 72
     2
 10
537.0666797875345
 20
779.447987873653
 40
0.2000000000000354
 50
0.500000000006101
 51
89.99999999999998
 73
     1
 72
     1
 10
537.0666797875345
 20
779.6479878736528
 11
535.5014040829009
 21
779.6479878736528
 72
     1
 10
535.5014040829009
 20
779.6479878736528
 11
535.589271245292
 21
769.5794083445536
 72
     2
 10
536.5892331683602
 20
769.5881348800595
 40
1.000000000004107
 50
180.5000000004332
 51
240.0000000004231
 73
     1
 72
     1
 10
536.0892331683642
 20
768.7221094762682
 11
537.8231065249273
 21
767.7210572271157
 72
     2
 10
537.6731065249276
 20
767.46124960598
 40
0.299999999999986
 50
299.9999999999715
 51
359.5000000000019
 73
     0
 72
     1
 10
537.9730951018467
 20
767.4638675666293
 11
538.3956140829006
 21
719.0479878736526
 72
     1
 10
538.3956140829008
 20
719.0479878736529
 11
538.7956140829007
 21
718.2479878736527
 72
     1
 10
538.7956140829004
 20
718.2479878736527
 11
539.9956140829007
 21
718.2479878736527
 72
     1
 10
539.9956140829007
 20
718.2479878736527
 11
540.3956140829006
 21
719.0479878736526
 72
     1
 10
540.3956140829007
 20
719.0479878736529
 11
540.4235400598312
 21
722.2479878736529
 72
     1
 10
540.4235400598312
 20
722.2479878736527
 11
542.8800840829007
 21
722.2479878736527
 72
     1
 10
542.8800840829007
 20
722.2479878736527
 11
542.8800840829007
 21
723.7479878736527
 72
     1
 10
542.8800840829007
 20
723.7479878736527
 11
543.3800840829008
 21
724.0479878736526
 72
     1
 10
543.3800840829007
 20
724.0479878736529
 11
542.9158147164324
 21
777.2479878736529
 72
     1
 10
542.9158147164324
 20
777.2479878736527
 11
541.2132042717722
 21
777.2479878736527
 72
     2
 10
541.2132042717725
 20
777.0479878736529
 40
0.200000000000017
 50
89.99999999999998
 51
179.4999999999938
 73
     1
 72
     1
 10
541.0132118871596
 20
777.0497331807525
 11
540.9685525507837
 21
771.9322801097558
 72
     2
 10
539.1686210892684
 20
771.9479878736525
 40
1.799999999999859
 50
360.4999999999886
 51
449.9999999999928
 73
     0
 72
     1
 10
539.1686210892684
 20
770.1479878736528
 11
539.132207452736
 21
770.1479878736528
 72
     2
 10
539.1322074527362
 20
771.947987873653
 40
1.800000000000082
 50
90.00000000000362
 51
179.5000000000006
 73
     0
 72
     1
 10
537.3322759912205
 20
771.9322801097561
 11
537.2666721721473
 21
779.4497331807527
 97
        0
 75
     0
 76
     0
 52
-45.00000000000001
 41
10.0
 77
     0
 78
     1
 53
315.0
 43
-166.4266291185112
 44
870.8771491791759
 45
7.071067811865476
 46
7.071067811865473
 79
     0
 98
        1
 10
-166.4266291185112
 20
870.8771491791759
1001
GENIUS_GENOBJ-N-HTC_13
1002
{
1000
OWNER
1000
GEN
1002
}
1001
GENIUS_GENODEF_13
1002
{
1000
HIER
1070
     0
1002
}
1002
{
1000
MANEDIT
1070
     0
1002
}
1002
{
1000
NOSEL
1070
     0
1002
}
1002
{
1000
BEHIND
1070
     0
1002
}
1002
{
1000
OTHER
1070
     0
1002
}
1002
{
1000
REACTOR
1002
}
1001
GENIUS_GENHATCH_13
1002
{
1000
DATA
1040
45.0
1042
2.5
1000
_U
1070
     0
1011
490.3223393652576
1021
656.9322382534725
1031
0.0
1002
}
1002
{
1000
UCS
1010
0.0
1020
0.0
1030
0.0
1010
1.0
1020
0.0
1030
0.0
1010
0.0
1020
1.0
1030
0.0
1002
}
  0
LINE
  5
3BF5
330
1F
100
AcDbEntity
  8
ｶﾞｽｹｯﾄ
100
AcDbLine
 10
539.1915851046818
 20
776.3479878736526
 30
0.0
 11
539.109243437323
 21
776.3479878736526
 31
0.0
  0
ARC
  5
3BF6
330
1F
100
AcDbEntity
  8
ｶﾞｽｹｯﾄ
100
AcDbCircle
 10
539.1915851046818
 20
774.5479878736529
 30
0.0
 40
1.8
100
AcDbArc
 50
0.500000000001317
 51
90.0
1001
GENIUS_GENODEF_13
1002
{
1000
HIER
1070
     0
1002
}
1002
{
1000
MANEDIT
1070
     0
1002
}
1002
{
1000
NOSEL
1070
     0
1002
}
1002
{
1000
BEHIND
1070
     0
1002
}
1002
{
1000
OTHER
1070
     0
1002
}
1002
{
1000
REACTOR
1002
}
1001
GENIUS_GENOBJ-N-FIL_13
1002
{
1000
OWNER
1000
GEN
1002
}
  0
ARC
  5
3BF7
330
1F
100
AcDbEntity
  8
ｶﾞｽｹｯﾄ
100
AcDbCircle
 10
539.109243437323
 20
774.5479878736524
 30
0.0
 40
1.8
100
AcDbArc
 50
90.0
 51
179.4999999999987
1001
GENIUS_GENODEF_13
1002
{
1000
HIER
1070
     0
1002
}
1002
{
1000
MANEDIT
1070
     0
1002
}
1002
{
1000
NOSEL
1070
     0
1002
}
1002
{
1000
BEHIND
1070
     0
1002
}
1002
{
1000
OTHER
1070
     0
1002
}
1002
{
1000
REACTOR
1002
}
1001
GENIUS_GENOBJ-N-FIL_13
1002
{
1000
OWNER
1000
GEN
1002
}
  0
HATCH
  5
3C06
330
1F
100
AcDbEntity
  8
ｶﾞｽｹｯﾄ
100
AcDbHatch
 10
0.0
 20
0.0
 30
0.0
210
0.0
220
0.0
230
1.0
  2
SOLID
 70
     1
 71
     0
 91
        1
 92
        1
 93
        8
 72
     1
 10
539.132207452736
 20
770.1479878736533
 11
539.1686210892684
 21
770.147987873653
 72
     2
 10
539.1686210892684
 20
771.947987873653
 40
1.799999999999968
 50
-90.00000000000001
 51
-0.5000000000003379
 73
     1
 72
     1
 10
540.968552550784
 20
771.9322801097556
 11
540.9915165661971
 21
774.5636956375532
 72
     2
 10
539.1915851046818
 20
774.5479878736524
 40
1.800000000000008
 50
0.5000000001188072
 51
89.99999999999998
 73
     1
 72
     1
 10
539.1915851046818
 20
776.3479878736526
 11
539.1092434373231
 21
776.3479878736526
 72
     2
 10
539.109243437323
 20
774.5479878736529
 40
1.800000000000096
 50
90.0000000000036
 51
179.4999999998879
 73
     1
 72
     1
 10
537.3093119758076
 20
774.5636956375534
 11
537.3322759912213
 21
771.9322801097561
 72
     2
 10
539.1322074527364
 20
771.947987873653
 40
1.799999999999633
 50
180.4999999999923
 51
269.9999999999928
 73
     1
 97
        0
 75
     0
 76
     1
 98
        1
 10
-166.4266291185112
 20
870.8771491791759
1001
GENIUS_GENODEF_13
1002
{
1000
HIER
1070
     0
1002
}
1002
{
1000
MANEDIT
1070
     0
1002
}
1002
{
1000
NOSEL
1070
     0
1002
}
1002
{
1000
BEHIND
1070
     0
1002
}
1002
{
1000
OTHER
1070
     0
1002
}
1002
{
1000
REACTOR
1002
}
1001
GENIUS_GENOBJ-N-HTC_13
1002
{
1000
OWNER
1000
GEN
1002
}
1001
GENIUS_GENHATCH_13
1002
{
1000
DATA
1040
0.0
1042
1.0
1000
SOLID
1070
     0
1011
488.606688205544
1021
673.5420618245613
1031
0.0
1002
}
1002
{
1000
UCS
1010
0.0
1020
0.0
1030
0.0
1010
1.0
1020
0.0
1030
0.0
1010
0.0
1020
1.0
1030
0.0
1002
}
  0
DIMENSION
  5
3D55
330
1F
100
AcDbEntity
  8
AM_5
100
AcDbDimension
  2
*D6
 10
787.648636400645
 20
656.0000010100002
 30
0.0
 11
760.148636400645
 21
665.7500010100002
 31
0.0
 70
    32
 71
     5
 42
55.0
  3
AM_ISO$0
100
AcDbAlignedDimension
 13
732.648636400645
 23
619.4999999999997
 33
0.0
 14
787.648636400645
 24
619.535730633532
 34
0.0
100
AcDbRotatedDimension
1001
ACAD
1000
DSTYLE
1002
{
1070
    40
1040
3.0
1002
}
  0
LINE
  5
3EF6
330
1F
100
AcDbEntity
  8
ｴｸｽﾃﾝｼｮﾝﾌﾚｰﾑ
100
AcDbLine
 10
364.1915785092973
 20
773.1479878736526
 30
0.0
 11
364.1444534232272
 21
767.7479878736525
 31
0.0
  0
LINE
  5
3F0D
330
1F
100
AcDbEntity
  8
ｴｸｽﾃﾝｼｮﾝﾌﾚｰﾑ
100
AcDbLine
 10
377.4445065274268
 20
777.2479878736525
 30
0.0
 11
343.844353451632
 21
777.2479878736525
 31
0.0
  0
ARC
  5
3F0E
330
1F
100
AcDbEntity
  8
ｴｸｽﾃﾝｼｮﾝﾌﾚｰﾑ
100
AcDbCircle
 10
373.5120438962919
 20
777.0479878736527
 30
0.0
 40
0.2
100
AcDbArc
 50
0.500000000001317
 51
90.0
1001
GENIUS_GENODEF_13
1002
{
1000
HIER
1070
     0
1002
}
1002
{
1000
MANEDIT
1070
     0
1002
}
1002
{
1000
NOSEL
1070
     0
1002
}
1002
{
1000
BEHIND
1070
     0
1002
}
1002
{
1000
OTHER
1070
     0
1002
}
1002
{
1000
REACTOR
1002
}
1001
GENIUS_GENOBJ-N-FIL_13
1002
{
1000
OWNER
1000
GEN
1002
}
  0
ARC
  5
3F11
330
1F
100
AcDbEntity
  8
ｴｸｽﾃﾝｼｮﾝﾌﾚｰﾑ
100
AcDbCircle
 10
377.6585683805298
 20
779.4479878736527
 30
0.0
 40
0.2
100
AcDbArc
 50
90.0
 51
179.4999999999987
1001
GENIUS_GENOBJ-N-FIL_13
1002
{
1000
OWNER
1000
GEN
1002
}
1001
GENIUS_GENODEF_13
1002
{
1000
HIER
1070
     0
1002
}
1002
{
1000
MANEDIT
1070
     0
1002
}
1002
{
1000
NOSEL
1070
     0
1002
}
1002
{
1000
BEHIND
1070
     0
1002
}
1002
{
1000
OTHER
1070
     0
1002
}
1002
{
1000
REACTOR
1002
}
  0
LINE
  5
3F14
330
1F
100
AcDbEntity
  8
ｴｸｽﾃﾝｼｮﾝﾌﾚｰﾑ
100
AcDbLine
 10
378.3167794294062
 20
769.1064444512439
 30
0.0
 11
378.4087740851638
 21
779.6479878736525
 31
0.0
  0
LINE
  5
3F15
330
1F
100
AcDbEntity
  8
ｴｸｽﾃﾝｼｮﾝﾌﾚｰﾑ
100
AcDbLine
 10
376.3296340851635
 20
719.0479878736526
 30
0.0
 11
376.7521530662176
 21
767.4638675666291
 31
0.0
  0
LINE
  5
3F17
330
1F
100
AcDbEntity
  8
ｴｸｽﾃﾝｼｮﾝﾌﾚｰﾑ
100
AcDbLine
 10
374.3296340851636
 20
719.0479878736526
 30
0.0
 11
374.7296340851637
 21
718.2479878736525
 31
0.0
  0
LINE
  5
3F18
330
1F
100
AcDbEntity
  8
ｴｸｽﾃﾝｼｮﾝﾌﾚｰﾑ
100
AcDbLine
 10
375.9296340851639
 20
718.2479878736525
 30
0.0
 11
376.3296340851635
 21
719.0479878736526
 31
0.0
  0
LINE
  5
3F19
330
1F
100
AcDbEntity
  8
ｴｸｽﾃﾝｼｮﾝﾌﾚｰﾑ
100
AcDbLine
 10
377.8168175063421
 20
768.2491455829575
 30
0.0
 11
376.9021416431371
 21
767.721057227115
 31
0.0
  0
ARC
  5
3F1A
330
1F
100
AcDbEntity
  8
ｴｸｽﾃﾝｼｮﾝﾌﾚｰﾑ
100
AcDbCircle
 10
377.0521416431369
 20
767.4612496059798
 30
0.0
 40
0.3
100
AcDbArc
 50
120.0000000000005
 51
179.4999999999987
1001
GENIUS_GENODEF_13
1002
{
1000
HIER
1070
     0
1002
}
1002
{
1000
MANEDIT
1070
     0
1002
}
1002
{
1000
NOSEL
1070
     0
1002
}
1002
{
1000
BEHIND
1070
     0
1002
}
1002
{
1000
OTHER
1070
     0
1002
}
1002
{
1000
REACTOR
1002
}
1001
GENIUS_GENOBJ-N-FIL_13
1002
{
1000
OWNER
1000
GEN
1002
}
  0
LINE
  5
3F1C
330
1F
100
AcDbEntity
  8
ｴｸｽﾃﾝｼｮﾝﾌﾚｰﾑ
100
AcDbLine
 10
373.7566956172806
 20
771.9322801097558
 30
0.0
 11
373.7120362809047
 21
777.0497331807522
 31
0.0
  0
LINE
  5
3F1D
330
1F
100
AcDbEntity
  8
ｴｸｽﾃﾝｼｮﾝﾌﾚｰﾑ
100
AcDbLine
 10
377.3929721768433
 20
771.9322801097558
 30
0.0
 11
377.4585759959169
 21
779.4497331807523
 31
0.0
  0
LINE
  5
3F1E
330
1F
100
AcDbEntity
  8
ｴｸｽﾃﾝｼｮﾝﾌﾚｰﾑ
100
AcDbLine
 10
375.556627078796
 20
770.1479878736526
 30
0.0
 11
375.5930407153284
 21
770.1479878736526
 31
0.0
  0
ARC
  5
3F1F
330
1F
100
AcDbEntity
  8
ｴｸｽﾃﾝｼｮﾝﾌﾚｰﾑ
100
AcDbCircle
 10
375.5566270787957
 20
771.9479878736527
 30
0.0
 40
1.8
100
AcDbArc
 50
180.5000000000013
 51
270.0
1001
GENIUS_GENODEF_13
1002
{
1000
HIER
1070
     0
1002
}
1002
{
1000
MANEDIT
1070
     0
1002
}
1002
{
1000
NOSEL
1070
     0
1002
}
1002
{
1000
BEHIND
1070
     0
1002
}
1002
{
1000
OTHER
1070
     0
1002
}
1002
{
1000
REACTOR
1002
}
1001
GENIUS_GENOBJ-N-FIL_13
1002
{
1000
OWNER
1000
GEN
1002
}
  0
ARC
  5
3F20
330
1F
100
AcDbEntity
  8
ｴｸｽﾃﾝｼｮﾝﾌﾚｰﾑ
100
AcDbCircle
 10
375.5930407153281
 20
771.9479878736527
 30
0.0
 40
1.8
100
AcDbArc
 50
270.0
 51
359.4999999999987
1001
GENIUS_GENODEF_13
1002
{
1000
HIER
1070
     0
1002
}
1002
{
1000
MANEDIT
1070
     0
1002
}
1002
{
1000
NOSEL
1070
     0
1002
}
1002
{
1000
BEHIND
1070
     0
1002
}
1002
{
1000
OTHER
1070
     0
1002
}
1002
{
1000
REACTOR
1002
}
1001
GENIUS_GENOBJ-N-FIL_13
1002
{
1000
OWNER
1000
GEN
1002
}
  0
LINE
  5
3F22
330
1F
100
AcDbEntity
  8
ｶﾞｽｹｯﾄ
100
AcDbLine
 10
375.5336630633825
 20
776.3479878736524
 30
0.0
 11
375.6160047307413
 21
776.3479878736524
 31
0.0
  0
ARC
  5
3F23
330
1F
100
AcDbEntity
  8
ｶﾞｽｹｯﾄ
100
AcDbCircle
 10
375.5336630633825
 20
774.5479878736526
 30
0.0
 40
1.8
100
AcDbArc
 50
90.0
 51
179.4999999999987
1001
GENIUS_GENODEF_13
1002
{
1000
HIER
1070
     0
1002
}
1002
{
1000
MANEDIT
1070
     0
1002
}
1002
{
1000
NOSEL
1070
     0
1002
}
1002
{
1000
BEHIND
1070
     0
1002
}
1002
{
1000
OTHER
1070
     0
1002
}
1002
{
1000
REACTOR
1002
}
1001
GENIUS_GENOBJ-N-FIL_13
1002
{
1000
OWNER
1000
GEN
1002
}
  0
ARC
  5
3F24
330
1F
100
AcDbEntity
  8
ｶﾞｽｹｯﾄ
100
AcDbCircle
 10
375.6160047307413
 20
774.5479878736522
 30
0.0
 40
1.8
100
AcDbArc
 50
0.500000000001317
 51
90.0
1001
GENIUS_GENODEF_13
1002
{
1000
HIER
1070
     0
1002
}
1002
{
1000
MANEDIT
1070
     0
1002
}
1002
{
1000
NOSEL
1070
     0
1002
}
1002
{
1000
BEHIND
1070
     0
1002
}
1002
{
1000
OTHER
1070
     0
1002
}
1002
{
1000
REACTOR
1002
}
1001
GENIUS_GENOBJ-N-FIL_13
1002
{
1000
OWNER
1000
GEN
1002
}
  0
HATCH
  5
3F25
330
1F
100
AcDbEntity
  8
ｶﾞｽｹｯﾄ
100
AcDbHatch
 10
0.0
 20
0.0
 30
0.0
210
0.0
220
0.0
230
1.0
  2
SOLID
 70
     1
 71
     0
 91
        1
 92
        1
 93
        8
 72
     1
 10
375.5930407153284
 20
770.147987873653
 11
375.556627078796
 21
770.1479878736528
 72
     2
 10
375.556627078796
 20
771.9479878736527
 40
1.799999999999968
 50
-270.0
 51
-180.5000000000003
 73
     0
 72
     1
 10
373.7566956172803
 20
771.9322801097554
 11
373.7337316018671
 21
774.563695637553
 72
     2
 10
375.5336630633825
 20
774.5479878736522
 40
1.800000000000008
 50
-179.4999999998812
 51
-90.00000000000001
 73
     0
 72
     1
 10
375.5336630633825
 20
776.3479878736524
 11
375.6160047307412
 21
776.3479878736524
 72
     2
 10
375.6160047307413
 20
774.5479878736526
 40
1.800000000000096
 50
-89.99999999999641
 51
-0.5000000001120262
 73
     0
 72
     1
 10
377.4159361922567
 20
774.5636956375532
 11
377.3929721768431
 21
771.9322801097558
 72
     2
 10
375.5930407153279
 20
771.9479878736527
 40
1.799999999999633
 50
0.4999999999922847
 51
89.99999999999277
 73
     0
 97
        0
 75
     0
 76
     1
 98
        1
 10
1081.151877286576
 20
870.8771491791758
1001
GENIUS_GENODEF_13
1002
{
1000
HIER
1070
     0
1002
}
1002
{
1000
MANEDIT
1070
     0
1002
}
1002
{
1000
NOSEL
1070
     0
1002
}
1002
{
1000
BEHIND
1070
     0
1002
}
1002
{
1000
OTHER
1070
     0
1002
}
1002
{
1000
REACTOR
1002
}
1001
GENIUS_GENOBJ-N-HTC_13
1002
{
1000
OWNER
1000
GEN
1002
}
1001
GENIUS_GENHATCH_13
1002
{
1000
DATA
1040
0.0
1042
-1.0
1000
SOLID
1070
     0
1011
476.1185599647832
1021
673.542061824561
1031
0.0
1002
}
1002
{
1000
UCS
1010
0.0
1020
0.0
1030
0.0
1010
1.0
1020
0.0
1030
0.0
1010
0.0
1020
1.0
1030
0.0
1002
}
  0
ARC
  5
3F96
330
1F
100
AcDbEntity
  8
ｴｸｽﾃﾝｼｮﾝﾌﾚｰﾑ
100
AcDbCircle
 10
377.3168175063421
 20
769.1151709867421
 30
0.0
 40
1.0
100
AcDbArc
 50
299.9999999999989
 51
359.500000000002
1001
GENIUS_GENODEF_13
1002
{
1000
HIER
1070
     0
1002
}
1002
{
1000
MANEDIT
1070
     0
1002
}
1002
{
1000
NOSEL
1070
     0
1002
}
1002
{
1000
BEHIND
1070
     0
1002
}
1002
{
1000
OTHER
1070
     0
1002
}
1002
{
1000
REACTOR
1002
}
1001
GENIUS_GENOBJ-N-FIL_13
1002
{
1000
OWNER
1000
GEN
1002
}
  0
LINE
  5
3FAC
330
1F
100
AcDbEntity
  8
ｴｸｽﾃﾝｼｮﾝﾌﾚｰﾑ
100
AcDbLine
 10
373.008774085164
 20
777.2479878736525
 30
0.0
 11
373.0916793291762
 21
767.7479878736525
 31
0.0
  0
LINE
  5
40AC
330
1F
100
AcDbEntity
  8
ｴｸｽﾃﾝｼｮﾝﾌﾚｰﾑ
100
AcDbLine
 10
364.1915785092973
 20
773.1479878736526
 30
0.0
 11
353.380084085164
 21
773.1479878736526
 31
0.0
  0
LINE
  5
40BC
330
1F
100
AcDbEntity
  8
ｴｸｽﾃﾝｼｮﾝﾌﾚｰﾑ
100
AcDbLine
 10
362.080084085164
 20
743.2479878736525
 30
0.0
 11
362.080084085164
 21
722.2479878736525
 31
0.0
  0
LINE
  5
40C1
330
1F
100
AcDbEntity
  8
ｴｸｽﾃﾝｼｮﾝﾌﾚｰﾑ
100
AcDbLine
 10
362.080084085164
 20
743.2479878736525
 30
0.0
 11
344.6800840851639
 21
743.2479878736525
 31
0.0
  0
LINE
  5
40C2
330
1F
100
AcDbEntity
  8
ｴｸｽﾃﾝｼｮﾝﾌﾚｰﾑ
100
AcDbLine
 10
360.884274085164
 20
743.2479878736525
 30
0.0
 11
360.884274085164
 21
773.1479878736526
 31
0.0
  0
LINE
  5
40CA
330
1F
100
AcDbEntity
  8
ｴｸｽﾃﾝｼｮﾝﾌﾚｰﾑ
100
AcDbLine
 10
344.6800840851639
 20
743.2479878736525
 30
0.0
 11
344.6800840851639
 21
722.2479878736525
 31
0.0
  0
LINE
  5
40D4
330
1F
100
AcDbEntity
  8
ｴｸｽﾃﾝｼｮﾝﾌﾚｰﾑ
100
AcDbLine
 10
345.875894085164
 20
743.2479878736525
 30
0.0
 11
345.875894085164
 21
777.2479878736525
 31
0.0
  0
LINE
  5
40E1
330
1F
100
AcDbEntity
  8
ｴｸｽﾃﾝｼｮﾝﾌﾚｰﾑ
100
AcDbLine
 10
373.0916793291762
 20
767.7479878736525
 30
0.0
 11
364.1444534232272
 21
767.7479878736525
 31
0.0
  0
LINE
  5
40F6
330
1F
100
AcDbEntity
  8
ｴｸｽﾃﾝｼｮﾝﾌﾚｰﾑ
100
AcDbLine
 10
364.1357265554365
 20
766.7479878736525
 30
0.0
 11
373.6133624915445
 21
766.7479878736525
 31
0.0
  0
LINE
  5
40F8
330
1F
100
AcDbEntity
  8
ｴｸｽﾃﾝｼｮﾝﾌﾚｰﾑ
100
AcDbLine
 10
364.1357265554365
 20
766.7479878736525
 30
0.0
 11
363.7473809387477
 21
722.2479878736525
 31
0.0
  0
HATCH
  5
410F
330
1F
100
AcDbEntity
  8
AM_8
100
AcDbHatch
 10
0.0
 20
0.0
 30
0.0
210
0.0
220
0.0
230
1.0
  2
_U
 70
     0
 71
     0
 91
        1
 92
        1
 93
        8
 72
     1
 10
343.8800840851641
 20
723.7479878736524
 11
343.8800840851641
 21
722.2479878736525
 72
     1
 10
343.8800840851641
 20
722.2479878736525
 11
344.6800840851639
 21
722.2479878736525
 72
     1
 10
344.6800840851639
 20
722.2479878736525
 11
344.6800840851639
 21
743.2479878736525
 72
     1
 10
344.6800840851639
 20
743.2479878736525
 11
345.875894085164
 21
743.2479878736525
 72
     1
 10
345.875894085164
 20
743.2479878736525
 11
345.875894085164
 21
777.2479878736525
 72
     1
 10
345.875894085164
 20
777.2479878736525
 11
343.844353451632
 21
777.2479878736525
 72
     1
 10
343.844353451632
 20
777.2479878736525
 11
343.3800840851639
 21
724.0479878736526
 72
     1
 10
343.3800840851639
 20
724.0479878736526
 11
343.8800840851641
 21
723.7479878736524
 97
        0
 75
     0
 76
     0
 52
45.0
 41
7.5
 77
     0
 78
     1
 53
45.0
 43
-213.8952261627721
 44
-494.4456990430222
 45
-5.303300858899106
 46
5.303300858899106
 79
     0
 98
        1
 10
-213.8952261627721
 20
-494.4456990430222
1001
GENIUS_GENODEF_13
1002
{
1000
HIER
1070
     0
1002
}
1002
{
1000
MANEDIT
1070
     0
1002
}
1002
{
1000
NOSEL
1070
     0
1002
}
1002
{
1000
BEHIND
1070
     0
1002
}
1002
{
1000
OTHER
1070
     0
1002
}
1002
{
1000
REACTOR
1002
}
1001
GENIUS_GENOBJ-N-HTC_13
1002
{
1000
OWNER
1000
GEN
1002
}
1001
GENIUS_GENHATCH_13
1002
{
1000
DATA
1040
45.0
1042
2.5
1000
_U
1070
     0
1011
444.805323790706
1021
670.0043947948519
1031
0.0
1002
}
1002
{
1000
UCS
1010
0.0
1020
0.0
1030
0.0
1010
1.0
1020
0.0
1030
0.0
1010
0.0
1020
1.0
1030
0.0
1002
}
  0
LINE
  5
416A
330
1F
100
AcDbEntity
  8
ｴｸｽﾃﾝｼｮﾝﾌﾚｰﾑ
100
AcDbLine
 10
373.6133624915445
 20
766.7479878736525
 30
0.0
 11
374.0017081082332
 21
722.2479878736525
 31
0.0
  0
LINE
  5
4177
330
1F
100
AcDbEntity
  8
ｴｸｽﾃﾝｼｮﾝﾌﾚｰﾑ
100
AcDbLine
 10
374.3017081082331
 20
722.2479878736525
 30
0.0
 11
374.3296340851636
 21
719.0479878736526
 31
0.0
  0
HATCH
  5
4182
330
1F
100
AcDbEntity
  8
AM_8
100
AcDbHatch
 10
0.0
 20
0.0
 30
0.0
210
0.0
220
0.0
230
1.0
  2
_U
 70
     0
 71
     0
 91
        1
 92
        1
 93
       30
 72
     2
 10
375.593040715328
 20
771.9479878736527
 40
1.799999999999749
 50
0.5000000000017501
 51
89.99999999999639
 73
     0
 72
     1
 10
375.5930407153281
 20
770.147987873653
 11
375.556627078796
 21
770.1479878736528
 72
     2
 10
375.5566270787957
 20
771.9479878736527
 40
1.799999999999954
 50
89.99999999999277
 51
179.4999999999983
 73
     0
 72
     1
 10
373.7566956172802
 20
771.9322801097554
 11
373.7120362809047
 21
777.0497331807522
 72
     2
 10
373.5120438962919
 20
777.0479878736527
 40
0.2000000000000362
 50
0.5000000000305426
 51
90.0
 73
     1
 72
     1
 10
373.5120438962919
 20
777.2479878736525
 11
373.008774085164
 21
777.2479878736525
 72
     1
 10
373.008774085164
 20
777.2479878736525
 11
373.0916793291762
 21
767.7479878736525
 72
     1
 10
373.0916793291762
 20
767.7479878736525
 11
364.1444534232272
 21
767.7479878736525
 72
     1
 10
364.1444534232272
 20
767.7479878736525
 11
364.1915785092973
 21
773.1479878736526
 72
     1
 10
364.1915785092973
 20
773.1479878736526
 11
360.884274085164
 21
773.1479878736526
 72
     1
 10
360.884274085164
 20
773.1479878736526
 11
360.884274085164
 21
743.2479878736525
 72
     1
 10
360.884274085164
 20
743.2479878736525
 11
362.080084085164
 21
743.2479878736525
 72
     1
 10
362.080084085164
 20
743.2479878736525
 11
362.080084085164
 21
722.2479878736525
 72
     1
 10
362.080084085164
 20
722.2479878736525
 11
363.7473809387477
 21
722.2479878736525
 72
     1
 10
363.7473809387477
 20
722.2479878736525
 11
364.1357265554365
 21
766.7479878736525
 72
     1
 10
364.1357265554365
 20
766.7479878736525
 11
373.6133624915445
 21
766.7479878736525
 72
     1
 10
373.6133624915445
 20
766.7479878736525
 11
374.0017081082332
 21
722.2479878736525
 72
     1
 10
374.0017081082332
 20
722.2479878736525
 11
374.3017081082331
 21
722.2479878736525
 72
     1
 10
374.3017081082331
 20
722.2479878736525
 11
374.3296340851636
 21
719.0479878736525
 72
     1
 10
374.3296340851636
 20
719.0479878736526
 11
374.7296340851637
 21
718.2479878736527
 72
     1
 10
374.7296340851637
 20
718.2479878736525
 11
375.9296340851639
 21
718.2479878736525
 72
     1
 10
375.9296340851639
 20
718.2479878736525
 11
376.3296340851635
 21
719.0479878736525
 72
     1
 10
376.3296340851635
 20
719.0479878736526
 11
376.7521530662176
 21
767.4638675666293
 72
     2
 10
377.0521416431368
 20
767.4612496059793
 40
0.2999999999999416
 50
180.5000000000524
 51
240.000000000034
 73
     0
 72
     1
 10
376.9021416431369
 20
767.721057227115
 11
377.8168175063421
 21
768.2491455829578
 72
     2
 10
377.316817506342
 20
769.1151709867421
 40
1.000000000000138
 50
300.0000000000029
 51
359.4999999999954
 73
     1
 72
     1
 10
378.3167794294062
 20
769.1064444512439
 11
378.4087740851638
 21
779.6479878736528
 72
     1
 10
378.4087740851638
 20
779.6479878736525
 11
377.6585683805298
 21
779.6479878736525
 72
     2
 10
377.6585683805298
 20
779.4479878736527
 40
0.2000000000000455
 50
90.0
 51
179.4999999999694
 73
     1
 72
     1
 10
377.4585759959169
 20
779.4497331807523
 11
377.3929721768433
 21
771.9322801097556
 97
        0
 75
     0
 76
     0
 52
45.0
 41
12.5
 77
     0
 78
     1
 53
45.0
 43
-213.8952261627721
 44
-494.4456990430222
 45
-8.838834764831844
 46
8.838834764831844
 79
     0
 98
        1
 10
-213.8952261627721
 20
-494.4456990430222
1001
GENIUS_GENOBJ-N-HTC_13
1002
{
1000
OWNER
1000
GEN
1002
}
1001
GENIUS_GENODEF_13
1002
{
1000
HIER
1070
     0
1002
}
1002
{
1000
MANEDIT
1070
     0
1002
}
1002
{
1000
NOSEL
1070
     0
1002
}
1002
{
1000
BEHIND
1070
     0
1002
}
1002
{
1000
OTHER
1070
     0
1002
}
1002
{
1000
REACTOR
1002
}
1001
GENIUS_GENHATCH_13
1002
{
1000
DATA
1040
45.0
1042
2.5
1000
_U
1070
     0
1011
462.350122004871
1021
653.3512793838862
1031
0.0
1002
}
1002
{
1000
UCS
1010
0.0
1020
0.0
1030
0.0
1010
1.0
1020
0.0
1030
0.0
1010
0.0
1020
1.0
1030
0.0
1002
}
  0
DIMENSION
  5
42FA
330
1F
100
AcDbEntity
  8
AM_5
100
AcDbDimension
  2
*D7
 10
307.3800830751638
 20
219.9999999999998
 30
0.0
 11
297.6300830751638
 21
420.0000000000001
 31
0.0
 70
    32
 71
     5
 42
400.0000000000003
  3
AM_ISO$0
100
AcDbAlignedDimension
 13
353.380084085164
 23
620.0000000000001
 33
0.0
 14
353.380084085164
 24
219.9999999999998
 34
0.0
 50
90.0
100
AcDbRotatedDimension
1001
ACAD
1000
DSTYLE
1002
{
1070
    40
1040
3.0
1002
}
  0
DIMENSION
  5
4334
330
1F
100
AcDbEntity
  8
AM_5
100
AcDbDimension
  2
*D8
 10
543.3800840851642
 20
656.0000010100002
 30
0.0
 11
443.380084085164
 21
665.7510344745672
 31
0.0
 70
    32
 71
     5
 42
200.0000000000002
  3
AM_ISO$0
100
AcDbAlignedDimension
 13
343.380084085164
 23
609.9999999999998
 33
0.0
 14
543.3800840851642
 24
610.0
 34
0.0
100
AcDbRotatedDimension
1001
ACAD
1000
DSTYLE
1002
{
1070
    40
1040
3.0
1002
}
  0
INSERT
  5
4503
102
{ACAD_REACTORS
330
9A8
102
}
330
1F
100
AcDbEntity
  8
0
100
AcDbBlockReference
  2
*S13
 10
0.0
 20
0.0
 30
0.0
  0
VIEWPORT
  5
186
102
{ACAD_XDICTIONARY
360
45BF
102
}
330
23
100
AcDbEntity
 67
     1
  8
0
100
AcDbViewport
 10
5.249999639556163
 20
3.999999883606677
 30
0.0
 40
14.57585398793907
 41
8.992999745766947
 68
     1
 69
     1
 12
5.249999639556163
 22
3.999999883606677
 13
0.0
 23
0.0
 14
10.0
 24
10.0
 15
10.0
 25
10.0
 16
0.0
 26
0.0
 36
1.0
 17
0.0
 27
0.0
 37
0.0
 42
50.0
 43
0.0
 44
0.0
 45
8.992999745766947
 50
0.0
 51
0.0
 72
   100
 90
    32800
  1

281
     0
 71
     1
 74
     0
110
0.0
120
0.0
130
0.0
111
1.0
121
0.0
131
0.0
112
0.0
122
1.0
132
0.0
 79
     0
146
0.0
  0
ENDSEC
  0
SECTION
  2
OBJECTS
  0
DICTIONARY
  5
C
330
0
100
AcDbDictionary
281
     1
  3
ACAD_COLOR
350
C9
  3
ACAD_GROUP
350
D
  3
ACAD_LAYOUT
350
1A
  3
ACAD_MATERIAL
350
C8
  3
ACAD_MLEADERSTYLE
350
442D
  3
ACAD_MLINESTYLE
350
17
  3
ACAD_PLOTSETTINGS
350
19
  3
ACAD_PLOTSTYLENAME
350
E
  3
ACAD_SCALELIST
350
441B
  3
ACAD_TABLESTYLE
350
BD6
  3
ACAD_VISUALSTYLE
350
440A
  3
ACDB_RECOMPOSE_DATA
350
449C
  3
AcDbVariableDictionary
350
9E
  3
AcmDictionary
350
63
  3
AMG
350
49
  3
AMGSNAPSETTINGS
350
234
  3
DWGPROPS
350
45B6
  0
DICTIONARY
  5
449D
330
8
100
AcDbDictionary
280
     1
281
     1
  0
DICTIONARY
  5
2C1
330
2
100
AcDbDictionary
280
     1
281
     1
  3
ACAD_LAYERFILTERS
360
3BE7
  3
ACAD_LAYERSTATES
360
2C2
  3
ACLYDICTIONARY
360
3BE6
  3
AMLAYER_GROUPCOLORS
360
3BD6
  0
DICTIONARY
  5
4486
330
10
100
AcDbDictionary
280
     1
281
     1
  3
ADSK_XREC_LAYER_RECONCILED
360
4487
  0
DICTIONARY
  5
4488
330
1F0
100
AcDbDictionary
280
     1
281
     1
  3
ADSK_XREC_LAYER_RECONCILED
360
4489
  0
DICTIONARY
  5
448A
330
23E
100
AcDbDictionary
280
     1
281
     1
  3
ADSK_XREC_LAYER_RECONCILED
360
448B
  0
DICTIONARY
  5
448C
330
23F
100
AcDbDictionary
280
     1
281
     1
  3
ADSK_XREC_LAYER_RECONCILED
360
448D
  0
DICTIONARY
  5
448E
330
2AD
100
AcDbDictionary
280
     1
281
     1
  3
ADSK_XREC_LAYER_RECONCILED
360
448F
  0
DICTIONARY
  5
4490
330
3A72
100
AcDbDictionary
280
     1
281
     1
  3
ADSK_XREC_LAYER_RECONCILED
360
4491
  0
DICTIONARY
  5
4492
330
3A73
100
AcDbDictionary
280
     1
281
     1
  3
ADSK_XREC_LAYER_RECONCILED
360
4493
  0
DICTIONARY
  5
4494
330
3BDA
100
AcDbDictionary
280
     1
281
     1
  3
ADSK_XREC_LAYER_RECONCILED
360
4495
  0
DICTIONARY
  5
4496
330
3BE4
100
AcDbDictionary
280
     1
281
     1
  3
ADSK_XREC_LAYER_RECONCILED
360
4497
  0
DICTIONARY
  5
4498
330
43D3
100
AcDbDictionary
280
     1
281
     1
  3
ADSK_XREC_LAYER_RECONCILED
360
4499
  0
DICTIONARY
  5
99
330
1F
100
AcDbDictionary
280
     1
281
     1
  3
ACAD_SORTENTS
360
2272
  0
DICTIONARY
  5
AF1
330
AE9
100
AcDbDictionary
280
     1
281
     1
  0
DICTIONARY
  5
B55
330
AFC
100
AcDbDictionary
280
     1
281
     1
  0
DICTIONARY
  5
45BD
330
182
100
AcDbDictionary
280
     1
281
     1
  3
ACAD_XREC_ROUNDTRIP
360
45BE
  0
DICTIONARY
  5
45BF
330
186
100
AcDbDictionary
280
     1
281
     1
  3
ACAD_XREC_ROUNDTRIP
360
45C0
  0
DICTIONARY
  5
C9
102
{ACAD_REACTORS
330
C
102
}
330
C
100
AcDbDictionary
281
     1
  0
DICTIONARY
  5
D
102
{ACAD_REACTORS
330
C
102
}
330
C
100
AcDbDictionary
281
     1
  0
DICTIONARY
  5
1A
102
{ACAD_REACTORS
330
C
102
}
330
C
100
AcDbDictionary
281
     1
  3
Model
350
22
  3
レイアウト1
350
1E
  3
レイアウト2
350
26
  0
DICTIONARY
  5
C8
102
{ACAD_REACTORS
330
C
102
}
330
C
100
AcDbDictionary
281
     1
  3
ByBlock
350
43FA
  3
ByLayer
350
43F2
  3
Global
350
4402
  0
DICTIONARY
  5
442D
102
{ACAD_REACTORS
330
C
102
}
330
C
100
AcDbDictionary
281
     1
  3
Standard
350
442E
  0
DICTIONARY
  5
17
102
{ACAD_REACTORS
330
C
102
}
330
C
100
AcDbDictionary
281
     1
  3
Standard
350
18
  0
DICTIONARY
  5
19
102
{ACAD_REACTORS
330
C
102
}
330
C
100
AcDbDictionary
281
     1
  0
ACDBDICTIONARYWDFLT
  5
E
102
{ACAD_REACTORS
330
C
102
}
330
C
100
AcDbDictionary
281
     1
  3
Normal
350
F
100
AcDbDictionaryWithDefault
340
F
  0
DICTIONARY
  5
441B
102
{ACAD_REACTORS
330
C
102
}
330
C
100
AcDbDictionary
281
     1
  3
A0
350
441C
  3
A1
350
441D
  3
A2
350
441E
  3
A3
350
441F
  3
A4
350
4420
  3
A5
350
4421
  3
A6
350
4422
  3
A7
350
4423
  3
A8
350
4424
  3
A9
350
4425
  3
B0
350
4426
  3
B1
350
4427
  3
B2
350
4428
  3
B3
350
4429
  3
B4
350
442A
  3
B5
350
442B
  3
B6
350
442C
  0
DICTIONARY
  5
BD6
102
{ACAD_REACTORS
330
C
102
}
330
C
100
AcDbDictionary
281
     1
  3
Standard
350
BD7
  0
DICTIONARY
  5
440A
102
{ACAD_REACTORS
330
C
102
}
330
C
100
AcDbDictionary
281
     1
  3
2dWireframe
350
4410
  3
3D Hidden
350
4412
  3
3dWireframe
350
4411
  3
Basic
350
440F
  3
Brighten
350
4416
  3
ColorChange
350
441A
  3
Conceptual
350
4413
  3
Dim
350
4415
  3
Facepattern
350
4419
  3
Flat
350
440B
  3
FlatWithEdges
350
440C
  3
Gouraud
350
440D
  3
GouraudWithEdges
350
440E
  3
Linepattern
350
4418
  3
Realistic
350
4414
  3
Thicken
350
4417
  0
XRECORD
  5
449C
102
{ACAD_REACTORS
330
C
102
}
330
C
100
AcDbXrecord
280
     1
 90
        1
330
BD7
  0
DICTIONARY
  5
9E
102
{ACAD_REACTORS
330
C
102
}
330
C
100
AcDbDictionary
281
     1
  3
CANNOSCALE
350
44B5
  3
CMLEADERSTYLE
350
44B4
  3
CTABLESTYLE
350
C25
  3
DIMASSOC
350
A0
  3
INDEXCTL
350
9F
  3
SORTENTS
350
45B4
  0
DICTIONARY
  5
63
102
{ACAD_REACTORS
330
C
102
}
330
C
100
AcDbDictionary
281
     1
  3
AcmBOM
350
9A7
  3
AcmStdDictionary
350
69
  3
AMDTSECTSYM_ARROWCOLOR
350
BE7
  0
DICTIONARY
  5
49
102
{ACAD_REACTORS
330
C
102
}
330
C
100
AcDbDictionary
281
     1
  0
DICTIONARY
  5
234
102
{ACAD_REACTORS
330
C
102
}
330
C
100
AcDbDictionary
281
     1
  0
XRECORD
  5
45B6
102
{ACAD_REACTORS
330
C
102
}
330
C
100
AcDbXrecord
280
     1
  1
DWGPROPS COOKIE
  2

  3

  4

  6

  7

  8
Administrator
  9

300
AmdtFileType=84
301
=
302
=
303
=
304
=
305
=
306
=
307
=
308
=
309
=
 40
0.1374046643518519
 41
2454770.465836227
 42
2455068.667324028
  1

 90
        1
  0
DICTIONARY
  5
3BE7
102
{ACAD_REACTORS
330
2C1
102
}
330
2C1
100
AcDbDictionary
281
     1
  0
DICTIONARY
  5
2C2
102
{ACAD_REACTORS
330
2C1
102
}
330
2C1
100
AcDbDictionary
281
     1
  0
DICTIONARY
  5
3BE6
102
{ACAD_REACTORS
330
2C1
102
}
330
2C1
100
AcDbDictionary
281
     1
1001
ACAD
1000
<All
  0
DICTIONARY
  5
3BD6
102
{ACAD_REACTORS
330
2C1
102
}
330
2C1
100
AcDbDictionary
280
     1
281
     1
  0
XRECORD
  5
4487
102
{ACAD_REACTORS
330
4486
102
}
330
4486
100
AcDbXrecord
280
     1
290
     1
  0
XRECORD
  5
4489
102
{ACAD_REACTORS
330
4488
102
}
330
4488
100
AcDbXrecord
280
     1
290
     1
  0
XRECORD
  5
448B
102
{ACAD_REACTORS
330
448A
102
}
330
448A
100
AcDbXrecord
280
     1
290
     1
  0
XRECORD
  5
448D
102
{ACAD_REACTORS
330
448C
102
}
330
448C
100
AcDbXrecord
280
     1
290
     1
  0
XRECORD
  5
448F
102
{ACAD_REACTORS
330
448E
102
}
330
448E
100
AcDbXrecord
280
     1
290
     1
  0
XRECORD
  5
4491
102
{ACAD_REACTORS
330
4490
102
}
330
4490
100
AcDbXrecord
280
     1
290
     1
  0
XRECORD
  5
4493
102
{ACAD_REACTORS
330
4492
102
}
330
4492
100
AcDbXrecord
280
     1
290
     1
  0
XRECORD
  5
4495
102
{ACAD_REACTORS
330
4494
102
}
330
4494
100
AcDbXrecord
280
     1
290
     1
  0
XRECORD
  5
4497
102
{ACAD_REACTORS
330
4496
102
}
330
4496
100
AcDbXrecord
280
     1
290
     1
  0
XRECORD
  5
4499
102
{ACAD_REACTORS
330
4498
102
}
330
4498
100
AcDbXrecord
280
     1
290
     1
  0
SORTENTSTABLE
  5
2272
102
{ACAD_REACTORS
330
99
102
}
330
99
100
AcDbSortentsTable
330
1F
331
2841
  5
1E10
331
2B6F
  5
2B82
331
2C96
  5
2C99
331
2CFD
  5
2D00
331
2EE3
  5
2EE6
331
2F4A
  5
2F4D
331
36FE
  5
372A
331
1C23
  5
1C30
331
2EAC
  5
2EAF
331
2EFB
  5
2EFE
331
39CD
  5
39CF
331
1A85
  5
1A86
331
3B3B
  5
3B3D
331
3A14
  5
3A18
331
2F03
  5
2F06
331
2EB4
  5
2EB7
331
2E5D
  5
2E60
331
2C6F
  5
2C72
331
2B40
  5
2B49
331
2CC6
  5
2CC9
331
2F5A
  5
2F5D
331
39D5
  5
39EA
331
3B8A
  5
3B8C
331
3B92
  5
3B94
331
3B53
  5
3B55
331
34BF
  5
34EF
331
2CCE
  5
2CD1
331
2EBC
  5
2EBF
331
2F62
  5
2F65
331
39ED
  5
39EF
331
39A6
  5
39A8
331
3A74
  5
3A7A
331
3B5B
  5
3B5D
331
410F
  5
416A
331
1C33
  5
1E0E
331
2B48
  5
2B51
331
C56
  5
C56
331
2CD6
  5
2CD9
331
1E03
  5
1E27
331
2B50
  5
2B59
331
2C77
  5
2C7A
331
2E65
  5
2E68
331
2EC4
  5
2EC7
331
2F0B
  5
2F0E
331
2F6A
  5
2F6D
331
2F13
  5
2F16
331
2B58
  5
2B61
331
2C7F
  5
2C82
331
2CDE
  5
2CE1
331
2E6D
  5
2E70
331
2ECC
  5
2ECF
331
2F72
  5
2F75
331
34CF
  5
352B
331
39AE
  5
39B0
331
16EE
  5
16EE
331
2F1B
  5
2F1F
331
27DA
  5
1ACA
331
2B60
  5
2B69
331
2C87
  5
2C8A
331
2CE6
  5
2CE9
331
2E75
  5
2E78
331
2ED4
  5
2ED7
331
2F82
  5
2F85
331
39B6
  5
39B8
331
39F5
  5
39F9
331
3B63
  5
3B65
331
39FD
  5
3A01
331
2CEE
  5
2CF1
331
2E7D
  5
2E80
331
2F23
  5
2F26
331
3321
  5
3256
331
39BE
  5
39C1
331
3B6B
  5
3B6D
331
3F11
  5
3F16
331
4177
  5
3F1B
331
39C6
  5
39C8
331
3A05
  5
3A09
331
3B73
  5
3B75
331
3F19
  5
3F1F
331
3A0D
  5
3A11
331
3B34
  5
3B36
331
1AD5
  5
1AD7
331
1B7C
  5
1B8A
331
1AE5
  5
1AED
331
1C0C
  5
1C1B
331
2979
  5
2B42
331
2B70
  5
2B84
331
2C97
  5
2C9A
331
2CFE
  5
2D09
331
2EE4
  5
2EE7
331
2F4B
  5
2F4E
331
1C24
  5
1C31
331
1AED
  5
1AF3
331
2EAD
  5
2EB0
331
2EFC
  5
2EFF
331
39CE
  5
39D0
331
3B3C
  5
3B3E
331
31A2
  5
3322
331
2F04
  5
2F07
331
2E5E
  5
2E61
331
2B41
  5
2B4A
331
2CC7
  5
2CCA
331
2EB5
  5
2EB8
331
2F5B
  5
2F5E
331
3401
  5
3435
331
3A15
  5
3A19
331
3B8B
  5
3B8D
331
3B93
  5
3B95
331
3B54
  5
3B56
331
2CCF
  5
2CD2
331
2EBD
  5
2EC0
331
2F63
  5
2F66
331
39EE
  5
39F2
331
40F8
  5
3F0F
331
39A7
  5
39A9
331
3B5C
  5
3B5E
331
2B49
  5
2B52
331
2C70
  5
2C73
331
27A3
  5
1B79
331
1B1D
  5
1B2E
331
2B51
  5
2B5A
331
2C78
  5
2C7B
331
2CD7
  5
2CDA
331
2E66
  5
2E69
331
2EC5
  5
2EC8
331
2F0C
  5
2F0F
331
2F6B
  5
2F6E
331
2F14
  5
2F17
331
1B2D
  5
1B30
331
2B59
  5
2B62
331
2C80
  5
2C83
331
2CDF
  5
2CE2
331
2E6E
  5
2E71
331
2ECD
  5
2ED0
331
2F73
  5
2F76
331
39AF
  5
39B1
331
1B4D
  5
1B66
331
2B61
  5
2B6A
331
2C88
  5
2C8B
331
2CE7
  5
2CEA
331
2E76
  5
2E79
331
2ED5
  5
2ED8
331
2F83
  5
2F86
331
39B7
  5
39B9
331
39F6
  5
39FA
331
3B64
  5
3B66
331
40C1
  5
40C1
331
39FE
  5
3A02
331
2CEF
  5
2CFA
331
2E7E
  5
2E81
331
34A1
  5
34D7
331
39BF
  5
39C2
331
3B6C
  5
3B6E
331
39C7
  5
39C9
331
3A06
  5
3A0A
331
3B2D
  5
3B2F
331
3B74
  5
3B76
331
3F1A
  5
3F21
331
3A0E
  5
3A12
331
3B35
  5
3B37
331
3F22
  5
3F3C
331
40E1
  5
40F7
331
1AD6
  5
1ADF
331
2C90
  5
2C93
331
1C0D
  5
1C1F
331
2B71
  5
2B85
331
2C98
  5
2C9B
331
2EE5
  5
2EE8
331
2F4C
  5
2F4F
331
33DA
  5
3430
331
1C25
  5
1C33
331
2E57
  5
2E5A
331
2EAE
  5
2EB1
331
2EFD
  5
2F00
331
3728
  5
375B
331
39CF
  5
39D1
331
3B3D
  5
3B3F
331
34B9
  5
34E4
331
2F05
  5
2F08
331
2B42
  5
2B4B
331
2CC8
  5
2CCB
331
2E5F
  5
2E62
331
2EB6
  5
2EB9
331
2F5C
  5
2F5F
331
3A16
  5
3A21
331
3B8C
  5
3B8E
331
3B94
  5
3B96
331
3B55
  5
3B57
331
2EBE
  5
2EC1
331
2F64
  5
2F67
331
39EF
  5
39F3
331
3B5D
  5
3B5F
331
28A3
  5
1C15
331
1AA7
  5
1AAF
331
1C35
  5
1E0F
331
2B4A
  5
2B53
331
2C71
  5
2C74
331
2CD0
  5
2CD3
331
2B52
  5
2B5B
331
1AAF
  5
1AB0
331
2C79
  5
2C7C
331
2CD8
  5
2CDB
331
2E67
  5
2E6A
331
2EC6
  5
2EC9
331
2F0D
  5
2F10
331
2F6C
  5
2F6F
331
39A8
  5
39AA
331
2F15
  5
2F18
331
28B3
  5
1C18
331
2B5A
  5
2B63
331
2C81
  5
2C84
331
2CE0
  5
2CE3
331
2E6F
  5
2E72
331
2ECE
  5
2ED1
331
2F74
  5
2F77
331
39B0
  5
39B2
331
39F7
  5
39FB
331
2F1D
  5
2F20
331
2B62
  5
2B6B
331
1E6D
  5
1E91
331
2C89
  5
2C8C
331
2CE8
  5
2CEB
331
2E77
  5
2E7A
331
2ED6
  5
2ED9
331
2F84
  5
2F87
331
39B8
  5
39BA
331
3B65
  5
3B67
331
40C2
  5
40CA
331
2E7F
  5
2E82
331
39FF
  5
3A03
331
3B6D
  5
3B6F
331
40CA
  5
40E1
331
3A07
  5
3A0B
331
3B2E
  5
3B30
331
3A0F
  5
3A13
331
3B36
  5
3B38
331
3F23
  5
3F96
331
1708
  5
170B
331
2C91
  5
2C94
331
1AD7
  5
1AE5
331
2CF8
  5
2CFB
331
297B
  5
2B43
331
2B72
  5
2C06
331
2C99
  5
2C9C
331
2EE6
  5
2EE9
331
2F4D
  5
2F50
331
36F9
  5
36FC
331
39C8
  5
39CA
331
2E58
  5
2E5B
331
2EAF
  5
2EB2
331
2EFE
  5
2F01
331
2F55
  5
2F58
331
3729
  5
39A5
331
39D0
  5
39D2
331
3B3E
  5
3B40
331
2F06
  5
2F09
331
2B43
  5
2B4C
331
2EB7
  5
2EBA
331
2F5D
  5
2F60
331
3A17
  5
3A27
331
3B8D
  5
3B8F
331
3B95
  5
3B97
331
2EBF
  5
2EC2
331
2F65
  5
2F68
331
3B56
  5
3B58
331
3B5E
  5
3B60
331
2B4B
  5
2B54
331
1C36
  5
1E12
331
2C72
  5
2C75
331
2CD1
  5
2CD4
331
2E60
  5
2E63
331
2B53
  5
2B5C
331
2C7A
  5
2C7D
331
2CD9
  5
2CDC
331
2E68
  5
2E6B
331
2EC7
  5
2ECA
331
2F0E
  5
2F11
331
2F6D
  5
2F70
331
3433
  5
1E3E
331
39A9
  5
39AB
331
2F16
  5
2F1A
331
2B5B
  5
2B64
331
2C82
  5
2C85
331
2CE1
  5
2CE4
331
2E70
  5
2E73
331
2ECF
  5
2ED2
331
2F75
  5
2F78
331
39B1
  5
39B3
331
39F0
  5
39F4
331
39F8
  5
39FC
331
2F1E
  5
2F21
331
2B63
  5
2B7E
331
2C8A
  5
2C8D
331
2CE9
  5
2CEC
331
2E78
  5
2E7C
331
2ED7
  5
2EDA
331
2F85
  5
2F88
331
349B
  5
34D4
331
39B9
  5
39BB
331
3A9F
  5
3B2E
331
3B66
  5
3B68
331
416A
  5
4172
331
3B6E
  5
3B70
331
39C1
  5
39C3
331
3A00
  5
3A05
331
3F14
  5
3F18
331
3A08
  5
3A0C
331
3B2F
  5
3B31
331
3BF5
  5
3BF7
331
3F1C
  5
3F22
331
4182
  5
4181
331
3B37
  5
3B39
331
3F24
  5
3FB0
331
1EBE
  5
1F97
331
2C92
  5
2C95
331
2CF9
  5
2CFC
331
2E80
  5
2E83
331
2C9A
  5
2C9D
331
2EE7
  5
2EF4
331
2F4E
  5
2F51
331
36FA
  5
36FD
331
39C9
  5
39CB
331
3A10
  5
3A14
331
34B3
  5
34DF
331
2E59
  5
2E5C
331
2B3C
  5
2B45
331
2CC2
  5
2CC5
331
2EB0
  5
2EB3
331
2EFF
  5
2F02
331
2F56
  5
2F59
331
316D
  5
32C5
331
39D1
  5
39D3
331
3D55
  5
3E0F
331
3A18
  5
3A51
331
2F5E
  5
2F61
331
2F07
  5
2F0A
331
2B44
  5
2B4D
331
2EB8
  5
2EBB
331
39E9
  5
39EB
331
3B8E
  5
3B90
331
3B96
  5
3B98
331
2F66
  5
2F69
331
3B57
  5
3B59
331
3FAC
  5
40AD
331
3B5F
  5
3B61
331
40AC
  5
40C2
331
40BC
  5
40D4
331
1C37
  5
1E19
331
2B4C
  5
2B55
331
2C73
  5
2C76
331
2CD2
  5
2CD5
331
2E61
  5
2E64
331
2EC0
  5
2EC3
331
2F0F
  5
2F12
331
1AB1
  5
1AB8
331
28AD
  5
16FC
331
2B54
  5
2B5D
331
2C7B
  5
2C7E
331
2CDA
  5
2CDD
331
2E69
  5
2E6C
331
2EC8
  5
2ECB
331
2F6E
  5
2F71
331
39AA
  5
39AC
331
1E67
  5
1E8E
331
2B5C
  5
2B65
331
2C83
  5
2C86
331
2CE2
  5
2CE5
331
2E71
  5
2E74
331
2ED0
  5
2ED3
331
2F76
  5
2F79
331
39B2
  5
39B4
331
39F1
  5
39F5
331
39F9
  5
39FD
331
2C8B
  5
2C8E
331
2CEA
  5
2CED
331
2ED8
  5
2EE3
331
2F1F
  5
2F22
331
2F86
  5
2F91
331
331D
  5
342F
331
34EB
  5
352C
331
39BA
  5
39BC
331
3B67
  5
3B69
331
3F0D
  5
3F12
331
3B6F
  5
3B71
331
352B
  5
352D
331
39C2
  5
39C4
331
3A01
  5
3A06
331
3F15
  5
3F19
331
40D4
  5
40E2
331
3B30
  5
3B32
331
3A09
  5
3A0D
331
3BF6
  5
3C05
331
3F1D
  5
3F23
331
3C06
  5
3D77
331
3B87
  5
3B89
331
3F25
  5
4013
331
2806
  5
1AF4
331
2B6C
  5
2B7F
331
2C93
  5
2C97
331
2CFA
  5
2CFD
331
1A7A
  5
1A7B
331
39CA
  5
39CC
331
297D
  5
2B44
331
2C9B
  5
2C9E
331
2F4F
  5
2F52
331
36FB
  5
36FE
331
3B38
  5
3B3A
331
3A11
  5
3A15
331
2F00
  5
2F03
331
2E5A
  5
2E5D
331
1AF1
  5
1B01
331
2B3D
  5
2B46
331
2CC3
  5
2CC6
331
2EB1
  5
2EB4
331
2F57
  5
2F5A
331
39D2
  5
39D4
331
3A19
  5
3A52
331
2B45
  5
2B4E
331
2EB9
  5
2EBC
331
2F5F
  5
2F62
331
37DB
  5
3401
331
39EA
  5
39EC
331
3B8F
  5
3B91
331
3B97
  5
3BD7
331
2F67
  5
2F6A
331
342D
  5
3495
331
3B58
  5
3B5A
331
3A79
  5
3A9B
331
3EF6
  5
3F02
331
1B01
  5
1B0B
331
2B4D
  5
2B56
331
2C74
  5
2C77
331
2CD3
  5
2CD6
331
2E62
  5
2E65
331
2EC1
  5
2EC4
331
2F08
  5
2F0B
331
2F10
  5
2F13
331
1E60
  5
1E83
331
2B55
  5
2B5E
331
2C7C
  5
2C7F
331
2CDB
  5
2CDE
331
2E6A
  5
2E6D
331
2EC9
  5
2ECC
331
2F6F
  5
2F72
331
321E
  5
331F
331
3435
  5
1E98
331
39AB
  5
39AD
331
34D4
  5
34AD
331
2F18
  5
2F1B
331
1ACA
  5
1AD6
331
2B5D
  5
2B66
331
2C84
  5
2C87
331
2CE3
  5
2CE6
331
2E72
  5
2E75
331
2ED1
  5
2ED4
331
2F77
  5
2F82
331
3495
  5
34BF
331
39B3
  5
39B5
331
39F2
  5
39F6
331
3B60
  5
3B62
331
39FA
  5
39FE
331
2C8C
  5
2C8F
331
2CEB
  5
2CEE
331
2E7A
  5
2E7D
331
2F20
  5
2F23
331
39BB
  5
39BD
331
3B68
  5
3B6A
331
3F0E
  5
3F15
331
30AF
  5
321E
331
352C
  5
352E
331
39C3
  5
39C5
331
3A02
  5
3A07
331
3B70
  5
3B72
331
3A0A
  5
3A0E
331
3B31
  5
3B33
331
3BF7
  5
3D55
331
3F1E
  5
3F25
331
170B
  5
1A7A
331
2B6D
  5
2B80
331
2CFB
  5
2CFE
331
2EE1
  5
2EE4
331
1A7B
  5
1A7C
331
39CB
  5
39CD
331
297E
  5
2B40
331
2EAA
  5
2EAD
331
2F50
  5
2F53
331
30C7
  5
32C4
331
34AD
  5
34DC
331
36FC
  5
3728
331
3B39
  5
3B3B
331
3A12
  5
3A16
331
2F01
  5
2F04
331
2E5B
  5
2E5E
331
2C6D
  5
2C70
331
2B3E
  5
2B47
331
2CC4
  5
2CC7
331
2EB2
  5
2EB5
331
2F58
  5
2F5B
331
33F6
  5
3433
331
39D3
  5
39D5
331
3B88
  5
3B8A
331
3B90
  5
3B92
331
3B51
  5
3B53
331
2B46
  5
2B4F
331
2EBA
  5
2EBD
331
2F60
  5
2F63
331
39EB
  5
39ED
331
3F96
  5
3F20
331
3B98
  5
3BF5
331
3B59
  5
3B5B
331
C54
  5
C54
331
1B02
  5
1B0C
331
2F68
  5
2F6B
331
1B1A
  5
1B2D
331
2B4E
  5
2B57
331
2C75
  5
2C78
331
2CD4
  5
2CD7
331
2E63
  5
2E66
331
2EC2
  5
2EC5
331
2F09
  5
2F0C
331
2F70
  5
2F73
331
2F11
  5
2F14
331
27A8
  5
2B3E
331
2B56
  5
2B5F
331
2C7D
  5
2C80
331
2CDC
  5
2CDF
331
2E6B
  5
2E6E
331
2ECA
  5
2ECD
331
39AC
  5
39AE
331
2F80
  5
2F83
331
16FC
  5
1708
331
2B5E
  5
2B67
331
2C85
  5
2C88
331
2CE4
  5
2CE7
331
2E73
  5
2E77
331
2ED2
  5
2ED5
331
2F19
  5
2F1C
331
3317
  5
33CC
331
39B4
  5
39B6
331
39F3
  5
39F7
331
3B61
  5
3B63
331
39FB
  5
39FF
331
28E7
  5
2B3F
331
2C8D
  5
2C90
331
2CEC
  5
2CEF
331
2E7B
  5
2E7E
331
2F21
  5
2F24
331
39BC
  5
39BE
331
3B69
  5
3B6B
331
352D
  5
3552
331
39C4
  5
39C6
331
3A03
  5
3A08
331
3B71
  5
3B73
331
3F17
  5
3F1D
331
3A0B
  5
3A0F
331
3B32
  5
3B34
331
3F1F
  5
3F26
331
2977
  5
2B41
331
2B6E
  5
2B81
331
2C95
  5
2C98
331
2CFC
  5
2CFF
331
2EE2
  5
2EE5
331
39CC
  5
39CE
331
2EFA
  5
2EFD
331
1C22
  5
1C2E
331
2870
  5
1E11
331
2EAB
  5
2EAE
331
36FD
  5
3729
331
3B3A
  5
3B3C
331
3A13
  5
3A17
331
31A0
  5
3321
331
2F02
  5
2F05
331
2E5C
  5
2E5F
331
2C6E
  5
2C71
331
1AF3
  5
1B02
331
2B3F
  5
2B48
331
2CC5
  5
2CC8
331
2EB3
  5
2EB6
331
2F59
  5
2F5C
331
39D4
  5
39E9
331
3B89
  5
3B8B
331
3B91
  5
3B93
331
3B52
  5
3B54
331
2B47
  5
2B50
331
2CCD
  5
2CD0
331
2EBB
  5
2EBE
331
2F61
  5
2F64
331
39EC
  5
39EE
331
40F6
  5
4109
331
342F
  5
34A1
331
39A5
  5
39A7
331
3B5A
  5
3B5C
331
1B03
  5
1B13
331
1C32
  5
1E04
331
2EC3
  5
2EC6
331
2B4F
  5
2B58
331
2C76
  5
2C79
331
2CD5
  5
2CD8
331
2E64
  5
2E67
331
2F0A
  5
2F0D
331
2F69
  5
2F6C
331
2F12
  5
2F15
331
2ECB
  5
2ECE
331
2B57
  5
2B60
331
2C7E
  5
2C81
331
2CDD
  5
2CE0
331
2E6C
  5
2E6F
331
2F71
  5
2F74
331
39AD
  5
39AF
331
2F1A
  5
2F1D
331
2B5F
  5
2B68
331
2C86
  5
2C89
331
2CE5
  5
2CE8
331
2ED3
  5
2ED6
331
2F81
  5
2F84
331
39B5
  5
39B7
331
39F4
  5
39F8
331
3A9B
  5
3B2D
331
3B62
  5
3B64
331
3BD9
  5
3BF6
331
39FC
  5
3A00
331
2C8E
  5
2C92
331
2CED
  5
2CF0
331
2E7C
  5
2E7F
331
2F22
  5
2F25
331
39BD
  5
39BF
331
3B6A
  5
3B6C
331
39C5
  5
39C7
331
352E
  5
3592
331
34A7
  5
34DA
331
3B72
  5
3B74
331
3F18
  5
3F1E
331
3A0C
  5
3A10
331
3B33
  5
3B35
331
3F20
  5
3F32
  0
XRECORD
  5
45BE
102
{ACAD_REACTORS
330
45BD
102
}
330
45BD
100
AcDbXrecord
280
     1
102
SHADEPLOT
 70
     0
  0
XRECORD
  5
45C0
102
{ACAD_REACTORS
330
45BF
102
}
330
45BF
100
AcDbXrecord
280
     1
102
SHADEPLOT
 70
     0
  0
LAYOUT
  5
22
102
{ACAD_XDICTIONARY
360
45B9
102
}
102
{ACAD_REACTORS
330
1A
102
}
330
1A
100
AcDbPlotSettings
  1

  2
RICOH IPSiO CX7200 RPCS
  4
A3
  6
AM_VIEW1
 40
5.873749732971191
 41
5.873747825622558
 42
5.873748779296875
 43
5.873748779296875
 44
296.9259948730469
 45
419.9466552734374
 46
2.589999999999999
 47
4.099999999999999
 48
10.00000000000003
 49
0.0
140
410.0
141
280.0
142
1.0
143
1.0
 70
 11956
 72
     1
 73
     1
 74
     4
  7
takachi-2.ctb
 75
    16
147
1.0
148
-10.00000000000003
149
0.0
100
AcDbLayout
  1
Model
 70
     1
 71
     0
 10
0.0
 20
0.0
 11
12.0
 21
9.0
 12
0.0
 22
0.0
 32
0.0
 14
0.0
 24
0.0
 34
0.0
 15
0.0
 25
0.0
 35
0.0
146
0.0
 13
0.0
 23
0.0
 33
0.0
 16
1.0
 26
0.0
 36
0.0
 17
0.0
 27
1.0
 37
0.0
 76
     0
330
1F
331
43F0
  0
LAYOUT
  5
1E
102
{ACAD_XDICTIONARY
360
45B7
102
}
102
{ACAD_REACTORS
330
1A
102
}
330
1A
100
AcDbPlotSettings
  1

  2
none_device
  4
Letter_(8.50_x_11.00_Inches)
  6

 40
6.349999904632568
 41
6.349999904632568
 42
6.350006103515625
 43
6.350006103515625
 44
215.8999938964844
 45
279.3999938964844
 46
0.0
 47
0.0
 48
0.0
 49
0.0
140
0.0
141
0.0
142
1.0
143
1.0
 70
   688
 72
     0
 73
     1
 74
     5
  7
takachi-2.ctb
 75
    16
147
1.0
148
0.0
149
0.0
100
AcDbLayout
  1
レイアウト1
 70
     1
 71
     1
 10
-0.2500002402958907
 20
-0.2499999962453767
 11
10.74999951940821
 21
8.249999763458731
 12
0.0
 22
0.0
 32
0.0
 14
1.000000000000000E+20
 24
1.000000000000000E+20
 34
1.000000000000000E+20
 15
-1.000000000000000E+20
 25
-1.000000000000000E+20
 35
-1.000000000000000E+20
146
0.0
 13
0.0
 23
0.0
 33
0.0
 16
1.0
 26
0.0
 36
0.0
 17
0.0
 27
1.0
 37
0.0
 76
     0
330
1B
331
182
  0
LAYOUT
  5
26
102
{ACAD_XDICTIONARY
360
45BB
102
}
102
{ACAD_REACTORS
330
1A
102
}
330
1A
100
AcDbPlotSettings
  1

  2
none_device
  4
Letter_(8.50_x_11.00_Inches)
  6

 40
6.349999904632568
 41
6.349999904632568
 42
6.350006103515625
 43
6.350006103515625
 44
215.8999938964844
 45
279.3999938964844
 46
0.0
 47
0.0
 48
0.0
 49
0.0
140
0.0
141
0.0
142
1.0
143
1.0
 70
   688
 72
     0
 73
     1
 74
     5
  7
takachi-2.ctb
 75
    16
147
1.0
148
0.0
149
0.0
100
AcDbLayout
  1
レイアウト2
 70
     1
 71
     2
 10
-0.2500002402958907
 20
-0.2499999962453767
 11
10.74999951940821
 21
8.249999763458731
 12
0.0
 22
0.0
 32
0.0
 14
1.000000000000000E+20
 24
1.000000000000000E+20
 34
1.000000000000000E+20
 15
-1.000000000000000E+20
 25
-1.000000000000000E+20
 35
-1.000000000000000E+20
146
0.0
 13
0.0
 23
0.0
 33
0.0
 16
1.0
 26
0.0
 36
0.0
 17
0.0
 27
1.0
 37
0.0
 76
     0
330
23
331
186
  0
MATERIAL
  5
43FA
102
{ACAD_XDICTIONARY
360
43FB
102
}
102
{ACAD_REACTORS
330
C8
102
}
330
C8
100
AcDbMaterial
  1
ByBlock
 72
     0
 43
0.0008202099737533
 43
0.0
 43
0.0
 43
0.0
 43
0.0
 43
0.0008202099737533
 43
0.0
 43
0.0
 43
0.0
 43
0.0
 43
1.0
 43
0.0
 43
0.0
 43
0.0
 43
0.0
 43
1.0
 77
     0
 47
0.0008202099737533
 47
0.0
 47
0.0
 47
0.0
 47
0.0
 47
0.0008202099737533
 47
0.0
 47
0.0
 47
0.0
 47
0.0
 47
1.0
 47
0.0
 47
0.0
 47
0.0
 47
0.0
 47
1.0
171
     0
 49
0.0008202099737533
 49
0.0
 49
0.0
 49
0.0
 49
0.0
 49
0.0008202099737533
 49
0.0
 49
0.0
 49
0.0
 49
0.0
 49
1.0
 49
0.0
 49
0.0
 49
0.0
 49
0.0
 49
1.0
175
     0
142
0.0008202099737533
142
0.0
142
0.0
142
0.0
142
0.0
142
0.0008202099737533
142
0.0
142
0.0
142
0.0
142
0.0
142
1.0
142
0.0
142
0.0
142
0.0
142
0.0
142
1.0
179
     0
144
0.0008202099737533
144
0.0
144
0.0
144
0.0
144
0.0
144
0.0008202099737533
144
0.0
144
0.0
144
0.0
144
0.0
144
1.0
144
0.0
144
0.0
144
0.0
144
0.0
144
1.0
147
0.0008202099737533
147
0.0
147
0.0
147
0.0
147
0.0
147
0.0008202099737533
147
0.0
147
0.0
147
0.0
147
0.0
147
1.0
147
0.0
147
0.0
147
0.0
147
0.0
147
1.0
  0
MATERIAL
  5
43F2
102
{ACAD_XDICTIONARY
360
43F3
102
}
102
{ACAD_REACTORS
330
C8
102
}
330
C8
100
AcDbMaterial
  1
ByLayer
 72
     0
 43
0.0008202099737533
 43
0.0
 43
0.0
 43
0.0
 43
0.0
 43
0.0008202099737533
 43
0.0
 43
0.0
 43
0.0
 43
0.0
 43
1.0
 43
0.0
 43
0.0
 43
0.0
 43
0.0
 43
1.0
 77
     0
 47
0.0008202099737533
 47
0.0
 47
0.0
 47
0.0
 47
0.0
 47
0.0008202099737533
 47
0.0
 47
0.0
 47
0.0
 47
0.0
 47
1.0
 47
0.0
 47
0.0
 47
0.0
 47
0.0
 47
1.0
171
     0
 49
0.0008202099737533
 49
0.0
 49
0.0
 49
0.0
 49
0.0
 49
0.0008202099737533
 49
0.0
 49
0.0
 49
0.0
 49
0.0
 49
1.0
 49
0.0
 49
0.0
 49
0.0
 49
0.0
 49
1.0
175
     0
142
0.0008202099737533
142
0.0
142
0.0
142
0.0
142
0.0
142
0.0008202099737533
142
0.0
142
0.0
142
0.0
142
0.0
142
1.0
142
0.0
142
0.0
142
0.0
142
0.0
142
1.0
179
     0
144
0.0008202099737533
144
0.0
144
0.0
144
0.0
144
0.0
144
0.0008202099737533
144
0.0
144
0.0
144
0.0
144
0.0
144
1.0
144
0.0
144
0.0
144
0.0
144
0.0
144
1.0
147
0.0008202099737533
147
0.0
147
0.0
147
0.0
147
0.0
147
0.0008202099737533
147
0.0
147
0.0
147
0.0
147
0.0
147
1.0
147
0.0
147
0.0
147
0.0
147
0.0
147
1.0
  0
MATERIAL
  5
4402
102
{ACAD_XDICTIONARY
360
4403
102
}
102
{ACAD_REACTORS
330
C8
102
}
330
C8
100
AcDbMaterial
  1
Global
 72
     0
 43
0.0008202099737533
 43
0.0
 43
0.0
 43
0.0
 43
0.0
 43
0.0008202099737533
 43
0.0
 43
0.0
 43
0.0
 43
0.0
 43
1.0
 43
0.0
 43
0.0
 43
0.0
 43
0.0
 43
1.0
 77
     0
 47
0.0008202099737533
 47
0.0
 47
0.0
 47
0.0
 47
0.0
 47
0.0008202099737533
 47
0.0
 47
0.0
 47
0.0
 47
0.0
 47
1.0
 47
0.0
 47
0.0
 47
0.0
 47
0.0
 47
1.0
171
     0
 49
0.0008202099737533
 49
0.0
 49
0.0
 49
0.0
 49
0.0
 49
0.0008202099737533
 49
0.0
 49
0.0
 49
0.0
 49
0.0
 49
1.0
 49
0.0
 49
0.0
 49
0.0
 49
0.0
 49
1.0
175
     0
142
0.0008202099737533
142
0.0
142
0.0
142
0.0
142
0.0
142
0.0008202099737533
142
0.0
142
0.0
142
0.0
142
0.0
142
1.0
142
0.0
142
0.0
142
0.0
142
0.0
142
1.0
179
     0
144
0.0008202099737533
144
0.0
144
0.0
144
0.0
144
0.0
144
0.0008202099737533
144
0.0
144
0.0
144
0.0
144
0.0
144
1.0
144
0.0
144
0.0
144
0.0
144
0.0
144
1.0
147
0.0008202099737533
147
0.0
147
0.0
147
0.0
147
0.0
147
0.0008202099737533
147
0.0
147
0.0
147
0.0
147
0.0
147
1.0
147
0.0
147
0.0
147
0.0
147
0.0
147
1.0
  0
MLEADERSTYLE
  5
442E
102
{ACAD_REACTORS
330
442D
102
}
330
442D
100
AcDbMLeaderStyle
170
     2
171
     1
172
     0
 90
        2
 40
0.0
 41
0.0
173
     1
 91
-1056964608
340
14
 92
       -2
290
     1
 42
2.0
291
     1
 43
0.36
  3
Standard
 44
4.0
300

342
11
174
     1
178
     6
175
     1
176
     0
 93
-1056964608
 45
4.0
292
     0
297
     0
 46
4.0
 94
-1056964608
 47
1.0
 49
1.0
140
1.0
293
     1
141
0.0
294
     1
177
     0
142
1.0
295
     0
296
     0
143
0.125
1001
ACAD_MLEADERVER
1070
     2
  0
MLINESTYLE
  5
18
102
{ACAD_REACTORS
330
17
102
}
330
17
100
AcDbMlineStyle
  2
STANDARD
 70
     0
  3

 62
   256
 51
90.0
 52
90.0
 71
     2
 49
0.5
 62
   256
  6
BYLAYER
 49
-0.5
 62
   256
  6
BYLAYER
  0
ACDBPLACEHOLDER
  5
F
102
{ACAD_REACTORS
330
E
102
}
330
E
  0
SCALE
  5
441C
102
{ACAD_REACTORS
330
441B
102
}
330
441B
100
AcDbScale
 70
     0
300
1:1
140
1.0
141
1.0
290
     1
  0
SCALE
  5
441D
102
{ACAD_REACTORS
330
441B
102
}
330
441B
100
AcDbScale
 70
     0
300
1:2
140
1.0
141
2.0
290
     0
  0
SCALE
  5
441E
102
{ACAD_REACTORS
330
441B
102
}
330
441B
100
AcDbScale
 70
     0
300
1:4
140
1.0
141
4.0
290
     0
  0
SCALE
  5
441F
102
{ACAD_REACTORS
330
441B
102
}
330
441B
100
AcDbScale
 70
     0
300
1:5
140
1.0
141
5.0
290
     0
  0
SCALE
  5
4420
102
{ACAD_REACTORS
330
441B
102
}
330
441B
100
AcDbScale
 70
     0
300
1:8
140
1.0
141
8.0
290
     0
  0
SCALE
  5
4421
102
{ACAD_REACTORS
330
441B
102
}
330
441B
100
AcDbScale
 70
     0
300
1:10
140
1.0
141
10.0
290
     0
  0
SCALE
  5
4422
102
{ACAD_REACTORS
330
441B
102
}
330
441B
100
AcDbScale
 70
     0
300
1:16
140
1.0
141
16.0
290
     0
  0
SCALE
  5
4423
102
{ACAD_REACTORS
330
441B
102
}
330
441B
100
AcDbScale
 70
     0
300
1:20
140
1.0
141
20.0
290
     0
  0
SCALE
  5
4424
102
{ACAD_REACTORS
330
441B
102
}
330
441B
100
AcDbScale
 70
     0
300
1:30
140
1.0
141
30.0
290
     0
  0
SCALE
  5
4425
102
{ACAD_REACTORS
330
441B
102
}
330
441B
100
AcDbScale
 70
     0
300
1:40
140
1.0
141
40.0
290
     0
  0
SCALE
  5
4426
102
{ACAD_REACTORS
330
441B
102
}
330
441B
100
AcDbScale
 70
     0
300
1:50
140
1.0
141
50.0
290
     0
  0
SCALE
  5
4427
102
{ACAD_REACTORS
330
441B
102
}
330
441B
100
AcDbScale
 70
     0
300
1:100
140
1.0
141
100.0
290
     0
  0
SCALE
  5
4428
102
{ACAD_REACTORS
330
441B
102
}
330
441B
100
AcDbScale
 70
     0
300
2:1
140
2.0
141
1.0
290
     0
  0
SCALE
  5
4429
102
{ACAD_REACTORS
330
441B
102
}
330
441B
100
AcDbScale
 70
     0
300
4:1
140
4.0
141
1.0
290
     0
  0
SCALE
  5
442A
102
{ACAD_REACTORS
330
441B
102
}
330
441B
100
AcDbScale
 70
     0
300
8:1
140
8.0
141
1.0
290
     0
  0
SCALE
  5
442B
102
{ACAD_REACTORS
330
441B
102
}
330
441B
100
AcDbScale
 70
     0
300
10:1
140
10.0
141
1.0
290
     0
  0
SCALE
  5
442C
102
{ACAD_REACTORS
330
441B
102
}
330
441B
100
AcDbScale
 70
     0
300
100:1
140
100.0
141
1.0
290
     0
  0
TABLESTYLE
  5
BD7
102
{ACAD_XDICTIONARY
360
449A
102
}
102
{ACAD_REACTORS
330
BD6
102
}
330
BD6
100
AcDbTableStyle
  3
Standard
 70
     0
 71
     0
 40
1.5
 41
1.5
280
     0
281
     0
  7
STANDARD
140
4.5
170
     2
 62
     0
 63
     7
283
     0
274
    -2
284
     1
 64
     0
275
    -2
285
     1
 65
     0
276
    -2
286
     1
 66
     0
277
    -2
287
     1
 67
     0
278
    -2
288
     1
 68
     0
279
    -2
289
     1
 69
     0
  7
STANDARD
140
6.0
170
     5
 62
     0
 63
     7
283
     0
274
    -2
284
     1
 64
     0
275
    -2
285
     1
 65
     0
276
    -2
286
     1
 66
     0
277
    -2
287
     1
 67
     0
278
    -2
288
     1
 68
     0
279
    -2
289
     1
 69
     0
  7
STANDARD
140
4.5
170
     5
 62
     0
 63
     7
283
     0
274
    -2
284
     1
 64
     0
275
    -2
285
     1
 65
     0
276
    -2
286
     1
 66
     0
277
    -2
287
     1
 67
     0
278
    -2
288
     1
 68
     0
279
    -2
289
     1
 69
     0
  0
VISUALSTYLE
  5
4410
102
{ACAD_REACTORS
330
440A
102
}
330
440A
100
AcDbVisualStyle
  2
2dWireframe
 70
     4
 71
     0
 72
     2
 73
     0
 90
        0
 40
-0.6
 41
-30.0
 62
     5
 63
     7
 74
     1
 91
        4
 64
     7
 65
   257
 75
     1
175
     1
 42
1.0
 92
        0
 66
   257
 43
1.0
 76
     1
 77
     6
 78
     2
 67
     7
 79
     5
170
     0
171
     0
290
     0
174
     0
 93
        1
 44
0.0
173
     0
291
     0
 45
0.0
1001
ACAD
1000
AcDbSavedByObjectVersion
1070
     0
  0
VISUALSTYLE
  5
4412
102
{ACAD_REACTORS
330
440A
102
}
330
440A
100
AcDbVisualStyle
  2
3D Hidden
 70
     6
 71
     1
 72
     2
 73
     2
 90
        0
 40
-0.6
 41
-30.0
 62
     5
 63
     7
 74
     2
 91
        2
 64
     7
 65
   257
 75
     2
175
     1
 42
40.0
 92
        0
 66
   257
 43
1.0
 76
     1
 77
     6
 78
     2
 67
     7
 79
     3
170
     0
171
     0
290
     0
174
     0
 93
        1
 44
0.0
173
     0
291
     0
 45
0.0
1001
ACAD
1000
AcDbSavedByObjectVersion
1070
     0
  0
VISUALSTYLE
  5
4411
102
{ACAD_REACTORS
330
440A
102
}
330
440A
100
AcDbVisualStyle
  2
3dWireframe
 70
     5
 71
     0
 72
     2
 73
     0
 90
        0
 40
-0.6
 41
-30.0
 62
     5
 63
     7
 74
     1
 91
        4
 64
     7
 65
   257
 75
     1
175
     1
 42
1.0
 92
        0
 66
   257
 43
1.0
 76
     1
 77
     6
 78
     2
 67
     7
 79
     5
170
     0
171
     0
290
     0
174
     0
 93
        1
 44
0.0
173
     0
291
     0
 45
0.0
1001
ACAD
1000
AcDbSavedByObjectVersion
1070
     0
  0
VISUALSTYLE
  5
440F
102
{ACAD_REACTORS
330
440A
102
}
330
440A
100
AcDbVisualStyle
  2
Basic
 70
     7
 71
     1
 72
     0
 73
     1
 90
        0
 40
-0.6
 41
-30.0
 62
     5
 63
     7
 74
     0
 91
        4
 64
     7
 65
   257
 75
     1
175
     1
 42
1.0
 92
        8
 66
     7
 43
1.0
 76
     1
 77
     6
 78
     2
 67
     7
 79
     5
170
     0
171
     0
290
     0
174
     0
 93
        1
 44
0.0
173
     0
291
     1
 45
0.0
1001
ACAD
1000
AcDbSavedByObjectVersion
1070
     0
  0
VISUALSTYLE
  5
4416
102
{ACAD_REACTORS
330
440A
102
}
330
440A
100
AcDbVisualStyle
  2
Brighten
 70
    12
 71
     2
 72
     2
 73
     0
 90
        0
 40
-0.6
 41
-30.0
 62
     5
 63
     7
 74
     1
 91
        4
 64
     7
 65
   257
 75
     1
175
     1
 42
1.0
 92
        8
 66
     7
 43
1.0
 76
     1
 77
     6
 78
     2
 67
     7
 79
     5
170
     0
171
     0
290
     0
174
     0
 93
        1
 44
50.0
173
     0
291
     1
 45
0.0
1001
ACAD
1000
AcDbSavedByObjectVersion
1070
     0
  0
VISUALSTYLE
  5
441A
102
{ACAD_REACTORS
330
440A
102
}
330
440A
100
AcDbVisualStyle
  2
ColorChange
 70
    16
 71
     2
 72
     2
 73
     3
 90
        0
 40
-0.6
 41
-30.0
 62
     5
 63
     8
 74
     1
 91
        4
 64
     7
 65
   257
 75
     1
175
     1
 42
1.0
 92
        8
 66
     8
 43
1.0
 76
     1
 77
     6
 78
     2
 67
     7
 79
     5
170
     0
171
     0
290
     0
174
     0
 93
        1
 44
0.0
173
     0
291
     1
 45
0.0
1001
ACAD
1000
AcDbSavedByObjectVersion
1070
     0
  0
VISUALSTYLE
  5
4413
102
{ACAD_REACTORS
330
440A
102
}
330
440A
100
AcDbVisualStyle
  2
Conceptual
 70
     9
 71
     3
 72
     2
 73
     0
 90
        0
 40
-0.6
 41
-30.0
 62
     5
 63
     7
 74
     2
 91
        2
 64
     7
 65
   257
 75
     1
175
     1
 42
40.0
 92
        8
 66
     7
 43
1.0
 76
     1
 77
     6
 78
     2
 67
     7
 79
     3
170
     0
171
     0
290
     0
174
     0
 93
        1
 44
0.0
173
     0
291
     0
 45
0.0
1001
ACAD
1000
AcDbSavedByObjectVersion
1070
     0
  0
VISUALSTYLE
  5
4415
102
{ACAD_REACTORS
330
440A
102
}
330
440A
100
AcDbVisualStyle
  2
Dim
 70
    11
 71
     2
 72
     2
 73
     0
 90
        0
 40
-0.6
 41
-30.0
 62
     5
 63
     7
 74
     1
 91
        4
 64
     7
 65
   257
 75
     1
175
     1
 42
1.0
 92
        8
 66
     7
 43
1.0
 76
     1
 77
     6
 78
     2
 67
     7
 79
     5
170
     0
171
     0
290
     0
174
     0
 93
        1
 44
-50.0
173
     0
291
     1
 45
0.0
1001
ACAD
1000
AcDbSavedByObjectVersion
1070
     0
  0
VISUALSTYLE
  5
4419
102
{ACAD_REACTORS
330
440A
102
}
330
440A
100
AcDbVisualStyle
  2
Facepattern
 70
    15
 71
     2
 72
     2
 73
     0
 90
        0
 40
-0.6
 41
-30.0
 62
     5
 63
     7
 74
     1
 91
        4
 64
     7
 65
   257
 75
     1
175
     1
 42
1.0
 92
        8
 66
     7
 43
1.0
 76
     1
 77
     6
 78
     2
 67
     7
 79
     5
170
     0
171
     0
290
     0
174
     0
 93
        1
 44
0.0
173
     0
291
     1
 45
0.0
1001
ACAD
1000
AcDbSavedByObjectVersion
1070
     0
  0
VISUALSTYLE
  5
440B
102
{ACAD_REACTORS
330
440A
102
}
330
440A
100
AcDbVisualStyle
  2
Flat
 70
     0
 71
     2
 72
     1
 73
     1
 90
        2
 40
-0.6
 41
30.0
 62
     5
 63
     7
 74
     0
 91
        4
 64
     7
 65
   257
 75
     1
175
     1
 42
1.0
 92
        8
 66
     7
 43
1.0
 76
     1
 77
     6
 78
     2
 67
     7
 79
     5
170
     0
171
     0
290
     0
174
     0
 93
       13
 44
0.0
173
     0
291
     1
 45
0.0
1001
ACAD
1000
AcDbSavedByObjectVersion
1070
     0
  0
VISUALSTYLE
  5
440C
102
{ACAD_REACTORS
330
440A
102
}
330
440A
100
AcDbVisualStyle
  2
FlatWithEdges
 70
     1
 71
     2
 72
     1
 73
     1
 90
        2
 40
-0.6
 41
30.0
 62
     5
 63
     7
 74
     1
 91
        4
 64
     7
 65
   257
 75
     1
175
     1
 42
1.0
 92
        0
 66
   257
 43
1.0
 76
     1
 77
     6
 78
     2
 67
     7
 79
     5
170
     0
171
     0
290
     0
174
     0
 93
       13
 44
0.0
173
     0
291
     1
 45
0.0
1001
ACAD
1000
AcDbSavedByObjectVersion
1070
     0
  0
VISUALSTYLE
  5
440D
102
{ACAD_REACTORS
330
440A
102
}
330
440A
100
AcDbVisualStyle
  2
Gouraud
 70
     2
 71
     2
 72
     2
 73
     1
 90
        2
 40
-0.6
 41
30.0
 62
     5
 63
     7
 74
     0
 91
        4
 64
     7
 65
   257
 75
     1
175
     1
 42
1.0
 92
        0
 66
     7
 43
1.0
 76
     1
 77
     6
 78
     2
 67
     7
 79
     5
170
     0
171
     0
290
     0
174
     0
 93
       13
 44
0.0
173
     0
291
     1
 45
0.0
1001
ACAD
1000
AcDbSavedByObjectVersion
1070
     0
  0
VISUALSTYLE
  5
440E
102
{ACAD_REACTORS
330
440A
102
}
330
440A
100
AcDbVisualStyle
  2
GouraudWithEdges
 70
     3
 71
     2
 72
     2
 73
     1
 90
        2
 40
-0.6
 41
30.0
 62
     5
 63
     7
 74
     1
 91
        4
 64
     7
 65
   257
 75
     1
175
     1
 42
1.0
 92
        0
 66
   257
 43
1.0
 76
     1
 77
     6
 78
     2
 67
     7
 79
     5
170
     0
171
     0
290
     0
174
     0
 93
       13
 44
0.0
173
     0
291
     1
 45
0.0
1001
ACAD
1000
AcDbSavedByObjectVersion
1070
     0
  0
VISUALSTYLE
  5
4418
102
{ACAD_REACTORS
330
440A
102
}
330
440A
100
AcDbVisualStyle
  2
Linepattern
 70
    14
 71
     2
 72
     2
 73
     0
 90
        0
 40
-0.6
 41
-30.0
 62
     5
 63
     7
 74
     1
 91
        4
 64
     7
 65
   257
 75
     7
175
     7
 42
1.0
 92
        8
 66
     7
 43
1.0
 76
     1
 77
     6
 78
     2
 67
     7
 79
     5
170
     0
171
     0
290
     0
174
     0
 93
        1
 44
0.0
173
     0
291
     1
 45
0.0
1001
ACAD
1000
AcDbSavedByObjectVersion
1070
     0
  0
VISUALSTYLE
  5
4414
102
{ACAD_REACTORS
330
440A
102
}
330
440A
100
AcDbVisualStyle
  2
Realistic
 70
     8
 71
     2
 72
     2
 73
     0
 90
        0
 40
-0.6
 41
-30.0
 62
     5
 63
     7
 74
     1
 91
        0
 64
     7
 65
   257
 75
     1
175
     1
 42
1.0
 92
        8
 66
     8
 43
1.0
 76
     1
 77
     6
 78
     2
 67
     7
 79
     5
170
     0
171
     0
290
     0
174
     0
 93
       13
 44
0.0
173
     0
291
     0
 45
0.0
1001
ACAD
1000
AcDbSavedByObjectVersion
1070
     0
  0
VISUALSTYLE
  5
4417
102
{ACAD_REACTORS
330
440A
102
}
330
440A
100
AcDbVisualStyle
  2
Thicken
 70
    13
 71
     2
 72
     2
 73
     0
 90
        0
 40
-0.6
 41
-30.0
 62
     5
 63
     7
 74
     1
 91
        4
 64
     7
 65
   257
 75
     1
175
     1
 42
1.0
 92
       12
 66
     7
 43
1.0
 76
     1
 77
     6
 78
     2
 67
     7
 79
     5
170
     0
171
     0
290
     0
174
     0
 93
        1
 44
0.0
173
     0
291
     1
 45
0.0
1001
ACAD
1000
AcDbSavedByObjectVersion
1070
     0
  0
DICTIONARYVAR
  5
44B5
102
{ACAD_REACTORS
330
9E
102
}
330
9E
100
DictionaryVariables
280
     0
  1
1:1
  0
DICTIONARYVAR
  5
44B4
102
{ACAD_REACTORS
330
9E
102
}
330
9E
100
DictionaryVariables
280
     0
  1
STANDARD
  0
DICTIONARYVAR
  5
C25
102
{ACAD_REACTORS
330
9E
102
}
330
9E
100
DictionaryVariables
280
     0
  1
STANDARD
  0
DICTIONARYVAR
  5
A0
102
{ACAD_REACTORS
330
9E
102
}
330
9E
100
DictionaryVariables
280
     0
  1
1
  0
DICTIONARYVAR
  5
9F
102
{ACAD_REACTORS
330
9E
102
}
330
9E
100
DictionaryVariables
280
     0
  1
0
  0
DICTIONARYVAR
  5
45B4
102
{ACAD_REACTORS
330
9E
102
}
330
9E
100
DictionaryVariables
280
     0
  1
127
  0
DICTIONARY
  5
9A7
102
{ACAD_REACTORS
330
63
102
}
330
63
100
AcDbDictionary
281
     1
  0
DICTIONARY
  5
69
102
{ACAD_REACTORS
330
63
102
}
330
63
100
AcDbDictionary
281
     1
  0
XRECORD
  5
BE7
102
{ACAD_REACTORS
330
63
102
}
330
63
100
AcDbXrecord
280
     1
 90
-1023410169
  0
DICTIONARY
  5
45B9
330
22
100
AcDbDictionary
280
     1
281
     1
  3
ACAD_XREC_ROUNDTRIP
360
45BA
  0
DICTIONARY
  5
45B7
330
1E
100
AcDbDictionary
280
     1
281
     1
  3
ACAD_XREC_ROUNDTRIP
360
45B8
  0
DICTIONARY
  5
45BB
330
26
100
AcDbDictionary
280
     1
281
     1
  3
ACAD_XREC_ROUNDTRIP
360
45BC
  0
DICTIONARY
  5
43FB
330
43FA
100
AcDbDictionary
280
     1
281
     1
  3
ACAD_XREC_ROUNDTRIP
360
45C3
  3
BUMPTILE
360
43FD
  3
DIFFUSETILE
360
43FC
  3
OPACITYTILE
360
4400
  3
REFLECTIONTILE
360
43FF
  3
REFRACTIONTILE
360
4401
  3
SPECULARTILE
360
43FE
  0
DICTIONARY
  5
43F3
330
43F2
100
AcDbDictionary
280
     1
281
     1
  3
ACAD_XREC_ROUNDTRIP
360
45C2
  3
BUMPTILE
360
43F5
  3
DIFFUSETILE
360
43F4
  3
OPACITYTILE
360
43F8
  3
REFLECTIONTILE
360
43F7
  3
REFRACTIONTILE
360
43F9
  3
SPECULARTILE
360
43F6
  0
DICTIONARY
  5
4403
330
4402
100
AcDbDictionary
280
     1
281
     1
  3
ACAD_XREC_ROUNDTRIP
360
45C4
  3
BUMPTILE
360
4405
  3
DIFFUSETILE
360
4404
  3
OPACITYTILE
360
4408
  3
REFLECTIONTILE
360
4407
  3
REFRACTIONTILE
360
4409
  3
SPECULARTILE
360
4406
  0
DICTIONARY
  5
449A
330
BD7
100
AcDbDictionary
280
     1
281
     1
  3
ACAD_ROUNDTRIP_2008_TABLESTYLE_CELLSTYLEMAP
360
45B5
  3
ACAD_XREC_ROUNDTRIP
360
45C1
  0
XRECORD
  5
45BA
102
{ACAD_REACTORS
330
45B9
102
}
330
45B9
100
AcDbXrecord
280
     1
102
SHADEPLOT
 70
     0
102
SHADEPLOTRESLEVEL
 70
     2
102
SHADEPLOTCUSTOMDPI
 70
   300
  0
XRECORD
  5
45B8
102
{ACAD_REACTORS
330
45B7
102
}
330
45B7
100
AcDbXrecord
280
     1
102
SHADEPLOT
 70
     1
102
SHADEPLOTRESLEVEL
 70
     2
102
SHADEPLOTCUSTOMDPI
 70
   300
  0
XRECORD
  5
45BC
102
{ACAD_REACTORS
330
45BB
102
}
330
45BB
100
AcDbXrecord
280
     1
102
SHADEPLOT
 70
     1
102
SHADEPLOTRESLEVEL
 70
     2
102
SHADEPLOTCUSTOMDPI
 70
   300
  0
XRECORD
  5
45C3
102
{ACAD_REACTORS
330
43FB
102
}
330
43FB
100
AcDbXrecord
280
     1
102
MATERIAL
148
0.0
149
0.0
149
0.0
 93
        0
 94
      127
282
     0
 72
     0
 77
     0
171
     0
175
     0
179
     0
273
     0
  0
XRECORD
  5
43FD
102
{ACAD_REACTORS
330
43FB
102
}
330
43FB
100
AcDbXrecord
280
     1
270
     1
271
     1
  0
XRECORD
  5
43FC
102
{ACAD_REACTORS
330
43FB
102
}
330
43FB
100
AcDbXrecord
280
     1
270
     1
271
     1
  0
XRECORD
  5
4400
102
{ACAD_REACTORS
330
43FB
102
}
330
43FB
100
AcDbXrecord
280
     1
270
     1
271
     1
  0
XRECORD
  5
43FF
102
{ACAD_REACTORS
330
43FB
102
}
330
43FB
100
AcDbXrecord
280
     1
270
     1
271
     1
  0
XRECORD
  5
4401
102
{ACAD_REACTORS
330
43FB
102
}
330
43FB
100
AcDbXrecord
280
     1
270
     1
271
     1
  0
XRECORD
  5
43FE
102
{ACAD_REACTORS
330
43FB
102
}
330
43FB
100
AcDbXrecord
280
     1
270
     1
271
     1
  0
XRECORD
  5
45C2
102
{ACAD_REACTORS
330
43F3
102
}
330
43F3
100
AcDbXrecord
280
     1
102
MATERIAL
148
0.0
149
0.0
149
0.0
 93
        0
 94
      127
282
     0
 72
     0
 77
     0
171
     0
175
     0
179
     0
273
     0
  0
XRECORD
  5
43F5
102
{ACAD_REACTORS
330
43F3
102
}
330
43F3
100
AcDbXrecord
280
     1
270
     1
271
     1
  0
XRECORD
  5
43F4
102
{ACAD_REACTORS
330
43F3
102
}
330
43F3
100
AcDbXrecord
280
     1
270
     1
271
     1
  0
XRECORD
  5
43F8
102
{ACAD_REACTORS
330
43F3
102
}
330
43F3
100
AcDbXrecord
280
     1
270
     1
271
     1
  0
XRECORD
  5
43F7
102
{ACAD_REACTORS
330
43F3
102
}
330
43F3
100
AcDbXrecord
280
     1
270
     1
271
     1
  0
XRECORD
  5
43F9
102
{ACAD_REACTORS
330
43F3
102
}
330
43F3
100
AcDbXrecord
280
     1
270
     1
271
     1
  0
XRECORD
  5
43F6
102
{ACAD_REACTORS
330
43F3
102
}
330
43F3
100
AcDbXrecord
280
     1
270
     1
271
     1
  0
XRECORD
  5
45C4
102
{ACAD_REACTORS
330
4403
102
}
330
4403
100
AcDbXrecord
280
     1
102
MATERIAL
148
0.0
149
0.0
149
0.0
 93
        0
 94
      127
282
     0
 72
     0
 77
     0
171
     0
175
     0
179
     0
273
     0
  0
XRECORD
  5
4405
102
{ACAD_REACTORS
330
4403
102
}
330
4403
100
AcDbXrecord
280
     1
270
     1
271
     1
  0
XRECORD
  5
4404
102
{ACAD_REACTORS
330
4403
102
}
330
4403
100
AcDbXrecord
280
     1
270
     1
271
     1
  0
XRECORD
  5
4408
102
{ACAD_REACTORS
330
4403
102
}
330
4403
100
AcDbXrecord
280
     1
270
     1
271
     1
  0
XRECORD
  5
4407
102
{ACAD_REACTORS
330
4403
102
}
330
4403
100
AcDbXrecord
280
     1
270
     1
271
     1
  0
XRECORD
  5
4409
102
{ACAD_REACTORS
330
4403
102
}
330
4403
100
AcDbXrecord
280
     1
270
     1
271
     1
  0
XRECORD
  5
4406
102
{ACAD_REACTORS
330
4403
102
}
330
4403
100
AcDbXrecord
280
     1
270
     1
271
     1
  0
CELLSTYLEMAP
  5
45B5
102
{ACAD_REACTORS
330
449A
102
}
330
449A
100
AcDbCellStyleMap
 90
        3
300
CELLSTYLE
  1
TABLEFORMAT_BEGIN
 90
        5
170
     1
 91
        0
 92
    32768
 62
   257
 93
        1
300
CONTENTFORMAT
  1
CONTENTFORMAT_BEGIN
 90
        0
 91
        0
 92
        4
 93
        0
300

 40
0.0
140
1.0
 94
        5
 62
     0
340
11
144
6.0
309
CONTENTFORMAT_END
171
     1
301
MARGIN
  1
CELLMARGIN_BEGIN
 40
1.5
 40
1.5
 40
1.5
 40
1.5
 40
0.18
 40
0.18
309
CELLMARGIN_END
 94
        6
 95
        1
302
GRIDFORMAT
  1
GRIDFORMAT_BEGIN
 90
        0
 91
        1
 62
     0
 92
       -2
340
0
 93
        0
 40
0.045
309
GRIDFORMAT_END
 95
        2
302
GRIDFORMAT
  1
GRIDFORMAT_BEGIN
 90
        0
 91
        1
 62
     0
 92
       -2
340
0
 93
        0
 40
0.045
309
GRIDFORMAT_END
 95
        4
302
GRIDFORMAT
  1
GRIDFORMAT_BEGIN
 90
        0
 91
        1
 62
     0
 92
       -2
340
0
 93
        0
 40
0.045
309
GRIDFORMAT_END
 95
        8
302
GRIDFORMAT
  1
GRIDFORMAT_BEGIN
 90
        0
 91
        1
 62
     0
 92
       -2
340
0
 93
        0
 40
0.045
309
GRIDFORMAT_END
 95
       16
302
GRIDFORMAT
  1
GRIDFORMAT_BEGIN
 90
        0
 91
        1
 62
     0
 92
       -2
340
0
 93
        0
 40
0.045
309
GRIDFORMAT_END
 95
       32
302
GRIDFORMAT
  1
GRIDFORMAT_BEGIN
 90
        0
 91
        1
 62
     0
 92
       -2
340
0
 93
        0
 40
0.045
309
GRIDFORMAT_END
309
TABLEFORMAT_END
  1
CELLSTYLE_BEGIN
 90
        1
 91
        1
300
_TITLE
309
CELLSTYLE_END
300
CELLSTYLE
  1
TABLEFORMAT_BEGIN
 90
        5
170
     1
 91
        0
 92
        0
 62
   257
 93
        1
300
CONTENTFORMAT
  1
CONTENTFORMAT_BEGIN
 90
        0
 91
        0
 92
        4
 93
        0
300

 40
0.0
140
1.0
 94
        5
 62
     0
340
11
144
4.5
309
CONTENTFORMAT_END
171
     1
301
MARGIN
  1
CELLMARGIN_BEGIN
 40
1.5
 40
1.5
 40
1.5
 40
1.5
 40
0.18
 40
0.18
309
CELLMARGIN_END
 94
        6
 95
        1
302
GRIDFORMAT
  1
GRIDFORMAT_BEGIN
 90
        0
 91
        1
 62
     0
 92
       -2
340
0
 93
        0
 40
0.045
309
GRIDFORMAT_END
 95
        2
302
GRIDFORMAT
  1
GRIDFORMAT_BEGIN
 90
        0
 91
        1
 62
     0
 92
       -2
340
0
 93
        0
 40
0.045
309
GRIDFORMAT_END
 95
        4
302
GRIDFORMAT
  1
GRIDFORMAT_BEGIN
 90
        0
 91
        1
 62
     0
 92
       -2
340
0
 93
        0
 40
0.045
309
GRIDFORMAT_END
 95
        8
302
GRIDFORMAT
  1
GRIDFORMAT_BEGIN
 90
        0
 91
        1
 62
     0
 92
       -2
340
0
 93
        0
 40
0.045
309
GRIDFORMAT_END
 95
       16
302
GRIDFORMAT
  1
GRIDFORMAT_BEGIN
 90
        0
 91
        1
 62
     0
 92
       -2
340
0
 93
        0
 40
0.045
309
GRIDFORMAT_END
 95
       32
302
GRIDFORMAT
  1
GRIDFORMAT_BEGIN
 90
        0
 91
        1
 62
     0
 92
       -2
340
0
 93
        0
 40
0.045
309
GRIDFORMAT_END
309
TABLEFORMAT_END
  1
CELLSTYLE_BEGIN
 90
        2
 91
        1
300
_HEADER
309
CELLSTYLE_END
300
CELLSTYLE
  1
TABLEFORMAT_BEGIN
 90
        5
170
     1
 91
        0
 92
        0
 62
   257
 93
        1
300
CONTENTFORMAT
  1
CONTENTFORMAT_BEGIN
 90
        0
 91
        0
 92
        4
 93
        0
300

 40
0.0
140
1.0
 94
        2
 62
     0
340
11
144
4.5
309
CONTENTFORMAT_END
171
     1
301
MARGIN
  1
CELLMARGIN_BEGIN
 40
1.5
 40
1.5
 40
1.5
 40
1.5
 40
0.18
 40
0.18
309
CELLMARGIN_END
 94
        6
 95
        1
302
GRIDFORMAT
  1
GRIDFORMAT_BEGIN
 90
        0
 91
        1
 62
     0
 92
       -2
340
0
 93
        0
 40
0.045
309
GRIDFORMAT_END
 95
        2
302
GRIDFORMAT
  1
GRIDFORMAT_BEGIN
 90
        0
 91
        1
 62
     0
 92
       -2
340
0
 93
        0
 40
0.045
309
GRIDFORMAT_END
 95
        4
302
GRIDFORMAT
  1
GRIDFORMAT_BEGIN
 90
        0
 91
        1
 62
     0
 92
       -2
340
0
 93
        0
 40
0.045
309
GRIDFORMAT_END
 95
        8
302
GRIDFORMAT
  1
GRIDFORMAT_BEGIN
 90
        0
 91
        1
 62
     0
 92
       -2
340
0
 93
        0
 40
0.045
309
GRIDFORMAT_END
 95
       16
302
GRIDFORMAT
  1
GRIDFORMAT_BEGIN
 90
        0
 91
        1
 62
     0
 92
       -2
340
0
 93
        0
 40
0.045
309
GRIDFORMAT_END
 95
       32
302
GRIDFORMAT
  1
GRIDFORMAT_BEGIN
 90
        0
 91
        1
 62
     0
 92
       -2
340
0
 93
        0
 40
0.045
309
GRIDFORMAT_END
309
TABLEFORMAT_END
  1
CELLSTYLE_BEGIN
 90
        3
 91
        2
300
_DATA
309
CELLSTYLE_END
  0
XRECORD
  5
45C1
102
{ACAD_REACTORS
330
449A
102
}
330
449A
100
AcDbXrecord
280
     1
102
ACAD_ROUNDTRIP_PRE2007_TABLESTYLE
 90
        4
 91
        0
  1

 92
        4
 93
        0
  2

 94
        4
 95
        0
  3

  0
ENDSEC
  0
EOF
