  0
SECTION
  2
HEADER
  9
$ACADVER
  1
AC1015
  9
$ACADMAINTVER
 70
    20
  9
$DWGCODEPAGE
  3
ANSI_932
  9
$INSBASE
 10
0.0
 20
0.0
 30
0.0
  9
$EXTMIN
 10
-0.0000000000001137
 20
-0.0000000000000533
 30
0.0
  9
$EXTMAX
 10
193.0000000000001
 20
280.0000000000001
 30
0.0
  9
$LIMMIN
 10
0.0
 20
0.0
  9
$LIMMAX
 10
193.0
 20
280.0000000000001
  9
$ORTHOMODE
 70
     1
  9
$REGENMODE
 70
     1
  9
$FILLMODE
 70
     1
  9
$QTEXTMODE
 70
     0
  9
$MIRRTEXT
 70
     1
  9
$LTSCALE
 40
1.0
  9
$ATTMODE
 70
     1
  9
$TEXTSIZE
 40
73.98571745357912
  9
$TRACEWID
 40
1.0
  9
$TEXTSTYLE
  7
STANDARD
  9
$CLAYER
  8
0
  9
$CELTYPE
  6
ByLayer
  9
$CECOLOR
 62
   256
  9
$CELTSCALE
 40
1.0
  9
$DISPSILH
 70
     0
  9
$DIMSCALE
 40
1.0
  9
$DIMASZ
 40
2.5
  9
$DIMEXO
 40
1.0
  9
$DIMDLI
 40
10.0
  9
$DIMRND
 40
0.0
  9
$DIMDLE
 40
0.0
  9
$DIMEXE
 40
1.0
  9
$DIMTP
 40
0.1
  9
$DIMTM
 40
0.1
  9
$DIMTXT
 40
3.5
  9
$DIMCEN
 40
0.0
  9
$DIMTSZ
 40
0.0
  9
$DIMTOL
 70
     0
  9
$DIMLIM
 70
     0
  9
$DIMTIH
 70
     0
  9
$DIMTOH
 70
     0
  9
$DIMSE1
 70
     0
  9
$DIMSE2
 70
     0
  9
$DIMTAD
 70
     1
  9
$DIMZIN
 70
     8
  9
$DIMBLK
  1
Open30
  9
$DIMASO
 70
     1
  9
$DIMSHO
 70
     1
  9
$DIMPOST
  1

  9
$DIMAPOST
  1
"
  9
$DIMALT
 70
     0
  9
$DIMALTD
 70
     2
  9
$DIMALTF
 40
0.0393701
  9
$DIMLFAC
 40
1.0
  9
$DIMTOFL
 70
     1
  9
$DIMTVP
 40
0.0
  9
$DIMTIX
 70
     0
  9
$DIMSOXD
 70
     0
  9
$DIMSAH
 70
     0
  9
$DIMBLK1
  1

  9
$DIMBLK2
  1

  9
$DIMSTYLE
  2
AM_ISO
  9
$DIMCLRD
 70
   256
  9
$DIMCLRE
 70
   256
  9
$DIMCLRT
 70
     2
  9
$DIMTFAC
 40
0.71
  9
$DIMGAP
 40
1.5
  9
$DIMJUST
 70
     0
  9
$DIMSD1
 70
     0
  9
$DIMSD2
 70
     0
  9
$DIMTOLJ
 70
     0
  9
$DIMTZIN
 70
     8
  9
$DIMALTZ
 70
     0
  9
$DIMALTTZ
 70
     0
  9
$DIMUPT
 70
     0
  9
$DIMDEC
 70
     2
  9
$DIMTDEC
 70
     2
  9
$DIMALTU
 70
     2
  9
$DIMALTTD
 70
     2
  9
$DIMTXSTY
  7
STANDARD
  9
$DIMAUNIT
 70
     0
  9
$DIMADEC
 70
     0
  9
$DIMALTRND
 40
0.0
  9
$DIMAZIN
 70
     2
  9
$DIMDSEP
 70
    46
  9
$DIMATFIT
 70
     3
  9
$DIMFRAC
 70
     0
  9
$DIMLDRBLK
  1
Open30
  9
$DIMLUNIT
 70
     2
  9
$DIMLWD
 70
    -1
  9
$DIMLWE
 70
    -1
  9
$DIMTMOVE
 70
     0
  9
$LUNITS
 70
     2
  9
$LUPREC
 70
     2
  9
$SKETCHINC
 40
1.0
  9
$FILLETRAD
 40
2.5
  9
$AUNITS
 70
     0
  9
$AUPREC
 70
     0
  9
$MENU
  1
.
  9
$ELEVATION
 40
0.0
  9
$PELEVATION
 40
0.0
  9
$THICKNESS
 40
0.0
  9
$LIMCHECK
 70
     0
  9
$CHAMFERA
 40
5.7
  9
$CHAMFERB
 40
5.7
  9
$CHAMFERC
 40
20.0
  9
$CHAMFERD
 40
0.0
  9
$SKPOLY
 70
     0
  9
$TDCREATE
 40
2453328.652169769
  9
$TDUCREATE
 40
2453328.277169769
  9
$TDUPDATE
 40
2455068.669052188
  9
$TDUUPDATE
 40
2455068.294052188
  9
$TDINDWG
 40
0.0309783333
  9
$TDUSRTIMER
 40
0.0309783333
  9
$USRTIMER
 70
     1
  9
$ANGBASE
 50
0.0
  9
$ANGDIR
 70
     0
  9
$PDMODE
 70
     0
  9
$PDSIZE
 40
0.0
  9
$PLINEWID
 40
0.0
  9
$SPLFRAME
 70
     0
  9
$SPLINETYPE
 70
     6
  9
$SPLINESEGS
 70
     8
  9
$HANDSEED
  5
1B9E
  9
$SURFTAB1
 70
     6
  9
$SURFTAB2
 70
     6
  9
$SURFTYPE
 70
     6
  9
$SURFU
 70
     6
  9
$SURFV
 70
     6
  9
$UCSBASE
  2

  9
$UCSNAME
  2

  9
$UCSORG
 10
0.0
 20
0.0
 30
0.0
  9
$UCSXDIR
 10
1.0
 20
0.0
 30
0.0
  9
$UCSYDIR
 10
0.0
 20
1.0
 30
0.0
  9
$UCSORTHOREF
  2

  9
$UCSORTHOVIEW
 70
     0
  9
$UCSORGTOP
 10
0.0
 20
0.0
 30
0.0
  9
$UCSORGBOTTOM
 10
0.0
 20
0.0
 30
0.0
  9
$UCSORGLEFT
 10
0.0
 20
0.0
 30
0.0
  9
$UCSORGRIGHT
 10
0.0
 20
0.0
 30
0.0
  9
$UCSORGFRONT
 10
0.0
 20
0.0
 30
0.0
  9
$UCSORGBACK
 10
0.0
 20
0.0
 30
0.0
  9
$PUCSBASE
  2

  9
$PUCSNAME
  2

  9
$PUCSORG
 10
0.0
 20
0.0
 30
0.0
  9
$PUCSXDIR
 10
1.0
 20
0.0
 30
0.0
  9
$PUCSYDIR
 10
0.0
 20
1.0
 30
0.0
  9
$PUCSORTHOREF
  2

  9
$PUCSORTHOVIEW
 70
     0
  9
$PUCSORGTOP
 10
0.0
 20
0.0
 30
0.0
  9
$PUCSORGBOTTOM
 10
0.0
 20
0.0
 30
0.0
  9
$PUCSORGLEFT
 10
0.0
 20
0.0
 30
0.0
  9
$PUCSORGRIGHT
 10
0.0
 20
0.0
 30
0.0
  9
$PUCSORGFRONT
 10
0.0
 20
0.0
 30
0.0
  9
$PUCSORGBACK
 10
0.0
 20
0.0
 30
0.0
  9
$USERI1
 70
     0
  9
$USERI2
 70
     0
  9
$USERI3
 70
     0
  9
$USERI4
 70
     0
  9
$USERI5
 70
     0
  9
$USERR1
 40
0.0
  9
$USERR2
 40
0.0
  9
$USERR3
 40
0.0
  9
$USERR4
 40
0.0
  9
$USERR5
 40
0.0
  9
$WORLDVIEW
 70
     1
  9
$SHADEDGE
 70
     3
  9
$SHADEDIF
 70
    70
  9
$TILEMODE
 70
     1
  9
$MAXACTVP
 70
    64
  9
$PINSBASE
 10
0.0
 20
0.0
 30
0.0
  9
$PLIMCHECK
 70
     0
  9
$PEXTMIN
 10
1.000000000000000E+20
 20
1.000000000000000E+20
 30
1.000000000000000E+20
  9
$PEXTMAX
 10
-1.000000000000000E+20
 20
-1.000000000000000E+20
 30
-1.000000000000000E+20
  9
$PLIMMIN
 10
-6.350006103515625
 20
-6.349999904632568
  9
$PLIMMAX
 10
273.0499877929688
 20
209.5499939918518
  9
$UNITMODE
 70
     0
  9
$VISRETAIN
 70
     1
  9
$PLINEGEN
 70
     0
  9
$PSLTSCALE
 70
     1
  9
$TREEDEPTH
 70
  3020
  9
$CMLSTYLE
  2
Standard
  9
$CMLJUST
 70
     0
  9
$CMLSCALE
 40
20.0
  9
$PROXYGRAPHICS
 70
     1
  9
$MEASUREMENT
 70
     1
  9
$CELWEIGHT
370
    -1
  9
$ENDCAPS
280
     0
  9
$JOINSTYLE
280
     0
  9
$LWDISPLAY
290
     0
  9
$INSUNITS
 70
     4
  9
$HYPERLINKBASE
  1

  9
$STYLESHEET
  1
takachi-1.ctb
  9
$XEDIT
290
     1
  9
$CEPSNTYPE
380
     0
  9
$PSTYLEMODE
290
     1
  9
$FINGERPRINTGUID
  2
{FDEAD578-A652-11D2-9A35-0060089B3A3F}
  9
$VERSIONGUID
  2
{95002035-C7BA-4127-AF7A-5AFB2099AE62}
  9
$EXTNAMES
290
     1
  9
$PSVPSCALE
 40
0.0
  9
$OLESTARTUP
290
     0
  0
ENDSEC
  0
SECTION
  2
CLASSES
  0
CLASS
  1
ACDBDICTIONARYWDFLT
  2
AcDbDictionaryWithDefault
  3
ObjectDBX Classes
 90
        0
280
     0
281
     0
  0
CLASS
  1
ACDBPLACEHOLDER
  2
AcDbPlaceHolder
  3
ObjectDBX Classes
 90
        0
280
     0
281
     0
  0
CLASS
  1
LAYOUT
  2
AcDbLayout
  3
ObjectDBX Classes
 90
        0
280
     0
281
     0
  0
CLASS
  1
ACME_DOCUMENT
  2
AcMeDbDoc
  3
AcMeServices
 90
     1024
280
     0
281
     0
  0
CLASS
  1
AMGSETTINGSOBJ
  2
AmgSettingsObj
  3
"AcadM|Product Description: AutoCAD Mechanical|Company: Autodesk, Inc."
 90
     1024
280
     0
281
     0
  0
CLASS
  1
ACMESCOPE
  2
AcMeScope
  3
AcMeServices
 90
     1024
280
     0
281
     0
  0
CLASS
  1
ACMECOMMANDHISTORY
  2
AcMeCommandHistory
  3
AcMeServices
 90
     1024
280
     0
281
     0
  0
CLASS
  1
ACIMSYSVARMAN
  2
AcImSysVarManager
  3
AcMeServices
 90
     1024
280
     0
281
     0
  0
CLASS
  1
ACIMREALSYSVAR
  2
AcImRealSysVar
  3
AcMeServices
 90
     1024
280
     0
281
     0
  0
CLASS
  1
ACIMINTSYSVAR
  2
AcImIntSysVar
  3
AcMeServices
 90
     1024
280
     0
281
     0
  0
CLASS
  1
ACMEDRAWINGMAN
  2
AcMeDrawingMan
  3
AcMeServices
 90
     1024
280
     0
281
     0
  0
CLASS
  1
ACMEVIEW
  2
AcMeView
  3
AcMeServices
 90
     1024
280
     0
281
     0
  0
CLASS
  1
ACDBENTITYCACHE
  2
AcMeEntityCache
  3
AcMeServices
 90
     1024
280
     0
281
     0
  0
CLASS
  1
GSMANAGER
  2
AcMeGSManager
  3
AcMeServices
 90
     1024
280
     0
281
     0
  0
CLASS
  1
AMDTINTERNALREACTOR
  2
AmdtInternalReactor
  3
AcMeServices
 90
     1024
280
     0
281
     0
  0
CLASS
  1
ACMESTATEMGR
  2
AcMeStateMgr
  3
AcMeServices
 90
     1024
280
     0
281
     0
  0
CLASS
  1
ACGREFMASTER
  2
AcGrefMaster
  3
AcAttribServices
 90
     1024
280
     0
281
     0
  0
CLASS
  1
ACME_DATABASE
  2
AcMeDbDatabase
  3
AcMeServices
 90
     1024
280
     0
281
     0
  0
CLASS
  1
ACRFINSADJUSTERMGR
  2
AcRfInsAdjusterMgr
  3
AcMeServices
 90
     1024
280
     0
281
     0
  0
CLASS
  1
ACGREFACADMASTER
  2
AcGrefacadMaster
  3
AcGrefServices
 90
     1024
280
     0
281
     0
  0
CLASS
  1
AMIMASTER
  2
AmiMaster
  3
AmiServices
 90
     1024
280
     0
281
     0
  0
CLASS
  1
ACMDATADICTIONARY
  2
AcmDataDictionary
  3
"AcmSymBB|Product Description: AutoCAD Mechanical|Company: Autodesk, Inc."
 90
     1024
280
     0
281
     0
  0
CLASS
  1
ACMDATAENTRYBLOCK
  2
AcmDataEntryBlock
  3
AcmSymBB|Product Description: AutoCAD Mechanical|Company: Autodesk, Inc.
 90
     1024
280
     0
281
     0
  0
CLASS
  1
ACIMSTRSYSVAR
  2
AcImStrSysVar
  3
AcMeServices
 90
     1024
280
     0
281
     0
  0
CLASS
  1
ACMSTANDARDISO
  2
AcmStandardISO
  3
"Amdt_StdImp|Product Description: AutoCAD Mechanical|Company: Autodesk, Inc."
 90
     1024
280
     0
281
     0
  0
CLASS
  1
AMGOBJPROPCFG
  2
AmgObjPropCfg
  3
"AmgLay|Product Description: AutoCAD Mechanical|Company: Autodesk, Inc."
 90
     1025
280
     0
281
     0
  0
CLASS
  1
AMDTEDGESTANDARDISO
  2
AmdtEdgeStdISO
  3
"Amdt_StdImp|Product Description: AutoCAD Mechanical|Company: Autodesk, Inc."
 90
     1024
280
     0
281
     0
  0
CLASS
  1
ACMSURFSTANDARDISO
  2
AcmSurfTextStdISO
  3
"Amdt_StdImp|Product Description: AutoCAD Mechanical|Company: Autodesk, Inc."
 90
     1024
280
     0
281
     0
  0
CLASS
  1
ACMFCFSTANDARDISO
  2
AcmFCFStdISO
  3
"Amdt_StdImp|Product Description: AutoCAD Mechanical|Company: Autodesk, Inc."
 90
     1024
280
     0
281
     0
  0
CLASS
  1
ACMWELDSTANDARDISO
  2
AcmWeldingStdISO
  3
"Amdt_StdImp|Product Description: AutoCAD Mechanical|Company: Autodesk, Inc."
 90
     1024
280
     0
281
     0
  0
CLASS
  1
ACMIDSTANDARDISO
  2
AcmIdStdISO
  3
"Amdt_StdImp|Product Description: AutoCAD Mechanical|Company: Autodesk, Inc."
 90
     1024
280
     0
281
     0
  0
CLASS
  1
ACMDATUMSTANDARDISO
  2
AcmDatumStdISO
  3
"Amdt_StdImp|Product Description: AutoCAD Mechanical|Company: Autodesk, Inc."
 90
     1024
280
     0
281
     0
  0
CLASS
  1
ACMBOMSTANDARDISO
  2
AcmBOMStdISO
  3
"Amdt_StdImp|Product Description: AutoCAD Mechanical|Company: Autodesk, Inc."
 90
     1024
280
     0
281
     0
  0
CLASS
  1
ACMDETAILSTANDARDISO
  2
AmdtDetailSymStdISO
  3
"Amdt_StdImp|Product Description: AutoCAD Mechanical|Company: Autodesk, Inc."
 90
     1024
280
     0
281
     0
  0
CLASS
  1
ACMSECTIONSTANDARDISO
  2
AmdtSectionSymStdISO
  3
"Amdt_StdImp|Product Description: AutoCAD Mechanical|Company: Autodesk, Inc."
 90
     1024
280
     0
281
     0
  0
CLASS
  1
ACMCENTERLINESTANDARDISO
  2
AmdtCenterLineStdISO
  3
"Amdt_StdImp|Product Description: AutoCAD Mechanical|Company: Autodesk, Inc."
 90
     1024
280
     0
281
     0
  0
CLASS
  1
ACMNOTESTANDARDISO
  2
AmdtNoteStdISO
  3
"Amdt_StdImp|Product Description: AutoCAD Mechanical|Company: Autodesk, Inc."
 90
     1024
280
     0
281
     0
  0
CLASS
  1
ACAMGLAYSTD
  2
AcAmgLayStd
  3
"AmgLay|Product Description: AutoCAD Mechanical|Company: Autodesk, Inc."
 90
     1024
280
     0
281
     0
  0
CLASS
  1
ACAMGDIMSTD
  2
AcAmgDimStd
  3
"AmgDim|Product Description: AutoCAD Mechanical|Company: Autodesk, Inc."
 90
     1024
280
     0
281
     0
  0
CLASS
  1
ACAMGHOLECHARTSTDISO
  2
AcAmgHoleChartStdISO
  3
AmgDim|Product Description: AutoCAD Mechanical|Company: Autodesk, Inc.
 90
     1024
280
     0
281
     0
  0
CLASS
  1
ACAMGTITLESTD
  2
AcAmgTitleStd
  3
"AmgTitle|Product Description: AutoCAD Mechanical|Company: Autodesk, Inc."
 90
     4095
280
     0
281
     0
  0
CLASS
  1
LAYER_INDEX
  2
AcDbLayerIndex
  3
ObjectDBX Classes
 90
    32768
280
     0
281
     0
  0
CLASS
  1
IDBUFFER
  2
AcDbIdBuffer
  3
ObjectDBX Classes
 90
    32768
280
     0
281
     0
  0
CLASS
  1
DICTIONARYVAR
  2
AcDbDictionaryVar
  3
ObjectDBX Classes
 90
        0
280
     0
281
     0
  0
CLASS
  1
AM_DRAWING_MGR
  2
AcDmDwgMgr
  3
AcMechDwgViewMgmt
 90
     1024
280
     0
281
     0
  0
CLASS
  1
AM_DWG_DOCUMENT
  2
AcDmDwgDocument
  3
AcMechDwgViewMgmt
 90
     1024
280
     0
281
     0
  0
CLASS
  1
AM_DWG_SHEET
  2
AcDmSheet
  3
AcMechDwgViewMgmt
 90
     1024
280
     0
281
     0
  0
CLASS
  1
AM_VIEWDIMPARMAP
  2
AcDmViewDimParMap
  3
AcMechDwgViewMgmt
 90
     1024
280
     0
281
     0
  0
CLASS
  1
AM_DWGMGR_NAME
  2
AcDmDwgMgrName
  3
AcMechDwgViewMgmt
 90
     1024
280
     0
281
     0
  0
CLASS
  1
AMDTMENUSTATEMGR
  2
AmdtMenuStateMgr
  3
McadcomServices
 90
     1024
280
     0
281
     0
  0
CLASS
  1
AMDTMCOMMENUSTATE
  2
AmdtMcomMenuState
  3
McadcomServices
 90
     1024
280
     0
281
     0
  0
CLASS
  1
MAPIAMMOUDLE
  2
MApiAmModule
  3
MApiAmServices
 90
     1024
280
     0
281
     0
  0
CLASS
  1
AMDTADMENUSTATE
  2
AmdtAdMenuState
  3
DesignerServices
 90
     1024
280
     0
281
     0
  0
CLASS
  1
ADAPPL
  2
AcAdAppl
  3
DesignerServices
 90
     1024
280
     0
281
     0
  0
CLASS
  1
DEPMGR
  2
AcAdDepMgr
  3
DesignerServices
 90
     1024
280
     0
281
     0
  0
CLASS
  1
PARAMMGR
  2
AcAdParamMgr
  3
DesignerServices
 90
     1024
280
     0
281
     0
  0
CLASS
  1
PARAMSCOPE
  2
AcAdParamScope
  3
DesignerServices
 90
     1024
280
     0
281
     0
  0
CLASS
  1
NAMEDAPPL
  2
AcAdNamedAppl
  3
DesignerServices
 90
     1024
280
     0
281
     0
  0
CLASS
  1
AMDTDMMENUSTATE
  2
AmdtDmMenuState
  3
AcMechDwgViewMgmt
 90
     1024
280
     0
281
     0
  0
CLASS
  1
AMDTAMMENUSTATE
  2
AmdtAmMenuState
  3
DesignerAssemblies
 90
     1024
280
     0
281
     0
  0
CLASS
  1
ACAMPROJECT
  2
AcAmProject
  3
DesignerAssemblies
 90
     1024
280
     0
281
     0
  0
CLASS
  1
ACAMGRCOMPDEF
  2
AcAmGrCompDef
  3
DesignerAssemblies
 90
     1024
280
     0
281
     0
  0
CLASS
  1
ACCMCONTEXT
  2
AcCmContext
  3
DesignerAssemblies
 90
     1024
280
     0
281
     0
  0
CLASS
  1
ACAMCOMPDEF
  2
AcAmCompDef
  3
DesignerAssemblies
 90
     1024
280
     0
281
     0
  0
CLASS
  1
ACAMCOMPDEFMGR
  2
AcAmCompDefMgr
  3
DesignerAssemblies
 90
     1024
280
     0
281
     0
  0
CLASS
  1
AMCONTEXTMGR
  2
AcAmContextMgr
  3
DesignerAssemblies
 90
     1024
280
     0
281
     0
  0
CLASS
  1
ACAMCONTEXTMODELER
  2
AcAmContextModeler
  3
DesignerAssemblies
 90
     1024
280
     0
281
     0
  0
CLASS
  1
ACMTHREADLINESTANDARDISO
  2
AmdtThreadLineStdISO
  3
"Amdt_StdImp|Product Description: AutoCAD Mechanical|Company: Autodesk, Inc."
 90
     1024
280
     0
281
     0
  0
CLASS
  1
CATALOGSTATE
  2
AcAmCatalogState
  3
DesignerAssemblies
 90
     1024
280
     0
281
     0
  0
CLASS
  1
ACAMGRCOMPDEFSET
  2
AcAmGrCompDefSet
  3
DesignerAssemblies
 90
     1024
280
     0
281
     0
  0
CLASS
  1
AMDTBROWSERDBTAB
  2
AmdtBrowserDbTab
  3
McadcomServices
 90
     1024
280
     0
281
     0
  0
CLASS
  1
CBROWSERAPPOBJECT
  2
CBrowserAppObject
  3
McadcomServices
 90
     1024
280
     0
281
     0
  0
CLASS
  1
DM_PLACEHOLDER
  2
AcDmSelsetPlaceholder
  3
AcMechDwgViewMgmt
 90
     1024
280
     0
281
     0
  0
CLASS
  1
AMDTNOTETEMPLATEDB
  2
AmdtNoteTemplateDB
  3
AcmSymBB|Product Description: AutoCAD Mechanical|Company: Autodesk, Inc.
 90
     1024
280
     0
281
     0
  0
CLASS
  1
ACAMGFILTERDAT
  2
AcAmgFilterDat
  3
"AcadM|Product Description: AutoCAD Mechanical|Company: Autodesk, Inc."
 90
     1024
280
     0
281
     0
  0
CLASS
  1
AMDTNOTE
  2
AmdtNote
  3
"AcmSymBB|Product Description: AutoCAD Mechanical|Company: Autodesk, Inc."
 90
    36863
280
     0
281
     1
  0
CLASS
  1
AMDTFORMULAUPDATEDISPATCHER
  2
AmdtFormulaUpdateDispatcher
  3
AcMeServices
 90
     1024
280
     0
281
     0
  0
CLASS
  1
AMDTSECTIONSYM
  2
AmdtSectionSym
  3
"AcmSymBB|Product Description: AutoCAD Mechanical|Company: Autodesk, Inc."
 90
    36863
280
     0
281
     1
  0
CLASS
  1
AMDTSECTIONSYMLABEL
  2
AmdtSectionSymLabel
  3
"AcmSymBB|Product Description: AutoCAD Mechanical|Company: Autodesk, Inc."
 90
    36863
280
     0
281
     1
  0
CLASS
  1
AMDTDETAILSYM
  2
AmdtDetailSym
  3
"AcmSymBB|Product Description: AutoCAD Mechanical|Company: Autodesk, Inc."
 90
    36863
280
     0
281
     1
  0
CLASS
  1
AMDTDETAILSYMLABEL
  2
AmdtDetailSymLabel
  3
"AcmSymBB|Product Description: AutoCAD Mechanical|Company: Autodesk, Inc."
 90
    36863
280
     0
281
     1
  0
CLASS
  1
ACMBOM
  2
AcmBom
  3
"AcmSymBB|Product Description: AutoCAD Mechanical|Company: Autodesk, Inc."
 90
     1024
280
     0
281
     0
  0
CLASS
  1
ACMPARTLIST
  2
AcmPartList
  3
"AcmSymBB|Product Description: AutoCAD Mechanical|Company: Autodesk, Inc."
 90
    36863
280
     0
281
     1
  0
CLASS
  1
ACDBLINERES
  2
AcDbLineRes
  3
AcGrefServices
 90
    33792
280
     0
281
     0
  0
CLASS
  1
ACRFINSADJ
  2
AcRfInsAdjuster
  3
AcMeServices
 90
    33792
280
     0
281
     0
  0
CLASS
  1
DIMASSOC
  2
AcDbDimAssoc
  3
"AcDbDimAssoc|Product Desc:     AcDim ARX App For Dimension|Company:          Autodesk, Inc.|WEB Address:      www.autodesk.com"
 90
    32768
280
     0
281
     0
  0
CLASS
  1
ACMDATAENTRYPART
  2
AcmDataEntryPart
  3
AcmSymBB|Product Description: AutoCAD Mechanical|Company: Autodesk, Inc.
 90
    33792
280
     0
281
     0
  0
CLASS
  1
ACMPARTREF
  2
AcmPartRef
  3
"AcmSymBB|Product Description: AutoCAD Mechanical|Company: Autodesk, Inc."
 90
    36863
280
     0
281
     1
  0
CLASS
  1
ACMBOMROW
  2
AcmBomRow
  3
"AcmSymBB|Product Description: AutoCAD Mechanical|Company: Autodesk, Inc."
 90
    33792
280
     0
281
     0
  0
CLASS
  1
ACMDATAENTRY
  2
AcmDataEntry
  3
AcmSymBB|Product Description: AutoCAD Mechanical|Company: Autodesk, Inc.
 90
     1024
280
     0
281
     0
  0
CLASS
  1
ACMBALLOON
  2
AcmBalloon
  3
"AcmSymBB|Product Description: AutoCAD Mechanical|Company: Autodesk, Inc."
 90
    36863
280
     0
281
     1
  0
CLASS
  1
ACMSTANDARDANSI
  2
AcmStandardANSI
  3
"Amdt_StdImp|Product Description: AutoCAD Mechanical|Company: Autodesk, Inc."
 90
     1024
280
     0
281
     0
  0
CLASS
  1
ACMSURFSTANDARDANSI
  2
AcmSurfTextStdANSI
  3
"Amdt_StdImp|Product Description: AutoCAD Mechanical|Company: Autodesk, Inc."
 90
     1024
280
     0
281
     0
  0
CLASS
  1
ACMFCFSTANDARDANSI
  2
AcmFCFStdANSI
  3
"Amdt_StdImp|Product Description: AutoCAD Mechanical|Company: Autodesk, Inc."
 90
     1024
280
     0
281
     0
  0
CLASS
  1
ACMWELDSTANDARDANSI
  2
AcmWeldingStdANSI
  3
"Amdt_StdImp|Product Description: AutoCAD Mechanical|Company: Autodesk, Inc."
 90
     1024
280
     0
281
     0
  0
CLASS
  1
ACMIDSTANDARDANSI
  2
AcmIdStdANSI
  3
"Amdt_StdImp|Product Description: AutoCAD Mechanical|Company: Autodesk, Inc."
 90
     1024
280
     0
281
     0
  0
CLASS
  1
ACMDATUMSTANDARDANSI
  2
AcmDatumStdANSI
  3
"Amdt_StdImp|Product Description: AutoCAD Mechanical|Company: Autodesk, Inc."
 90
     1024
280
     0
281
     0
  0
CLASS
  1
ACMBOMSTANDARDANSI
  2
AcmBOMStdANSI
  3
"Amdt_StdImp|Product Description: AutoCAD Mechanical|Company: Autodesk, Inc."
 90
     1024
280
     0
281
     0
  0
CLASS
  1
ACMDETAILSTANDARDANSI
  2
AmdtDetailSymStdANSI
  3
"Amdt_StdImp|Product Description: AutoCAD Mechanical|Company: Autodesk, Inc."
 90
     1024
280
     0
281
     0
  0
CLASS
  1
ACMSECTIONSTANDARDANSI
  2
AmdtSectionSymStdANSI
  3
"Amdt_StdImp|Product Description: AutoCAD Mechanical|Company: Autodesk, Inc."
 90
     1024
280
     0
281
     0
  0
CLASS
  1
ACMCENTERLINESTANDARDANSI
  2
AmdtCenterLineStdANSI
  3
"Amdt_StdImp|Product Description: AutoCAD Mechanical|Company: Autodesk, Inc."
 90
     1024
280
     0
281
     0
  0
CLASS
  1
ACMTHREADLINESTANDARDANSI
  2
AmdtThreadLineStdANSI
  3
"Amdt_StdImp|Product Description: AutoCAD Mechanical|Company: Autodesk, Inc."
 90
     1024
280
     0
281
     0
  0
CLASS
  1
ACMNOTESTANDARDANSI
  2
AmdtNoteStdANSI
  3
"Amdt_StdImp|Product Description: AutoCAD Mechanical|Company: Autodesk, Inc."
 90
     1024
280
     0
281
     0
  0
CLASS
  1
ACAMGHOLECHARTSTDANSI
  2
AcAmgHoleChartStdANSI
  3
AmgDim|Product Description: AutoCAD Mechanical|Company: Autodesk, Inc.
 90
     1024
280
     0
281
     0
  0
CLASS
  1
TABLESTYLE
  2
AcDbTableStyle
  3
ObjectDBX Classes
 90
     4095
280
     0
281
     0
  0
CLASS
  1
VAACXREFPANELOBJECT
  2
VaAcXREFPanelObject
  3
VAAC_ADDIN
 90
    32768
280
     0
281
     0
  0
CLASS
  1
VAACIMAGEINVENTORY
  2
VaAcImageInventory
  3
VAAC_ADDIN
 90
    32768
280
     0
281
     0
  0
CLASS
  1
MATERIAL
  2
AcDbMaterial
  3
ObjectDBX Classes
 90
     1153
280
     0
281
     0
  0
CLASS
  1
VISUALSTYLE
  2
AcDbVisualStyle
  3
ObjectDBX Classes
 90
     4095
280
     0
281
     0
  0
CLASS
  1
SCALE
  2
AcDbScale
  3
ObjectDBX Classes
 90
     1153
280
     0
281
     0
  0
CLASS
  1
MLEADERSTYLE
  2
AcDbMLeaderStyle
  3
ACDB_MLEADERSTYLE_CLASS
 90
     4095
280
     0
281
     0
  0
CLASS
  1
ACRFATTGENMGR
  2
AcRfAttGeneralMgr
  3
AcAttribServices
 90
     1024
280
     0
281
     0
  0
CLASS
  1
ACRFOBJATTMGR
  2
AcRfObjAttGroupMgr
  3
AcAttribServices
 90
     1024
280
     0
281
     0
  0
CLASS
  1
ACRFMCADAPIATTHOLDER
  2
AcRfMCADAPIAttHolder
  3
AcAttribServices
 90
     1024
280
     0
281
     0
  0
CLASS
  1
AMDTSYSATTR
  2
AmdtSystemAttribute
  3
AcAttribServices
 90
     1024
280
     0
281
     0
  0
CLASS
  1
ACMTAPERSTANDARDISO
  2
AcmTaperStdISO
  3
"Amdt_StdImp|Product Description: AutoCAD Mechanical|Company: Autodesk, Inc."
 90
     1024
280
     0
281
     0
  0
CLASS
  1
ACMANOOTATIONVIEWSTANDARDISO
  2
AmdtAnViewStdISO
  3
"Amdt_StdImp|Product Description: AutoCAD Mechanical|Company: Autodesk, Inc."
 90
     1024
280
     0
281
     0
  0
CLASS
  1
ACMTAPERSTANDARDANSI
  2
AcmTaperStdANSI
  3
"Amdt_StdImp|Product Description: AutoCAD Mechanical|Company: Autodesk, Inc."
 90
     1024
280
     0
281
     0
  0
CLASS
  1
ACMANOOTATIONVIEWSTANDARDANSI
  2
AmdtAnViewStdANSI
  3
"Amdt_StdImp|Product Description: AutoCAD Mechanical|Company: Autodesk, Inc."
 90
     1024
280
     0
281
     0
  0
CLASS
  1
EXACXREFPANELOBJECT
  2
ExAcXREFPanelObject
  3
EXAC_ESW
 90
     1025
280
     0
281
     0
  0
CLASS
  1
NPOCOLLECTION
  2
AcDbImpNonPersistentObjectsCollection
  3
ObjectDBX Classes
 90
     1153
280
     0
281
     0
  0
CLASS
  1
CELLSTYLEMAP
  2
AcDbCellStyleMap
  3
ObjectDBX Classes
 90
     1152
280
     0
281
     0
  0
ENDSEC
  0
SECTION
  2
TABLES
  0
TABLE
  2
VPORT
  5
8
102
{ACAD_XDICTIONARY
360
1AC1
102
}
330
0
100
AcDbSymbolTable
 70
     1
  0
VPORT
  5
1A1E
330
8
100
AcDbSymbolTableRecord
100
AcDbViewportTableRecord
  2
*Active
 70
     0
 10
0.0
 20
0.0
 11
1.0
 21
1.0
 12
96.49429352316998
 22
139.9996961455721
 13
0.0
 23
0.0
 14
2.5
 24
2.5
 15
10.0
 25
10.0
 16
0.0
 26
0.0
 36
1.0
 17
0.0
 27
0.0
 37
0.0
 40
281.9178187058778
 41
1.766554433221099
 42
50.0
 43
0.0
 44
0.0
 50
0.0
 51
0.0
 71
    16
 72
   100
 73
     1
 74
     3
 75
     0
 76
     0
 77
     0
 78
     0
281
     0
 65
     1
110
0.0
120
0.0
130
0.0
111
1.0
121
0.0
131
0.0
112
0.0
122
1.0
132
0.0
 79
     0
146
0.0
  0
ENDTAB
  0
TABLE
  2
LTYPE
  5
5
330
0
100
AcDbSymbolTable
 70
    26
  0
LTYPE
  5
14
330
5
100
AcDbSymbolTableRecord
100
AcDbLinetypeTableRecord
  2
ByBlock
 70
     0
  3

 72
    65
 73
     0
 40
0.0
  0
LTYPE
  5
15
330
5
100
AcDbSymbolTableRecord
100
AcDbLinetypeTableRecord
  2
ByLayer
 70
     0
  3

 72
    65
 73
     0
 40
0.0
  0
LTYPE
  5
16
330
5
100
AcDbSymbolTableRecord
100
AcDbLinetypeTableRecord
  2
Continuous
 70
     0
  3
Solid line
 72
    65
 73
     0
 40
0.0
  0
LTYPE
  5
64
330
5
100
AcDbSymbolTableRecord
100
AcDbLinetypeTableRecord
  2
AM_ISO02W050
 70
     0
  3
__ __ __ __ __ __ __ __ __ __ __ __ __ __ __
 72
    65
 73
     2
 40
7.5
 49
6.0
 74
     0
 49
-1.5
 74
     0
  0
LTYPE
  5
65
330
5
100
AcDbSymbolTableRecord
100
AcDbLinetypeTableRecord
  2
AM_ISO08W050
 70
     0
  3
____ . ____ . ____ . ____ . ____ . ____ . ____
 72
    65
 73
     4
 40
18.0
 49
12.0
 74
     0
 49
-1.5
 74
     0
 49
3.0
 74
     0
 49
-1.5
 74
     0
  0
LTYPE
  5
66
330
5
100
AcDbSymbolTableRecord
100
AcDbLinetypeTableRecord
  2
AM_ISO09W050
 70
     0
  3
_____ . . _____ . . _____ . . ____ .. ____
 72
    65
 73
     6
 40
22.5
 49
12.0
 74
     0
 49
-1.5
 74
     0
 49
3.0
 74
     0
 49
-1.5
 74
     0
 49
3.0
 74
     0
 49
-1.5
 74
     0
  0
LTYPE
  5
67
330
5
100
AcDbSymbolTableRecord
100
AcDbLinetypeTableRecord
  2
Amconstr
 70
     0
  3
_______________________
 72
    65
 73
     2
 40
9999.0
 49
9999.0
 74
     0
 49
0.0
 74
     0
  0
LTYPE
  5
68
330
5
100
AcDbSymbolTableRecord
100
AcDbLinetypeTableRecord
  2
AM_ISO08W050x2
 70
     0
  3
__ . __ . __ . __ . __ . __
 72
    65
 73
     4
 40
9.0
 49
6.0
 74
     0
 49
-0.75
 74
     0
 49
1.5
 74
     0
 49
-0.75
 74
     0
  0
LTYPE
  5
69
330
5
100
AcDbSymbolTableRecord
100
AcDbLinetypeTableRecord
  2
AM_ISO02W050x2
 70
     0
  3
 _ _ _ _ _ _ _ _ _ _ _ _
 72
    65
 73
     2
 40
3.75
 49
3.0
 74
     0
 49
-0.75
 74
     0
  0
LTYPE
  5
6C
330
5
100
AcDbSymbolTableRecord
100
AcDbLinetypeTableRecord
  2
Amzigzag
 70
     0
  3
/\/-/\/-/\/-/\/-/\/-/\/
 72
    65
 73
     2
 40
11.0001
 49
0.0001
 74
     4
 75
   135
340
6B
 46
0.04
 50
0.0
 44
0.0
 45
0.0
 49
-11.0
 74
     0
  0
LTYPE
  5
7A
330
5
100
AcDbSymbolTableRecord
100
AcDbLinetypeTableRecord
  2
ACISOWELD
 70
     0
  3
_ _ _ _ _
 72
    65
 73
     2
 40
2.0
 49
2.0
 74
     0
 49
-1.0
 74
     0
  0
LTYPE
  5
7B
330
5
100
AcDbSymbolTableRecord
100
AcDbLinetypeTableRecord
  2
ACISOTGB
 70
     0
  3
__ . . __ . .
 72
    65
 73
     6
 40
9.0
 49
4.0
 74
     0
 49
-1.0
 74
     0
 49
1.0
 74
     0
 49
-1.0
 74
     0
 49
1.0
 74
     0
 49
-1.0
 74
     0
  0
LTYPE
  5
7C
330
5
100
AcDbSymbolTableRecord
100
AcDbLinetypeTableRecord
  2
ACISOTGL
 70
     0
  3
_ _ _ _ _
 72
    65
 73
     2
 40
3.0
 49
2.0
 74
     0
 49
-1.0
 74
     0
  0
LTYPE
  5
7E
330
5
100
AcDbSymbolTableRecord
100
AcDbLinetypeTableRecord
  2
CENTER
 70
     0
  3
__ . __
 72
    65
 73
     4
 40
7.0
 49
4.0
 74
     0
 49
-1.0
 74
     0
 49
1.0
 74
     0
 49
-1.0
 74
     0
  0
LTYPE
  5
D8
330
5
100
AcDbSymbolTableRecord
100
AcDbLinetypeTableRecord
  2
HIDDEN
 70
     0
  3
Hidden __ __ __ __ __ __ __ __ __ __ __ __ __ _
 72
    65
 73
     2
 40
9.524999999999998
 49
6.349999999999999
 74
     0
 49
-3.174999999999999
 74
     0
  0
LTYPE
  5
D9
330
5
100
AcDbSymbolTableRecord
100
AcDbLinetypeTableRecord
  2
PHANTOM2
 70
     0
  3
Phantom (.5x) ___ _ _ ___ _ _ ___ _ _ ___ _ _
 72
    65
 73
     6
 40
31.75
 49
15.875
 74
     0
 49
-3.174999999999999
 74
     0
 49
3.174999999999999
 74
     0
 49
-3.174999999999999
 74
     0
 49
3.174999999999999
 74
     0
 49
-3.174999999999999
 74
     0
  0
LTYPE
  5
200
330
5
100
AcDbSymbolTableRecord
100
AcDbLinetypeTableRecord
  2
gen3
 70
     0
  3
-- -- -- -- -- -- -- -- -- -- -- -- -- -- --
 72
    65
 73
     2
 40
6.25
 49
4.75
 74
     0
 49
-1.5
 74
     0
  0
LTYPE
  5
201
330
5
100
AcDbSymbolTableRecord
100
AcDbLinetypeTableRecord
  2
gen7
 70
     0
  3
____ . ____ . ____ . ____ . ____ . ____ . ____
 72
    65
 73
     4
 40
13.75
 49
9.75
 74
     0
 49
-1.5
 74
     0
 49
1.0
 74
     0
 49
-1.5
 74
     0
  0
LTYPE
  5
202
330
5
100
AcDbSymbolTableRecord
100
AcDbLinetypeTableRecord
  2
gen3a
 70
     0
  3
 - - - - -
 72
    65
 73
     2
 40
3.125
 49
2.25
 74
     0
 49
-0.875
 74
     0
  0
LTYPE
  5
203
330
5
100
AcDbSymbolTableRecord
100
AcDbLinetypeTableRecord
  2
gen7a
 70
     0
  3
__ . __ . __
 72
    65
 73
     4
 40
6.875
 49
4.75
 74
     0
 49
-0.875
 74
     0
 49
0.375
 74
     0
 49
-0.875
 74
     0
  0
LTYPE
  5
204
330
5
100
AcDbSymbolTableRecord
100
AcDbLinetypeTableRecord
  2
gen4a
 70
     0
  3
_____ . . _____ . . _____ . . ____ .. ____
 72
    65
 73
     6
 40
16.25
 49
9.75
 74
     0
 49
-1.5
 74
     0
 49
1.0
 74
     0
 49
-1.5
 74
     0
 49
1.0
 74
     0
 49
-1.5
 74
     0
  0
LTYPE
  5
205
330
5
100
AcDbSymbolTableRecord
100
AcDbLinetypeTableRecord
  2
genzigzag
 70
     0
  3
/\/-/\/-/\/-/\/-/\/-/\/
 72
    65
 73
     2
 40
12.0001
 49
0.0001
 74
     4
 75
   135
340
208
 46
2.0
 50
0.0
 44
0.0
 45
0.0
 49
-12.0
 74
     0
  0
LTYPE
  5
A78
330
5
100
AcDbSymbolTableRecord
100
AcDbLinetypeTableRecord
  2
HIDS
 70
     0
  3
(破線１)- - - - - - - - - - - - - - - - - - - -
 72
    65
 73
     2
 40
2.5
 49
1.5
 74
     0
 49
-1.0
 74
     0
  0
LTYPE
  5
A79
330
5
100
AcDbSymbolTableRecord
100
AcDbLinetypeTableRecord
  2
CENTER2
 70
     0
  3
Center (.5x) ___ _ ___ _ ___ _ ___ _ ___ _ ___
 72
    65
 73
     4
 40
1.125
 49
0.75
 74
     0
 49
-0.125
 74
     0
 49
0.125
 74
     0
 49
-0.125
 74
     0
  0
LTYPE
  5
A7A
330
5
100
AcDbSymbolTableRecord
100
AcDbLinetypeTableRecord
  2
HIDDEN2
 70
     0
  3
Hidden (.5x) _ _ _ _ _ _ _ _ _ _ _ _ _ _ _ _ _
 72
    65
 73
     2
 40
0.1875
 49
0.125
 74
     0
 49
-0.0625
 74
     0
  0
LTYPE
  5
A7B
330
5
100
AcDbSymbolTableRecord
100
AcDbLinetypeTableRecord
  2
Amzigzag2
 70
     0
  3
/\/-/\/-/\/-/\/-/\/-/\/
 72
    65
 73
     2
 40
0.4401
 49
0.0001
 74
     4
 75
   135
340
6B
 46
0.0016
 50
0.0
 44
0.0
 45
0.0
 49
-0.4400000000000001
 74
     0
  0
LTYPE
  5
A7C
330
5
100
AcDbSymbolTableRecord
100
AcDbLinetypeTableRecord
  2
ACANSTGB
 70
     0
  3
__ . . __ . .
 72
    65
 73
     6
 40
0.35433070866
 49
0.15748031496
 74
     0
 49
-0.03937007874
 74
     0
 49
0.03937007874
 74
     0
 49
-0.03937007874
 74
     0
 49
0.03937007874
 74
     0
 49
-0.03937007874
 74
     0
  0
LTYPE
  5
A7D
330
5
100
AcDbSymbolTableRecord
100
AcDbLinetypeTableRecord
  2
ACANSTGL
 70
     0
  3
_ _ _ _ _
 72
    65
 73
     2
 40
0.11811023622
 49
0.07874015748
 74
     0
 49
-0.03937007874
 74
     0
  0
ENDTAB
  0
TABLE
  2
LAYER
  5
2
102
{ACAD_XDICTIONARY
360
35D
102
}
330
0
100
AcDbSymbolTable
 70
     8
  0
LAYER
  5
10
102
{ACAD_XDICTIONARY
360
1AB0
102
}
330
2
100
AcDbSymbolTableRecord
100
AcDbLayerTableRecord
  2
0
 70
     0
 62
     7
  6
Continuous
370
    -3
390
F
  0
LAYER
  5
1E1
330
2
100
AcDbSymbolTableRecord
100
AcDbLayerTableRecord
  2
Defpoints
 70
     0
 62
     7
  6
Continuous
290
     0
370
    -3
390
F
  0
LAYER
  5
1FA
102
{ACAD_XDICTIONARY
360
1AB2
102
}
330
2
100
AcDbSymbolTableRecord
100
AcDbLayerTableRecord
  2
取付足
 70
     0
 62
     7
  6
Continuous
370
    25
390
F
  0
LAYER
  5
206
102
{ACAD_XDICTIONARY
360
1AB4
102
}
330
2
100
AcDbSymbolTableRecord
100
AcDbLayerTableRecord
  2
RAHM2
 70
     0
 62
     1
  6
Continuous
370
    -3
390
F
  0
LAYER
  5
22C
102
{ACAD_XDICTIONARY
360
1AB6
102
}
330
2
100
AcDbSymbolTableRecord
100
AcDbLayerTableRecord
  2
7A
 70
     0
 62
     4
  6
gen7a
370
    -3
390
F
  0
LAYER
  5
307
102
{ACAD_XDICTIONARY
360
1AB8
102
}
330
2
100
AcDbSymbolTableRecord
100
AcDbLayerTableRecord
  2
AM_5
 70
     0
 62
     3
  6
Continuous
370
    18
390
F
  0
LAYER
  5
33B
102
{ACAD_XDICTIONARY
360
1ABA
102
}
330
2
100
AcDbSymbolTableRecord
100
AcDbLayerTableRecord
  2
AM_7
 70
     0
 62
     4
  6
AM_ISO08W050
370
    20
390
F
  0
LAYER
  5
343
102
{ACAD_XDICTIONARY
360
1ABC
102
}
330
2
100
AcDbSymbolTableRecord
100
AcDbLayerTableRecord
  2
AM_CL
 70
     0
 62
     1
  6
Amconstr
370
    25
390
F
  0
ENDTAB
  0
TABLE
  2
STYLE
  5
3
330
0
100
AcDbSymbolTable
 70
    14
  0
STYLE
  5
11
330
3
100
AcDbSymbolTableRecord
100
AcDbTextStyleTableRecord
  2
STANDARD
 70
     0
 40
0.0
 41
1.0
 50
0.0
 71
     0
 42
73.98571745357912
  3
ISOCP.SHX
  4
bigfont.shx
  0
STYLE
  5
6B
330
3
100
AcDbSymbolTableRecord
100
AcDbTextStyleTableRecord
  2

 70
     1
 40
0.0
 41
1.0
 50
0.0
 71
     0
 42
2.5
  3
ltypeshp.shx
  4

  0
STYLE
  5
6D
330
3
100
AcDbSymbolTableRecord
100
AcDbTextStyleTableRecord
  2
ACISOTS
 70
     0
 40
1.0
 41
1.0
 50
0.0
 71
     0
 42
2.5
  3
isocp.shx
  4
extfont.shx
  0
STYLE
  5
79
330
3
100
AcDbSymbolTableRecord
100
AcDbTextStyleTableRecord
  2
ACISOGDT
 70
     0
 40
0.0
 41
1.0
 50
0.0
 71
     0
 42
2.5
  3
amgdt.shx
  4

  0
STYLE
  5
133
330
3
100
AcDbSymbolTableRecord
100
AcDbTextStyleTableRecord
  2
USER1
 70
     0
 40
0.0
 41
1.0
 50
0.0
 71
     0
 42
2.5
  3
TXT.SHX
  4

  0
STYLE
  5
134
330
3
100
AcDbSymbolTableRecord
100
AcDbTextStyleTableRecord
  2
USER2
 70
     0
 40
0.0
 41
1.0
 50
0.0
 71
     0
 42
2.5
  3
SIMPLEX.SHX
  4

  0
STYLE
  5
135
330
3
100
AcDbSymbolTableRecord
100
AcDbTextStyleTableRecord
  2
USER3
 70
     0
 40
0.0
 41
1.0
 50
0.0
 71
     0
 42
2.5
  3
ITALIC.SHX
  4

  0
STYLE
  5
1F8
330
3
100
AcDbSymbolTableRecord
100
AcDbTextStyleTableRecord
  2
ACJISTS
 70
     0
 40
1.0
 41
1.0
 50
0.0
 71
     0
 42
2.5
  3
isocp.shx
  4
bigfont.shx
  0
STYLE
  5
1F9
330
3
100
AcDbSymbolTableRecord
100
AcDbTextStyleTableRecord
  2
ACJISGDT
 70
     0
 40
0.0
 41
1.0
 50
0.0
 71
     0
 42
2.5
  3
amgdt.shx
  4

  0
STYLE
  5
208
330
3
100
AcDbSymbolTableRecord
100
AcDbTextStyleTableRecord
  2

 70
     1
 40
0.0
 41
1.0
 50
0.0
 71
     0
 42
2.5
  3
genltshp.shx
  4

  0
STYLE
  5
A7F
330
3
100
AcDbSymbolTableRecord
100
AcDbTextStyleTableRecord
  2
STD
 70
     0
 40
0.0
 41
1.0
 50
0.0
 71
     0
 42
2.5
  3
TXT
  4
BIGFONT
  0
STYLE
  5
A80
330
3
100
AcDbSymbolTableRecord
100
AcDbTextStyleTableRecord
  2
ACANSTS
 70
     0
 40
1.0
 41
1.0
 50
0.0
 71
     0
 42
2.5
  3
romans.shx
  4
extfont.shx
  0
STYLE
  5
A81
330
3
100
AcDbSymbolTableRecord
100
AcDbTextStyleTableRecord
  2
ACANSGDT
 70
     0
 40
0.0
 41
1.0
 50
0.0
 71
     0
 42
2.5
  3
amgdtans.shx
  4

  0
STYLE
  5
D15
330
3
100
AcDbSymbolTableRecord
100
AcDbTextStyleTableRecord
  2
CKSTANDARD
 70
     0
 40
0.0
 41
1.0
 50
0.0
 71
     0
 42
0.0
  3
txt
  4

  0
ENDTAB
  0
TABLE
  2
VIEW
  5
6
330
0
100
AcDbSymbolTable
 70
     6
  0
VIEW
  5
291
330
6
100
AcDbSymbolTableRecord
100
AcDbViewTableRecord
  2
AM_VIEW1
 70
     0
 40
140.0
 10
111.7592592592593
 20
210.0
 41
223.5185185185186
 11
0.0
 21
0.0
 31
1.0
 12
0.0
 22
0.0
 32
0.0
 42
50.0
 43
0.0
 44
0.0
 50
0.0
 71
    16
281
     0
 72
     0
  0
VIEW
  5
292
330
6
100
AcDbSymbolTableRecord
100
AcDbViewTableRecord
  2
AM_VIEW2
 70
     0
 40
140.0
 10
81.24074074074071
 20
210.0
 41
223.5185185185186
 11
0.0
 21
0.0
 31
1.0
 12
0.0
 22
0.0
 32
0.0
 42
50.0
 43
0.0
 44
0.0
 50
0.0
 71
    16
281
     0
 72
     0
  0
VIEW
  5
293
330
6
100
AcDbSymbolTableRecord
100
AcDbViewTableRecord
  2
AM_VIEW3
 70
     0
 40
140.0
 10
111.7592592592593
 20
70.00000000000001
 41
223.5185185185186
 11
0.0
 21
0.0
 31
1.0
 12
0.0
 22
0.0
 32
0.0
 42
50.0
 43
0.0
 44
0.0
 50
0.0
 71
    16
281
     0
 72
     0
  0
VIEW
  5
294
330
6
100
AcDbSymbolTableRecord
100
AcDbViewTableRecord
  2
AM_VIEW4
 70
     0
 40
140.0
 10
81.24074074074071
 20
70.00000000000001
 41
223.5185185185186
 11
0.0
 21
0.0
 31
1.0
 12
0.0
 22
0.0
 32
0.0
 42
50.0
 43
0.0
 44
0.0
 50
0.0
 71
    16
281
     0
 72
     0
  0
VIEW
  5
295
330
6
100
AcDbSymbolTableRecord
100
AcDbViewTableRecord
  2
AM_VIEW5
 70
     0
 40
140.0
 10
96.5
 20
140.0
 41
223.5185185185186
 11
0.0
 21
0.0
 31
1.0
 12
0.0
 22
0.0
 32
0.0
 42
50.0
 43
0.0
 44
0.0
 50
0.0
 71
    16
281
     0
 72
     0
  0
VIEW
  5
296
330
6
100
AcDbSymbolTableRecord
100
AcDbViewTableRecord
  2
AM_VIEW6
 70
     0
 40
279.9972000000001
 10
96.5
 20
140.0
 41
447.0325666666667
 11
0.0
 21
0.0
 31
1.0
 12
0.0
 22
0.0
 32
0.0
 42
50.0
 43
0.0
 44
0.0
 50
0.0
 71
    16
281
     0
 72
     0
  0
ENDTAB
  0
TABLE
  2
UCS
  5
7
330
0
100
AcDbSymbolTable
 70
     0
  0
ENDTAB
  0
TABLE
  2
APPID
  5
9
330
0
100
AcDbSymbolTable
 70
    39
  0
APPID
  5
12
330
9
100
AcDbSymbolTableRecord
100
AcDbRegAppTableRecord
  2
ACAD
 70
     0
  0
APPID
  5
46
330
9
100
AcDbSymbolTableRecord
100
AcDbRegAppTableRecord
  2
MCAD_NO_VIS
 70
     0
  0
APPID
  5
47
330
9
100
AcDbSymbolTableRecord
100
AcDbRegAppTableRecord
  2
ACAD_TEMP_GRAPHIC
 70
     0
  0
APPID
  5
58
330
9
100
AcDbSymbolTableRecord
100
AcDbRegAppTableRecord
  2
ACATTRIBSERVICES
 70
     0
  0
APPID
  5
EE
330
9
100
AcDbSymbolTableRecord
100
AcDbRegAppTableRecord
  2
AD_DRAW
 70
     0
  0
APPID
  5
10C
330
9
100
AcDbSymbolTableRecord
100
AcDbRegAppTableRecord
  2
DESIGNERASSEMBLIES
 70
     0
  0
APPID
  5
111
330
9
100
AcDbSymbolTableRecord
100
AcDbRegAppTableRecord
  2
ACADM_DIM_EDIT
 70
     0
  0
APPID
  5
112
330
9
100
AcDbSymbolTableRecord
100
AcDbRegAppTableRecord
  2
AMDT_DM_ADJ
 70
     0
  0
APPID
  5
1E2
330
9
100
AcDbSymbolTableRecord
100
AcDbRegAppTableRecord
  2
GENIUS_GENREC_14
 70
     0
  0
APPID
  5
1E3
330
9
100
AcDbSymbolTableRecord
100
AcDbRegAppTableRecord
  2
GENIUS_GENODEF_13
 70
     0
  0
APPID
  5
1E4
330
9
100
AcDbSymbolTableRecord
100
AcDbRegAppTableRecord
  2
GENIUS_GENOBJ-N-REC_13
 70
     0
  0
APPID
  5
1E5
330
9
100
AcDbSymbolTableRecord
100
AcDbRegAppTableRecord
  2
GENIUS_GENDIMSH_14
 70
     0
  0
APPID
  5
1E6
330
9
100
AcDbSymbolTableRecord
100
AcDbRegAppTableRecord
  2
GENIUS_GENCFG_13
 70
     0
  0
APPID
  5
1E7
330
9
100
AcDbSymbolTableRecord
100
AcDbRegAppTableRecord
  2
GENIUS_GENCFG0_13
 70
     0
  0
APPID
  5
1E8
330
9
100
AcDbSymbolTableRecord
100
AcDbRegAppTableRecord
  2
GENIUS_GENCFG1_13
 70
     0
  0
APPID
  5
1E9
330
9
100
AcDbSymbolTableRecord
100
AcDbRegAppTableRecord
  2
GENIUS_GENCFG2_13
 70
     0
  0
APPID
  5
1EA
330
9
100
AcDbSymbolTableRecord
100
AcDbRegAppTableRecord
  2
GENIUS_GENCFG3_13
 70
     0
  0
APPID
  5
1EB
330
9
100
AcDbSymbolTableRecord
100
AcDbRegAppTableRecord
  2
GENIUS_GENCFG4_13
 70
     0
  0
APPID
  5
1EC
330
9
100
AcDbSymbolTableRecord
100
AcDbRegAppTableRecord
  2
GENIUS_GEVCFG0_13
 70
     0
  0
APPID
  5
1ED
330
9
100
AcDbSymbolTableRecord
100
AcDbRegAppTableRecord
  2
GENIUS_GENOENT_13
 70
     0
  0
APPID
  5
1EE
330
9
100
AcDbSymbolTableRecord
100
AcDbRegAppTableRecord
  2
GENIUS_GENOBJ-N-CRS_13
 70
     0
  0
APPID
  5
1EF
330
9
100
AcDbSymbolTableRecord
100
AcDbRegAppTableRecord
  2
GENIUS_GENOREF_13
 70
     0
  0
APPID
  5
1F0
330
9
100
AcDbSymbolTableRecord
100
AcDbRegAppTableRecord
  2
GENIUS_GENOLIS_13
 70
     0
  0
APPID
  5
1F1
330
9
100
AcDbSymbolTableRecord
100
AcDbRegAppTableRecord
  2
GENIUS_GENOBJ-N-TIT_13
 70
     0
  0
APPID
  5
1F2
330
9
100
AcDbSymbolTableRecord
100
AcDbRegAppTableRecord
  2
GENIUS_GENTITLE_13
 70
     0
  0
APPID
  5
1F3
330
9
100
AcDbSymbolTableRecord
100
AcDbRegAppTableRecord
  2
GENIUS_GENSCREG_15
 70
     0
  0
APPID
  5
1F4
330
9
100
AcDbSymbolTableRecord
100
AcDbRegAppTableRecord
  2
GENIUS_GENOBJ-N-SDF_13
 70
     0
  0
APPID
  5
1F5
330
9
100
AcDbSymbolTableRecord
100
AcDbRegAppTableRecord
  2
GENIUS_GENOBJ-N-CEN_13
 70
     0
  0
APPID
  5
1F6
330
9
100
AcDbSymbolTableRecord
100
AcDbRegAppTableRecord
  2
GENIUS_GENOBJ-N-HTC_13
 70
     0
  0
APPID
  5
1F7
330
9
100
AcDbSymbolTableRecord
100
AcDbRegAppTableRecord
  2
GENIUS_GENHATCH_13
 70
     0
  0
APPID
  5
484
330
9
100
AcDbSymbolTableRecord
100
AcDbRegAppTableRecord
  2
GENIUS_GENOBJ-N-ZOO_13
 70
     0
  0
APPID
  5
485
330
9
100
AcDbSymbolTableRecord
100
AcDbRegAppTableRecord
  2
GENIUS_GENZOO_17
 70
     0
  0
APPID
  5
9D7
330
9
100
AcDbSymbolTableRecord
100
AcDbRegAppTableRecord
  2
GEV_VCCNULL_SWITCH_OFF
 70
     0
  0
APPID
  5
9D8
330
9
100
AcDbSymbolTableRecord
100
AcDbRegAppTableRecord
  2
GENIUS_GENDTOL_13
 70
     0
  0
APPID
  5
176F
330
9
100
AcDbSymbolTableRecord
100
AcDbRegAppTableRecord
  2
GENIUS_GENFIL_13
 70
     0
  0
APPID
  5
1770
330
9
100
AcDbSymbolTableRecord
100
AcDbRegAppTableRecord
  2
GENIUS_GENOBJ-N-CHA_13
 70
     0
  0
APPID
  5
19A1
330
9
100
AcDbSymbolTableRecord
100
AcDbRegAppTableRecord
  2
DCO15
 70
     0
  0
APPID
  5
19B6
330
9
100
AcDbSymbolTableRecord
100
AcDbRegAppTableRecord
  2
GENIUS_GENCEN_19
 70
     0
  0
APPID
  5
1A5D
330
9
100
AcDbSymbolTableRecord
100
AcDbRegAppTableRecord
  2
ACAD_MLEADERVER
 70
     0
  0
ENDTAB
  0
TABLE
  2
DIMSTYLE
  5
A
330
0
100
AcDbSymbolTable
 70
    23
100
AcDbDimStyleTable
 71
     6
340
81
340
27
340
20D
340
20F
340
20E
340
209
  0
DIMSTYLE
105
27
330
A
100
AcDbSymbolTableRecord
100
AcDbDimStyleTableRecord
  2
ISO-25
 70
     0
 41
2.5
 42
0.625
 43
3.75
 44
1.25
 73
     0
 74
     0
 77
     1
 78
     8
140
2.5
141
2.5
143
0.03937007874016
147
0.625
171
     3
172
     1
271
     2
272
     2
274
     3
278
    44
283
     0
284
     8
340
11
341
407
342
407
  0
DIMSTYLE
105
81
102
{ACAD_REACTORS
330
1241
330
1263
330
1285
330
12AB
330
130A
330
1344
102
}
330
A
100
AcDbSymbolTableRecord
100
AcDbDimStyleTableRecord
  2
AM_ISO
 70
     0
  4
"
 41
2.5
 42
1.0
 43
10.0
 44
1.0
 47
0.1
 48
0.1
 73
     0
 74
     0
 77
     1
 78
     8
 79
     2
140
3.5
141
0.0
143
0.0393701
146
0.71
147
1.5
172
     1
176
   256
177
   256
178
     2
271
     2
272
     2
283
     0
284
     8
340
11
341
407
342
407
371
    -1
372
    -1
  0
DIMSTYLE
105
82
330
A
100
AcDbSymbolTableRecord
100
AcDbDimStyleTableRecord
  2
AM_ISO$3
 70
     0
  4
"
 41
2.5
 42
1.0
 43
10.0
 44
1.0
 47
0.1
 48
0.1
 73
     0
 77
     1
 78
     8
 79
     2
140
3.5
141
0.0
143
0.0393701
146
0.71
147
1.5
176
   256
177
   256
178
     2
271
     2
272
     2
283
     0
284
     8
288
     1
289
     0
340
11
341
407
342
407
371
    -1
372
    -1
  0
DIMSTYLE
105
83
330
A
100
AcDbSymbolTableRecord
100
AcDbDimStyleTableRecord
  2
AM_ISO$4
 70
     0
  4
"
 41
2.5
 42
1.0
 43
10.0
 44
1.0
 47
0.1
 48
0.1
 73
     0
 77
     1
 78
     8
 79
     2
140
3.5
141
0.0
143
0.0393701
146
0.71
147
1.5
176
   256
177
   256
178
     2
271
     2
272
     2
283
     0
284
     8
288
     1
289
     0
340
11
341
407
342
407
371
    -1
372
    -1
  0
DIMSTYLE
105
84
330
A
100
AcDbSymbolTableRecord
100
AcDbDimStyleTableRecord
  2
AM_ISO$6
 70
     0
  4
"
 41
2.5
 42
1.0
 43
10.0
 44
1.0
 47
0.1
 48
0.1
 73
     0
 74
     0
 78
     8
 79
     2
140
3.5
141
0.0
143
0.0393701
146
0.71
147
1.5
172
     1
176
   256
177
   256
178
     2
271
     2
272
     2
283
     0
284
     8
340
11
341
407
342
407
371
    -1
372
    -1
  0
DIMSTYLE
105
85
330
A
100
AcDbSymbolTableRecord
100
AcDbDimStyleTableRecord
  2
AM_ISO$7
 70
     0
  4
"
 41
2.5
 42
1.0
 43
10.0
 44
1.0
 47
0.1
 48
0.1
 73
     0
 74
     0
 77
     1
 78
     8
 79
     2
140
5.0
141
0.0
143
0.0393701
146
0.71
147
1.5
172
     1
176
   256
177
   256
178
     2
271
     2
272
     2
283
     0
284
     8
340
11
341
407
342
407
371
    -1
372
    -1
  0
DIMSTYLE
105
86
330
A
100
AcDbSymbolTableRecord
100
AcDbDimStyleTableRecord
  2
AM_ISO$SF
 70
     0
  4
"
 41
2.5
 42
1.0
 43
10.0
 44
1.0
 47
0.1
 48
0.1
 73
     0
 74
     0
 75
     1
 76
     1
 77
     1
 78
     8
 79
     2
140
3.5
141
0.0
143
0.0393701
146
0.71
147
1.5
172
     1
176
   256
177
   256
178
     2
271
     2
272
     2
283
     0
284
     8
340
11
341
407
342
407
371
    -1
372
    -1
  0
DIMSTYLE
105
8B
330
A
100
AcDbSymbolTableRecord
100
AcDbDimStyleTableRecord
  2
AM_ISO$SH
 70
     0
  4
"
 41
2.5
 42
1.0
 43
10.0
 44
1.0
 47
0.1
 48
0.1
 73
     0
 74
     0
 75
     1
 76
     1
 77
     1
 78
     8
 79
     2
140
3.5
141
0.0
143
0.0393701
144
2.0
146
0.71
147
1.5
172
     1
173
     1
176
   256
177
   256
178
     2
271
     2
272
     2
283
     0
284
     8
340
11
341
407
343
87
344
407
371
    -1
372
    -1
  0
DIMSTYLE
105
209
330
A
100
AcDbSymbolTableRecord
100
AcDbDimStyleTableRecord
  2
GEN-ISO
 70
     0
  4
"
 41
2.5
 42
1.0
 43
10.0
 44
1.0
 47
0.1
 48
0.1
 73
     0
 74
     0
 77
     1
 78
     8
140
3.5
141
0.0
143
0.0393701
146
0.71
147
1.5
172
     1
176
   256
177
   256
178
     2
271
     2
272
     2
283
     0
340
11
341
407
342
407
  0
DIMSTYLE
105
20A
330
A
100
AcDbSymbolTableRecord
100
AcDbDimStyleTableRecord
  2
GEN-ISO$3
 70
     0
  4
"
 41
2.5
 42
1.0
 43
10.0
 44
1.0
 47
0.1
 48
0.1
 73
     0
 77
     1
 78
     8
140
3.5
141
0.0
143
0.0393701
146
0.71
147
1.5
176
   256
177
   256
178
     2
271
     2
272
     2
283
     0
288
     1
289
     0
340
11
341
407
342
407
  0
DIMSTYLE
105
20B
330
A
100
AcDbSymbolTableRecord
100
AcDbDimStyleTableRecord
  2
GEN-ISO$4
 70
     0
  4
"
 41
2.5
 42
1.0
 43
10.0
 44
1.0
 47
0.1
 48
0.1
 73
     0
 77
     1
 78
     8
140
3.5
141
0.0
143
0.0393701
146
0.71
147
1.5
176
   256
177
   256
178
     2
271
     2
272
     2
283
     0
288
     1
289
     0
340
11
341
407
342
407
  0
DIMSTYLE
105
20C
330
A
100
AcDbSymbolTableRecord
100
AcDbDimStyleTableRecord
  2
GEN-ISO$6
 70
     0
  4
"
 41
2.5
 42
1.0
 43
10.0
 44
1.0
 47
0.1
 48
0.1
 73
     0
 74
     0
 78
     8
140
3.5
141
0.0
143
0.0393701
146
0.71
147
1.5
176
   256
177
   256
178
     2
271
     2
272
     2
283
     0
340
11
341
407
342
407
  0
DIMSTYLE
105
20D
330
A
100
AcDbSymbolTableRecord
100
AcDbDimStyleTableRecord
  2
GEN-ISO-POS
 70
     0
  4
"
 41
2.5
 42
1.0
 43
10.0
 44
1.0
 47
0.1
 48
0.1
 73
     0
 74
     0
 78
     8
140
5.0
141
0.0
143
0.0393701
146
0.71
147
1.5
176
   256
177
   256
178
     2
271
     2
272
     2
283
     0
340
11
341
407
342
407
  0
DIMSTYLE
105
20E
330
A
100
AcDbSymbolTableRecord
100
AcDbDimStyleTableRecord
  2
GEN-ISO-AXE-F
 70
     0
  4
"
 41
2.5
 42
1.0
 43
10.0
 44
1.0
 47
0.1
 48
0.1
 73
     0
 74
     0
 75
     1
 76
     1
 77
     1
 78
     8
140
3.5
141
0.0
143
0.0393701
146
0.71
147
1.5
172
     1
176
   256
177
   256
178
     2
271
     2
272
     2
283
     0
340
11
341
407
342
407
  0
DIMSTYLE
105
20F
330
A
100
AcDbSymbolTableRecord
100
AcDbDimStyleTableRecord
  2
GEN-ISO-AXE-H
 70
     0
  4
"
 41
2.5
 42
1.0
 43
10.0
 44
1.0
 47
0.1
 48
0.1
 73
     0
 74
     0
 75
     1
 76
     1
 77
     1
 78
     8
140
3.5
141
0.0
143
0.0393701
144
2.0
146
0.71
147
1.5
172
     1
176
   256
177
   256
178
     2
271
     2
272
     2
283
     0
340
11
341
407
342
407
  0
DIMSTYLE
105
A82
330
A
100
AcDbSymbolTableRecord
100
AcDbDimStyleTableRecord
  2
Standard
 70
     0
340
11
  0
DIMSTYLE
105
A83
330
A
100
AcDbSymbolTableRecord
100
AcDbDimStyleTableRecord
  2
AM_ANSI
 70
     0
  4
mm
 41
0.1
 42
0.05
 43
0.5
 44
0.1
 47
0.1
 48
0.1
 78
     7
 79
     2
140
0.12
141
0.0
146
0.71
147
0.06
176
   256
177
   256
178
     2
274
     4
284
     7
340
11
371
    -1
372
    -1
  0
DIMSTYLE
105
A84
330
A
100
AcDbSymbolTableRecord
100
AcDbDimStyleTableRecord
  2
AM_ANSI$3
 70
     0
  4
mm
 41
0.1
 42
0.05
 43
0.5
 44
0.1
 47
0.1
 48
0.1
 78
     7
 79
     2
140
0.12
141
0.0
146
0.71
147
0.06
176
   256
177
   256
178
     2
274
     4
284
     7
288
     1
289
     0
340
11
371
    -1
372
    -1
  0
DIMSTYLE
105
A85
330
A
100
AcDbSymbolTableRecord
100
AcDbDimStyleTableRecord
  2
AM_ANSI$4
 70
     0
  4
mm
 41
0.1
 42
0.05
 43
0.5
 44
0.1
 47
0.1
 48
0.1
 78
     7
 79
     2
140
0.12
141
0.0
146
0.71
147
0.06
176
   256
177
   256
178
     2
274
     4
284
     7
288
     1
289
     0
340
11
371
    -1
372
    -1
  0
DIMSTYLE
105
A86
330
A
100
AcDbSymbolTableRecord
100
AcDbDimStyleTableRecord
  2
AM_ANSI$7
 70
     0
  4
mm
 41
0.1
 42
0.05
 43
0.5
 44
0.1
 47
0.1
 48
0.1
 78
     7
 79
     2
140
0.24
141
0.0
146
0.71
147
0.06
176
   256
177
   256
178
     2
274
     4
284
     7
340
11
371
    -1
372
    -1
  0
DIMSTYLE
105
A87
330
A
100
AcDbSymbolTableRecord
100
AcDbDimStyleTableRecord
  2
AM_ANSI$SF
 70
     0
  4
mm
 41
0.1
 42
0.05
 43
0.5
 44
0.1
 47
0.1
 48
0.1
 75
     1
 76
     1
 78
     7
 79
     2
140
0.12
141
0.0
146
0.71
147
0.06
176
   256
177
   256
178
     2
274
     4
284
     7
340
11
371
    -1
372
    -1
  0
DIMSTYLE
105
A88
330
A
100
AcDbSymbolTableRecord
100
AcDbDimStyleTableRecord
  2
AM_ANSI$SH
 70
     0
  4
mm
 41
0.1
 42
0.05
 43
0.5
 44
0.1
 47
0.1
 48
0.1
 75
     1
 76
     1
 78
     7
 79
     2
140
0.12
141
0.0
146
0.71
147
0.06
173
     1
176
   256
177
   256
178
     2
274
     4
284
     7
340
11
343
87
371
    -1
372
    -1
  0
DIMSTYLE
105
D16
330
A
100
AcDbSymbolTableRecord
100
AcDbDimStyleTableRecord
  2
DIMSTYLE0
 70
     0
 41
4.74609
 43
0.0
 44
4.74609
 73
     0
 74
     0
140
4.74609
141
0.0
147
0.0
271
     5
272
     5
279
     2
340
D15
  0
ENDTAB
  0
TABLE
  2
BLOCK_RECORD
  5
1
330
0
100
AcDbSymbolTable
 70
    20
  0
BLOCK_RECORD
  5
1F
102
{ACAD_XDICTIONARY
360
8F
102
}
330
1
100
AcDbSymbolTableRecord
100
AcDbBlockTableRecord
  2
*Model_Space
340
22
  0
BLOCK_RECORD
  5
23
330
1
100
AcDbSymbolTableRecord
100
AcDbBlockTableRecord
  2
*Paper_Space
340
26
  0
BLOCK_RECORD
  5
1B
330
1
100
AcDbSymbolTableRecord
100
AcDbBlockTableRecord
  2
*Paper_Space0
340
1E
  0
BLOCK_RECORD
  5
87
330
1
100
AcDbSymbolTableRecord
100
AcDbBlockTableRecord
  2
GENAXEH
340
0
  0
BLOCK_RECORD
  5
407
330
1
100
AcDbSymbolTableRecord
100
AcDbBlockTableRecord
  2
_Open30
340
0
102
{BLKREFS
331
1875
331
1876
331
187E
331
187F
331
19FA
331
1A06
331
1A0E
331
1A0F
331
1A17
331
1A18
102
}
  0
BLOCK_RECORD
  5
8B9
102
{ACAD_XDICTIONARY
360
8C2
102
}
330
1
100
AcDbSymbolTableRecord
100
AcDbBlockTableRecord
  2
TAKACHI-A3
340
0
  0
BLOCK_RECORD
  5
8CE
102
{ACAD_XDICTIONARY
360
923
102
}
330
1
100
AcDbSymbolTableRecord
100
AcDbBlockTableRecord
  2
TAKACHI-TITLE
340
0
102
{BLKREFS
331
9F1
102
}
  0
BLOCK_RECORD
  5
9C1
330
1
100
AcDbSymbolTableRecord
100
AcDbBlockTableRecord
  2
GEVCON
340
0
  0
BLOCK_RECORD
  5
9C4
330
1
100
AcDbSymbolTableRecord
100
AcDbBlockTableRecord
  2
GEVEP
340
0
  0
BLOCK_RECORD
  5
9CD
330
1
100
AcDbSymbolTableRecord
100
AcDbBlockTableRecord
  2
GEVFRAME
340
0
  0
BLOCK_RECORD
  5
9D9
102
{ACAD_XDICTIONARY
360
9E5
102
}
330
1
100
AcDbSymbolTableRecord
100
AcDbBlockTableRecord
  2
TAKACHI-A4
340
0
102
{BLKREFS
331
9EF
102
}
  0
BLOCK_RECORD
  5
9FD
330
1
100
AcDbSymbolTableRecord
100
AcDbBlockTableRecord
  2
ARRI
340
0
  0
BLOCK_RECORD
  5
1242
330
1
100
AcDbSymbolTableRecord
100
AcDbBlockTableRecord
  2
*D11
340
0
  0
BLOCK_RECORD
  5
1264
330
1
100
AcDbSymbolTableRecord
100
AcDbBlockTableRecord
  2
*D12
340
0
  0
BLOCK_RECORD
  5
1286
330
1
100
AcDbSymbolTableRecord
100
AcDbBlockTableRecord
  2
*D13
340
0
  0
BLOCK_RECORD
  5
12AC
330
1
100
AcDbSymbolTableRecord
100
AcDbBlockTableRecord
  2
*D14
340
0
  0
BLOCK_RECORD
  5
12D7
330
1
100
AcDbSymbolTableRecord
100
AcDbBlockTableRecord
  2
GENDOT
340
0
102
{BLKREFS
331
19FB
331
1A05
102
}
  0
BLOCK_RECORD
  5
130B
330
1
100
AcDbSymbolTableRecord
100
AcDbBlockTableRecord
  2
*D16
340
0
  0
BLOCK_RECORD
  5
1345
330
1
100
AcDbSymbolTableRecord
100
AcDbBlockTableRecord
  2
*D17
340
0
  0
BLOCK_RECORD
  5
17C4
102
{ACAD_XDICTIONARY
360
17CC
102
}
330
1
100
AcDbSymbolTableRecord
100
AcDbBlockTableRecord
  2
TK-A4
340
0
102
{BLKREFS
331
9EF
102
}
  0
BLOCK_RECORD
  5
17D2
102
{ACAD_XDICTIONARY
360
182B
102
}
330
1
100
AcDbSymbolTableRecord
100
AcDbBlockTableRecord
  2
TK-TITLE
340
0
102
{BLKREFS
331
9F1
102
}
  0
ENDTAB
  0
ENDSEC
  0
SECTION
  2
BLOCKS
  0
BLOCK
  5
20
330
1F
100
AcDbEntity
  8
0
100
AcDbBlockBegin
  2
*Model_Space
 70
     0
 10
0.0
 20
0.0
 30
0.0
  3
*Model_Space
  1

  0
ENDBLK
  5
21
330
1F
100
AcDbEntity
  8
0
100
AcDbBlockEnd
  0
BLOCK
  5
24
330
23
100
AcDbEntity
 67
     1
  8
0
100
AcDbBlockBegin
  2
*Paper_Space
 70
     0
 10
0.0
 20
0.0
 30
0.0
  3
*Paper_Space
  1

  0
ENDBLK
  5
25
330
23
100
AcDbEntity
 67
     1
  8
0
100
AcDbBlockEnd
  0
BLOCK
  5
1C
330
1B
100
AcDbEntity
 67
     1
  8
0
100
AcDbBlockBegin
  2
*Paper_Space0
 70
     0
 10
0.0
 20
0.0
 30
0.0
  3
*Paper_Space0
  1

  0
VIEWPORT
  5
178
102
{ACAD_XDICTIONARY
360
1B96
102
}
330
1B
100
AcDbEntity
 67
     1
  8
0
100
AcDbViewport
 10
133.3499908447265
 20
101.5999970436096
 30
0.0
 40
370.2266912936524
 41
228.4221935424805
 68
     0
 69
     0
 12
133.3499908447265
 22
101.5999970436096
 13
0.0
 23
0.0
 14
10.0
 24
10.0
 15
10.0
 25
10.0
 16
0.0
 26
0.0
 36
1.0
 17
0.0
 27
0.0
 37
0.0
 42
50.0
 43
0.0
 44
0.0
 45
228.4221935424805
 50
0.0
 51
0.0
 72
   100
 90
    32800
  1

281
     0
 71
     1
 74
     0
110
0.0
120
0.0
130
0.0
111
1.0
121
0.0
131
0.0
112
0.0
122
1.0
132
0.0
 79
     0
146
0.0
  0
ENDBLK
  5
1D
330
1B
100
AcDbEntity
 67
     1
  8
0
100
AcDbBlockEnd
  0
BLOCK
  5
89
330
87
100
AcDbEntity
  8
0
100
AcDbBlockBegin
  2
GENAXEH
 70
     0
 10
0.0
 20
0.0
 30
0.0
  3
GENAXEH
  1

  0
LINE
  5
88
330
87
100
AcDbEntity
  8
0
100
AcDbLine
 10
-1.0
 20
0.0
 30
0.0
 11
1.0
 21
0.0
 31
0.0
  0
ENDBLK
  5
8A
330
87
100
AcDbEntity
  8
0
100
AcDbBlockEnd
  0
BLOCK
  5
40B
330
407
100
AcDbEntity
  8
0
100
AcDbBlockBegin
  2
_Open30
 70
     0
 10
0.0
 20
0.0
 30
0.0
  3
_Open30
  1

  0
LINE
  5
408
330
407
100
AcDbEntity
  8
0
  6
ByBlock
 62
     0
370
    -2
100
AcDbLine
 10
-1.0
 20
0.26794919
 30
0.0
 11
0.0
 21
0.0
 31
0.0
  0
LINE
  5
409
330
407
100
AcDbEntity
  8
0
  6
ByBlock
 62
     0
370
    -2
100
AcDbLine
 10
0.0
 20
0.0
 30
0.0
 11
-1.0
 21
-0.26794919
 31
0.0
  0
LINE
  5
40A
330
407
100
AcDbEntity
  8
0
  6
ByBlock
 62
     0
370
    -2
100
AcDbLine
 10
0.0
 20
0.0
 30
0.0
 11
-1.0
 21
0.0
 31
0.0
  0
ENDBLK
  5
40C
330
407
100
AcDbEntity
  8
0
100
AcDbBlockEnd
  0
BLOCK
  5
8C3
330
8B9
100
AcDbEntity
  8
0
100
AcDbBlockBegin
  2
TAKACHI-A3
 70
     0
 10
0.0
 20
0.0
 30
0.0
  3
TAKACHI-A3
  1

  0
LWPOLYLINE
  5
8BA
330
8B9
100
AcDbEntity
  8
0
100
AcDbPolyline
 90
        4
 70
     1
 43
0.0
 10
10.0
 20
0.0
 10
410.0
 20
0.0
 10
410.0
 20
280.0
 10
10.00000000000003
 20
280.0
1001
GENIUS_GENREC_14
1002
{
1000
PYDIR
1011
10.00000000000001
1021
280.0
1031
0.0
1002
}
1002
{
1000
PXDIR
1011
410.0
1021
0.0
1031
0.0
1002
}
1002
{
1000
PORI
1011
10.0
1021
0.0
1031
0.0
1002
}
1002
{
1000
PINS
1011
210.0
1021
139.9999999999999
1031
0.0
1002
}
1002
{
1000
HVAL
1000
280
1002
}
1002
{
1000
H
1070
     2
1002
}
1002
{
1000
WVAL
1000
400
1002
}
1002
{
1000
W
1070
     2
1002
}
1002
{
1000
C
1070
     4
1002
}
1001
GENIUS_GENODEF_13
1002
{
1000
HIER
1070
     0
1002
}
1002
{
1000
MANEDIT
1070
     0
1002
}
1002
{
1000
NOSEL
1070
     0
1002
}
1002
{
1000
BEHIND
1070
     0
1002
}
1002
{
1000
REACTOR
1002
}
1001
GENIUS_GENOBJ-N-REC_13
1002
{
1000
OWNER
1000
GEN
1002
}
  0
TEXT
  5
8BB
330
8B9
100
AcDbEntity
  8
0
 60
     1
100
AcDbText
 10
15.00000000000003
 20
50.0
 30
0.0
 40
2.5
  1
!GENTITLE-LL
100
AcDbText
  0
TEXT
  5
8BC
330
8B9
100
AcDbEntity
  8
0
 60
     1
100
AcDbText
 10
410.0
 20
0.0
 30
0.0
 40
2.5
  1
!GENTITLE-INSERT
100
AcDbText
  0
TEXT
  5
8BD
330
8B9
100
AcDbEntity
  8
0
 60
     1
100
AcDbText
 10
405.0
 20
275.0
 30
0.0
 40
2.5
  1
!GENTITLE-RU
100
AcDbText
  0
TEXT
  5
8BE
330
8B9
100
AcDbEntity
  8
0
 60
     1
100
AcDbText
 10
410.0
 20
280.0
 30
0.0
 40
2.5
  1
!GENTITLE-MAX
100
AcDbText
  0
LINE
  5
8BF
330
8B9
100
AcDbEntity
  8
0
100
AcDbLine
 10
366.0
 20
275.0
 30
0.0
 11
410.0
 21
275.0
 31
0.0
  0
MTEXT
  5
8C0
330
8B9
100
AcDbEntity
  8
0
100
AcDbMText
 10
409.3592953827348
 20
276.108542987227
 30
0.0
 40
2.5
 41
43.07840397728298
 71
     9
 72
     5
  1
(文書番号：TY-34)2004.10.29
 73
     1
 44
1.0
1001
ACAD
1000
MTEXTBEGIN
1070
    73
1070
     1
1070
    44
1040
1.0
1070
    74
1070
     0
1000
MTEXTEND
  0
LINE
  5
8C1
330
8B9
100
AcDbEntity
  8
0
100
AcDbLine
 10
366.0
 20
280.0
 30
0.0
 11
366.0
 21
275.0
 31
0.0
  0
ENDBLK
  5
8C4
330
8B9
100
AcDbEntity
  8
0
100
AcDbBlockEnd
  0
BLOCK
  5
924
330
8CE
100
AcDbEntity
  8
0
100
AcDbBlockBegin
  2
TAKACHI-TITLE
 70
     2
 10
0.0
 20
0.0
 30
0.0
  3
TAKACHI-TITLE
  1

  0
LINE
  5
8CF
330
8CE
100
AcDbEntity
  8
RAHM2
100
AcDbLine
 10
-195.0
 20
30.00000000000003
 30
0.0
 11
-94.0
 21
30.00000000000003
 31
0.0
  0
LINE
  5
8D0
330
8CE
100
AcDbEntity
  8
RAHM2
100
AcDbLine
 10
-195.0
 20
35.00000000000003
 30
0.0
 11
-94.0
 21
35.00000000000003
 31
0.0
  0
LINE
  5
8D1
330
8CE
100
AcDbEntity
  8
RAHM2
100
AcDbLine
 10
-195.0
 20
40.00000000000002
 30
0.0
 11
-94.0
 21
40.00000000000002
 31
0.0
  0
LINE
  5
8D2
330
8CE
100
AcDbEntity
  8
RAHM2
100
AcDbLine
 10
-195.0
 20
45.00000000000002
 30
0.0
 11
-94.0
 21
45.00000000000002
 31
0.0
  0
LINE
  5
8D3
330
8CE
100
AcDbEntity
  8
0
100
AcDbLine
 10
-195.0
 20
7.0
 30
0.0
 11
-94.0
 21
7.0
 31
0.0
  0
LINE
  5
8D4
330
8CE
100
AcDbEntity
  8
0
100
AcDbLine
 10
-195.0
 20
19.99999999999997
 30
0.0
 11
-94.0
 21
19.99999999999997
 31
0.0
  0
ATTDEF
  5
8D5
330
8CE
100
AcDbEntity
  8
0
100
AcDbText
 10
-183.2438527145607
 20
8.950850524428082
 30
0.0
 40
2.5
  1

 11
-183.2438527145607
 21
8.617517191094748
 31
0.0
100
AcDbAttributeDefinition
  3
サブタイトル
  2
GEN-TITLE-DES2
 70
     0
 74
     1
  0
ATTDEF
  5
8D6
330
8CE
100
AcDbEntity
  8
0
100
AcDbText
 10
-183.2438527145607
 20
2.017517191094748
 30
0.0
 40
3.0
  1

 11
-183.2438527145607
 21
1.617517191094748
 31
0.0
100
AcDbAttributeDefinition
  3
図番
  2
GEN-TITLE-NR
 70
     0
 74
     1
  0
MTEXT
  5
8D7
330
8CE
100
AcDbEntity
  8
RAHM2
100
AcDbMText
 10
-193.8002551371314
 20
5.801035407279641
 30
0.0
 40
2.5
 41
90.0
 71
     1
 72
     5
  1
図番
 73
     1
 44
1.0
1001
ACAD
1000
MTEXTBEGIN
1070
    73
1070
     1
1070
    44
1040
1.0
1070
    74
1070
     0
1000
MTEXTEND
  0
ATTDEF
  5
8D8
330
8CE
100
AcDbEntity
  8
0
100
AcDbText
 10
-183.2438527145607
 20
14.40728619501834
 30
0.0
 40
4.0
  1

 11
-183.2438527145607
 21
13.87395286168501
 31
0.0
100
AcDbAttributeDefinition
  3
品名
  2
GEN-TITLE-DES1
 70
     0
 74
     1
  0
LINE
  5
8D9
330
8CE
100
AcDbEntity
  8
RAHM2
100
AcDbLine
 10
-187.5751288694036
 20
30.40000000000004
 30
0.0
 11
-190.0
 21
34.60000000000003
 31
0.0
  0
LINE
  5
8DA
330
8CE
100
AcDbEntity
  8
RAHM2
100
AcDbLine
 10
-190.0
 20
34.60000000000003
 30
0.0
 11
-192.4248711305964
 21
30.40000000000004
 31
0.0
  0
LINE
  5
8DB
330
8CE
100
AcDbEntity
  8
RAHM2
100
AcDbLine
 10
-185.0
 20
50.00000000000003
 30
0.0
 11
-185.0
 21
19.99999999999994
 31
0.0
  0
LINE
  5
8DC
330
8CE
100
AcDbEntity
  8
RAHM2
100
AcDbLine
 10
-192.4248711305964
 20
30.40000000000004
 30
0.0
 11
-187.5751288694036
 21
30.40000000000004
 31
0.0
  0
MTEXT
  5
8DD
330
8CE
100
AcDbEntity
  8
RAHM2
100
AcDbMText
 10
-190.0
 20
22.49999999999997
 30
0.0
 40
2.5
 41
10.0
 71
     5
 72
     5
  1
符号
 73
     1
 44
1.0
1001
ACAD
1000
MTEXTBEGIN
1070
    73
1070
     1
1070
    44
1040
1.0
1070
    74
1070
     0
1000
MTEXTEND
  0
MTEXT
  5
8DE
330
8CE
100
AcDbEntity
  8
RAHM2
100
AcDbMText
 10
-193.8002551371314
 20
18.80103540727961
 30
0.0
 40
2.5
 41
90.0
 71
     1
 72
     5
  1
品名
 73
     1
 44
1.0
1001
ACAD
1000
MTEXTBEGIN
1070
    73
1070
     1
1070
    44
1040
1.0
1070
    74
1070
     0
1000
MTEXTEND
  0
LINE
  5
8DF
330
8CE
100
AcDbEntity
  8
RAHM2
100
AcDbLine
 10
-192.4248711305964
 20
45.40000000000003
 30
0.0
 11
-187.5751288694036
 21
45.40000000000003
 31
0.0
  0
LINE
  5
8E0
330
8CE
100
AcDbEntity
  8
RAHM2
100
AcDbLine
 10
-187.5751288694036
 20
45.40000000000003
 30
0.0
 11
-190.0
 21
49.60000000000002
 31
0.0
  0
LINE
  5
8E1
330
8CE
100
AcDbEntity
  8
RAHM2
100
AcDbLine
 10
-192.4248711305964
 20
40.40000000000003
 30
0.0
 11
-187.5751288694036
 21
40.40000000000003
 31
0.0
  0
LINE
  5
8E2
330
8CE
100
AcDbEntity
  8
RAHM2
100
AcDbLine
 10
-187.5751288694036
 20
40.40000000000003
 30
0.0
 11
-190.0
 21
44.60000000000002
 31
0.0
  0
LINE
  5
8E3
330
8CE
100
AcDbEntity
  8
RAHM2
100
AcDbLine
 10
-192.4248711305964
 20
35.40000000000004
 30
0.0
 11
-187.5751288694036
 21
35.40000000000004
 31
0.0
  0
LINE
  5
8E4
330
8CE
100
AcDbEntity
  8
RAHM2
100
AcDbLine
 10
-187.5751288694036
 20
35.40000000000004
 30
0.0
 11
-190.0
 21
39.60000000000002
 31
0.0
  0
LINE
  5
8E5
330
8CE
100
AcDbEntity
  8
RAHM2
100
AcDbLine
 10
-190.0
 20
39.60000000000002
 30
0.0
 11
-192.4248711305964
 21
35.40000000000004
 31
0.0
  0
LINE
  5
8E6
330
8CE
100
AcDbEntity
  8
RAHM2
100
AcDbLine
 10
-190.0
 20
44.60000000000002
 30
0.0
 11
-192.4248711305964
 21
40.40000000000003
 31
0.0
  0
LINE
  5
8E7
330
8CE
100
AcDbEntity
  8
RAHM2
100
AcDbLine
 10
-190.0
 20
49.60000000000002
 30
0.0
 11
-192.4248711305964
 21
45.40000000000003
 31
0.0
  0
LINE
  5
8E8
330
8CE
100
AcDbEntity
  8
RAHM2
100
AcDbLine
 10
-129.0
 20
50.00000000000003
 30
0.0
 11
-129.0
 21
19.99999999999994
 31
0.0
  0
MTEXT
  5
8E9
330
8CE
100
AcDbEntity
  8
RAHM2
100
AcDbMText
 10
-157.1448171868856
 20
22.49999999999997
 30
0.0
 40
2.5
 41
45.0
 71
     5
 72
     5
  1
変更記事
 73
     1
 44
1.0
1001
ACAD
1000
MTEXTBEGIN
1070
    73
1070
     1
1070
    44
1040
1.0
1070
    74
1070
     0
1000
MTEXTEND
  0
LINE
  5
8EA
330
8CE
100
AcDbEntity
  8
0
100
AcDbLine
 10
-34.0
 20
50.0
 30
0.0
 11
-34.0
 21
0.0
 31
0.0
  0
LINE
  5
8EB
330
8CE
100
AcDbEntity
  8
0
100
AcDbLine
 10
-94.0
 20
50.0
 30
0.0
 11
-94.0
 21
0.0
 31
0.0
  0
MTEXT
  5
8EC
330
8CE
100
AcDbEntity
  8
0
100
AcDbMText
 10
-64.0
 20
5.0
 30
0.0
 40
3.5
 41
60.0
 71
     5
 72
     5
  1
\fＭＳ ゴシック|b0|i0|c128|p49;株式会社タカチ電機工業
 73
     1
 44
1.0
1001
ACAD
1000
MTEXTBEGIN
1070
    73
1070
     1
1070
    44
1040
1.0
1070
    74
1070
     0
1000
MTEXTEND
  0
LINE
  5
8ED
330
8CE
100
AcDbEntity
  8
0
100
AcDbLine
 10
-94.0
 20
10.0
 30
0.0
 11
-34.0
 21
10.0
 31
0.0
  0
ATTDEF
  5
8EE
330
8CE
100
AcDbEntity
  8
0
100
AcDbText
 10
-58.01405119799745
 20
39.25500556178349
 30
0.0
 40
3.0
  1

 72
     2
 11
-58.01405119799745
 21
39.25500556178349
 31
0.0
100
AcDbAttributeDefinition
  3
尺度
  2
GEN-TITLE-SCA
 70
     0
  0
ATTDEF
  5
8EF
330
8CE
100
AcDbEntity
  8
0
100
AcDbText
 10
-77.00284966649007
 20
31.02180787943475
 30
0.0
 40
3.0
  1

 11
-77.00284966649007
 21
30.62180787943475
 31
0.0
100
AcDbAttributeDefinition
  3
材質
  2
GEN-TITLE-MAT1
 70
     0
 74
     1
  0
ATTDEF
  5
8F0
330
8CE
100
AcDbEntity
  8
0
100
AcDbText
 10
-77.00284966649007
 20
21.02180787943475
 30
0.0
 40
3.0
  1

 11
-77.00284966649007
 21
20.62180787943475
 31
0.0
100
AcDbAttributeDefinition
  3
表面処理
  2
GEN-TITLE-MAT2
 70
     0
 74
     1
  0
ATTDEF
  5
8F1
330
8CE
100
AcDbEntity
  8
0
100
AcDbText
 10
-77.00284966649007
 20
12.01751719109475
 30
0.0
 40
3.0
  1

 11
-77.00284966649007
 21
11.61751719109475
 31
0.0
100
AcDbAttributeDefinition
  3
日付
  2
GEN-TITLE-DAT
 70
     0
 74
     1
  0
LINE
  5
8F2
330
8CE
100
AcDbEntity
  8
0
100
AcDbLine
 10
-94.0
 20
37.5
 30
0.0
 11
-34.0
 21
37.5
 31
0.0
  0
LINE
  5
8F3
330
8CE
100
AcDbEntity
  8
0
100
AcDbLine
 10
-94.0
 20
27.5
 30
0.0
 11
-34.0
 21
27.5
 31
0.0
  0
LINE
  5
8F4
330
8CE
100
AcDbEntity
  8
0
100
AcDbLine
 10
-94.0
 20
17.5
 30
0.0
 11
-34.0
 21
17.5
 31
0.0
  0
LINE
  5
8F5
330
8CE
100
AcDbEntity
  8
RAHM2
100
AcDbLine
 10
-109.0
 20
50.00000000000003
 30
0.0
 11
-109.0
 21
19.99999999999994
 31
0.0
  0
MTEXT
  5
8F6
330
8CE
100
AcDbEntity
  8
RAHM2
100
AcDbMText
 10
-119.4582894723942
 20
32.50000000000003
 30
0.0
 40
2.5
 41
20.0
 71
     5
 72
     5
  1
・  ・   
 73
     1
 44
1.0
1001
ACAD
1000
MTEXTBEGIN
1070
    73
1070
     1
1070
    44
1040
1.0
1070
    74
1070
     0
1000
MTEXTEND
  0
MTEXT
  5
8F7
330
8CE
100
AcDbEntity
  8
RAHM2
100
AcDbMText
 10
-118.738119805002
 20
22.49999999999997
 30
0.0
 40
2.5
 41
20.0
 71
     5
 72
     5
  1
年・月・日
 73
     1
 44
1.0
1001
ACAD
1000
MTEXTBEGIN
1070
    73
1070
     1
1070
    44
1040
1.0
1070
    74
1070
     0
1000
MTEXTEND
  0
MTEXT
  5
8F8
330
8CE
100
AcDbEntity
  8
RAHM2
100
AcDbMText
 10
-101.5
 20
22.49999999999997
 30
0.0
 40
2.5
 41
15.0
 71
     5
 72
     5
  1
担当
 73
     1
 44
1.0
1001
ACAD
1000
MTEXTBEGIN
1070
    73
1070
     1
1070
    44
1040
1.0
1070
    74
1070
     0
1000
MTEXTEND
  0
MTEXT
  5
8F9
330
8CE
100
AcDbEntity
  8
RAHM2
100
AcDbMText
 10
-119.4582894723942
 20
42.50000000000002
 30
0.0
 40
2.5
 41
20.0
 71
     5
 72
     5
  1
・  ・   
 73
     1
 44
1.0
1001
ACAD
1000
MTEXTBEGIN
1070
    73
1070
     1
1070
    44
1040
1.0
1070
    74
1070
     0
1000
MTEXTEND
  0
MTEXT
  5
8FA
330
8CE
100
AcDbEntity
  8
RAHM2
100
AcDbMText
 10
-119.4582894723942
 20
37.50000000000003
 30
0.0
 40
2.5
 41
20.0
 71
     5
 72
     5
  1
・  ・   
 73
     1
 44
1.0
1001
ACAD
1000
MTEXTBEGIN
1070
    73
1070
     1
1070
    44
1040
1.0
1070
    74
1070
     0
1000
MTEXTEND
  0
MTEXT
  5
8FB
330
8CE
100
AcDbEntity
  8
RAHM2
100
AcDbMText
 10
-119.4582894723942
 20
47.50000000000002
 30
0.0
 40
2.5
 41
20.0
 71
     5
 72
     5
  1
・  ・   
 73
     1
 44
1.0
1001
ACAD
1000
MTEXTBEGIN
1070
    73
1070
     1
1070
    44
1040
1.0
1070
    74
1070
     0
1000
MTEXTEND
  0
MTEXT
  5
8FC
330
8CE
100
AcDbEntity
  8
RAHM2
100
AcDbMText
 10
-92.80025513713145
 20
16.30103540727964
 30
0.0
 40
2.5
 41
60.0
 71
     1
 72
     5
  1
日付
 73
     1
 44
1.0
1001
ACAD
1000
MTEXTBEGIN
1070
    73
1070
     1
1070
    44
1040
1.0
1070
    74
1070
     0
1000
MTEXTEND
  0
MTEXT
  5
8FD
330
8CE
100
AcDbEntity
  8
RAHM2
100
AcDbMText
 10
-92.80025513713145
 20
26.30103540727964
 30
0.0
 40
2.5
 41
60.0
 71
     1
 72
     5
  1
表面処理
 73
     1
 44
1.0
1001
ACAD
1000
MTEXTBEGIN
1070
    73
1070
     1
1070
    44
1040
1.0
1070
    74
1070
     0
1000
MTEXTEND
  0
LINE
  5
8FE
330
8CE
100
AcDbEntity
  8
7A
100
AcDbLine
 10
-89.0
 20
43.75
 30
0.0
 11
-75.2186915997147
 21
43.75
 31
0.0
1001
GENIUS_GENOREF_13
1005
911
  0
LINE
  5
8FF
330
8CE
100
AcDbEntity
  8
0
100
AcDbLine
 10
-84.0
 20
45.75
 30
0.0
 11
-76.0
 21
46.74999999999999
 31
0.0
  0
LINE
  5
900
330
8CE
100
AcDbEntity
  8
0
100
AcDbLine
 10
-76.0
 20
40.75
 30
0.0
 11
-84.0
 21
41.74999999999999
 31
0.0
  0
LINE
  5
901
330
8CE
100
AcDbEntity
  8
7A
100
AcDbLine
 10
-89.0
 20
43.75
 30
0.0
 11
-89.0
 21
47.32478664473148
 31
0.0
1001
GENIUS_GENOREF_13
1005
911
  0
CIRCLE
  5
902
330
8CE
100
AcDbEntity
  8
0
100
AcDbCircle
 10
-89.0
 20
43.75
 30
0.0
 40
2.0
  0
CIRCLE
  5
903
330
8CE
100
AcDbEntity
  8
0
100
AcDbCircle
 10
-89.0
 20
43.75
 30
0.0
 40
3.0
  0
LINE
  5
904
330
8CE
100
AcDbEntity
  8
0
100
AcDbLine
 10
-84.0
 20
41.74999999999999
 30
0.0
 11
-84.0
 21
45.75
 31
0.0
  0
MTEXT
  5
905
330
8CE
100
AcDbEntity
  8
RAHM2
100
AcDbMText
 10
-92.80025513713145
 20
36.30103540727964
 30
0.0
 40
2.5
 41
60.0
 71
     1
 72
     5
  1
材質
 73
     1
 44
1.0
1001
ACAD
1000
MTEXTBEGIN
1070
    73
1070
     1
1070
    44
1040
1.0
1070
    74
1070
     0
1000
MTEXTEND
  0
LINE
  5
906
330
8CE
100
AcDbEntity
  8
7A
100
AcDbLine
 10
-89.0
 20
43.75
 30
0.0
 11
-92.72303737125117
 21
43.75
 31
0.0
1001
GENIUS_GENOREF_13
1005
911
  0
LINE
  5
907
330
8CE
100
AcDbEntity
  8
7A
100
AcDbLine
 10
-89.0
 20
43.75
 30
0.0
 11
-89.0
 21
40.03991724228479
 31
0.0
1001
GENIUS_GENOREF_13
1005
911
  0
LINE
  5
908
330
8CE
100
AcDbEntity
  8
0
100
AcDbLine
 10
-76.0
 20
46.74999999999999
 30
0.0
 11
-76.0
 21
40.75
 31
0.0
  0
LINE
  5
909
330
8CE
100
AcDbEntity
  8
0
100
AcDbLine
 10
-74.0
 20
50.0
 30
0.0
 11
-74.0
 21
37.5
 31
0.0
  0
MTEXT
  5
90A
330
8CE
100
AcDbEntity
  8
RAHM2
100
AcDbMText
 10
-72.80025513713145
 20
48.80103540727964
 30
0.0
 40
2.5
 41
20.0
 71
     1
 72
     5
  1
尺度
 73
     1
 44
1.0
1001
ACAD
1000
MTEXTBEGIN
1070
    73
1070
     1
1070
    44
1040
1.0
1070
    74
1070
     0
1000
MTEXTEND
  0
ATTDEF
  5
90B
330
8CE
100
AcDbEntity
  8
0
100
AcDbText
 10
-37.76317379391503
 20
39.25500556178349
 30
0.0
 40
3.0
  1

 72
     2
 11
-37.76317379391503
 21
39.25500556178349
 31
0.0
100
AcDbAttributeDefinition
  3
数量
  2
GEN-TITLE-QTY
 70
     0
  0
LINE
  5
90C
330
8CE
100
AcDbEntity
  8
0
100
AcDbLine
 10
-34.0
 20
25.0
 30
0.0
 11
0.0
 21
25.0
 31
0.0
  0
LINE
  5
90D
330
8CE
100
AcDbEntity
  8
0
100
AcDbLine
 10
-54.0
 20
50.0
 30
0.0
 11
-54.0
 21
37.5
 31
0.0
  0
MTEXT
  5
90E
330
8CE
100
AcDbEntity
  8
RAHM2
100
AcDbMText
 10
-52.80025513713145
 20
48.80103540727964
 30
0.0
 40
2.5
 41
20.0
 71
     1
 72
     5
  1
数量
 73
     1
 44
1.0
1001
ACAD
1000
MTEXTBEGIN
1070
    73
1070
     1
1070
    44
1040
1.0
1070
    74
1070
     0
1000
MTEXTEND
  0
MTEXT
  5
90F
330
8CE
100
AcDbEntity
  8
RAHM2
100
AcDbMText
 10
-25.5
 20
23.80103540727964
 30
0.0
 40
2.5
 41
17.0
 71
     2
 72
     5
  1
承認
 73
     1
 44
1.0
1001
ACAD
1000
MTEXTBEGIN
1070
    73
1070
     1
1070
    44
1040
1.0
1070
    74
1070
     0
1000
MTEXTEND
  0
MTEXT
  5
910
330
8CE
100
AcDbEntity
  8
RAHM2
100
AcDbMText
 10
-25.5
 20
48.80103540727964
 30
0.0
 40
2.5
 41
17.0
 71
     2
 72
     5
  1
承認
 73
     1
 44
1.0
1001
ACAD
1000
MTEXTBEGIN
1070
    73
1070
     1
1070
    44
1040
1.0
1070
    74
1070
     0
1000
MTEXTEND
  0
POINT
  5
911
330
8CE
100
AcDbEntity
  8
0
 60
     1
100
AcDbPoint
 10
-320.5355579819676
 20
-138.1104841268254
 30
0.0
1001
GENIUS_GENODEF_13
1002
{
1000
HIER
1070
    10
1002
}
1002
{
1000
MANEDIT
1070
     0
1002
}
1002
{
1000
NOSEL
1070
     0
1002
}
1002
{
1000
BEHIND
1070
     0
1002
}
1002
{
1000
REACTOR
1002
}
1001
GENIUS_GENOBJ-N-CRS_13
1002
{
1000
OWNER
1000
GEN
1002
}
1001
GENIUS_GENOENT_13
1002
{
1000
MYREF
1005
911
1002
}
1002
{
1000
GRP
1005
0
1002
}
1001
GENIUS_GENOLIS_13
1002
{
1000
ENT
1005
907
1005
906
1005
901
1005
8FE
1002
}
  0
LINE
  5
912
330
8CE
100
AcDbEntity
  8
RAHM2
100
AcDbLine
 10
-190.0
 20
29.60000000000002
 30
0.0
 11
-192.4248711305964
 21
25.40000000000004
 31
0.0
  0
LINE
  5
913
330
8CE
100
AcDbEntity
  8
RAHM2
100
AcDbLine
 10
-187.5751288694036
 20
25.40000000000004
 30
0.0
 11
-190.0
 21
29.60000000000002
 31
0.0
  0
LINE
  5
914
330
8CE
100
AcDbEntity
  8
RAHM2
100
AcDbLine
 10
-192.4248711305964
 20
25.40000000000004
 30
0.0
 11
-187.5751288694036
 21
25.40000000000004
 31
0.0
  0
LINE
  5
915
330
8CE
100
AcDbEntity
  8
RAHM2
100
AcDbLine
 10
-195.0
 20
25.00000000000003
 30
0.0
 11
-94.0
 21
25.00000000000003
 31
0.0
  0
MTEXT
  5
916
330
8CE
100
AcDbEntity
  8
RAHM2
100
AcDbMText
 10
-119.4582894723942
 20
27.50000000000003
 30
0.0
 40
2.5
 41
20.0
 71
     5
 72
     5
  1
・  ・   
 73
     1
 44
1.0
1001
ACAD
1000
MTEXTBEGIN
1070
    73
1070
     1
1070
    44
1040
1.0
1070
    74
1070
     0
1000
MTEXTEND
  0
TEXT
  5
917
330
8CE
100
AcDbEntity
  8
RAHM2
100
AcDbText
 10
-190.8155863565801
 20
25.98333333333337
 30
0.0
 40
2.5
  1
1
 72
     1
 11
-190.1905863565802
 21
25.65000000000003
 31
0.0
100
AcDbText
 73
     1
  0
TEXT
  5
918
330
8CE
100
AcDbEntity
  8
RAHM2
100
AcDbText
 10
-190.9183316929134
 20
30.98333333333337
 30
0.0
 40
2.5
  1
2
 72
     1
 11
-190.0
 21
30.65000000000003
 31
0.0
100
AcDbText
 73
     1
  0
TEXT
  5
919
330
8CE
100
AcDbEntity
  8
RAHM2
100
AcDbText
 10
-190.9267766952966
 20
35.98333333333334
 30
0.0
 40
2.5
  1
3
 72
     1
 11
-190.0
 21
35.65000000000001
 31
0.0
100
AcDbText
 73
     1
  0
TEXT
  5
91A
330
8CE
100
AcDbEntity
  8
RAHM2
100
AcDbText
 10
-191.0
 20
40.98333333333337
 30
0.0
 40
2.5
  1
4
 72
     1
 11
-190.0
 21
40.65000000000003
 31
0.0
100
AcDbText
 73
     1
  0
TEXT
  5
91B
330
8CE
100
AcDbEntity
  8
RAHM2
100
AcDbText
 10
-190.9267766952966
 20
45.98333333333337
 30
0.0
 40
2.5
  1
5
 72
     1
 11
-190.0
 21
45.65000000000003
 31
0.0
100
AcDbText
 73
     1
  0
LINE
  5
91C
330
8CE
100
AcDbEntity
  8
0
100
AcDbLine
 10
-17.0
 20
50.0
 30
0.0
 11
-17.0
 21
0.0
 31
0.0
  0
LINE
  5
91D
330
8CE
100
AcDbEntity
  8
0
100
AcDbLine
 10
-195.0
 20
0.0
 30
0.0
 11
0.0
 21
0.0
 31
0.0
1001
GENIUS_GENREC_14
1002
{
1000
PYDIR
1011
-184.0
1021
50.0
1031
0.0
1002
}
1002
{
1000
PXDIR
1011
0.0
1021
0.0
1031
0.0
1002
}
1002
{
1000
PORI
1011
-184.0
1021
0.0
1031
0.0
1002
}
1002
{
1000
PINS
1011
-100.5
1021
25.0
1031
0.0
1002
}
1002
{
1000
HVAL
1000
50
1002
}
1002
{
1000
H
1070
     2
1002
}
1002
{
1000
WVAL
1000
167
1002
}
1002
{
1000
W
1070
     2
1002
}
1002
{
1000
C
1070
     4
1002
}
1001
GENIUS_GENODEF_13
1002
{
1000
HIER
1070
     0
1002
}
1002
{
1000
MANEDIT
1070
     0
1002
}
1002
{
1000
NOSEL
1070
     0
1002
}
1002
{
1000
BEHIND
1070
     0
1002
}
1002
{
1000
REACTOR
1002
}
1001
GENIUS_GENOBJ-N-REC_13
1002
{
1000
OWNER
1000
GEN
1002
}
  0
LINE
  5
91E
330
8CE
100
AcDbEntity
  8
0
100
AcDbLine
 10
0.0
 20
0.0
 30
0.0
 11
0.0
 21
50.0
 31
0.0
1001
GENIUS_GENREC_14
1002
{
1000
PYDIR
1011
-184.0
1021
50.0
1031
0.0
1002
}
1002
{
1000
PXDIR
1011
0.0
1021
0.0
1031
0.0
1002
}
1002
{
1000
PORI
1011
-184.0
1021
0.0
1031
0.0
1002
}
1002
{
1000
PINS
1011
-100.5
1021
25.0
1031
0.0
1002
}
1002
{
1000
HVAL
1000
50
1002
}
1002
{
1000
H
1070
     2
1002
}
1002
{
1000
WVAL
1000
167
1002
}
1002
{
1000
W
1070
     2
1002
}
1002
{
1000
C
1070
     4
1002
}
1001
GENIUS_GENODEF_13
1002
{
1000
HIER
1070
     0
1002
}
1002
{
1000
MANEDIT
1070
     0
1002
}
1002
{
1000
NOSEL
1070
     0
1002
}
1002
{
1000
BEHIND
1070
     0
1002
}
1002
{
1000
REACTOR
1002
}
1001
GENIUS_GENOBJ-N-REC_13
1002
{
1000
OWNER
1000
GEN
1002
}
  0
LINE
  5
91F
330
8CE
100
AcDbEntity
  8
0
100
AcDbLine
 10
0.0
 20
50.0
 30
0.0
 11
-195.0
 21
50.00000000000003
 31
0.0
1001
GENIUS_GENREC_14
1002
{
1000
PYDIR
1011
-184.0
1021
50.0
1031
0.0
1002
}
1002
{
1000
PXDIR
1011
0.0
1021
0.0
1031
0.0
1002
}
1002
{
1000
PORI
1011
-184.0
1021
0.0
1031
0.0
1002
}
1002
{
1000
PINS
1011
-100.5
1021
25.0
1031
0.0
1002
}
1002
{
1000
HVAL
1000
50
1002
}
1002
{
1000
H
1070
     2
1002
}
1002
{
1000
WVAL
1000
167
1002
}
1002
{
1000
W
1070
     2
1002
}
1002
{
1000
C
1070
     4
1002
}
1001
GENIUS_GENODEF_13
1002
{
1000
HIER
1070
     0
1002
}
1002
{
1000
MANEDIT
1070
     0
1002
}
1002
{
1000
NOSEL
1070
     0
1002
}
1002
{
1000
BEHIND
1070
     0
1002
}
1002
{
1000
REACTOR
1002
}
1001
GENIUS_GENOBJ-N-REC_13
1002
{
1000
OWNER
1000
GEN
1002
}
  0
LINE
  5
920
330
8CE
100
AcDbEntity
  8
0
100
AcDbLine
 10
-195.0
 20
50.00000000000003
 30
0.0
 11
-195.0
 21
0.0
 31
0.0
1001
GENIUS_GENREC_14
1002
{
1000
PYDIR
1011
-195.0
1021
50.0
1031
0.0
1002
}
1002
{
1000
PXDIR
1011
-11.0
1021
0.0
1031
0.0
1002
}
1002
{
1000
PORI
1011
-195.0
1021
0.0
1031
0.0
1002
}
1002
{
1000
PINS
1011
-111.5
1021
25.0
1031
0.0
1002
}
1002
{
1000
HVAL
1000
50
1002
}
1002
{
1000
H
1070
     2
1002
}
1002
{
1000
WVAL
1000
167
1002
}
1002
{
1000
W
1070
     2
1002
}
1002
{
1000
C
1070
     4
1002
}
1001
GENIUS_GENODEF_13
1002
{
1000
HIER
1070
     0
1002
}
1002
{
1000
MANEDIT
1070
     0
1002
}
1002
{
1000
NOSEL
1070
     0
1002
}
1002
{
1000
BEHIND
1070
     0
1002
}
1002
{
1000
REACTOR
1002
}
1001
GENIUS_GENOBJ-N-REC_13
1002
{
1000
OWNER
1000
GEN
1002
}
  0
MTEXT
  5
921
330
8CE
100
AcDbEntity
  8
RAHM2
100
AcDbMText
 10
-8.5
 20
48.80103540727964
 30
0.0
 40
2.5
 41
17.0
 71
     2
 72
     5
  1
検図
 73
     1
 44
1.0
1001
ACAD
1000
MTEXTBEGIN
1070
    73
1070
     1
1070
    44
1040
1.0
1070
    74
1070
     0
1000
MTEXTEND
  0
MTEXT
  5
922
330
8CE
100
AcDbEntity
  8
RAHM2
100
AcDbMText
 10
-8.5
 20
23.80103540727964
 30
0.0
 40
2.5
 41
17.0
 71
     2
 72
     5
  1
製図
 73
     1
 44
1.0
1001
ACAD
1000
MTEXTBEGIN
1070
    73
1070
     1
1070
    44
1040
1.0
1070
    74
1070
     0
1000
MTEXTEND
  0
ENDBLK
  5
925
330
8CE
100
AcDbEntity
  8
0
100
AcDbBlockEnd
  0
BLOCK
  5
9C2
330
9C1
100
AcDbEntity
  8
0
100
AcDbBlockBegin
  2
GEVCON
 70
     0
 10
0.0
 20
0.0
 30
0.0
  3
GEVCON
  1
GEVCON
  0
ENDBLK
  5
9C3
330
9C1
100
AcDbEntity
  8
0
100
AcDbBlockEnd
  0
BLOCK
  5
9C5
330
9C4
100
AcDbEntity
  8
0
100
AcDbBlockBegin
  2
GEVEP
 70
     0
 10
0.0
 20
0.0
 30
0.0
  3
GEVEP
  1

  0
LINE
  5
9C6
330
9C4
100
AcDbEntity
  8
0
100
AcDbLine
 10
2.0
 20
-2.0
 30
0.0
 11
-2.0
 21
-2.0
 31
0.0
  0
LINE
  5
9C7
330
9C4
100
AcDbEntity
  8
0
100
AcDbLine
 10
-2.0
 20
2.0
 30
0.0
 11
2.0
 21
2.0
 31
0.0
  0
LINE
  5
9C8
330
9C4
100
AcDbEntity
  8
0
100
AcDbLine
 10
2.0
 20
-2.0
 30
0.0
 11
-2.0
 21
2.0
 31
0.0
  0
LINE
  5
9C9
330
9C4
100
AcDbEntity
  8
0
100
AcDbLine
 10
-2.0
 20
-2.0
 30
0.0
 11
2.0
 21
2.0
 31
0.0
  0
LINE
  5
9CA
330
9C4
100
AcDbEntity
  8
0
100
AcDbLine
 10
-2.0
 20
-2.0
 30
0.0
 11
-2.0
 21
2.0
 31
0.0
  0
LINE
  5
9CB
330
9C4
100
AcDbEntity
  8
0
100
AcDbLine
 10
2.0
 20
2.0
 30
0.0
 11
2.0
 21
-2.0
 31
0.0
  0
ENDBLK
  5
9CC
330
9C4
100
AcDbEntity
  8
0
100
AcDbBlockEnd
  0
BLOCK
  5
9CE
330
9CD
100
AcDbEntity
  8
0
100
AcDbBlockBegin
  2
GEVFRAME
 70
     0
 10
0.0
 20
0.0
 30
0.0
  3
GEVFRAME
  1
GEVFRAME
  0
LINE
  5
9CF
330
9CD
100
AcDbEntity
  8
0
100
AcDbLine
 10
0.0
 20
0.0
 30
0.0
 11
1.0
 21
0.0
 31
0.0
  0
LINE
  5
9D0
330
9CD
100
AcDbEntity
  8
0
100
AcDbLine
 10
1.0
 20
0.0
 30
0.0
 11
1.0
 21
1.0
 31
0.0
  0
LINE
  5
9D1
330
9CD
100
AcDbEntity
  8
0
100
AcDbLine
 10
1.0
 20
1.0
 30
0.0
 11
0.0
 21
1.0
 31
0.0
  0
LINE
  5
9D2
330
9CD
100
AcDbEntity
  8
0
100
AcDbLine
 10
0.0
 20
1.0
 30
0.0
 11
0.0
 21
0.0
 31
0.0
  0
ENDBLK
  5
9D3
330
9CD
100
AcDbEntity
  8
0
100
AcDbBlockEnd
  0
BLOCK
  5
9E6
330
9D9
100
AcDbEntity
  8
0
100
AcDbBlockBegin
  2
TAKACHI-A4
 70
     0
 10
0.0
 20
0.0
 30
0.0
  3
TAKACHI-A4
  1

  0
TEXT
  5
9DA
330
9D9
100
AcDbEntity
  8
0
 60
     1
100
AcDbText
 10
10.0
 20
54.99999999999994
 30
0.0
 40
2.5
  1
!GENTITLE-LL
100
AcDbText
  0
TEXT
  5
9DB
330
9D9
100
AcDbEntity
  8
0
 60
     1
100
AcDbText
 10
215.0
 20
15.0
 30
0.0
 40
2.5
  1
!GENTITLE-INSERT
100
AcDbText
  0
TEXT
  5
9DC
330
9D9
100
AcDbEntity
  8
0
 60
     1
100
AcDbText
 10
215.0
 20
285.0000000000001
 30
0.0
 40
2.5
  1
!GENTITLE-RU
100
AcDbText
  0
TEXT
  5
9DD
330
9D9
100
AcDbEntity
  8
0
 60
     1
100
AcDbText
 10
215.0000000000001
 20
290.0
 30
0.0
 40
2.5
  1
!GENTITLE-MAX
100
AcDbText
  0
LINE
  5
9DE
330
9D9
100
AcDbEntity
  8
0
100
AcDbLine
 10
215.0
 20
290.0000000000001
 30
0.0
 11
20.00000000000003
 21
290.0
 31
0.0
1001
GENIUS_GENREC_14
1002
{
1000
PYDIR
1011
15.00000000000003
1021
295.0
1031
0.0
1002
}
1002
{
1000
PXDIR
1011
215.0
1021
15.0
1031
0.0
1002
}
1002
{
1000
PORI
1011
15.0
1021
15.0
1031
0.0
1002
}
1002
{
1000
PINS
1011
115.0
1021
155.0
1031
0.0
1002
}
1002
{
1000
HVAL
1000
280
1002
}
1002
{
1000
H
1070
     2
1002
}
1002
{
1000
WVAL
1000
200
1002
}
1002
{
1000
W
1070
     2
1002
}
1002
{
1000
C
1070
     4
1002
}
  0
LINE
  5
9DF
330
9D9
100
AcDbEntity
  8
0
100
AcDbLine
 10
20.00000000000003
 20
290.0
 30
0.0
 11
19.99999999999997
 21
15.0
 31
0.0
1001
GENIUS_GENREC_14
1002
{
1000
PYDIR
1011
15.00000000000003
1021
295.0
1031
0.0
1002
}
1002
{
1000
PXDIR
1011
215.0
1021
15.0
1031
0.0
1002
}
1002
{
1000
PORI
1011
15.0
1021
15.0
1031
0.0
1002
}
1002
{
1000
PINS
1011
115.0
1021
155.0
1031
0.0
1002
}
1002
{
1000
HVAL
1000
280
1002
}
1002
{
1000
H
1070
     2
1002
}
1002
{
1000
WVAL
1000
200
1002
}
1002
{
1000
W
1070
     2
1002
}
1002
{
1000
C
1070
     4
1002
}
  0
LINE
  5
9E0
330
9D9
100
AcDbEntity
  8
0
100
AcDbLine
 10
19.99999999999997
 20
15.0
 30
0.0
 11
215.0
 21
15.0
 31
0.0
1001
GENIUS_GENREC_14
1002
{
1000
PYDIR
1011
15.00000000000003
1021
295.0
1031
0.0
1002
}
1002
{
1000
PXDIR
1011
215.0
1021
15.0
1031
0.0
1002
}
1002
{
1000
PORI
1011
15.0
1021
15.0
1031
0.0
1002
}
1002
{
1000
PINS
1011
115.0
1021
155.0
1031
0.0
1002
}
1002
{
1000
HVAL
1000
280
1002
}
1002
{
1000
H
1070
     2
1002
}
1002
{
1000
WVAL
1000
200
1002
}
1002
{
1000
W
1070
     2
1002
}
1002
{
1000
C
1070
     4
1002
}
  0
LINE
  5
9E1
330
9D9
100
AcDbEntity
  8
0
100
AcDbLine
 10
215.0
 20
15.0
 30
0.0
 11
215.0000000000001
 21
290.0000000000001
 31
0.0
1001
GENIUS_GENREC_14
1002
{
1000
PYDIR
1011
15.00000000000003
1021
295.0
1031
0.0
1002
}
1002
{
1000
PXDIR
1011
215.0
1021
15.0
1031
0.0
1002
}
1002
{
1000
PORI
1011
15.0
1021
15.0
1031
0.0
1002
}
1002
{
1000
PINS
1011
115.0
1021
155.0
1031
0.0
1002
}
1002
{
1000
HVAL
1000
280
1002
}
1002
{
1000
H
1070
     2
1002
}
1002
{
1000
WVAL
1000
200
1002
}
1002
{
1000
W
1070
     2
1002
}
1002
{
1000
C
1070
     4
1002
}
  0
LINE
  5
9E2
330
9D9
100
AcDbEntity
  8
0
100
AcDbLine
 10
171.0000000000001
 20
285.0000000000001
 30
0.0
 11
215.0000000000001
 21
285.0000000000001
 31
0.0
  0
LINE
  5
9E3
330
9D9
100
AcDbEntity
  8
0
100
AcDbLine
 10
171.0000000000001
 20
290.0000000000001
 30
0.0
 11
171.0000000000001
 21
285.0000000000001
 31
0.0
  0
MTEXT
  5
9E4
330
9D9
100
AcDbEntity
  8
0
100
AcDbMText
 10
214.3592953827349
 20
286.1085429872271
 30
0.0
 40
2.5
 41
43.07840397728298
 71
     9
 72
     5
  1
(文書番号：TY-34)2004.10.29
 73
     1
 44
1.0
1001
ACAD
1000
MTEXTBEGIN
1070
    73
1070
     1
1070
    44
1040
1.0
1070
    74
1070
     0
1000
MTEXTEND
  0
ENDBLK
  5
9E7
330
9D9
100
AcDbEntity
  8
0
100
AcDbBlockEnd
  0
BLOCK
  5
9FE
330
9FD
100
AcDbEntity
  8
0
  6
HIDS
 62
     5
100
AcDbBlockBegin
  2
ARRI
 70
     0
 10
0.0
 20
0.0
 30
0.0
  3
ARRI
  1

  0
LINE
  5
9FF
330
9FD
100
AcDbEntity
  8
0
  6
ByBlock
 62
     0
100
AcDbLine
 10
-0.9999999999995168
 20
-0.2125565616699987
 30
0.0
 11
0.0000000000005826
 21
0.0000000000000142
 31
0.0
  0
LINE
  5
A00
330
9FD
100
AcDbEntity
  8
0
  6
ByBlock
 62
     0
100
AcDbLine
 10
0.0000000000005826
 20
0.0000000000000142
 30
0.0
 11
-0.9999999999995168
 21
0.2125565616699276
 31
0.0
  0
LINE
  5
A01
330
9FD
100
AcDbEntity
  8
0
  6
ByBlock
 62
     0
100
AcDbLine
 10
0.0000000000004832
 20
0.0
 30
0.0
 11
-0.9999999999995168
 21
0.0000000000000284
 31
0.0
  0
ENDBLK
  5
A02
330
9FD
100
AcDbEntity
  8
0
  6
HIDS
 62
     5
100
AcDbBlockEnd
  0
BLOCK
  5
12F3
330
1242
100
AcDbEntity
  8
0
100
AcDbBlockBegin
  2
*D11
 70
     1
 10
0.0
 20
0.0
 30
0.0
  3
*D11
  1

  0
LINE
  5
1872
330
1242
100
AcDbEntity
  8
AM_5
100
AcDbLine
 10
57.5768861678373
 20
182.9590609632272
 30
0.0
 11
57.5768861678373
 21
200.6590719632272
 31
0.0
  0
LINE
  5
1873
330
1242
100
AcDbEntity
  8
AM_5
100
AcDbLine
 10
76.5768861678373
 20
182.9590609632272
 30
0.0
 11
76.5768861678373
 21
200.6590719632272
 31
0.0
  0
LINE
  5
1874
330
1242
100
AcDbEntity
  8
AM_5
100
AcDbLine
 10
60.0768861678373
 20
199.6590719632273
 30
0.0
 11
74.0768861678373
 21
199.6590719632273
 31
0.0
  0
INSERT
  5
1875
330
1242
100
AcDbEntity
  8
AM_5
100
AcDbBlockReference
  2
_Open30
 10
57.5768861678373
 20
199.6590719632273
 30
0.0
 41
2.5
 42
2.5
 43
2.5
 50
180.0
  0
INSERT
  5
1876
330
1242
100
AcDbEntity
  8
AM_5
100
AcDbBlockReference
  2
_Open30
 10
76.5768861678373
 20
199.6590719632273
 30
0.0
 41
2.5
 42
2.5
 43
2.5
  0
MTEXT
  5
1877
330
1242
100
AcDbEntity
  8
AM_5
 62
     2
100
AcDbMText
 10
67.0768861678373
 20
202.9090719632272
 30
0.0
 40
3.5
 41
0.0
 71
     5
 72
     1
  1
19
 73
     1
 44
1.0
1001
ACAD
1000
MTEXTBEGIN
1070
    73
1070
     1
1070
    44
1040
1.0
1070
    74
1070
     0
1000
MTEXTEND
  0
POINT
  5
1878
330
1242
100
AcDbEntity
  8
Defpoints
 62
     0
100
AcDbPoint
 10
57.5768861678373
 20
181.9590609632272
 30
0.0
  0
POINT
  5
1879
330
1242
100
AcDbEntity
  8
Defpoints
 62
     0
100
AcDbPoint
 10
76.5768861678373
 20
181.9590609632273
 30
0.0
  0
POINT
  5
187A
330
1242
100
AcDbEntity
  8
Defpoints
 62
     0
100
AcDbPoint
 10
76.5768861678373
 20
199.6590719632273
 30
0.0
  0
ENDBLK
  5
12F4
330
1242
100
AcDbEntity
  8
0
100
AcDbBlockEnd
  0
BLOCK
  5
12F5
330
1264
100
AcDbEntity
  8
0
100
AcDbBlockBegin
  2
*D12
 70
     1
 10
0.0
 20
0.0
 30
0.0
  3
*D12
  1

  0
LINE
  5
187B
330
1264
100
AcDbEntity
  8
AM_5
100
AcDbLine
 10
62.2768861678373
 20
187.6590609632272
 30
0.0
 11
44.68821515783728
 21
187.6590609632272
 31
0.0
  0
LINE
  5
187C
330
1264
100
AcDbEntity
  8
AM_5
100
AcDbLine
 10
66.0768861678373
 20
147.6590609632272
 30
0.0
 11
44.68821515783727
 21
147.6590609632272
 31
0.0
  0
LINE
  5
187D
330
1264
100
AcDbEntity
  8
AM_5
100
AcDbLine
 10
45.68821515783728
 20
185.1590609632272
 30
0.0
 11
45.68821515783727
 21
150.1590609632272
 31
0.0
  0
INSERT
  5
187E
330
1264
100
AcDbEntity
  8
AM_5
100
AcDbBlockReference
  2
_Open30
 10
45.68821515783728
 20
187.6590609632272
 30
0.0
 41
2.5
 42
2.5
 43
2.5
 50
90.0
  0
INSERT
  5
187F
330
1264
100
AcDbEntity
  8
AM_5
100
AcDbBlockReference
  2
_Open30
 10
45.68821515783727
 20
147.6590609632272
 30
0.0
 41
2.5
 42
2.5
 43
2.5
 50
270.0
  0
MTEXT
  5
1880
330
1264
100
AcDbEntity
  8
AM_5
 62
     2
100
AcDbMText
 10
42.43821515783724
 20
167.6590609632272
 30
0.0
 40
3.5
 41
0.0
 71
     5
 72
     1
  1
40
 11
0.0000000000000001
 21
1.0
 31
0.0
 73
     1
 44
1.0
1001
ACAD
1000
MTEXTBEGIN
1070
    73
1070
     1
1070
    44
1040
1.0
1070
    74
1070
     0
1000
MTEXTEND
  0
POINT
  5
1881
330
1264
100
AcDbEntity
  8
Defpoints
 62
     0
100
AcDbPoint
 10
63.2768861678373
 20
187.6590609632272
 30
0.0
  0
POINT
  5
1882
330
1264
100
AcDbEntity
  8
Defpoints
 62
     0
100
AcDbPoint
 10
67.0768861678373
 20
147.6590609632272
 30
0.0
  0
POINT
  5
1883
330
1264
100
AcDbEntity
  8
Defpoints
 62
     0
100
AcDbPoint
 10
45.68821515783727
 20
147.6590609632272
 30
0.0
  0
ENDBLK
  5
12F6
330
1264
100
AcDbEntity
  8
0
100
AcDbBlockEnd
  0
BLOCK
  5
12F7
330
1286
100
AcDbEntity
  8
0
100
AcDbBlockBegin
  2
*D13
 70
     1
 10
0.0
 20
0.0
 30
0.0
  3
*D13
  1

  0
LINE
  5
19F7
330
1286
100
AcDbEntity
  8
AM_5
100
AcDbLine
 10
113.3069348421627
 20
185.9665509632272
 30
0.0
 11
113.3069348421627
 21
200.4690991840424
 31
0.0
  0
LINE
  5
19F8
330
1286
100
AcDbEntity
  8
AM_5
100
AcDbLine
 10
131.8069348421627
 20
188.5804191840423
 30
0.0
 11
131.8069348421627
 21
200.4690991840424
 31
0.0
  0
LINE
  5
19F9
330
1286
100
AcDbEntity
  8
AM_5
100
AcDbLine
 10
115.8069348421627
 20
199.4690991840423
 30
0.0
 11
129.3069348421627
 21
199.4690991840423
 31
0.0
  0
INSERT
  5
19FA
330
1286
100
AcDbEntity
  8
AM_5
100
AcDbBlockReference
  2
_Open30
 10
113.3069348421627
 20
199.4690991840423
 30
0.0
 41
2.5
 42
2.5
 43
2.5
 50
180.0
  0
INSERT
  5
19FB
330
1286
100
AcDbEntity
  8
AM_5
100
AcDbBlockReference
  2
GENDOT
 10
131.8069348421627
 20
199.4690991840423
 30
0.0
 41
2.5
 42
2.5
 43
2.5
  0
MTEXT
  5
19FC
330
1286
100
AcDbEntity
  8
AM_5
 62
     2
100
AcDbMText
 10
122.5569348421627
 20
202.7190991840424
 30
0.0
 40
3.5
 41
0.0
 71
     5
 72
     1
  1
18.5
 73
     1
 44
1.0
1001
ACAD
1000
MTEXTBEGIN
1070
    73
1070
     1
1070
    44
1040
1.0
1070
    74
1070
     0
1000
MTEXTEND
  0
POINT
  5
19FD
330
1286
100
AcDbEntity
  8
Defpoints
 62
     0
100
AcDbPoint
 10
113.3069348421627
 20
184.9665509632272
 30
0.0
  0
POINT
  5
19FE
330
1286
100
AcDbEntity
  8
Defpoints
 62
     0
100
AcDbPoint
 10
131.8069348421627
 20
187.5804191840423
 30
0.0
  0
POINT
  5
19FF
330
1286
100
AcDbEntity
  8
Defpoints
 62
     0
100
AcDbPoint
 10
131.8069348421627
 20
199.4690991840423
 30
0.0
  0
ENDBLK
  5
12F8
330
1286
100
AcDbEntity
  8
0
100
AcDbBlockEnd
  0
BLOCK
  5
12F9
330
12AC
100
AcDbEntity
  8
0
100
AcDbBlockBegin
  2
*D14
 70
     1
 10
0.0
 20
0.0
 30
0.0
  3
*D14
  1

  0
LINE
  5
1A00
330
12AC
100
AcDbEntity
  8
AM_5
100
AcDbLine
 10
136.3117848421627
 20
188.6590509632272
 30
0.0
 11
136.3117848421627
 21
200.4690991840424
 31
0.0
  0
LINE
  5
1A01
330
12AC
100
AcDbEntity
  8
AM_5
100
AcDbLine
 10
131.8069348421627
 20
188.5804191840423
 30
0.0
 11
131.8069348421627
 21
200.4690991840424
 31
0.0
  0
LINE
  5
1A02
330
12AC
100
AcDbEntity
  8
AM_5
100
AcDbLine
 10
129.3069348421627
 20
199.4690991840423
 30
0.0
 11
126.8069348421627
 21
199.4690991840423
 31
0.0
  0
LINE
  5
1A03
330
12AC
100
AcDbEntity
  8
AM_5
100
AcDbLine
 10
138.8117848421627
 20
199.4690991840423
 30
0.0
 11
149.7067595889933
 21
199.4690991840423
 31
0.0
  0
LINE
  5
1A04
330
12AC
100
AcDbEntity
  8
AM_5
100
AcDbLine
 10
131.8069348421627
 20
199.4690991840423
 30
0.0
 11
136.3117848421627
 21
199.4690991840423
 31
0.0
  0
INSERT
  5
1A05
330
12AC
100
AcDbEntity
  8
AM_5
100
AcDbBlockReference
  2
GENDOT
 10
131.8069348421627
 20
199.4690991840423
 30
0.0
 41
2.5
 42
2.5
 43
2.5
  0
INSERT
  5
1A06
330
12AC
100
AcDbEntity
  8
AM_5
100
AcDbBlockReference
  2
_Open30
 10
136.3117848421627
 20
199.4690991840423
 30
0.0
 41
2.5
 42
2.5
 43
2.5
 50
180.0
  0
MTEXT
  5
1A07
330
12AC
100
AcDbEntity
  8
AM_5
 62
     2
100
AcDbMText
 10
145.509272215578
 20
202.7190991840424
 30
0.0
 40
3.5
 41
0.0
 71
     5
 72
     1
  1
4.5
 73
     1
 44
1.0
1001
ACAD
1000
MTEXTBEGIN
1070
    73
1070
     1
1070
    44
1040
1.0
1070
    74
1070
     0
1000
MTEXTEND
  0
POINT
  5
1A08
330
12AC
100
AcDbEntity
  8
Defpoints
 62
     0
100
AcDbPoint
 10
136.3117848421627
 20
187.6590509632272
 30
0.0
  0
POINT
  5
1A09
330
12AC
100
AcDbEntity
  8
Defpoints
 62
     0
100
AcDbPoint
 10
131.8069348421627
 20
187.5804191840423
 30
0.0
  0
POINT
  5
1A0A
330
12AC
100
AcDbEntity
  8
Defpoints
 62
     0
100
AcDbPoint
 10
131.8069348421627
 20
199.4690991840423
 30
0.0
  0
ENDBLK
  5
12FA
330
12AC
100
AcDbEntity
  8
0
100
AcDbBlockEnd
  0
BLOCK
  5
12DA
330
12D7
100
AcDbEntity
  8
0
100
AcDbBlockBegin
  2
GENDOT
 70
     0
 10
0.0
 20
0.0
 30
0.0
  3
GENDOT
  1

  0
LINE
  5
12D8
330
12D7
100
AcDbEntity
  8
0
100
AcDbLine
 10
0.0
 20
0.0
 30
0.0
 11
-1.0
 21
0.0
 31
0.0
  0
LWPOLYLINE
  5
12D9
330
12D7
100
AcDbEntity
  8
0
100
AcDbPolyline
 90
        2
 70
     1
 43
0.25
 10
-0.125
 20
0.0
 42
1.0
 10
0.125
 20
0.0
 42
1.0
  0
ENDBLK
  5
12DB
330
12D7
100
AcDbEntity
  8
0
100
AcDbBlockEnd
  0
BLOCK
  5
1321
330
130B
100
AcDbEntity
  8
0
100
AcDbBlockBegin
  2
*D16
 70
     1
 10
0.0
 20
0.0
 30
0.0
  3
*D16
  1

  0
LINE
  5
1A0B
330
130B
100
AcDbEntity
  8
AM_5
100
AcDbLine
 10
136.3117848421627
 20
188.6590509632272
 30
0.0
 11
136.3117848421627
 21
210.4690991840423
 31
0.0
  0
LINE
  5
1A0C
330
130B
100
AcDbEntity
  8
AM_5
100
AcDbLine
 10
100.8117848421627
 20
181.7498909632272
 30
0.0
 11
100.8117848421627
 21
210.4690991840423
 31
0.0
  0
LINE
  5
1A0D
330
130B
100
AcDbEntity
  8
AM_5
100
AcDbLine
 10
133.8117848421627
 20
209.4690991840423
 30
0.0
 11
103.3117848421627
 21
209.4690991840423
 31
0.0
  0
INSERT
  5
1A0E
330
130B
100
AcDbEntity
  8
AM_5
100
AcDbBlockReference
  2
_Open30
 10
136.3117848421627
 20
209.4690991840423
 30
0.0
 41
2.5
 42
2.5
 43
2.5
  0
INSERT
  5
1A0F
330
130B
100
AcDbEntity
  8
AM_5
100
AcDbBlockReference
  2
_Open30
 10
100.8117848421627
 20
209.4690991840423
 30
0.0
 41
2.5
 42
2.5
 43
2.5
 50
180.0
  0
MTEXT
  5
1A10
330
130B
100
AcDbEntity
  8
AM_5
 62
     2
100
AcDbMText
 10
118.5617848421627
 20
212.7190991840423
 30
0.0
 40
3.5
 41
0.0
 71
     5
 72
     1
  1
35.5
 73
     1
 44
1.0
1001
ACAD
1000
MTEXTBEGIN
1070
    73
1070
     1
1070
    44
1040
1.0
1070
    74
1070
     0
1000
MTEXTEND
  0
POINT
  5
1A11
330
130B
100
AcDbEntity
  8
Defpoints
 62
     0
100
AcDbPoint
 10
136.3117848421627
 20
187.6590509632272
 30
0.0
  0
POINT
  5
1A12
330
130B
100
AcDbEntity
  8
Defpoints
 62
     0
100
AcDbPoint
 10
100.8117848421627
 20
180.7498909632272
 30
0.0
  0
POINT
  5
1A13
330
130B
100
AcDbEntity
  8
Defpoints
 62
     0
100
AcDbPoint
 10
100.8117848421627
 20
209.4690991840423
 30
0.0
  0
ENDBLK
  5
1322
330
130B
100
AcDbEntity
  8
0
100
AcDbBlockEnd
  0
BLOCK
  5
135B
330
1345
100
AcDbEntity
  8
0
100
AcDbBlockBegin
  2
*D17
 70
     1
 10
0.0
 20
0.0
 30
0.0
  3
*D17
  1

  0
LINE
  5
1A14
330
1345
100
AcDbEntity
  8
AM_5
100
AcDbLine
 10
140.3117848421627
 20
178.1590609632272
 30
0.0
 11
152.3117848421627
 21
178.1590609632272
 31
0.0
  0
LINE
  5
1A15
330
1345
100
AcDbEntity
  8
AM_5
100
AcDbLine
 10
137.3117848421627
 20
147.6590609632272
 30
0.0
 11
152.3117848421627
 21
147.6590609632272
 31
0.0
  0
LINE
  5
1A16
330
1345
100
AcDbEntity
  8
AM_5
100
AcDbLine
 10
151.3117848421627
 20
175.6590609632272
 30
0.0
 11
151.3117848421627
 21
150.1590609632272
 31
0.0
  0
INSERT
  5
1A17
330
1345
100
AcDbEntity
  8
AM_5
100
AcDbBlockReference
  2
_Open30
 10
151.3117848421627
 20
178.1590609632272
 30
0.0
 41
2.5
 42
2.5
 43
2.5
 50
90.0
  0
INSERT
  5
1A18
330
1345
100
AcDbEntity
  8
AM_5
100
AcDbBlockReference
  2
_Open30
 10
151.3117848421627
 20
147.6590609632272
 30
0.0
 41
2.5
 42
2.5
 43
2.5
 50
270.0
  0
MTEXT
  5
1A19
330
1345
100
AcDbEntity
  8
AM_5
 62
     2
100
AcDbMText
 10
148.0617848421627
 20
162.9090609632272
 30
0.0
 40
3.5
 41
0.0
 71
     5
 72
     1
  1
30.5
 11
0.0000000000000001
 21
1.0
 31
0.0
 73
     1
 44
1.0
1001
ACAD
1000
MTEXTBEGIN
1070
    73
1070
     1
1070
    44
1040
1.0
1070
    74
1070
     0
1000
MTEXTEND
  0
POINT
  5
1A1A
330
1345
100
AcDbEntity
  8
Defpoints
 62
     0
100
AcDbPoint
 10
139.3117848421627
 20
178.1590609632272
 30
0.0
  0
POINT
  5
1A1B
330
1345
100
AcDbEntity
  8
Defpoints
 62
     0
100
AcDbPoint
 10
136.3117848421627
 20
147.6590609632272
 30
0.0
  0
POINT
  5
1A1C
330
1345
100
AcDbEntity
  8
Defpoints
 62
     0
100
AcDbPoint
 10
151.3117848421627
 20
147.6590609632272
 30
0.0
  0
ENDBLK
  5
135C
330
1345
100
AcDbEntity
  8
0
100
AcDbBlockEnd
  0
BLOCK
  5
17CD
330
17C4
100
AcDbEntity
  8
0
100
AcDbBlockBegin
  2
TK-A4
 70
     0
 10
0.0
 20
0.0
 30
0.0
  3
TK-A4
  1

  0
LINE
  5
17C5
330
17C4
100
AcDbEntity
  8
0
100
AcDbLine
 10
149.0
 20
275.0
 30
0.0
 11
193.0
 21
275.0
 31
0.0
  0
MTEXT
  5
17C6
330
17C4
100
AcDbEntity
  8
0
100
AcDbMText
 10
192.3592953827349
 20
276.1085429872271
 30
0.0
 40
2.5
 41
43.07840397728298
 71
     9
 72
     5
  1
(文書番号：TY-34)2008.02.08
 73
     1
 44
1.0
1001
ACAD
1000
MTEXTBEGIN
1070
    73
1070
     1
1070
    44
1040
1.0
1070
    74
1070
     0
1000
MTEXTEND
  0
LINE
  5
17C7
330
17C4
100
AcDbEntity
  8
0
100
AcDbLine
 10
149.0
 20
280.0000000000001
 30
0.0
 11
149.0
 21
275.0
 31
0.0
  0
LWPOLYLINE
  5
17C8
330
17C4
100
AcDbEntity
  8
0
100
AcDbPolyline
 90
        4
 70
     1
 43
0.0
 10
0.0
 20
0.0
 10
193.0
 20
0.0
 10
193.0
 20
280.0
 10
0.0
 20
280.0
1001
GENIUS_GENREC_14
1002
{
1000
PYDIR
1011
-8.5
1021
288.5
1031
0.0
1002
}
1002
{
1000
PXDIR
1011
201.5
1021
-8.5
1031
0.0
1002
}
1002
{
1000
PORI
1011
-8.5
1021
-8.5
1031
0.0
1002
}
1002
{
1000
PINS
1011
-8.5
1021
-8.5
1031
0.0
1002
}
1002
{
1000
HVAL
1000
297
1002
}
1002
{
1000
H
1070
     2
1002
}
1002
{
1000
WVAL
1000
210
1002
}
1002
{
1000
W
1070
     2
1002
}
1002
{
1000
C
1070
     1
1002
}
1001
GENIUS_GENOBJ-N-REC_13
1002
{
1000
OWNER
1000
GEN
1002
}
1001
GENIUS_GENODEF_13
1002
{
1000
HIER
1070
     0
1002
}
1002
{
1000
MANEDIT
1070
     0
1002
}
1002
{
1000
NOSEL
1070
     0
1002
}
1002
{
1000
BEHIND
1070
     0
1002
}
1002
{
1000
OTHER
1070
     0
1002
}
1002
{
1000
REACTOR
1002
}
  0
TEXT
  5
17C9
330
17C4
100
AcDbEntity
  8
0
 60
     1
100
AcDbText
 10
193.0
 20
0.0
 30
0.0
 40
2.5
  1
!GENTITLE-INSERT
100
AcDbText
  0
TEXT
  5
17CA
330
17C4
100
AcDbEntity
  8
0
 60
     1
100
AcDbText
 10
193.0
 20
280.0
 30
0.0
 40
2.5
  1
!GENTITLE-MAX
100
AcDbText
  0
TEXT
  5
17CB
330
17C4
100
AcDbEntity
  8
0
 60
     1
100
AcDbText
 10
0.0
 20
0.0
 30
0.0
 40
2.5
  1
!GENTITLE-LL
100
AcDbText
  0
ENDBLK
  5
17CE
330
17C4
100
AcDbEntity
  8
0
100
AcDbBlockEnd
  0
BLOCK
  5
182C
330
17D2
100
AcDbEntity
  8
0
100
AcDbBlockBegin
  2
TK-TITLE
 70
     2
 10
0.0
 20
0.0
 30
0.0
  3
TK-TITLE
  1

  0
LINE
  5
17D3
330
17D2
100
AcDbEntity
  8
0
100
AcDbLine
 10
-167.0
 20
12.49999999999996
 30
0.0
 11
-193.0000000000001
 21
12.49999999999996
 31
0.0
  0
LINE
  5
17D4
330
17D2
100
AcDbEntity
  8
0
100
AcDbLine
 10
-167.0
 20
37.49999999999998
 30
0.0
 11
-193.0000000000001
 21
37.49999999999998
 31
0.0
  0
ATTDEF
  5
17D5
330
17D2
100
AcDbEntity
  8
0
100
AcDbText
 10
-180.2171951662138
 20
3.988342537610664
 30
0.0
 40
3.0
  1

 72
     1
 11
-180.2171951662138
 21
3.588342537610664
 31
0.0
100
AcDbAttributeDefinition
  3
日付
  2
GEN-TITLE-DAT
 70
     0
 74
     1
  0
MTEXT
  5
17D6
330
17D2
100
AcDbEntity
  8
RAHM2
100
AcDbMText
 10
-191.8002551371315
 20
11.3010354072796
 30
0.0
 40
2.5
 41
60.0
 71
     1
 72
     5
  1
日付
 73
     1
 44
1.0
1001
ACAD
1000
MTEXTBEGIN
1070
    73
1070
     1
1070
    44
1040
1.0
1070
    74
1070
     0
1000
MTEXTEND
  0
ATTDEF
  5
17D7
330
17D2
100
AcDbEntity
  8
0
100
AcDbText
 10
-177.824739614424
 20
28.69999999999997
 30
0.0
 40
3.0
  1

 72
     2
 11
-177.824739614424
 21
28.29999999999998
 31
0.0
100
AcDbAttributeDefinition
  3
尺度
  2
GEN-TITLE-SCA
 70
     0
 74
     1
  0
MTEXT
  5
17D8
330
17D2
100
AcDbEntity
  8
RAHM2
100
AcDbMText
 10
-191.8002551371315
 20
36.30103540727966
 30
0.0
 40
2.5
 41
20.0
 71
     1
 72
     5
  1
尺度
 73
     1
 44
1.0
1001
ACAD
1000
MTEXTBEGIN
1070
    73
1070
     1
1070
    44
1040
1.0
1070
    74
1070
     0
1000
MTEXTEND
  0
MTEXT
  5
17D9
330
17D2
100
AcDbEntity
  8
RAHM2
100
AcDbMText
 10
-191.8002551371315
 20
23.80103540727963
 30
0.0
 40
2.5
 41
20.0
 71
     1
 72
     5
  1
数量
 73
     1
 44
1.0
1001
ACAD
1000
MTEXTBEGIN
1070
    73
1070
     1
1070
    44
1040
1.0
1070
    74
1070
     0
1000
MTEXTEND
  0
ATTDEF
  5
17DA
330
17D2
100
AcDbEntity
  8
0
100
AcDbText
 10
-175.6127409126095
 20
16.19999999999994
 30
0.0
 40
3.0
  1

 72
     2
 11
-175.6127409126095
 21
15.79999999999994
 31
0.0
100
AcDbAttributeDefinition
  3
数量
  2
GEN-TITLE-QTY
 70
     0
 74
     1
  0
LINE
  5
17DB
330
17D2
100
AcDbEntity
  8
0
100
AcDbLine
 10
-193.0000000000001
 20
49.99999999999999
 30
0.0
 11
-193.0000000000001
 21
-0.0000000000000142
 31
0.0
  0
LINE
  5
17DC
330
17D2
100
AcDbEntity
  8
7A
100
AcDbLine
 10
-184.7167418745796
 20
43.74999999999995
 30
0.0
 11
-170.9354334742943
 21
43.74999999999995
 31
0.0
1001
GENIUS_GENOREF_13
1005
182A
  0
LINE
  5
17DD
330
17D2
100
AcDbEntity
  8
0
100
AcDbLine
 10
-179.7167418745796
 20
45.74999999999994
 30
0.0
 11
-171.7167418745796
 21
46.74999999999995
 31
0.0
  0
LINE
  5
17DE
330
17D2
100
AcDbEntity
  8
0
100
AcDbLine
 10
-171.7167418745796
 20
40.74999999999994
 30
0.0
 11
-179.7167418745796
 21
41.74999999999995
 31
0.0
  0
LINE
  5
17DF
330
17D2
100
AcDbEntity
  8
7A
100
AcDbLine
 10
-184.7167418745796
 20
43.74999999999995
 30
0.0
 11
-184.7167418745796
 21
47.32478664473144
 31
0.0
1001
GENIUS_GENOREF_13
1005
182A
  0
CIRCLE
  5
17E0
330
17D2
100
AcDbEntity
  8
0
100
AcDbCircle
 10
-184.7167418745796
 20
43.74999999999995
 30
0.0
 40
2.0
  0
CIRCLE
  5
17E1
330
17D2
100
AcDbEntity
  8
0
100
AcDbCircle
 10
-184.7167418745796
 20
43.74999999999995
 30
0.0
 40
3.0
  0
LINE
  5
17E2
330
17D2
100
AcDbEntity
  8
0
100
AcDbLine
 10
-179.7167418745796
 20
41.74999999999995
 30
0.0
 11
-179.7167418745796
 21
45.74999999999994
 31
0.0
  0
LINE
  5
17E3
330
17D2
100
AcDbEntity
  8
7A
100
AcDbLine
 10
-184.7167418745796
 20
43.74999999999995
 30
0.0
 11
-188.4397792458307
 21
43.74999999999995
 31
0.0
1001
GENIUS_GENOREF_13
1005
182A
  0
LINE
  5
17E4
330
17D2
100
AcDbEntity
  8
7A
100
AcDbLine
 10
-184.7167418745796
 20
43.74999999999995
 30
0.0
 11
-184.7167418745796
 21
40.03991724228473
 31
0.0
1001
GENIUS_GENOREF_13
1005
182A
  0
LINE
  5
17E5
330
17D2
100
AcDbEntity
  8
0
100
AcDbLine
 10
-171.7167418745796
 20
46.74999999999995
 30
0.0
 11
-171.7167418745796
 21
40.74999999999994
 31
0.0
  0
LINE
  5
17E6
330
17D2
100
AcDbEntity
  8
0
100
AcDbLine
 10
-167.0
 20
24.99999999999997
 30
0.0
 11
-193.0000000000001
 21
24.99999999999997
 31
0.0
  0
LINE
  5
17E7
330
17D2
100
AcDbEntity
  8
0
100
AcDbLine
 10
-167.0
 20
39.99999999999991
 30
0.0
 11
-96.0
 21
39.99999999999992
 31
0.0
  0
MTEXT
  5
17E8
330
17D2
100
AcDbEntity
  8
RAHM2
100
AcDbMText
 10
-165.8002551371314
 20
38.80103540727956
 30
0.0
 40
2.5
 41
60.0
 71
     1
 72
     5
  1
表面処理
 73
     1
 44
1.0
1001
ACAD
1000
MTEXTBEGIN
1070
    73
1070
     1
1070
    44
1040
1.0
1070
    74
1070
     0
1000
MTEXTEND
  0
MTEXT
  5
17E9
330
17D2
100
AcDbEntity
  8
RAHM2
100
AcDbMText
 10
-165.8002551371314
 20
48.80103540727955
 30
0.0
 40
2.5
 41
60.0
 71
     1
 72
     5
  1
材質
 73
     1
 44
1.0
1001
ACAD
1000
MTEXTBEGIN
1070
    73
1070
     1
1070
    44
1040
1.0
1070
    74
1070
     0
1000
MTEXTEND
  0
ATTDEF
  5
17EA
330
17D2
100
AcDbEntity
  8
0
100
AcDbText
 10
-148.9618675835291
 20
33.29999999999991
 30
0.0
 40
3.0
  1

100
AcDbAttributeDefinition
  3
表面処理
  2
GEN-TITLE-MAT2
 70
     0
  0
ATTDEF
  5
17EB
330
17D2
100
AcDbEntity
  8
0
100
AcDbText
 10
-148.9618675835291
 20
43.29999999999991
 30
0.0
 40
3.0
  1

100
AcDbAttributeDefinition
  3
材質
  2
GEN-TITLE-MAT1
 70
     0
  0
MTEXT
  5
17EC
330
17D2
100
AcDbEntity
  8
0
100
AcDbMText
 10
-131.5000000000001
 20
24.99999999999992
 30
0.0
 40
3.5
 41
60.0
 71
     5
 72
     5
  1
\fＭＳ ゴシック|b0|i0|c128|p49;株式会社タカチ電機工業
 73
     1
 44
1.0
1001
ACAD
1000
MTEXTBEGIN
1070
    73
1070
     1
1070
    44
1040
1.0
1070
    74
1070
     0
1000
MTEXTEND
  0
LINE
  5
17ED
330
17D2
100
AcDbEntity
  8
0
100
AcDbLine
 10
-167.0
 20
29.99999999999992
 30
0.0
 11
-96.0
 21
29.99999999999992
 31
0.0
  0
MTEXT
  5
17EE
330
17D2
100
AcDbEntity
  8
RAHM2
100
AcDbMText
 10
-158.1250000000001
 20
18.80103540727956
 30
0.0
 40
2.5
 41
17.0
 71
     2
 72
     5
  1
承認
 73
     1
 44
1.0
1001
ACAD
1000
MTEXTBEGIN
1070
    73
1070
     1
1070
    44
1040
1.0
1070
    74
1070
     0
1000
MTEXTEND
  0
MTEXT
  5
17EF
330
17D2
100
AcDbEntity
  8
RAHM2
100
AcDbMText
 10
-140.3750000000001
 20
18.80103540727958
 30
0.0
 40
2.5
 41
17.0
 71
     2
 72
     5
  1
承認
 73
     1
 44
1.0
1001
ACAD
1000
MTEXTBEGIN
1070
    73
1070
     1
1070
    44
1040
1.0
1070
    74
1070
     0
1000
MTEXTEND
  0
LINE
  5
17F0
330
17D2
100
AcDbEntity
  8
0
100
AcDbLine
 10
-149.2500000000001
 20
19.99999999999993
 30
0.0
 11
-149.2500000000001
 21
-0.0000000000000462
 31
0.0
  0
LINE
  5
17F1
330
17D2
100
AcDbEntity
  8
0
100
AcDbLine
 10
-167.0
 20
49.99999999999995
 30
0.0
 11
-167.0
 21
-0.0000000000000497
 31
0.0
  0
MTEXT
  5
17F2
330
17D2
100
AcDbEntity
  8
RAHM2
100
AcDbMText
 10
-122.6250000000001
 20
18.80103540727958
 30
0.0
 40
2.5
 41
17.0
 71
     2
 72
     5
  1
検図
 73
     1
 44
1.0
1001
ACAD
1000
MTEXTBEGIN
1070
    73
1070
     1
1070
    44
1040
1.0
1070
    74
1070
     0
1000
MTEXTEND
  0
LINE
  5
17F3
330
17D2
100
AcDbEntity
  8
0
100
AcDbLine
 10
-131.5000000000001
 20
19.99999999999993
 30
0.0
 11
-131.5000000000001
 21
-0.0000000000000533
 31
0.0
  0
LINE
  5
17F4
330
17D2
100
AcDbEntity
  8
0
100
AcDbLine
 10
-113.75
 20
19.99999999999993
 30
0.0
 11
-113.75
 21
-0.0000000000000533
 31
0.0
  0
LINE
  5
17F5
330
17D2
100
AcDbEntity
  8
0
100
AcDbLine
 10
-167.0
 20
19.99999999999993
 30
0.0
 11
-96.0
 21
19.99999999999993
 31
0.0
  0
MTEXT
  5
17F6
330
17D2
100
AcDbEntity
  8
RAHM2
100
AcDbMText
 10
-104.875
 20
18.80103540727957
 30
0.0
 40
2.5
 41
17.0
 71
     2
 72
     5
  1
製図
 73
     1
 44
1.0
1001
ACAD
1000
MTEXTBEGIN
1070
    73
1070
     1
1070
    44
1040
1.0
1070
    74
1070
     0
1000
MTEXTEND
  0
MTEXT
  5
17F7
330
17D2
100
AcDbEntity
  8
RAHM2
100
AcDbMText
 10
-16.85742592933491
 20
3.434762466565985
 30
0.0
 40
2.5
 41
7.936478436748416
 71
     5
 72
     5
  1
Rev.
 73
     1
 44
1.0
1001
ACAD
1000
MTEXTBEGIN
1070
    73
1070
     1
1070
    44
1040
1.0
1070
    74
1070
     0
1000
MTEXTEND
  0
LINE
  5
17F8
330
17D2
100
AcDbEntity
  8
0
100
AcDbLine
 10
-21.17541926625711
 20
0.0
 30
0.0
 11
-21.17541926625734
 21
7.0
 31
0.0
  0
LINE
  5
17F9
330
17D2
100
AcDbEntity
  8
RAHM2
100
AcDbLine
 10
-96.0
 20
29.99999999999992
 30
0.0
 11
0.0000000000001137
 21
30.00000000000003
 31
0.0
  0
LINE
  5
17FA
330
17D2
100
AcDbEntity
  8
RAHM2
100
AcDbLine
 10
-96.0
 20
35.00000000000003
 30
0.0
 11
0.0000000000001137
 21
35.00000000000003
 31
0.0
  0
LINE
  5
17FB
330
17D2
100
AcDbEntity
  8
RAHM2
100
AcDbLine
 10
-96.0
 20
39.99999999999993
 30
0.0
 11
0.0000000000001137
 21
40.00000000000002
 31
0.0
  0
LINE
  5
17FC
330
17D2
100
AcDbEntity
  8
RAHM2
100
AcDbLine
 10
-96.0
 20
45.00000000000002
 30
0.0
 11
0.0000000000001137
 21
45.00000000000002
 31
0.0
  0
LINE
  5
17FD
330
17D2
100
AcDbEntity
  8
0
100
AcDbLine
 10
-96.0
 20
7.0
 30
0.0
 11
0.0000000000001137
 21
7.0
 31
0.0
  0
LINE
  5
17FE
330
17D2
100
AcDbEntity
  8
0
100
AcDbLine
 10
-96.0
 20
19.99999999999997
 30
0.0
 11
0.0000000000001137
 21
19.99999999999997
 31
0.0
  0
MTEXT
  5
17FF
330
17D2
100
AcDbEntity
  8
RAHM2
100
AcDbMText
 10
-94.80025513713144
 20
5.801035407279627
 30
0.0
 40
2.5
 41
90.0
 71
     1
 72
     5
  1
図番
 73
     1
 44
1.0
1001
ACAD
1000
MTEXTBEGIN
1070
    73
1070
     1
1070
    44
1040
1.0
1070
    74
1070
     0
1000
MTEXTEND
  0
LINE
  5
1800
330
17D2
100
AcDbEntity
  8
RAHM2
100
AcDbLine
 10
-88.57512886940355
 20
30.40000000000002
 30
0.0
 11
-91.0
 21
34.60000000000001
 31
0.0
  0
LINE
  5
1801
330
17D2
100
AcDbEntity
  8
RAHM2
100
AcDbLine
 10
-91.0
 20
34.60000000000001
 30
0.0
 11
-93.42487113059645
 21
30.40000000000002
 31
0.0
  0
LINE
  5
1802
330
17D2
100
AcDbEntity
  8
RAHM2
100
AcDbLine
 10
-86.0
 20
50.00000000000001
 30
0.0
 11
-86.0
 21
19.99999999999993
 31
0.0
  0
LINE
  5
1803
330
17D2
100
AcDbEntity
  8
RAHM2
100
AcDbLine
 10
-93.42487113059645
 20
30.40000000000002
 30
0.0
 11
-88.57512886940355
 21
30.40000000000002
 31
0.0
  0
MTEXT
  5
1804
330
17D2
100
AcDbEntity
  8
RAHM2
100
AcDbMText
 10
-91.0
 20
22.49999999999996
 30
0.0
 40
2.5
 41
10.0
 71
     5
 72
     5
  1
符号
 73
     1
 44
1.0
1001
ACAD
1000
MTEXTBEGIN
1070
    73
1070
     1
1070
    44
1040
1.0
1070
    74
1070
     0
1000
MTEXTEND
  0
MTEXT
  5
1805
330
17D2
100
AcDbEntity
  8
RAHM2
100
AcDbMText
 10
-94.80025513713144
 20
18.8010354072796
 30
0.0
 40
2.5
 41
90.0
 71
     1
 72
     5
  1
品名
 73
     1
 44
1.0
1001
ACAD
1000
MTEXTBEGIN
1070
    73
1070
     1
1070
    44
1040
1.0
1070
    74
1070
     0
1000
MTEXTEND
  0
LINE
  5
1806
330
17D2
100
AcDbEntity
  8
RAHM2
100
AcDbLine
 10
-93.42487113059645
 20
45.40000000000001
 30
0.0
 11
-88.57512886940355
 21
45.40000000000001
 31
0.0
  0
LINE
  5
1807
330
17D2
100
AcDbEntity
  8
RAHM2
100
AcDbLine
 10
-88.57512886940355
 20
45.40000000000001
 30
0.0
 11
-91.0
 21
49.6
 31
0.0
  0
LINE
  5
1808
330
17D2
100
AcDbEntity
  8
RAHM2
100
AcDbLine
 10
-93.42487113059645
 20
40.40000000000001
 30
0.0
 11
-88.57512886940355
 21
40.40000000000001
 31
0.0
  0
LINE
  5
1809
330
17D2
100
AcDbEntity
  8
RAHM2
100
AcDbLine
 10
-88.57512886940355
 20
40.40000000000001
 30
0.0
 11
-91.0
 21
44.6
 31
0.0
  0
LINE
  5
180A
330
17D2
100
AcDbEntity
  8
RAHM2
100
AcDbLine
 10
-93.42487113059645
 20
35.40000000000002
 30
0.0
 11
-88.57512886940355
 21
35.40000000000002
 31
0.0
  0
LINE
  5
180B
330
17D2
100
AcDbEntity
  8
RAHM2
100
AcDbLine
 10
-88.57512886940355
 20
35.40000000000002
 30
0.0
 11
-91.0
 21
39.60000000000001
 31
0.0
  0
LINE
  5
180C
330
17D2
100
AcDbEntity
  8
RAHM2
100
AcDbLine
 10
-91.0
 20
39.60000000000001
 30
0.0
 11
-93.42487113059645
 21
35.40000000000002
 31
0.0
  0
LINE
  5
180D
330
17D2
100
AcDbEntity
  8
RAHM2
100
AcDbLine
 10
-91.0
 20
44.6
 30
0.0
 11
-93.42487113059645
 21
40.40000000000001
 31
0.0
  0
LINE
  5
180E
330
17D2
100
AcDbEntity
  8
RAHM2
100
AcDbLine
 10
-91.0
 20
49.6
 30
0.0
 11
-93.42487113059645
 21
45.40000000000001
 31
0.0
  0
LINE
  5
180F
330
17D2
100
AcDbEntity
  8
RAHM2
100
AcDbLine
 10
-31.82081941068907
 20
50.00000000000003
 30
0.0
 11
-31.82081941068918
 21
19.99999999999994
 31
0.0
  0
MTEXT
  5
1810
330
17D2
100
AcDbEntity
  8
RAHM2
100
AcDbMText
 10
-59.0
 20
22.49999999999996
 30
0.0
 40
2.5
 41
45.0
 71
     5
 72
     5
  1
変更記事
 73
     1
 44
1.0
1001
ACAD
1000
MTEXTBEGIN
1070
    73
1070
     1
1070
    44
1040
1.0
1070
    74
1070
     0
1000
MTEXTEND
  0
LINE
  5
1811
330
17D2
100
AcDbEntity
  8
RAHM2
100
AcDbLine
 10
-11.82081941068907
 20
50.00000000000003
 30
0.0
 11
-11.82081941068907
 21
19.99999999999994
 31
0.0
  0
MTEXT
  5
1812
330
17D2
100
AcDbEntity
  8
RAHM2
100
AcDbMText
 10
-22.27910888308327
 20
32.50000000000003
 30
0.0
 40
2.5
 41
20.0
 71
     5
 72
     5
  1
・  ・   
 73
     1
 44
1.0
1001
ACAD
1000
MTEXTBEGIN
1070
    73
1070
     1
1070
    44
1040
1.0
1070
    74
1070
     0
1000
MTEXTEND
  0
MTEXT
  5
1813
330
17D2
100
AcDbEntity
  8
RAHM2
100
AcDbMText
 10
-21.55893921569111
 20
22.49999999999997
 30
0.0
 40
2.5
 41
20.0
 71
     5
 72
     5
  1
年・月・日
 73
     1
 44
1.0
1001
ACAD
1000
MTEXTBEGIN
1070
    73
1070
     1
1070
    44
1040
1.0
1070
    74
1070
     0
1000
MTEXTEND
  0
MTEXT
  5
1814
330
17D2
100
AcDbEntity
  8
RAHM2
100
AcDbMText
 10
-5.910409705344477
 20
22.49999999999997
 30
0.0
 40
2.5
 41
15.0
 71
     5
 72
     5
  1
担当
 73
     1
 44
1.0
1001
ACAD
1000
MTEXTBEGIN
1070
    73
1070
     1
1070
    44
1040
1.0
1070
    74
1070
     0
1000
MTEXTEND
  0
MTEXT
  5
1815
330
17D2
100
AcDbEntity
  8
RAHM2
100
AcDbMText
 10
-22.27910888308327
 20
42.50000000000002
 30
0.0
 40
2.5
 41
20.0
 71
     5
 72
     5
  1
・  ・   
 73
     1
 44
1.0
1001
ACAD
1000
MTEXTBEGIN
1070
    73
1070
     1
1070
    44
1040
1.0
1070
    74
1070
     0
1000
MTEXTEND
  0
MTEXT
  5
1816
330
17D2
100
AcDbEntity
  8
RAHM2
100
AcDbMText
 10
-22.27910888308327
 20
37.50000000000003
 30
0.0
 40
2.5
 41
20.0
 71
     5
 72
     5
  1
・  ・   
 73
     1
 44
1.0
1001
ACAD
1000
MTEXTBEGIN
1070
    73
1070
     1
1070
    44
1040
1.0
1070
    74
1070
     0
1000
MTEXTEND
  0
MTEXT
  5
1817
330
17D2
100
AcDbEntity
  8
RAHM2
100
AcDbMText
 10
-22.27910888308327
 20
47.50000000000002
 30
0.0
 40
2.5
 41
20.0
 71
     5
 72
     5
  1
・  ・   
 73
     1
 44
1.0
1001
ACAD
1000
MTEXTBEGIN
1070
    73
1070
     1
1070
    44
1040
1.0
1070
    74
1070
     0
1000
MTEXTEND
  0
LINE
  5
1818
330
17D2
100
AcDbEntity
  8
RAHM2
100
AcDbLine
 10
-91.0
 20
29.60000000000001
 30
0.0
 11
-93.42487113059645
 21
25.40000000000002
 31
0.0
  0
LINE
  5
1819
330
17D2
100
AcDbEntity
  8
RAHM2
100
AcDbLine
 10
-88.57512886940355
 20
25.40000000000002
 30
0.0
 11
-91.0
 21
29.60000000000001
 31
0.0
  0
LINE
  5
181A
330
17D2
100
AcDbEntity
  8
RAHM2
100
AcDbLine
 10
-93.42487113059645
 20
25.40000000000002
 30
0.0
 11
-88.57512886940355
 21
25.40000000000002
 31
0.0
  0
LINE
  5
181B
330
17D2
100
AcDbEntity
  8
RAHM2
100
AcDbLine
 10
-96.0
 20
25.0
 30
0.0
 11
0.0000000000001137
 21
25.00000000000003
 31
0.0
  0
MTEXT
  5
181C
330
17D2
100
AcDbEntity
  8
RAHM2
100
AcDbMText
 10
-22.27910888308327
 20
27.50000000000003
 30
0.0
 40
2.5
 41
20.0
 71
     5
 72
     5
  1
・  ・   
 73
     1
 44
1.0
1001
ACAD
1000
MTEXTBEGIN
1070
    73
1070
     1
1070
    44
1040
1.0
1070
    74
1070
     0
1000
MTEXTEND
  0
TEXT
  5
181D
330
17D2
100
AcDbEntity
  8
RAHM2
100
AcDbText
 10
-91.81558635658019
 20
25.98333333333335
 30
0.0
 40
2.5
  1
1
 72
     1
 11
-91.19058635658019
 21
25.65000000000002
 31
0.0
100
AcDbText
 73
     1
  0
TEXT
  5
181E
330
17D2
100
AcDbEntity
  8
RAHM2
100
AcDbText
 10
-91.91833169291339
 20
30.98333333333335
 30
0.0
 40
2.5
  1
2
 72
     1
 11
-91.0
 21
30.65000000000002
 31
0.0
100
AcDbText
 73
     1
  0
TEXT
  5
181F
330
17D2
100
AcDbEntity
  8
RAHM2
100
AcDbText
 10
-91.92677669529663
 20
35.98333333333333
 30
0.0
 40
2.5
  1
3
 72
     1
 11
-91.0
 21
35.64999999999999
 31
0.0
100
AcDbText
 73
     1
  0
TEXT
  5
1820
330
17D2
100
AcDbEntity
  8
RAHM2
100
AcDbText
 10
-92.0
 20
40.98333333333335
 30
0.0
 40
2.5
  1
4
 72
     1
 11
-91.0
 21
40.65000000000002
 31
0.0
100
AcDbText
 73
     1
  0
TEXT
  5
1821
330
17D2
100
AcDbEntity
  8
RAHM2
100
AcDbText
 10
-91.92677669529663
 20
45.98333333333335
 30
0.0
 40
2.5
  1
5
 72
     1
 11
-91.0
 21
45.65000000000002
 31
0.0
100
AcDbText
 73
     1
  0
LINE
  5
1822
330
17D2
100
AcDbEntity
  8
0
100
AcDbLine
 10
-193.0000000000001
 20
0.0
 30
0.0
 11
0.0
 21
0.0
 31
0.0
1001
GENIUS_GENREC_14
1002
{
1000
PYDIR
1011
-184.0
1021
50.0
1031
0.0
1002
}
1002
{
1000
PXDIR
1011
0.0
1021
0.0
1031
0.0
1002
}
1002
{
1000
PORI
1011
-184.0
1021
0.0
1031
0.0
1002
}
1002
{
1000
PINS
1011
-100.5
1021
25.0
1031
0.0
1002
}
1002
{
1000
HVAL
1000
50
1002
}
1002
{
1000
H
1070
     2
1002
}
1002
{
1000
WVAL
1000
167
1002
}
1002
{
1000
W
1070
     2
1002
}
1002
{
1000
C
1070
     4
1002
}
1001
GENIUS_GENODEF_13
1002
{
1000
HIER
1070
     0
1002
}
1002
{
1000
MANEDIT
1070
     0
1002
}
1002
{
1000
NOSEL
1070
     0
1002
}
1002
{
1000
BEHIND
1070
     0
1002
}
1002
{
1000
REACTOR
1002
}
1001
GENIUS_GENOBJ-N-REC_13
1002
{
1000
OWNER
1000
GEN
1002
}
  0
LINE
  5
1823
330
17D2
100
AcDbEntity
  8
0
100
AcDbLine
 10
0.0
 20
50.0
 30
0.0
 11
-193.0000000000001
 21
50.00000000000002
 31
0.0
1001
GENIUS_GENREC_14
1002
{
1000
PYDIR
1011
-184.0
1021
50.0
1031
0.0
1002
}
1002
{
1000
PXDIR
1011
0.0
1021
0.0
1031
0.0
1002
}
1002
{
1000
PORI
1011
-184.0
1021
0.0
1031
0.0
1002
}
1002
{
1000
PINS
1011
-100.5
1021
25.0
1031
0.0
1002
}
1002
{
1000
HVAL
1000
50
1002
}
1002
{
1000
H
1070
     2
1002
}
1002
{
1000
WVAL
1000
167
1002
}
1002
{
1000
W
1070
     2
1002
}
1002
{
1000
C
1070
     4
1002
}
1001
GENIUS_GENODEF_13
1002
{
1000
HIER
1070
     0
1002
}
1002
{
1000
MANEDIT
1070
     0
1002
}
1002
{
1000
NOSEL
1070
     0
1002
}
1002
{
1000
BEHIND
1070
     0
1002
}
1002
{
1000
REACTOR
1002
}
1001
GENIUS_GENOBJ-N-REC_13
1002
{
1000
OWNER
1000
GEN
1002
}
  0
LINE
  5
1824
330
17D2
100
AcDbEntity
  8
0
100
AcDbLine
 10
-96.0
 20
50.00000000000001
 30
0.0
 11
-96.0
 21
-0.0000000000000142
 31
0.0
1001
GENIUS_GENREC_14
1002
{
1000
PYDIR
1011
-96.0
1021
49.99999999999999
1031
0.0
1002
}
1002
{
1000
PXDIR
1011
88.0
1021
-0.0000000000000142
1031
0.0
1002
}
1002
{
1000
PORI
1011
-96.0
1021
-0.0000000000000142
1031
0.0
1002
}
1002
{
1000
PINS
1011
-12.5
1021
24.99999999999999
1031
0.0
1002
}
1002
{
1000
HVAL
1000
50
1002
}
1002
{
1000
H
1070
     2
1002
}
1002
{
1000
WVAL
1000
167
1002
}
1002
{
1000
W
1070
     2
1002
}
1002
{
1000
C
1070
     4
1002
}
1001
GENIUS_GENODEF_13
1002
{
1000
HIER
1070
     0
1002
}
1002
{
1000
MANEDIT
1070
     0
1002
}
1002
{
1000
NOSEL
1070
     0
1002
}
1002
{
1000
BEHIND
1070
     0
1002
}
1002
{
1000
REACTOR
1002
}
1001
GENIUS_GENOBJ-N-REC_13
1002
{
1000
OWNER
1000
GEN
1002
}
  0
ATTDEF
  5
1825
330
17D2
100
AcDbEntity
  8
0
100
AcDbText
 10
-84.0
 20
1.999999999999957
 30
0.0
 40
3.0
  1

100
AcDbAttributeDefinition
  3
図番
  2
GEN-TITLE-NR1
 70
     0
  0
ATTDEF
  5
1826
330
17D2
100
AcDbEntity
  8
0
100
AcDbText
 10
-84.0
 20
9.149999999999948
 30
0.0
 40
2.5
  1

100
AcDbAttributeDefinition
  3
サブタイトル
  2
GEN-TITLE-DES2
 70
     0
  0
LINE
  5
1827
330
17D2
100
AcDbEntity
  8
0
100
AcDbLine
 10
0.0
 20
0.0
 30
0.0
 11
0.0
 21
50.0
 31
0.0
1001
GENIUS_GENREC_14
1002
{
1000
PYDIR
1011
-414.0
1021
291.0
1031
0.0
1002
}
1002
{
1000
PXDIR
1011
6.0
1021
-6.0
1031
0.0
1002
}
1002
{
1000
PORI
1011
-414.0
1021
-6.0
1031
0.0
1002
}
1002
{
1000
PINS
1011
-414.0
1021
-6.0
1031
0.0
1002
}
1002
{
1000
HVAL
1000
297
1002
}
1002
{
1000
H
1070
     2
1002
}
1002
{
1000
WVAL
1000
420
1002
}
1002
{
1000
W
1070
     2
1002
}
1002
{
1000
C
1070
     1
1002
}
1001
GENIUS_GENODEF_13
1002
{
1000
HIER
1070
     0
1002
}
1002
{
1000
MANEDIT
1070
     0
1002
}
1002
{
1000
NOSEL
1070
     0
1002
}
1002
{
1000
BEHIND
1070
     0
1002
}
1002
{
1000
OTHER
1070
     0
1002
}
1002
{
1000
REACTOR
1002
}
1001
GENIUS_GENOBJ-N-REC_13
1002
{
1000
OWNER
1000
GEN
1002
}
  0
ATTDEF
  5
1828
330
17D2
100
AcDbEntity
  8
0
100
AcDbText
 10
-84.14251901585329
 20
12.82790432564377
 30
0.0
 40
3.5
  1

100
AcDbAttributeDefinition
  3
品名
  2
GEN-TITLE-DES1
 70
     0
  0
ATTDEF
  5
1829
330
17D2
100
AcDbEntity
  8
0
100
AcDbText
 10
-8.002309189545826
 20
1.705189434395036
 30
0.0
 40
2.5
  1

100
AcDbAttributeDefinition
  3
Rev.
  2
GEN-TITLE-NR2
 70
     0
  0
POINT
  5
182A
330
17D2
100
AcDbEntity
  8
0
 60
     1
100
AcDbPoint
 10
-418.5355579819675
 20
-138.1104841268254
 30
0.0
1001
GENIUS_GENODEF_13
1002
{
1000
HIER
1070
    10
1002
}
1002
{
1000
MANEDIT
1070
     0
1002
}
1002
{
1000
NOSEL
1070
     0
1002
}
1002
{
1000
BEHIND
1070
     0
1002
}
1002
{
1000
REACTOR
1002
}
1001
GENIUS_GENOBJ-N-CRS_13
1002
{
1000
OWNER
1000
GEN
1002
}
1001
GENIUS_GENOENT_13
1002
{
1000
MYREF
1005
182A
1002
}
1002
{
1000
GRP
1005
0
1002
}
1001
GENIUS_GENOLIS_13
1002
{
1000
ENT
1005
17E4
1005
17E3
1005
17DF
1005
17DC
1002
}
  0
ENDBLK
  5
182D
330
17D2
100
AcDbEntity
  8
0
100
AcDbBlockEnd
  0
ENDSEC
  0
SECTION
  2
ENTITIES
  0
INSERT
  5
9EF
330
1F
100
AcDbEntity
  8
取付足
370
     0
100
AcDbBlockReference
  2
TK-A4
 10
0.0
 20
0.0
 30
0.0
1001
GENIUS_GENOREF_13
1005
9FB
1001
GENIUS_GENODEF_13
1002
{
1000
HIER
1070
     0
1002
}
1002
{
1000
MANEDIT
1070
     0
1002
}
1002
{
1000
NOSEL
1070
     0
1002
}
1002
{
1000
BEHIND
1070
     0
1002
}
1002
{
1000
OTHER
1070
     0
1002
}
1002
{
1000
REACTOR
1002
}
1001
GENIUS_GENOBJ-N-SDF_13
1002
{
1000
OWNER
1000
GEN
1002
}
1001
GENIUS_GENSCREG_15
1040
1.0
1040
1.0
1011
0.0
1021
0.0
1031
0.0
1011
193.0
1021
280.0000000000001
1031
0.0
1070
     3
  0
INSERT
  5
9F1
330
1F
100
AcDbEntity
  8
取付足
370
     0
100
AcDbBlockReference
 66
     1
  2
TK-TITLE
 10
193.0
 20
0.0
 30
0.0
1001
GENIUS_GENOREF_13
1005
9FB
  0
ATTRIB
  5
1831
330
9F1
100
AcDbEntity
  8
0
100
AcDbText
 10
2.16565388922584
 20
3.988342537610664
 30
0.0
 40
3.0
  1
2009/08/24
 72
     1
 11
12.78280483378614
 21
3.588342537610664
 31
0.0
100
AcDbAttribute
  2
GEN-TITLE-DAT
 70
     0
 74
     1
  0
ATTRIB
  5
1832
330
9F1
100
AcDbEntity
  8
0
100
AcDbText
 10
11.72526038557594
 20
28.69999999999997
 30
0.0
 40
3.0
  1
1:1
 72
     2
 11
15.17526038557594
 21
28.29999999999998
 31
0.0
100
AcDbAttribute
  2
GEN-TITLE-SCA
 70
     0
 74
     1
  0
ATTRIB
  5
1833
330
9F1
100
AcDbEntity
  8
0
100
AcDbText
 10
15.43725908739047
 20
16.19999999999994
 30
0.0
 40
3.0
  1
4
 72
     2
 11
17.38725908739047
 21
15.79999999999994
 31
0.0
100
AcDbAttribute
  2
GEN-TITLE-QTY
 70
     0
 74
     1
  0
ATTRIB
  5
1834
330
9F1
100
AcDbEntity
  8
0
100
AcDbText
 10
44.03813241647083
 20
33.29999999999991
 30
0.0
 40
3.0
  1
ホワイトグレー
100
AcDbAttribute
  2
GEN-TITLE-MAT2
 70
     0
  0
ATTRIB
  5
1835
330
9F1
100
AcDbEntity
  8
0
100
AcDbText
 10
44.03813241647083
 20
43.29999999999991
 30
0.0
 40
3.0
  1
ポリアミド
100
AcDbAttribute
  2
GEN-TITLE-MAT1
 70
     0
  0
ATTRIB
  5
1836
330
9F1
100
AcDbEntity
  8
0
100
AcDbText
 10
109.0
 20
1.999999999999957
 30
0.0
 40
3.0
  1

100
AcDbAttribute
  2
GEN-TITLE-NR1
 70
     0
  0
ATTRIB
  5
1837
330
9F1
100
AcDbEntity
  8
0
100
AcDbText
 10
109.0
 20
9.149999999999948
 30
0.0
 40
2.5
  1
OFL型外部取付足
100
AcDbAttribute
  2
GEN-TITLE-DES2
 70
     0
  0
ATTRIB
  5
1838
330
9F1
100
AcDbEntity
  8
0
100
AcDbText
 10
108.8574809841467
 20
12.82790432564377
 30
0.0
 40
3.5
  1
OFL-1
100
AcDbAttribute
  2
GEN-TITLE-DES1
 70
     0
  0
ATTRIB
  5
1839
330
9F1
100
AcDbEntity
  8
0
100
AcDbText
 10
184.9976908104542
 20
1.705189434395036
 30
0.0
 40
2.5
  1

100
AcDbAttribute
  2
GEN-TITLE-NR2
 70
     0
  0
SEQEND
  5
1830
330
9F1
100
AcDbEntity
  8
取付足
370
     0
  0
POINT
  5
9FB
330
1F
100
AcDbEntity
  8
0
 60
     1
100
AcDbPoint
 10
0.0
 20
0.0
 30
0.0
1001
GENIUS_GENOENT_13
1002
{
1000
MYREF
1005
9FB
1002
}
1002
{
1000
GRP
1005
0
1002
}
1001
GENIUS_GENODEF_13
1002
{
1000
HIER
1070
     1
1002
}
1002
{
1000
MANEDIT
1070
     0
1002
}
1002
{
1000
NOSEL
1070
     0
1002
}
1002
{
1000
BEHIND
1070
     0
1002
}
1002
{
1000
OTHER
1070
     0
1002
}
1002
{
1000
REACTOR
1002
}
1001
GENIUS_GENOBJ-N-TIT_13
1002
{
1000
OWNER
1000
GEN
1002
}
1001
GENIUS_GENOLIS_13
1002
{
1000
ENT
1005
9F1
1005
9EF
1002
}
1001
GENIUS_GENTITLE_13
1002
{
1000
BORDER
1000
TK-A4
1002
}
1002
{
1000
TITLE
1000
TK-TITLE
1002
}
1002
{
1000
ADDITIONAL1
1000

1002
}
1002
{
1000
ADDITIONAL2
1000

1002
}
1002
{
1000
SCALE
1000
1:1
1002
}
1002
{
1000
TITLESTD
1000
ISO
1002
}
1002
{
1000
HRA
1005
9EF
1002
}
1002
{
1000
HTIT
1005
9F1
1002
}
1002
{
1000
GENIUSID
1005
9FB
1002
}
1002
{
1000
INVTXTID
1005
0
1002
}
1002
{
1000
UNCHG
1002
{
1000
GEN-TITLE-SIZ
1000
GEN-TITLE-SCA
1002
}
1002
}
  0
LINE
  5
F1F
330
1F
100
AcDbEntity
  8
取付足
100
AcDbLine
 10
131.8069348421627
 20
186.2700809632272
 30
0.0
 11
114.2905448421627
 21
185.9674809632272
 31
0.0
  0
LINE
  5
F20
330
1F
100
AcDbEntity
  8
取付足
100
AcDbLine
 10
108.5771348421627
 20
181.9042109632272
 30
0.0
 11
113.3069348421627
 21
181.8630609632272
 31
0.0
  0
ARC
  5
F21
330
1F
100
AcDbEntity
  8
取付足
100
AcDbCircle
 10
114.3080148421627
 20
171.3515709632272
 30
0.0
 40
1.001079999999999
100
AcDbArc
 50
180.0
 51
268.9999999999998
  0
ARC
  5
F22
330
1F
100
AcDbEntity
  8
取付足
100
AcDbCircle
 10
132.1072548421627
 20
148.0328209632272
 30
0.0
 40
0.30032
100
AcDbArc
 50
180.0
 51
268.9999999999998
  0
ARC
  5
F23
330
1F
100
AcDbEntity
  8
取付足
100
AcDbCircle
 10
101.5125348421627
 20
175.5682409632272
 30
0.0
 40
0.70076
100
AcDbArc
 50
180.0
 51
257.5144200000011
  0
ARC
  5
F24
330
1F
100
AcDbEntity
  8
取付足
100
AcDbCircle
 10
101.5125348421627
 20
180.7498909632272
 30
0.0
 40
0.7007500000000001
100
AcDbArc
 50
102.4854699999994
 51
179.9998900000003
  0
ARC
  5
F25
330
1F
100
AcDbEntity
  8
取付足
100
AcDbCircle
 10
114.3080148421627
 20
184.9665509632272
 30
0.0
 40
1.001079999999999
100
AcDbArc
 50
91.00000000000013
 51
180.0
  0
LINE
  5
F26
330
1F
100
AcDbEntity
  8
取付足
100
AcDbLine
 10
132.1020148421627
 20
147.7325409632272
 30
0.0
 11
136.3117848421627
 21
147.6590609632272
 31
0.0
  0
LINE
  5
F27
330
1F
100
AcDbEntity
  8
取付足
100
AcDbLine
 10
117.0312148421627
 20
186.0153209632272
 30
0.0
 11
120.3004648421627
 21
187.3827209632272
 31
0.0
  0
LINE
  5
F28
330
1F
100
AcDbEntity
  8
取付足
100
AcDbLine
 10
100.8117848421627
 20
176.2570109632272
 30
0.0
 11
100.8117848421627
 21
175.5682409632272
 31
0.0
  0
LINE
  5
F29
330
1F
100
AcDbEntity
  8
取付足
100
AcDbLine
 10
100.8117848421627
 20
180.0611109632272
 30
0.0
 11
100.8117848421627
 21
180.7498909632272
 31
0.0
  0
LINE
  5
F2A
330
1F
100
AcDbEntity
  8
取付足
100
AcDbLine
 10
108.5771348421627
 20
174.4139109632272
 30
0.0
 11
108.3198748421627
 21
173.4539909632272
 31
0.0
  0
LINE
  5
F2B
330
1F
100
AcDbEntity
  8
取付足
100
AcDbLine
 10
108.3198748421627
 20
182.8641409632272
 30
0.0
 11
108.5771348421627
 21
181.9042109632272
 31
0.0
  0
LINE
  5
F2C
330
1F
100
AcDbEntity
  8
取付足
100
AcDbLine
 10
113.3069348421627
 20
184.9665509632272
 30
0.0
 11
113.3069348421627
 21
171.3515709632272
 31
0.0
  0
LINE
  5
F2D
330
1F
100
AcDbEntity
  8
取付足
100
AcDbLine
 10
131.8069348421627
 20
170.0480409632272
 30
0.0
 11
114.2905448421627
 21
170.3506509632272
 31
0.0
  0
LINE
  5
F2E
330
1F
100
AcDbEntity
  8
取付足
100
AcDbLine
 10
107.8193348421627
 20
173.4539909632272
 30
0.0
 11
101.3610348421627
 21
174.8840409632272
 31
0.0
  0
LINE
  5
F2F
330
1F
100
AcDbEntity
  8
取付足
100
AcDbLine
 10
108.3198748421627
 20
173.4539909632272
 30
0.0
 11
107.8193348421627
 21
173.4539909632272
 31
0.0
  0
LINE
  5
F30
330
1F
100
AcDbEntity
  8
取付足
100
AcDbLine
 10
108.5771348421627
 20
174.4139109632272
 30
0.0
 11
113.3069348421627
 21
174.4550709632272
 31
0.0
  0
LINE
  5
F31
330
1F
100
AcDbEntity
  8
取付足
100
AcDbLine
 10
108.3225948421627
 20
179.1468009632272
 30
0.0
 11
100.8117848421627
 21
180.0611109632272
 31
0.0
  0
LINE
  5
F32
330
1F
100
AcDbEntity
  8
取付足
100
AcDbLine
 10
113.3069348421627
 20
177.2580909632272
 30
0.0
 11
108.3225948421627
 21
177.1713309632272
 31
0.0
  0
LINE
  5
F33
330
1F
100
AcDbEntity
  8
取付足
100
AcDbLine
 10
113.3069348421627
 20
179.0600309632272
 30
0.0
 11
108.3225948421627
 21
179.1468009632272
 31
0.0
  0
LINE
  5
F34
330
1F
100
AcDbEntity
  8
取付足
100
AcDbLine
 10
108.3225948421627
 20
177.1713309632272
 30
0.0
 11
100.8117848421627
 21
176.2570109632272
 31
0.0
  0
LINE
  5
F35
330
1F
100
AcDbEntity
  8
取付足
100
AcDbLine
 10
131.8069348421627
 20
187.5804209632272
 30
0.0
 11
131.8069348421627
 21
148.0328209632272
 31
0.0
  0
LINE
  5
F36
330
1F
100
AcDbEntity
  8
取付足
100
AcDbLine
 10
107.8193348421627
 20
182.8641409632272
 30
0.0
 11
108.3198748421627
 21
182.8641409632272
 31
0.0
  0
LINE
  5
F37
330
1F
100
AcDbEntity
  8
取付足
100
AcDbLine
 10
101.3610348421627
 20
181.4340809632272
 30
0.0
 11
107.8193348421627
 21
182.8641409632272
 31
0.0
  0
LINE
  5
F38
330
1F
100
AcDbEntity
  8
取付足
100
AcDbLine
 10
117.0312148421627
 20
186.0153209632272
 30
0.0
 11
114.2905448421627
 21
185.9674809632272
 31
0.0
  0
LINE
  5
F39
330
1F
100
AcDbEntity
  8
取付足
100
AcDbLine
 10
136.3117848421627
 20
187.6590509632272
 30
0.0
 11
136.3117848421627
 21
147.6590609632272
 31
0.0
  0
LINE
  5
F3A
330
1F
100
AcDbEntity
  8
取付足
100
AcDbLine
 10
136.3117848421627
 20
187.6590509632272
 30
0.0
 11
120.3004648421627
 21
187.3827209632272
 31
0.0
  0
ARC
  5
F3E
330
1F
100
AcDbEntity
  8
取付足
100
AcDbCircle
 10
67.0768861678373
 20
178.2704009632273
 30
0.0
 40
5.480909999999999
100
AcDbArc
 50
303.2261600000003
 51
56.77383999999971
  0
LINE
  5
F65
330
1F
100
AcDbEntity
  8
取付足
100
AcDbLine
 10
69.28181702891196
 20
187.6482996151576
 30
0.0
 11
69.0827161678373
 21
187.4952209632272
 31
0.0
  0
LINE
  5
FA0
330
1F
100
AcDbEntity
  8
取付足
100
AcDbLine
 10
70.1766461678373
 20
177.4659509632273
 30
0.0
 11
69.18646616783732
 21
176.4754909632272
 31
0.0
  0
LINE
  5
FFD
330
1F
100
AcDbEntity
  8
取付足
100
AcDbLine
 10
69.0290861678373
 20
186.0040709632272
 30
0.0
 11
69.0101861678373
 21
185.8850109632273
 31
0.0
  0
LINE
  5
101C
330
1F
100
AcDbEntity
  8
取付足
100
AcDbLine
 10
69.0827161678373
 20
187.4952209632272
 30
0.0
 11
69.0290861678373
 21
186.0040709632272
 31
0.0
  0
LINE
  5
102B
330
1F
100
AcDbEntity
  8
取付足
100
AcDbLine
 10
69.0290861678373
 20
186.0040709632272
 30
0.0
 11
69.0290861678373
 21
185.8849809632273
 31
0.0
  0
LINE
  5
1049
330
1F
100
AcDbEntity
  8
取付足
100
AcDbLine
 10
69.99768616783732
 20
175.9261509632272
 30
0.0
 11
69.99453616783731
 21
175.2475709632272
 31
0.0
  0
LINE
  5
1050
330
1F
100
AcDbEntity
  8
取付足
100
AcDbLine
 10
69.99341616783732
 20
175.2188109632273
 30
0.0
 11
69.99331616783732
 21
177.2826209632272
 31
0.0
  0
LINE
  5
1051
330
1F
100
AcDbEntity
  8
取付足
100
AcDbLine
 10
70.0801261678373
 20
182.8552609632272
 30
0.0
 11
70.0801261678373
 21
182.8851509632272
 31
0.0
  0
LINE
  5
1052
330
1F
100
AcDbEntity
  8
取付足
100
AcDbLine
 10
70.0801261678373
 20
173.6556609632273
 30
0.0
 11
70.0801261678373
 21
173.6855509632272
 31
0.0
  0
LINE
  5
1053
330
1F
100
AcDbEntity
  8
取付足
100
AcDbLine
 10
70.19020616783731
 20
182.6468109632273
 30
0.0
 11
70.19020616783731
 21
178.2841209632272
 31
0.0
  0
LINE
  5
1054
330
1F
100
AcDbEntity
  8
取付足
100
AcDbLine
 10
70.19020616783731
 20
173.8939909632272
 30
0.0
 11
70.19020616783731
 21
178.2566909632272
 31
0.0
  0
LINE
  5
1056
330
1F
100
AcDbEntity
  8
取付足
100
AcDbLine
 10
69.99768616783732
 20
180.6146609632272
 30
0.0
 11
69.99453616783731
 21
181.2932309632272
 31
0.0
  0
LINE
  5
10B2
330
1F
100
AcDbEntity
  8
取付足
100
AcDbLine
 10
68.19272616783729
 20
176.3683509632272
 30
0.0
 11
67.0768861678373
 21
176.3683509632272
 31
0.0
  0
LINE
  5
10CB
330
1F
100
AcDbEntity
  8
取付足
100
AcDbLine
 10
70.1766461678373
 20
177.4659509632273
 30
0.0
 11
68.09987616783729
 21
177.4659509632273
 31
0.0
  0
LINE
  5
10CC
330
1F
100
AcDbEntity
  8
取付足
100
AcDbLine
 10
76.5768861678373
 20
181.9590609632273
 30
0.0
 11
76.5768861678373
 21
157.1590609632272
 31
0.0
  0
LINE
  5
10D9
330
1F
100
AcDbEntity
  8
取付足
100
AcDbLine
 10
69.18646616783732
 20
180.0653209632272
 30
0.0
 11
70.1766461678373
 21
179.0748509632273
 31
0.0
  0
LINE
  5
10DB
330
1F
100
AcDbEntity
  8
取付足
100
AcDbLine
 10
70.1766461678373
 20
179.0748509632273
 30
0.0
 11
68.09987616783729
 21
179.0748509632273
 31
0.0
  0
LINE
  5
1115
330
1F
100
AcDbEntity
  8
取付足
100
AcDbLine
 10
69.0290861678373
 20
185.8849809632273
 30
0.0
 11
69.0101861678373
 21
185.8850109632273
 31
0.0
  0
LINE
  5
1127
330
1F
100
AcDbEntity
  8
取付足
100
AcDbLine
 10
67.0768861678373
 20
186.1263434921747
 30
0.0
 11
68.0485161678373
 21
186.0663309632272
 31
0.0
  0
LINE
  5
1128
330
1F
100
AcDbEntity
  8
取付足
100
AcDbLine
 10
68.0485161678373
 20
186.0663309632272
 30
0.0
 11
69.0101861678373
 21
185.8850109632273
 31
0.0
  0
LINE
  5
1136
330
1F
100
AcDbEntity
  8
取付足
100
AcDbLine
 10
68.19272616783729
 20
180.1724509632272
 30
0.0
 11
68.47810616783729
 21
180.1674009632272
 31
0.0
  0
LINE
  5
1137
330
1F
100
AcDbEntity
  8
取付足
100
AcDbLine
 10
68.47810616783729
 20
180.1674009632272
 30
0.0
 11
68.73987616783731
 21
180.1526409632272
 31
0.0
  0
LINE
  5
1138
330
1F
100
AcDbEntity
  8
取付足
100
AcDbLine
 10
68.73987616783731
 20
180.1526409632272
 30
0.0
 11
68.95655616783731
 21
180.1293609632272
 31
0.0
  0
LINE
  5
1139
330
1F
100
AcDbEntity
  8
取付足
100
AcDbLine
 10
68.95655616783731
 20
180.1293609632272
 30
0.0
 11
69.10987616783732
 21
180.0994309632272
 31
0.0
  0
LINE
  5
113A
330
1F
100
AcDbEntity
  8
取付足
100
AcDbLine
 10
69.10987616783732
 20
180.0994309632272
 30
0.0
 11
69.18646616783732
 21
180.0653209632272
 31
0.0
  0
LINE
  5
113B
330
1F
100
AcDbEntity
  8
取付足
100
AcDbLine
 10
68.19272616783729
 20
180.5976809632273
 30
0.0
 11
68.43601616783733
 21
180.5616409632272
 31
0.0
  0
LINE
  5
113C
330
1F
100
AcDbEntity
  8
取付足
100
AcDbLine
 10
68.43601616783733
 20
180.5616409632272
 30
0.0
 11
68.66413616783731
 21
180.5291809632272
 31
0.0
  0
LINE
  5
113D
330
1F
100
AcDbEntity
  8
取付足
100
AcDbLine
 10
68.66413616783731
 20
180.5291809632272
 30
0.0
 11
68.86329616783732
 21
180.5028409632273
 31
0.0
  0
LINE
  5
113E
330
1F
100
AcDbEntity
  8
取付足
100
AcDbLine
 10
68.86329616783732
 20
180.5028409632273
 30
0.0
 11
69.02159616783731
 21
180.4851809632273
 31
0.0
  0
LINE
  5
113F
330
1F
100
AcDbEntity
  8
取付足
100
AcDbLine
 10
69.02159616783731
 20
180.4851809632273
 30
0.0
 11
69.13048616783732
 21
180.4781409632272
 31
0.0
  0
LINE
  5
1140
330
1F
100
AcDbEntity
  8
取付足
100
AcDbLine
 10
69.13048616783732
 20
180.4781409632272
 30
0.0
 11
69.18646616783732
 21
180.4827009632272
 31
0.0
  0
LINE
  5
1141
330
1F
100
AcDbEntity
  8
取付足
100
AcDbLine
 10
68.50014616783733
 20
181.2117609632273
 30
0.0
 11
68.61969616783733
 21
181.1526209632272
 31
0.0
  0
LINE
  5
1142
330
1F
100
AcDbEntity
  8
取付足
100
AcDbLine
 10
68.61969616783733
 20
181.1526209632272
 30
0.0
 11
68.72045616783731
 21
181.1038409632272
 31
0.0
  0
LINE
  5
1143
330
1F
100
AcDbEntity
  8
取付足
100
AcDbLine
 10
68.72045616783731
 20
181.1038409632272
 30
0.0
 11
68.7999361678373
 21
181.0682509632272
 31
0.0
  0
LINE
  5
1144
330
1F
100
AcDbEntity
  8
取付足
100
AcDbLine
 10
68.7999361678373
 20
181.0682509632272
 30
0.0
 11
68.8541761678373
 21
181.0497409632272
 31
0.0
  0
LINE
  5
1145
330
1F
100
AcDbEntity
  8
取付足
100
AcDbLine
 10
68.8541761678373
 20
181.0497409632272
 30
0.0
 11
68.87949616783732
 21
181.0507109632273
 31
0.0
  0
LINE
  5
1146
330
1F
100
AcDbEntity
  8
取付足
100
AcDbLine
 10
69.7366361678373
 20
181.8492009632272
 30
0.0
 11
69.73380616783732
 21
181.8521909632272
 31
0.0
  0
LINE
  5
1147
330
1F
100
AcDbEntity
  8
取付足
100
AcDbLine
 10
69.73380616783732
 20
181.8521909632272
 30
0.0
 11
69.73093616783732
 21
181.8551809632273
 31
0.0
  0
LINE
  5
1148
330
1F
100
AcDbEntity
  8
取付足
100
AcDbLine
 10
69.73093616783732
 20
181.8551809632273
 30
0.0
 11
69.72801616783733
 21
181.8581909632272
 31
0.0
  0
LINE
  5
1149
330
1F
100
AcDbEntity
  8
取付足
100
AcDbLine
 10
69.93026616783732
 20
181.3603909632272
 30
0.0
 11
69.95138616783731
 21
181.3383509632273
 31
0.0
  0
LINE
  5
114A
330
1F
100
AcDbEntity
  8
取付足
100
AcDbLine
 10
69.95138616783731
 20
181.3383509632273
 30
0.0
 11
69.97240616783731
 21
181.3159609632272
 31
0.0
  0
LINE
  5
114B
330
1F
100
AcDbEntity
  8
取付足
100
AcDbLine
 10
69.97240616783731
 20
181.3159609632272
 30
0.0
 11
69.99331616783732
 21
181.2932309632272
 31
0.0
  0
LINE
  5
114C
330
1F
100
AcDbEntity
  8
取付足
100
AcDbLine
 10
69.7366361678373
 20
181.8492009632272
 30
0.0
 11
69.84147616783729
 21
181.7051709632272
 31
0.0
  0
LINE
  5
114D
330
1F
100
AcDbEntity
  8
取付足
100
AcDbLine
 10
69.84147616783729
 20
181.7051709632272
 30
0.0
 11
69.90754616783732
 21
181.5385709632272
 31
0.0
  0
LINE
  5
114E
330
1F
100
AcDbEntity
  8
取付足
100
AcDbLine
 10
69.90754616783732
 20
181.5385709632272
 30
0.0
 11
69.93026616783732
 21
181.3603909632272
 31
0.0
  0
LINE
  5
114F
330
1F
100
AcDbEntity
  8
取付足
100
AcDbLine
 10
70.0801261678373
 20
182.8552609632272
 30
0.0
 11
70.11714616783732
 21
182.7862409632272
 31
0.0
  0
LINE
  5
1150
330
1F
100
AcDbEntity
  8
取付足
100
AcDbLine
 10
70.11714616783732
 20
182.7862409632272
 30
0.0
 11
70.15383616783731
 21
182.7167709632272
 31
0.0
  0
LINE
  5
1151
330
1F
100
AcDbEntity
  8
取付足
100
AcDbLine
 10
70.15383616783731
 20
182.7167709632272
 30
0.0
 11
70.19020616783731
 21
182.6468109632273
 31
0.0
  0
LINE
  5
1152
330
1F
100
AcDbEntity
  8
取付足
100
AcDbLine
 10
68.19272616783729
 20
175.9431309632273
 30
0.0
 11
68.43479616783731
 21
175.9789609632273
 31
0.0
  0
LINE
  5
1153
330
1F
100
AcDbEntity
  8
取付足
100
AcDbLine
 10
68.43479616783731
 20
175.9789609632273
 30
0.0
 11
68.66193616783729
 21
176.0113309632273
 31
0.0
  0
LINE
  5
1154
330
1F
100
AcDbEntity
  8
取付足
100
AcDbLine
 10
68.66193616783729
 20
176.0113309632273
 30
0.0
 11
68.86048616783731
 21
176.0376509632273
 31
0.0
  0
LINE
  5
1155
330
1F
100
AcDbEntity
  8
取付足
100
AcDbLine
 10
68.86048616783731
 20
176.0376509632273
 30
0.0
 11
69.01914616783731
 21
176.0554209632272
 31
0.0
  0
LINE
  5
1156
330
1F
100
AcDbEntity
  8
取付足
100
AcDbLine
 10
69.01914616783731
 20
176.0554209632272
 30
0.0
 11
69.12960616783729
 21
176.0626509632272
 31
0.0
  0
LINE
  5
1157
330
1F
100
AcDbEntity
  8
取付足
100
AcDbLine
 10
69.12960616783729
 20
176.0626509632272
 30
0.0
 11
69.18646616783732
 21
176.0581109632273
 31
0.0
  0
LINE
  5
1158
330
1F
100
AcDbEntity
  8
取付足
100
AcDbLine
 10
68.19272616783729
 20
176.3683509632272
 30
0.0
 11
68.47810616783729
 21
176.3734109632273
 31
0.0
  0
LINE
  5
1159
330
1F
100
AcDbEntity
  8
取付足
100
AcDbLine
 10
68.47810616783729
 20
176.3734109632273
 30
0.0
 11
68.73987616783731
 21
176.3881709632272
 31
0.0
  0
LINE
  5
115A
330
1F
100
AcDbEntity
  8
取付足
100
AcDbLine
 10
68.73987616783731
 20
176.3881709632272
 30
0.0
 11
68.95655616783731
 21
176.4114509632273
 31
0.0
  0
LINE
  5
115B
330
1F
100
AcDbEntity
  8
取付足
100
AcDbLine
 10
68.95655616783731
 20
176.4114509632273
 30
0.0
 11
69.10987616783732
 21
176.4413709632273
 31
0.0
  0
LINE
  5
115C
330
1F
100
AcDbEntity
  8
取付足
100
AcDbLine
 10
69.10987616783732
 20
176.4413709632273
 30
0.0
 11
69.18646616783732
 21
176.4754909632272
 31
0.0
  0
LINE
  5
116B
330
1F
100
AcDbEntity
  8
取付足
100
AcDbLine
 10
67.30869745061969
 20
175.6903309216481
 30
0.0
 11
67.76446616783727
 21
175.7761909632272
 31
0.0
  0
LINE
  5
116C
330
1F
100
AcDbEntity
  8
取付足
100
AcDbLine
 10
67.76446616783733
 20
175.7761909632272
 30
0.0
 11
68.19272616783729
 21
175.9431309632273
 31
0.0
  0
LINE
  5
1170
330
1F
100
AcDbEntity
  8
取付足
100
AcDbLine
 10
70.19020616783731
 20
180.1735809632272
 30
0.0
 11
70.12769616783732
 21
180.3286909632273
 31
0.0
  0
LINE
  5
1171
330
1F
100
AcDbEntity
  8
取付足
100
AcDbLine
 10
70.12769616783732
 20
180.3286909632273
 30
0.0
 11
70.06351616783732
 21
180.4752209632272
 31
0.0
  0
LINE
  5
1172
330
1F
100
AcDbEntity
  8
取付足
100
AcDbLine
 10
70.06351616783732
 20
180.4752209632272
 30
0.0
 11
69.99768616783732
 21
180.6146609632272
 31
0.0
  0
LINE
  5
1176
330
1F
100
AcDbEntity
  8
取付足
100
AcDbLine
 10
67.37172692587036
 20
175.0089409115754
 30
0.0
 11
67.95136616783731
 21
175.1170409632272
 31
0.0
  0
LINE
  5
1177
330
1F
100
AcDbEntity
  8
取付足
100
AcDbLine
 10
67.95136616783731
 20
175.1170409632272
 30
0.0
 11
68.50014616783733
 21
175.3290509632273
 31
0.0
  0
LINE
  5
117D
330
1F
100
AcDbEntity
  8
取付足
100
AcDbLine
 10
69.7366361678373
 20
174.6916109632272
 30
0.0
 11
69.4764261678373
 21
174.9608709632273
 31
0.0
  0
LINE
  5
117E
330
1F
100
AcDbEntity
  8
取付足
100
AcDbLine
 10
69.4764261678373
 20
174.9608709632273
 30
0.0
 11
69.18892616783731
 21
175.2193409632272
 31
0.0
  0
LINE
  5
117F
330
1F
100
AcDbEntity
  8
取付足
100
AcDbLine
 10
69.18892616783731
 20
175.2193409632272
 30
0.0
 11
68.87949616783732
 21
175.4901009632272
 31
0.0
  0
LINE
  5
1180
330
1F
100
AcDbEntity
  8
取付足
100
AcDbLine
 10
69.93026616783732
 20
175.1804209632272
 30
0.0
 11
69.69076616783732
 21
175.4675109632272
 31
0.0
  0
LINE
  5
1181
330
1F
100
AcDbEntity
  8
取付足
100
AcDbLine
 10
69.69076616783732
 20
175.4675109632272
 30
0.0
 11
69.44297616783728
 21
175.7535509632272
 31
0.0
  0
LINE
  5
1182
330
1F
100
AcDbEntity
  8
取付足
100
AcDbLine
 10
69.44297616783728
 20
175.7535509632272
 30
0.0
 11
69.18646616783732
 21
176.0581109632273
 31
0.0
  0
LINE
  5
1186
330
1F
100
AcDbEntity
  8
取付足
100
AcDbLine
 10
69.9941661678373
 20
181.3715409632273
 30
0.0
 11
69.97109616783731
 21
181.4786309632273
 31
0.0
  0
LINE
  5
1187
330
1F
100
AcDbEntity
  8
取付足
100
AcDbLine
 10
69.97109616783731
 20
181.4786309632273
 30
0.0
 11
69.9347961678373
 21
181.5779209632272
 31
0.0
  0
LINE
  5
1188
330
1F
100
AcDbEntity
  8
取付足
100
AcDbLine
 10
69.9347961678373
 20
181.5779209632272
 30
0.0
 11
69.88088616783731
 21
181.6779609632273
 31
0.0
  0
LINE
  5
1189
330
1F
100
AcDbEntity
  8
取付足
100
AcDbLine
 10
69.88088616783731
 20
181.6779609632273
 30
0.0
 11
69.8031661678373
 21
181.7788609632273
 31
0.0
  0
LINE
  5
118A
330
1F
100
AcDbEntity
  8
取付足
100
AcDbLine
 10
69.99341616783732
 20
175.2188109632273
 30
0.0
 11
69.9937161678373
 21
175.1922909632272
 31
0.0
  0
LINE
  5
118B
330
1F
100
AcDbEntity
  8
取付足
100
AcDbLine
 10
69.9937161678373
 20
175.1922909632272
 30
0.0
 11
69.9941661678373
 21
175.1692709632273
 31
0.0
  0
LINE
  5
118C
330
1F
100
AcDbEntity
  8
取付足
100
AcDbLine
 10
70.1895461678373
 20
178.5260409632272
 30
0.0
 11
70.18762616783729
 21
178.7445409632272
 31
0.0
  0
LINE
  5
118D
330
1F
100
AcDbEntity
  8
取付足
100
AcDbLine
 10
70.18762616783729
 20
178.7445409632272
 30
0.0
 11
70.18463616783731
 21
178.9189609632273
 31
0.0
  0
LINE
  5
118E
330
1F
100
AcDbEntity
  8
取付足
100
AcDbLine
 10
70.18463616783731
 20
178.9189609632273
 30
0.0
 11
70.1808561678373
 21
179.0327109632273
 31
0.0
  0
LINE
  5
118F
330
1F
100
AcDbEntity
  8
取付足
100
AcDbLine
 10
70.1808561678373
 20
179.0327109632273
 30
0.0
 11
70.1766461678373
 21
179.0748509632273
 31
0.0
  0
LINE
  5
1190
330
1F
100
AcDbEntity
  8
取付足
100
AcDbLine
 10
69.99331616783732
 20
179.2581909632272
 30
0.0
 11
69.99341616783732
 21
181.3219709632273
 31
0.0
  0
LINE
  5
1191
330
1F
100
AcDbEntity
  8
取付足
100
AcDbLine
 10
69.99341616783732
 20
181.3219709632273
 30
0.0
 11
69.9937161678373
 21
181.3485009632272
 31
0.0
  0
LINE
  5
1192
330
1F
100
AcDbEntity
  8
取付足
100
AcDbLine
 10
69.9937161678373
 20
181.3485009632272
 30
0.0
 11
69.9941661678373
 21
181.3715409632273
 31
0.0
  0
LINE
  5
1193
330
1F
100
AcDbEntity
  8
取付足
100
AcDbLine
 10
70.1895461678373
 20
178.0147709632273
 30
0.0
 11
70.18762616783729
 21
177.7962609632273
 31
0.0
  0
LINE
  5
1194
330
1F
100
AcDbEntity
  8
取付足
100
AcDbLine
 10
70.18762616783729
 20
177.7962609632273
 30
0.0
 11
70.18463616783731
 21
177.6218509632272
 31
0.0
  0
LINE
  5
1195
330
1F
100
AcDbEntity
  8
取付足
100
AcDbLine
 10
70.18463616783731
 20
177.6218509632272
 30
0.0
 11
70.1808561678373
 21
177.5080909632272
 31
0.0
  0
LINE
  5
1196
330
1F
100
AcDbEntity
  8
取付足
100
AcDbLine
 10
70.1808561678373
 20
177.5080909632272
 30
0.0
 11
70.1766461678373
 21
177.4659509632273
 31
0.0
  0
LINE
  5
119D
330
1F
100
AcDbEntity
  8
取付足
100
AcDbLine
 10
69.27931814142233
 20
187.0291473604909
 30
0.0
 11
69.28189616783732
 21
186.8136609632273
 31
0.0
  0
LINE
  5
119E
330
1F
100
AcDbEntity
  8
取付足
100
AcDbLine
 10
69.28189616783732
 20
186.8136609632273
 30
0.0
 11
69.28270616783732
 21
186.6459009632272
 31
0.0
  0
LINE
  5
119F
330
1F
100
AcDbEntity
  8
取付足
100
AcDbLine
 10
69.28270616783732
 20
186.6459009632272
 30
0.0
 11
69.28253616783732
 21
186.4748409632272
 31
0.0
  0
LINE
  5
11A0
330
1F
100
AcDbEntity
  8
取付足
100
AcDbLine
 10
69.28253616783732
 20
186.4748409632272
 30
0.0
 11
69.2814161678373
 21
186.3134409632272
 31
0.0
  0
LINE
  5
11A1
330
1F
100
AcDbEntity
  8
取付足
100
AcDbLine
 10
69.2814161678373
 20
186.3134409632272
 30
0.0
 11
69.27949616783732
 21
186.1860809632273
 31
0.0
  0
LINE
  5
11A2
330
1F
100
AcDbEntity
  8
取付足
100
AcDbLine
 10
69.27949616783732
 20
186.1860809632273
 30
0.0
 11
69.27695616783731
 21
186.1021709632272
 31
0.0
  0
LINE
  5
11A3
330
1F
100
AcDbEntity
  8
取付足
100
AcDbLine
 10
69.27695616783731
 20
186.1021709632272
 30
0.0
 11
69.27417616783731
 21
186.0728409632272
 31
0.0
  0
LINE
  5
11A4
330
1F
100
AcDbEntity
  8
取付足
100
AcDbLine
 10
69.27926616783731
 20
186.9551609632273
 30
0.0
 11
69.27965616783732
 21
187.5103409632272
 31
0.0
  0
LINE
  5
11A5
330
1F
100
AcDbEntity
  8
取付足
100
AcDbLine
 10
69.27965616783732
 20
187.5103409632272
 30
0.0
 11
69.28076616783733
 21
187.6071209632272
 31
0.0
  0
LINE
  5
11A6
330
1F
100
AcDbEntity
  8
取付足
100
AcDbLine
 10
69.28076616783733
 20
187.6071209632272
 30
0.0
 11
69.28181702891196
 21
187.6482996151576
 31
0.0
  0
LINE
  5
11A8
330
1F
100
AcDbEntity
  8
取付足
100
AcDbLine
 10
69.9941661678373
 20
175.1692709632273
 30
0.0
 11
69.97109616783731
 21
175.0621909632272
 31
0.0
  0
LINE
  5
11A9
330
1F
100
AcDbEntity
  8
取付足
100
AcDbLine
 10
69.97109616783731
 20
175.0621909632272
 30
0.0
 11
69.9347961678373
 21
174.9629009632272
 31
0.0
  0
LINE
  5
11AA
330
1F
100
AcDbEntity
  8
取付足
100
AcDbLine
 10
69.9347961678373
 20
174.9629009632272
 30
0.0
 11
69.88089616783731
 21
174.8628609632273
 31
0.0
  0
LINE
  5
11AB
330
1F
100
AcDbEntity
  8
取付足
100
AcDbLine
 10
69.88089616783731
 20
174.8628609632273
 30
0.0
 11
69.80313311117391
 21
174.7619080486781
 31
0.0
  0
LINE
  5
11AC
330
1F
100
AcDbEntity
  8
取付足
100
AcDbLine
 10
70.0801261678373
 20
173.6855509632272
 30
0.0
 11
70.11714616783732
 21
173.7545709632273
 31
0.0
  0
LINE
  5
11AD
330
1F
100
AcDbEntity
  8
取付足
100
AcDbLine
 10
70.11714616783732
 20
173.7545709632273
 30
0.0
 11
70.15383616783731
 21
173.8240409632272
 31
0.0
  0
LINE
  5
11AE
330
1F
100
AcDbEntity
  8
取付足
100
AcDbLine
 10
70.15383616783731
 20
173.8240409632272
 30
0.0
 11
70.19020616783731
 21
173.8939909632272
 31
0.0
  0
LINE
  5
11BC
330
1F
100
AcDbEntity
  8
取付足
100
AcDbLine
 10
70.19020616783731
 20
176.3672309632273
 30
0.0
 11
70.12769616783732
 21
176.2121209632272
 31
0.0
  0
LINE
  5
11BD
330
1F
100
AcDbEntity
  8
取付足
100
AcDbLine
 10
70.12769616783732
 20
176.2121209632272
 30
0.0
 11
70.06351616783732
 21
176.0655809632273
 31
0.0
  0
LINE
  5
11BE
330
1F
100
AcDbEntity
  8
取付足
100
AcDbLine
 10
70.06351616783732
 20
176.0655809632273
 30
0.0
 11
69.99768616783732
 21
175.9261509632272
 31
0.0
  0
LINE
  5
11CF
330
1F
100
AcDbEntity
  8
取付足
100
AcDbLine
 10
69.73624901007416
 20
174.6910790829084
 30
0.0
 11
69.84147616783727
 21
174.8356409632272
 31
0.0
  0
LINE
  5
11D0
330
1F
100
AcDbEntity
  8
取付足
100
AcDbLine
 10
69.84147616783729
 20
174.8356409632272
 30
0.0
 11
69.90754616783732
 21
175.0022409632272
 31
0.0
  0
LINE
  5
11D1
330
1F
100
AcDbEntity
  8
取付足
100
AcDbLine
 10
69.90754616783732
 20
175.0022409632272
 30
0.0
 11
69.93026616783732
 21
175.1804209632272
 31
0.0
  0
LINE
  5
11D2
330
1F
100
AcDbEntity
  8
取付足
100
AcDbLine
 10
69.7366361678373
 20
174.6916109632272
 30
0.0
 11
69.73380616783732
 21
174.6886209632272
 31
0.0
  0
LINE
  5
11D3
330
1F
100
AcDbEntity
  8
取付足
100
AcDbLine
 10
69.73380616783732
 20
174.6886209632272
 30
0.0
 11
69.73093616783732
 21
174.6856209632272
 31
0.0
  0
LINE
  5
11D4
330
1F
100
AcDbEntity
  8
取付足
100
AcDbLine
 10
69.73093616783732
 20
174.6856209632272
 30
0.0
 11
69.72801616783733
 21
174.6826209632272
 31
0.0
  0
LINE
  5
11D5
330
1F
100
AcDbEntity
  8
取付足
100
AcDbLine
 10
69.93026616783732
 20
175.1804209632272
 30
0.0
 11
69.95138616783731
 21
175.2024609632273
 31
0.0
  0
LINE
  5
11D6
330
1F
100
AcDbEntity
  8
取付足
100
AcDbLine
 10
69.95138616783731
 20
175.2024609632273
 30
0.0
 11
69.97240616783731
 21
175.2248509632273
 31
0.0
  0
LINE
  5
11D7
330
1F
100
AcDbEntity
  8
取付足
100
AcDbLine
 10
69.97240616783731
 20
175.2248509632273
 30
0.0
 11
69.99331616783732
 21
175.2475809632272
 31
0.0
  0
LINE
  5
11ED
330
1F
100
AcDbEntity
  8
取付足
100
AcDbLine
 10
69.18646616783732
 20
180.4827009632272
 30
0.0
 11
69.44380616783729
 21
180.7882109632273
 31
0.0
  0
LINE
  5
11EE
330
1F
100
AcDbEntity
  8
取付足
100
AcDbLine
 10
69.44380616783729
 20
180.7882109632273
 30
0.0
 11
69.69161616783731
 21
181.0742909632272
 31
0.0
  0
LINE
  5
11EF
330
1F
100
AcDbEntity
  8
取付足
100
AcDbLine
 10
69.69161616783731
 20
181.0742909632272
 30
0.0
 11
69.93026616783732
 21
181.3603909632272
 31
0.0
  0
LINE
  5
11F3
330
1F
100
AcDbEntity
  8
取付足
100
AcDbLine
 10
68.50014616783733
 20
175.3290509632273
 30
0.0
 11
68.62025616783731
 21
175.3884609632273
 31
0.0
  0
LINE
  5
11F4
330
1F
100
AcDbEntity
  8
取付足
100
AcDbLine
 10
68.62025616783731
 20
175.3884609632273
 30
0.0
 11
68.72128616783732
 21
175.4373509632272
 31
0.0
  0
LINE
  5
11F5
330
1F
100
AcDbEntity
  8
取付足
100
AcDbLine
 10
68.72128616783732
 20
175.4373509632272
 30
0.0
 11
68.80064616783733
 21
175.4728509632272
 31
0.0
  0
LINE
  5
11F6
330
1F
100
AcDbEntity
  8
取付足
100
AcDbLine
 10
68.80064616783733
 20
175.4728509632272
 30
0.0
 11
68.8544661678373
 21
175.4911209632272
 31
0.0
  0
LINE
  5
11F7
330
1F
100
AcDbEntity
  8
取付足
100
AcDbLine
 10
68.8544661678373
 20
175.4911209632272
 30
0.0
 11
68.87949616783732
 21
175.4901009632272
 31
0.0
  0
LINE
  5
11F8
330
1F
100
AcDbEntity
  8
取付足
100
AcDbLine
 10
68.87949616783732
 20
181.0507109632273
 30
0.0
 11
69.1905161678373
 21
181.3228609632272
 31
0.0
  0
LINE
  5
11F9
330
1F
100
AcDbEntity
  8
取付足
100
AcDbLine
 10
69.1905161678373
 20
181.3228609632272
 30
0.0
 11
69.47764616783732
 21
181.5811009632272
 31
0.0
  0
LINE
  5
11FA
330
1F
100
AcDbEntity
  8
取付足
100
AcDbLine
 10
69.47764616783732
 20
181.5811009632272
 30
0.0
 11
69.7366361678373
 21
181.8492009632272
 31
0.0
  0
LINE
  5
1204
330
1F
100
AcDbEntity
  8
取付足
100
AcDbLine
 10
69.0290861678373
 20
185.8849809632273
 30
0.0
 11
69.1918561678373
 21
186.0102609632273
 31
0.0
  0
LINE
  5
1205
330
1F
100
AcDbEntity
  8
取付足
100
AcDbLine
 10
69.1918561678373
 20
186.0102609632273
 30
0.0
 11
69.27417616783731
 21
186.0728409632272
 31
0.0
  0
LINE
  5
120E
330
1F
100
AcDbEntity
  8
取付足
100
AcDbLine
 10
67.30867744360747
 20
180.8504810048092
 30
0.0
 11
67.76445616783729
 21
180.7646209632272
 31
0.0
  0
LINE
  5
120F
330
1F
100
AcDbEntity
  8
取付足
100
AcDbLine
 10
67.76445616783729
 20
180.7646209632272
 30
0.0
 11
68.19272616783729
 21
180.5976809632273
 31
0.0
  0
LINE
  5
1213
330
1F
100
AcDbEntity
  8
取付足
100
AcDbLine
 10
67.3717269655749
 20
181.5318710148845
 30
0.0
 11
67.95136616783731
 21
181.4237609632272
 31
0.0
  0
LINE
  5
1214
330
1F
100
AcDbEntity
  8
取付足
100
AcDbLine
 10
67.95136616783731
 20
181.4237609632272
 30
0.0
 11
68.50014616783733
 21
181.2117609632273
 31
0.0
  0
DIMENSION
  5
1241
330
1F
100
AcDbEntity
  8
AM_5
100
AcDbDimension
  2
*D11
 10
76.5768861678373
 20
199.6590719632273
 30
0.0
 11
67.0768861678373
 21
202.9090719632272
 31
0.0
 70
    32
 71
     5
 42
19.0
  3
AM_ISO
100
AcDbAlignedDimension
 13
57.5768861678373
 23
181.9590609632272
 33
0.0
 14
76.5768861678373
 24
181.9590609632273
 34
0.0
100
AcDbRotatedDimension
  0
DIMENSION
  5
1263
330
1F
100
AcDbEntity
  8
AM_5
100
AcDbDimension
  2
*D12
 10
45.68821515783727
 20
147.6590609632272
 30
0.0
 11
42.43821515783724
 21
167.6590609632272
 31
0.0
 70
    32
 71
     5
 42
39.99999999999995
  3
AM_ISO
100
AcDbAlignedDimension
 13
63.2768861678373
 23
187.6590609632272
 33
0.0
 14
67.0768861678373
 24
147.6590609632272
 34
0.0
 50
90.0
100
AcDbRotatedDimension
  0
DIMENSION
  5
1285
330
1F
100
AcDbEntity
  8
AM_5
100
AcDbDimension
  2
*D13
 10
131.8069348421627
 20
199.4690991840423
 30
0.0
 11
122.5569348421627
 21
202.7190991840424
 31
0.0
 70
    32
 71
     5
 42
18.5
  3
AM_ISO
100
AcDbAlignedDimension
 13
113.3069348421627
 23
184.9665509632272
 33
0.0
 14
131.8069348421627
 24
187.5804191840423
 34
0.0
100
AcDbRotatedDimension
1001
ACAD
1000
DSTYLE
1002
{
1070
   173
1070
     1
1070
   174
1070
     1
1070
   343
1005
407
1070
   344
1005
12D7
1002
}
  0
DIMENSION
  5
12AB
330
1F
100
AcDbEntity
  8
AM_5
100
AcDbDimension
  2
*D14
 10
131.8069348421627
 20
199.4690991840423
 30
0.0
 11
145.509272215578
 21
199.4690991840423
 31
0.0
 70
   160
 71
     5
 42
4.504850000000004
  3
AM_ISO
100
AcDbAlignedDimension
 13
136.3117848421627
 23
187.6590509632272
 33
0.0
 14
131.8069348421627
 24
187.5804191840423
 34
0.0
100
AcDbRotatedDimension
1001
ACAD
1000
DSTYLE
1002
{
1070
   173
1070
     1
1070
   174
1070
     1
1070
   343
1005
407
1070
   344
1005
12D7
1002
}
  0
DIMENSION
  5
130A
330
1F
100
AcDbEntity
  8
AM_5
100
AcDbDimension
  2
*D16
 10
100.8117848421627
 20
209.4690991840423
 30
0.0
 11
118.5617848421627
 21
212.7190991840423
 31
0.0
 70
    32
 71
     5
 42
35.5
  3
AM_ISO
100
AcDbAlignedDimension
 13
136.3117848421627
 23
187.6590509632272
 33
0.0
 14
100.8117848421627
 24
180.7498909632272
 34
0.0
100
AcDbRotatedDimension
  0
LINE
  5
1334
330
1F
100
AcDbEntity
  8
AM_7
100
AcDbLine
 10
110.3069348421627
 20
178.1590609632272
 30
0.0
 11
139.3117848421627
 21
178.1590609632272
 31
0.0
1001
GENIUS_GENODEF_13
1002
{
1000
HIER
1070
     0
1002
}
1002
{
1000
MANEDIT
1070
     0
1002
}
1002
{
1000
NOSEL
1070
     0
1002
}
1002
{
1000
BEHIND
1070
     0
1002
}
1002
{
1000
OTHER
1070
     0
1002
}
1002
{
1000
REACTOR
1002
}
1001
GENIUS_GENOBJ-N-CEN_13
1002
{
1000
OWNER
1000
GEN
1002
}
  0
DIMENSION
  5
1344
330
1F
100
AcDbEntity
  8
AM_5
100
AcDbDimension
  2
*D17
 10
151.3117848421627
 20
147.6590609632272
 30
0.0
 11
148.0617848421627
 21
162.9090609632272
 31
0.0
 70
    32
 71
     5
 42
30.5
  3
AM_ISO
100
AcDbAlignedDimension
 13
139.3117848421627
 23
178.1590609632272
 33
0.0
 14
136.3117848421627
 24
147.6590609632272
 34
0.0
 50
90.0
100
AcDbRotatedDimension
  0
LINE
  5
1511
330
1F
100
AcDbEntity
  8
取付足
100
AcDbLine
 10
70.5768861678373
 20
157.2704009632273
 30
0.0
 11
70.5768861678373
 21
161.7704009632273
 31
0.0
  0
LINE
  5
15FA
330
1F
100
AcDbEntity
  8
取付足
100
AcDbLine
 10
63.5768861678373
 20
157.2704009632273
 30
0.0
 11
63.5768861678373
 21
161.7704009632273
 31
0.0
  0
LINE
  5
15FB
330
1F
100
AcDbEntity
  8
取付足
100
AcDbLine
 10
66.20240616783729
 20
181.4237609632272
 30
0.0
 11
65.65362616783727
 21
181.2117609632273
 31
0.0
  0
LINE
  5
15FC
330
1F
100
AcDbEntity
  8
取付足
100
AcDbLine
 10
66.78161616783729
 20
181.5317909632272
 30
0.0
 11
66.20240616783729
 21
181.4237609632272
 31
0.0
  0
LINE
  5
15FD
330
1F
100
AcDbEntity
  8
取付足
100
AcDbLine
 10
66.38931616783731
 20
180.7646209632272
 30
0.0
 11
65.96104616783731
 21
180.5976809632273
 31
0.0
  0
LINE
  5
15FE
330
1F
100
AcDbEntity
  8
取付足
100
AcDbLine
 10
64.9619161678373
 20
186.0102609632273
 30
0.0
 11
64.87959616783729
 21
186.0728409632272
 31
0.0
  0
LINE
  5
15FF
330
1F
100
AcDbEntity
  8
取付足
100
AcDbLine
 10
65.1246861678373
 20
185.8849809632273
 30
0.0
 11
64.9619161678373
 21
186.0102609632273
 31
0.0
  0
LINE
  5
1600
330
1F
100
AcDbEntity
  8
取付足
100
AcDbLine
 10
64.67612616783728
 20
181.5811009632272
 30
0.0
 11
64.41713616783729
 21
181.8492009632272
 31
0.0
  0
LINE
  5
1601
330
1F
100
AcDbEntity
  8
取付足
100
AcDbLine
 10
64.9632561678373
 20
181.3228609632272
 30
0.0
 11
64.67612616783728
 21
181.5811009632272
 31
0.0
  0
LINE
  5
1602
330
1F
100
AcDbEntity
  8
取付足
100
AcDbLine
 10
65.27427616783729
 20
181.0507109632273
 30
0.0
 11
64.9632561678373
 21
181.3228609632272
 31
0.0
  0
LINE
  5
1603
330
1F
100
AcDbEntity
  8
取付足
100
AcDbLine
 10
65.2993061678373
 20
175.4911209632272
 30
0.0
 11
65.27427616783729
 21
175.4901009632272
 31
0.0
  0
LINE
  5
1604
330
1F
100
AcDbEntity
  8
取付足
100
AcDbLine
 10
65.35312616783727
 20
175.4728509632272
 30
0.0
 11
65.2993061678373
 21
175.4911209632272
 31
0.0
  0
LINE
  5
1605
330
1F
100
AcDbEntity
  8
取付足
100
AcDbLine
 10
65.43248616783728
 20
175.4373509632272
 30
0.0
 11
65.35312616783727
 21
175.4728509632272
 31
0.0
  0
LINE
  5
1606
330
1F
100
AcDbEntity
  8
取付足
100
AcDbLine
 10
65.53351616783729
 20
175.3884609632273
 30
0.0
 11
65.43248616783728
 21
175.4373509632272
 31
0.0
  0
LINE
  5
1607
330
1F
100
AcDbEntity
  8
取付足
100
AcDbLine
 10
65.65362616783727
 20
175.3290509632273
 30
0.0
 11
65.53351616783729
 21
175.3884609632273
 31
0.0
  0
LINE
  5
1608
330
1F
100
AcDbEntity
  8
取付足
100
AcDbLine
 10
64.46215616783729
 20
181.0742909632272
 30
0.0
 11
64.22350616783728
 21
181.3603909632272
 31
0.0
  0
LINE
  5
1609
330
1F
100
AcDbEntity
  8
取付足
100
AcDbLine
 10
64.70996616783731
 20
180.7882109632273
 30
0.0
 11
64.46215616783729
 21
181.0742909632272
 31
0.0
  0
LINE
  5
160A
330
1F
100
AcDbEntity
  8
取付足
100
AcDbLine
 10
64.96730616783728
 20
180.4827009632272
 30
0.0
 11
64.70996616783731
 21
180.7882109632273
 31
0.0
  0
LINE
  5
160B
330
1F
100
AcDbEntity
  8
取付足
100
AcDbLine
 10
64.1813661678373
 20
175.2248509632273
 30
0.0
 11
64.16045616783728
 21
175.2475809632272
 31
0.0
  0
LINE
  5
160C
330
1F
100
AcDbEntity
  8
取付足
100
AcDbLine
 10
64.20238616783729
 20
175.2024609632273
 30
0.0
 11
64.1813661678373
 21
175.2248509632273
 31
0.0
  0
LINE
  5
160D
330
1F
100
AcDbEntity
  8
取付足
100
AcDbLine
 10
64.22350616783728
 20
175.1804209632272
 30
0.0
 11
64.20238616783729
 21
175.2024609632273
 31
0.0
  0
LINE
  5
160E
330
1F
100
AcDbEntity
  8
取付足
100
AcDbLine
 10
64.42283616783729
 20
174.6856209632272
 30
0.0
 11
64.42575616783727
 21
174.6826209632272
 31
0.0
  0
LINE
  5
160F
330
1F
100
AcDbEntity
  8
取付足
100
AcDbLine
 10
64.41996616783729
 20
174.6886209632272
 30
0.0
 11
64.42283616783729
 21
174.6856209632272
 31
0.0
  0
LINE
  5
1610
330
1F
100
AcDbEntity
  8
取付足
100
AcDbLine
 10
64.41713616783729
 20
174.6916109632272
 30
0.0
 11
64.41996616783729
 21
174.6886209632272
 31
0.0
  0
LINE
  5
1611
330
1F
100
AcDbEntity
  8
取付足
100
AcDbLine
 10
64.24622616783728
 20
175.0022409632272
 30
0.0
 11
64.22350616783728
 21
175.1804209632272
 31
0.0
  0
LINE
  5
1612
330
1F
100
AcDbEntity
  8
取付足
100
AcDbLine
 10
64.3122961678373
 20
174.8356409632272
 30
0.0
 11
64.24622616783728
 21
175.0022409632272
 31
0.0
  0
LINE
  5
1613
330
1F
100
AcDbEntity
  8
取付足
100
AcDbLine
 10
64.41713616783729
 20
174.6916109632272
 30
0.0
 11
64.3122961678373
 21
174.8356409632272
 31
0.0
  0
LINE
  5
1614
330
1F
100
AcDbEntity
  8
取付足
100
AcDbLine
 10
64.09025616783728
 20
176.0655809632273
 30
0.0
 11
64.15608616783728
 21
175.9261509632272
 31
0.0
  0
LINE
  5
1615
330
1F
100
AcDbEntity
  8
取付足
100
AcDbLine
 10
64.02607616783729
 20
176.2121209632272
 30
0.0
 11
64.09025616783728
 21
176.0655809632273
 31
0.0
  0
LINE
  5
1616
330
1F
100
AcDbEntity
  8
取付足
100
AcDbLine
 10
63.96356616783728
 20
176.3672309632273
 30
0.0
 11
64.02607616783729
 21
176.2121209632272
 31
0.0
  0
LINE
  5
1617
330
1F
100
AcDbEntity
  8
取付足
100
AcDbLine
 10
63.99993616783729
 20
173.8240409632272
 30
0.0
 11
63.96356616783728
 21
173.8939909632272
 31
0.0
  0
LINE
  5
1618
330
1F
100
AcDbEntity
  8
取付足
100
AcDbLine
 10
64.03662616783728
 20
173.7545709632273
 30
0.0
 11
63.99993616783729
 21
173.8240409632272
 31
0.0
  0
LINE
  5
1619
330
1F
100
AcDbEntity
  8
取付足
100
AcDbLine
 10
64.0736461678373
 20
173.6855509632272
 30
0.0
 11
64.03662616783728
 21
173.7545709632273
 31
0.0
  0
LINE
  5
161A
330
1F
100
AcDbEntity
  8
取付足
100
AcDbLine
 10
64.27287616783729
 20
174.8628609632273
 30
0.0
 11
64.35060616783729
 21
174.7619509632272
 31
0.0
  0
LINE
  5
161B
330
1F
100
AcDbEntity
  8
取付足
100
AcDbLine
 10
64.2189761678373
 20
174.9629009632272
 30
0.0
 11
64.27287616783729
 21
174.8628609632273
 31
0.0
  0
LINE
  5
161C
330
1F
100
AcDbEntity
  8
取付足
100
AcDbLine
 10
64.18267616783729
 20
175.0621909632272
 30
0.0
 11
64.2189761678373
 21
174.9629009632272
 31
0.0
  0
LINE
  5
161D
330
1F
100
AcDbEntity
  8
取付足
100
AcDbLine
 10
64.15960616783729
 20
175.1692709632273
 30
0.0
 11
64.18267616783729
 21
175.0621909632272
 31
0.0
  0
LINE
  5
161F
330
1F
100
AcDbEntity
  8
取付足
100
AcDbLine
 10
64.87300616783727
 20
187.6071209632272
 30
0.0
 11
64.87195530676266
 21
187.6482996151576
 31
0.0
  0
LINE
  5
1620
330
1F
100
AcDbEntity
  8
取付足
100
AcDbLine
 10
64.87411616783728
 20
187.5103409632272
 30
0.0
 11
64.87300616783727
 21
187.6071209632272
 31
0.0
  0
LINE
  5
1621
330
1F
100
AcDbEntity
  8
取付足
100
AcDbLine
 10
64.87450616783729
 20
186.9551609632273
 30
0.0
 11
64.87411616783728
 21
187.5103409632272
 31
0.0
  0
LINE
  5
1622
330
1F
100
AcDbEntity
  8
取付足
100
AcDbLine
 10
64.87681616783729
 20
186.1021709632272
 30
0.0
 11
64.87959616783729
 21
186.0728409632272
 31
0.0
  0
LINE
  5
1623
330
1F
100
AcDbEntity
  8
取付足
100
AcDbLine
 10
64.87427616783728
 20
186.1860809632273
 30
0.0
 11
64.87681616783729
 21
186.1021709632272
 31
0.0
  0
LINE
  5
1624
330
1F
100
AcDbEntity
  8
取付足
100
AcDbLine
 10
64.87235616783729
 20
186.3134409632272
 30
0.0
 11
64.87427616783728
 21
186.1860809632273
 31
0.0
  0
LINE
  5
1625
330
1F
100
AcDbEntity
  8
取付足
100
AcDbLine
 10
64.87123616783728
 20
186.4748409632272
 30
0.0
 11
64.87235616783729
 21
186.3134409632272
 31
0.0
  0
LINE
  5
1626
330
1F
100
AcDbEntity
  8
取付足
100
AcDbLine
 10
64.87106616783728
 20
186.6459009632272
 30
0.0
 11
64.87123616783728
 21
186.4748409632272
 31
0.0
  0
LINE
  5
1627
330
1F
100
AcDbEntity
  8
取付足
100
AcDbLine
 10
64.87187616783728
 20
186.8136609632273
 30
0.0
 11
64.87106616783728
 21
186.6459009632272
 31
0.0
  0
LINE
  5
1628
330
1F
100
AcDbEntity
  8
取付足
100
AcDbLine
 10
64.87445419425227
 20
187.0291473604909
 30
0.0
 11
64.87187616783728
 21
186.8136609632273
 31
0.0
  0
LINE
  5
1629
330
1F
100
AcDbEntity
  8
取付足
100
AcDbLine
 10
63.97291616783729
 20
177.5080909632272
 30
0.0
 11
63.9771261678373
 21
177.4659509632273
 31
0.0
  0
LINE
  5
162A
330
1F
100
AcDbEntity
  8
取付足
100
AcDbLine
 10
63.96913616783729
 20
177.6218509632272
 30
0.0
 11
63.97291616783729
 21
177.5080909632272
 31
0.0
  0
LINE
  5
162B
330
1F
100
AcDbEntity
  8
取付足
100
AcDbLine
 10
63.96614616783731
 20
177.7962609632273
 30
0.0
 11
63.96913616783729
 21
177.6218509632272
 31
0.0
  0
LINE
  5
162C
330
1F
100
AcDbEntity
  8
取付足
100
AcDbLine
 10
63.9642261678373
 20
178.0147709632273
 30
0.0
 11
63.96614616783731
 21
177.7962609632273
 31
0.0
  0
LINE
  5
162D
330
1F
100
AcDbEntity
  8
取付足
100
AcDbLine
 10
64.1600561678373
 20
181.3485009632272
 30
0.0
 11
64.15960616783729
 21
181.3715409632273
 31
0.0
  0
LINE
  5
162E
330
1F
100
AcDbEntity
  8
取付足
100
AcDbLine
 10
64.16035616783728
 20
181.3219709632273
 30
0.0
 11
64.1600561678373
 21
181.3485009632272
 31
0.0
  0
LINE
  5
162F
330
1F
100
AcDbEntity
  8
取付足
100
AcDbLine
 10
64.16045616783728
 20
179.2581909632272
 30
0.0
 11
64.16035616783728
 21
181.3219709632273
 31
0.0
  0
LINE
  5
1630
330
1F
100
AcDbEntity
  8
取付足
100
AcDbLine
 10
63.97291616783729
 20
179.0327109632273
 30
0.0
 11
63.9771261678373
 21
179.0748509632273
 31
0.0
  0
LINE
  5
1631
330
1F
100
AcDbEntity
  8
取付足
100
AcDbLine
 10
63.96913616783729
 20
178.9189609632273
 30
0.0
 11
63.97291616783729
 21
179.0327109632273
 31
0.0
  0
LINE
  5
1632
330
1F
100
AcDbEntity
  8
取付足
100
AcDbLine
 10
63.96614616783731
 20
178.7445409632272
 30
0.0
 11
63.96913616783729
 21
178.9189609632273
 31
0.0
  0
LINE
  5
1633
330
1F
100
AcDbEntity
  8
取付足
100
AcDbLine
 10
63.9642261678373
 20
178.5260409632272
 30
0.0
 11
63.96614616783731
 21
178.7445409632272
 31
0.0
  0
LINE
  5
1634
330
1F
100
AcDbEntity
  8
取付足
100
AcDbLine
 10
64.1600561678373
 20
175.1922909632272
 30
0.0
 11
64.15960616783729
 21
175.1692709632273
 31
0.0
  0
LINE
  5
1635
330
1F
100
AcDbEntity
  8
取付足
100
AcDbLine
 10
64.16035616783728
 20
175.2188109632273
 30
0.0
 11
64.1600561678373
 21
175.1922909632272
 31
0.0
  0
LINE
  5
1636
330
1F
100
AcDbEntity
  8
取付足
100
AcDbLine
 10
64.2728861678373
 20
181.6779609632273
 30
0.0
 11
64.35060616783729
 21
181.7788609632273
 31
0.0
  0
LINE
  5
1637
330
1F
100
AcDbEntity
  8
取付足
100
AcDbLine
 10
64.2189761678373
 20
181.5779209632272
 30
0.0
 11
64.2728861678373
 21
181.6779609632273
 31
0.0
  0
LINE
  5
1638
330
1F
100
AcDbEntity
  8
取付足
100
AcDbLine
 10
64.18267616783729
 20
181.4786309632273
 30
0.0
 11
64.2189761678373
 21
181.5779209632272
 31
0.0
  0
LINE
  5
1639
330
1F
100
AcDbEntity
  8
取付足
100
AcDbLine
 10
64.15960616783729
 20
181.3715409632273
 30
0.0
 11
64.18267616783729
 21
181.4786309632273
 31
0.0
  0
LINE
  5
163A
330
1F
100
AcDbEntity
  8
取付足
100
AcDbLine
 10
64.71079616783732
 20
175.7535509632272
 30
0.0
 11
64.96730616783728
 21
176.0581109632273
 31
0.0
  0
LINE
  5
163B
330
1F
100
AcDbEntity
  8
取付足
100
AcDbLine
 10
64.46300616783728
 20
175.4675109632272
 30
0.0
 11
64.71079616783732
 21
175.7535509632272
 31
0.0
  0
LINE
  5
163C
330
1F
100
AcDbEntity
  8
取付足
100
AcDbLine
 10
64.22350616783728
 20
175.1804209632272
 30
0.0
 11
64.46300616783728
 21
175.4675109632272
 31
0.0
  0
LINE
  5
163D
330
1F
100
AcDbEntity
  8
取付足
100
AcDbLine
 10
64.96484616783729
 20
175.2193409632272
 30
0.0
 11
65.27427616783729
 21
175.4901009632272
 31
0.0
  0
LINE
  5
163E
330
1F
100
AcDbEntity
  8
取付足
100
AcDbLine
 10
64.67734616783729
 20
174.9608709632273
 30
0.0
 11
64.96484616783729
 21
175.2193409632272
 31
0.0
  0
LINE
  5
163F
330
1F
100
AcDbEntity
  8
取付足
100
AcDbLine
 10
64.41713616783729
 20
174.6916109632272
 30
0.0
 11
64.67734616783729
 21
174.9608709632273
 31
0.0
  0
LINE
  5
1640
330
1F
100
AcDbEntity
  8
取付足
100
AcDbLine
 10
66.20240616783729
 20
175.1170409632272
 30
0.0
 11
65.65362616783727
 21
175.3290509632273
 31
0.0
  0
LINE
  5
1641
330
1F
100
AcDbEntity
  8
取付足
100
AcDbLine
 10
66.78161616783729
 20
175.0090209632273
 30
0.0
 11
66.20240616783729
 21
175.1170409632272
 31
0.0
  0
LINE
  5
1642
330
1F
100
AcDbEntity
  8
取付足
100
AcDbLine
 10
64.09025616783728
 20
180.4752209632272
 30
0.0
 11
64.15608616783728
 21
180.6146609632272
 31
0.0
  0
LINE
  5
1643
330
1F
100
AcDbEntity
  8
取付足
100
AcDbLine
 10
64.02607616783729
 20
180.3286909632273
 30
0.0
 11
64.09025616783728
 21
180.4752209632272
 31
0.0
  0
LINE
  5
1644
330
1F
100
AcDbEntity
  8
取付足
100
AcDbLine
 10
63.96356616783728
 20
180.1735809632272
 30
0.0
 11
64.02607616783729
 21
180.3286909632273
 31
0.0
  0
LINE
  5
1645
330
1F
100
AcDbEntity
  8
取付足
100
AcDbLine
 10
66.38930616783728
 20
175.7761909632272
 30
0.0
 11
65.96104616783731
 21
175.9431309632273
 31
0.0
  0
LINE
  5
1646
330
1F
100
AcDbEntity
  8
取付足
100
AcDbLine
 10
65.04389616783729
 20
176.4413709632273
 30
0.0
 11
64.96730616783728
 21
176.4754909632272
 31
0.0
  0
LINE
  5
1647
330
1F
100
AcDbEntity
  8
取付足
100
AcDbLine
 10
65.1972161678373
 20
176.4114509632273
 30
0.0
 11
65.04389616783729
 21
176.4413709632273
 31
0.0
  0
LINE
  5
1648
330
1F
100
AcDbEntity
  8
取付足
100
AcDbLine
 10
65.41389616783729
 20
176.3881709632272
 30
0.0
 11
65.1972161678373
 21
176.4114509632273
 31
0.0
  0
LINE
  5
1649
330
1F
100
AcDbEntity
  8
取付足
100
AcDbLine
 10
65.6756661678373
 20
176.3734109632273
 30
0.0
 11
65.41389616783729
 21
176.3881709632272
 31
0.0
  0
LINE
  5
164A
330
1F
100
AcDbEntity
  8
取付足
100
AcDbLine
 10
65.96104616783731
 20
176.3683509632272
 30
0.0
 11
65.6756661678373
 21
176.3734109632273
 31
0.0
  0
LINE
  5
164B
330
1F
100
AcDbEntity
  8
取付足
100
AcDbLine
 10
65.0241661678373
 20
176.0626509632272
 30
0.0
 11
64.96730616783728
 21
176.0581109632273
 31
0.0
  0
LINE
  5
164C
330
1F
100
AcDbEntity
  8
取付足
100
AcDbLine
 10
65.1346261678373
 20
176.0554209632272
 30
0.0
 11
65.0241661678373
 21
176.0626509632272
 31
0.0
  0
LINE
  5
164D
330
1F
100
AcDbEntity
  8
取付足
100
AcDbLine
 10
65.29328616783729
 20
176.0376509632273
 30
0.0
 11
65.1346261678373
 21
176.0554209632272
 31
0.0
  0
LINE
  5
164E
330
1F
100
AcDbEntity
  8
取付足
100
AcDbLine
 10
65.4918361678373
 20
176.0113309632273
 30
0.0
 11
65.29328616783729
 21
176.0376509632273
 31
0.0
  0
LINE
  5
164F
330
1F
100
AcDbEntity
  8
取付足
100
AcDbLine
 10
65.71897616783729
 20
175.9789609632273
 30
0.0
 11
65.4918361678373
 21
176.0113309632273
 31
0.0
  0
LINE
  5
1650
330
1F
100
AcDbEntity
  8
取付足
100
AcDbLine
 10
65.96104616783731
 20
175.9431309632273
 30
0.0
 11
65.71897616783729
 21
175.9789609632273
 31
0.0
  0
LINE
  5
1651
330
1F
100
AcDbEntity
  8
取付足
100
AcDbLine
 10
63.99993616783729
 20
182.7167709632272
 30
0.0
 11
63.96356616783728
 21
182.6468109632273
 31
0.0
  0
LINE
  5
1652
330
1F
100
AcDbEntity
  8
取付足
100
AcDbLine
 10
64.03662616783728
 20
182.7862409632272
 30
0.0
 11
63.99993616783729
 21
182.7167709632272
 31
0.0
  0
LINE
  5
1653
330
1F
100
AcDbEntity
  8
取付足
100
AcDbLine
 10
64.0736461678373
 20
182.8552609632272
 30
0.0
 11
64.03662616783728
 21
182.7862409632272
 31
0.0
  0
LINE
  5
1654
330
1F
100
AcDbEntity
  8
取付足
100
AcDbLine
 10
64.24622616783728
 20
181.5385709632272
 30
0.0
 11
64.22350616783728
 21
181.3603909632272
 31
0.0
  0
LINE
  5
1655
330
1F
100
AcDbEntity
  8
取付足
100
AcDbLine
 10
64.3122961678373
 20
181.7051709632272
 30
0.0
 11
64.24622616783728
 21
181.5385709632272
 31
0.0
  0
LINE
  5
1656
330
1F
100
AcDbEntity
  8
取付足
100
AcDbLine
 10
64.41713616783729
 20
181.8492009632272
 30
0.0
 11
64.3122961678373
 21
181.7051709632272
 31
0.0
  0
LINE
  5
1657
330
1F
100
AcDbEntity
  8
取付足
100
AcDbLine
 10
64.1813661678373
 20
181.3159609632272
 30
0.0
 11
64.16045616783728
 21
181.2932309632272
 31
0.0
  0
LINE
  5
1658
330
1F
100
AcDbEntity
  8
取付足
100
AcDbLine
 10
64.20238616783729
 20
181.3383509632273
 30
0.0
 11
64.1813661678373
 21
181.3159609632272
 31
0.0
  0
LINE
  5
1659
330
1F
100
AcDbEntity
  8
取付足
100
AcDbLine
 10
64.22350616783728
 20
181.3603909632272
 30
0.0
 11
64.20238616783729
 21
181.3383509632273
 31
0.0
  0
LINE
  5
165A
330
1F
100
AcDbEntity
  8
取付足
100
AcDbLine
 10
64.42283616783729
 20
181.8551809632273
 30
0.0
 11
64.42575616783727
 21
181.8581909632272
 31
0.0
  0
LINE
  5
165B
330
1F
100
AcDbEntity
  8
取付足
100
AcDbLine
 10
64.41996616783729
 20
181.8521909632272
 30
0.0
 11
64.42283616783729
 21
181.8551809632273
 31
0.0
  0
LINE
  5
165C
330
1F
100
AcDbEntity
  8
取付足
100
AcDbLine
 10
64.41713616783729
 20
181.8492009632272
 30
0.0
 11
64.41996616783729
 21
181.8521909632272
 31
0.0
  0
LINE
  5
165D
330
1F
100
AcDbEntity
  8
取付足
100
AcDbLine
 10
65.29959616783731
 20
181.0497409632272
 30
0.0
 11
65.27427616783729
 21
181.0507109632273
 31
0.0
  0
LINE
  5
165E
330
1F
100
AcDbEntity
  8
取付足
100
AcDbLine
 10
65.3538361678373
 20
181.0682509632272
 30
0.0
 11
65.29959616783731
 21
181.0497409632272
 31
0.0
  0
LINE
  5
165F
330
1F
100
AcDbEntity
  8
取付足
100
AcDbLine
 10
65.43331616783729
 20
181.1038409632272
 30
0.0
 11
65.3538361678373
 21
181.0682509632272
 31
0.0
  0
LINE
  5
1660
330
1F
100
AcDbEntity
  8
取付足
100
AcDbLine
 10
65.53407616783727
 20
181.1526209632272
 30
0.0
 11
65.43331616783729
 21
181.1038409632272
 31
0.0
  0
LINE
  5
1661
330
1F
100
AcDbEntity
  8
取付足
100
AcDbLine
 10
65.65362616783727
 20
181.2117609632273
 30
0.0
 11
65.53407616783727
 21
181.1526209632272
 31
0.0
  0
LINE
  5
1662
330
1F
100
AcDbEntity
  8
取付足
100
AcDbLine
 10
65.02328616783728
 20
180.4781409632272
 30
0.0
 11
64.96730616783728
 21
180.4827009632272
 31
0.0
  0
LINE
  5
1663
330
1F
100
AcDbEntity
  8
取付足
100
AcDbLine
 10
65.13217616783729
 20
180.4851809632273
 30
0.0
 11
65.02328616783728
 21
180.4781409632272
 31
0.0
  0
LINE
  5
1664
330
1F
100
AcDbEntity
  8
取付足
100
AcDbLine
 10
65.29047616783728
 20
180.5028409632273
 30
0.0
 11
65.13217616783729
 21
180.4851809632273
 31
0.0
  0
LINE
  5
1665
330
1F
100
AcDbEntity
  8
取付足
100
AcDbLine
 10
65.48963616783729
 20
180.5291809632272
 30
0.0
 11
65.29047616783728
 21
180.5028409632273
 31
0.0
  0
LINE
  5
1666
330
1F
100
AcDbEntity
  8
取付足
100
AcDbLine
 10
65.71775616783728
 20
180.5616409632272
 30
0.0
 11
65.48963616783729
 21
180.5291809632272
 31
0.0
  0
LINE
  5
1667
330
1F
100
AcDbEntity
  8
取付足
100
AcDbLine
 10
65.96104616783731
 20
180.5976809632273
 30
0.0
 11
65.71775616783728
 21
180.5616409632272
 31
0.0
  0
LINE
  5
1668
330
1F
100
AcDbEntity
  8
取付足
100
AcDbLine
 10
65.04389616783729
 20
180.0994309632272
 30
0.0
 11
64.96730616783728
 21
180.0653209632272
 31
0.0
  0
LINE
  5
1669
330
1F
100
AcDbEntity
  8
取付足
100
AcDbLine
 10
65.1972161678373
 20
180.1293609632272
 30
0.0
 11
65.04389616783729
 21
180.0994309632272
 31
0.0
  0
LINE
  5
166A
330
1F
100
AcDbEntity
  8
取付足
100
AcDbLine
 10
65.41389616783729
 20
180.1526409632272
 30
0.0
 11
65.1972161678373
 21
180.1293609632272
 31
0.0
  0
LINE
  5
166B
330
1F
100
AcDbEntity
  8
取付足
100
AcDbLine
 10
65.6756661678373
 20
180.1674009632272
 30
0.0
 11
65.41389616783729
 21
180.1526409632272
 31
0.0
  0
LINE
  5
166C
330
1F
100
AcDbEntity
  8
取付足
100
AcDbLine
 10
65.96104616783731
 20
180.1724509632272
 30
0.0
 11
65.6756661678373
 21
180.1674009632272
 31
0.0
  0
LINE
  5
166D
330
1F
100
AcDbEntity
  8
取付足
100
AcDbLine
 10
66.10525616783729
 20
186.0663309632272
 30
0.0
 11
65.1435861678373
 21
185.8850109632273
 31
0.0
  0
LINE
  5
166E
330
1F
100
AcDbEntity
  8
取付足
100
AcDbLine
 10
65.1246861678373
 20
185.8849809632273
 30
0.0
 11
65.1435861678373
 21
185.8850109632273
 31
0.0
  0
LINE
  5
1670
330
1F
100
AcDbEntity
  8
取付足
100
AcDbLine
 10
63.9771261678373
 20
179.0748509632273
 30
0.0
 11
66.05389616783731
 21
179.0748509632273
 31
0.0
  0
LINE
  5
1671
330
1F
100
AcDbEntity
  8
取付足
100
AcDbLine
 10
64.96730616783728
 20
180.0653209632272
 30
0.0
 11
63.9771261678373
 21
179.0748509632273
 31
0.0
  0
LINE
  5
1672
330
1F
100
AcDbEntity
  8
取付足
100
AcDbLine
 10
57.5768861678373
 20
181.9590609632272
 30
0.0
 11
57.5768861678373
 21
157.1590609632272
 31
0.0
  0
LINE
  5
1673
330
1F
100
AcDbEntity
  8
取付足
100
AcDbLine
 10
63.9771261678373
 20
177.4659509632273
 30
0.0
 11
66.05389616783731
 21
177.4659509632273
 31
0.0
  0
LINE
  5
1674
330
1F
100
AcDbEntity
  8
取付足
100
AcDbLine
 10
64.15608616783728
 20
180.6146609632272
 30
0.0
 11
64.15923616783729
 21
181.2932309632272
 31
0.0
  0
LINE
  5
1675
330
1F
100
AcDbEntity
  8
取付足
100
AcDbLine
 10
63.96356616783728
 20
173.8939909632272
 30
0.0
 11
63.96356616783728
 21
178.2566909632272
 31
0.0
  0
LINE
  5
1676
330
1F
100
AcDbEntity
  8
取付足
100
AcDbLine
 10
63.96356616783728
 20
182.6468109632273
 30
0.0
 11
63.96356616783728
 21
178.2841209632272
 31
0.0
  0
LINE
  5
1677
330
1F
100
AcDbEntity
  8
取付足
100
AcDbLine
 10
64.0736461678373
 20
173.6556609632273
 30
0.0
 11
64.0736461678373
 21
173.6855509632272
 31
0.0
  0
LINE
  5
1678
330
1F
100
AcDbEntity
  8
取付足
100
AcDbLine
 10
64.0736461678373
 20
182.8552609632272
 30
0.0
 11
64.0736461678373
 21
182.8851509632272
 31
0.0
  0
LINE
  5
1679
330
1F
100
AcDbEntity
  8
取付足
100
AcDbLine
 10
64.16035616783728
 20
175.2188109632273
 30
0.0
 11
64.16045616783728
 21
177.2826209632272
 31
0.0
  0
LINE
  5
167A
330
1F
100
AcDbEntity
  8
取付足
100
AcDbLine
 10
64.15608616783728
 20
175.9261509632272
 30
0.0
 11
64.15923616783729
 21
175.2475709632272
 31
0.0
  0
LINE
  5
167B
330
1F
100
AcDbEntity
  8
取付足
100
AcDbLine
 10
65.1246861678373
 20
186.0040709632272
 30
0.0
 11
65.1246861678373
 21
185.8849809632273
 31
0.0
  0
LINE
  5
167C
330
1F
100
AcDbEntity
  8
取付足
100
AcDbLine
 10
65.0710561678373
 20
187.4952209632272
 30
0.0
 11
65.1246861678373
 21
186.0040709632272
 31
0.0
  0
LINE
  5
167D
330
1F
100
AcDbEntity
  8
取付足
100
AcDbLine
 10
65.1246861678373
 20
186.0040709632272
 30
0.0
 11
65.1435861678373
 21
185.8850109632273
 31
0.0
  0
LINE
  5
167E
330
1F
100
AcDbEntity
  8
取付足
100
AcDbLine
 10
63.9771261678373
 20
177.4659509632273
 30
0.0
 11
64.96730616783728
 21
176.4754909632272
 31
0.0
  0
LINE
  5
167F
330
1F
100
AcDbEntity
  8
取付足
100
AcDbLine
 10
64.87195530676266
 20
187.6482996151576
 30
0.0
 11
65.0710561678373
 21
187.4952209632272
 31
0.0
  0
ARC
  5
1680
330
1F
100
AcDbEntity
  8
取付足
100
AcDbCircle
 10
67.0768861678373
 20
178.2704009632273
 30
0.0
 40
5.480909999999999
100
AcDbArc
 50
123.2261600000003
 51
236.7738399999995
  0
ARC
  5
1681
330
1F
100
AcDbEntity
  8
取付足
100
AcDbCircle
 10
67.0768861678373
 20
157.2704009632273
 30
0.0
 40
3.5
100
AcDbArc
 50
180.0
 51
0.0
  0
ARC
  5
1682
330
1F
100
AcDbEntity
  8
取付足
100
AcDbCircle
 10
67.0768861678373
 20
161.7704009632273
 30
0.0
 40
3.5
100
AcDbArc
 50
0.0
 51
180.0
  0
ARC
  5
1683
330
1F
100
AcDbEntity
  8
取付足
100
AcDbCircle
 10
67.0768861678373
 20
157.1590609632272
 30
0.0
 40
9.5
100
AcDbArc
 50
180.0
 51
0.0
  0
LINE
  5
1684
330
1F
100
AcDbEntity
  8
取付足
100
AcDbLine
 10
67.37172696557483
 20
181.5318710148845
 30
0.0
 11
66.78161616783729
 21
181.5317909632272
 31
0.0
  0
LINE
  5
1685
330
1F
100
AcDbEntity
  8
取付足
100
AcDbLine
 10
66.8447761678373
 20
180.8504209632273
 30
0.0
 11
66.38931616783731
 21
180.7646209632272
 31
0.0
  0
LINE
  5
1686
330
1F
100
AcDbEntity
  8
取付足
100
AcDbLine
 10
67.30867744360733
 20
180.8504810048092
 30
0.0
 11
66.8447761678373
 21
180.8504209632273
 31
0.0
  0
LINE
  5
1687
330
1F
100
AcDbEntity
  8
取付足
100
AcDbLine
 10
67.37172692587029
 20
175.0089409115754
 30
0.0
 11
66.78161616783729
 21
175.0090209632273
 31
0.0
  0
LINE
  5
1688
330
1F
100
AcDbEntity
  8
取付足
100
AcDbLine
 10
66.84475616783728
 20
175.6903909632272
 30
0.0
 11
66.38930616783728
 21
175.7761909632272
 31
0.0
  0
LINE
  5
1689
330
1F
100
AcDbEntity
  8
取付足
100
AcDbLine
 10
67.30869745061967
 20
175.690330921648
 30
0.0
 11
66.84475616783732
 21
175.6903909632273
 31
0.0
  0
LINE
  5
168A
330
1F
100
AcDbEntity
  8
取付足
100
AcDbLine
 10
67.0768861678373
 20
186.1263434921747
 30
0.0
 11
66.10525616783729
 21
186.0663309632272
 31
0.0
  0
LINE
  5
168B
330
1F
100
AcDbEntity
  8
取付足
100
AcDbLine
 10
69.08266091303778
 20
187.4936846366509
 30
0.0
 11
65.0710561678373
 21
187.4952209632272
 31
0.0
  0
LINE
  5
168C
330
1F
100
AcDbEntity
  8
取付足
100
AcDbLine
 10
70.87688616783729
 20
187.6590609632272
 30
0.0
 11
63.2768861678373
 21
187.6590609632272
 31
0.0
  0
LINE
  5
168D
330
1F
100
AcDbEntity
  8
取付足
100
AcDbLine
 10
65.96104616783731
 20
180.1724509632272
 30
0.0
 11
68.19272616783668
 21
180.1724509632273
 31
0.0
  0
LINE
  5
168E
330
1F
100
AcDbEntity
  8
取付足
100
AcDbLine
 10
65.96104616783731
 20
176.3683509632272
 30
0.0
 11
67.0768861678373
 21
176.3683509632272
 31
0.0
  0
ARC
  5
168F
330
1F
100
AcDbEntity
  8
取付足
100
AcDbCircle
 10
67.0768861678373
 20
178.2704009632273
 30
0.0
 40
5.50593
100
AcDbArc
 50
56.94420112650248
 51
123.0557300000002
  0
ARC
  5
1690
330
1F
100
AcDbEntity
  8
取付足
100
AcDbCircle
 10
67.0768861678373
 20
178.2704009632273
 30
0.0
 40
5.50593
100
AcDbArc
 50
236.94427
 51
303.0557988734975
  0
ARC
  5
1691
330
1F
100
AcDbEntity
  8
取付足
100
AcDbCircle
 10
67.0768861678373
 20
179.2714809632272
 30
0.0
 40
3.70399
100
AcDbArc
 50
44.28253618195674
 51
137.3950600000002
  0
ARC
  5
1692
330
1F
100
AcDbEntity
  8
取付足
100
AcDbCircle
 10
67.0768861678373
 20
177.2693209632272
 30
0.0
 40
3.70399
100
AcDbArc
 50
222.6049399999998
 51
317.3943029025128
  0
ARC
  5
1694
330
1F
100
AcDbEntity
  8
取付足
100
AcDbCircle
 10
67.0768861678373
 20
178.2704009632273
 30
0.0
 40
8.959660000000001
100
AcDbArc
 50
104.2359481993712
 51
75.76405180062876
  0
CIRCLE
  5
1696
330
1F
100
AcDbEntity
  8
取付足
100
AcDbCircle
 10
67.0768861678373
 20
178.2704009632273
 30
0.0
 40
7.808419999999998
  0
CIRCLE
  5
1697
330
1F
100
AcDbEntity
  8
取付足
100
AcDbCircle
 10
67.0768861678373
 20
178.2704009632273
 30
0.0
 40
1.301400000000001
  0
LINE
  5
176E
330
1F
100
AcDbEntity
  8
取付足
100
AcDbLine
 10
63.2768861678373
 20
187.6590609632272
 30
0.0
 11
57.5768861678373
 21
181.9590609632272
 31
0.0
1001
GENIUS_GENFIL_13
1070
     0
1040
5.7
1040
5.7
1040
20.0
1040
0.0
1002
{
1002
}
1001
GENIUS_GENOBJ-N-CHA_13
1002
{
1000
OWNER
1000
GEN
1002
}
1001
GENIUS_GENODEF_13
1002
{
1000
HIER
1070
     0
1002
}
1002
{
1000
MANEDIT
1070
     0
1002
}
1002
{
1000
NOSEL
1070
     0
1002
}
1002
{
1000
BEHIND
1070
     0
1002
}
1002
{
1000
OTHER
1070
     0
1002
}
1002
{
1000
REACTOR
1002
}
  0
LINE
  5
1772
330
1F
100
AcDbEntity
  8
取付足
100
AcDbLine
 10
70.87688616783729
 20
187.6590609632272
 30
0.0
 11
76.5768861678373
 21
181.9590609632273
 31
0.0
1001
GENIUS_GENFIL_13
1070
     0
1040
5.7
1040
5.7
1040
20.0
1040
0.0
1002
{
1002
}
1001
GENIUS_GENODEF_13
1002
{
1000
HIER
1070
     0
1002
}
1002
{
1000
MANEDIT
1070
     0
1002
}
1002
{
1000
NOSEL
1070
     0
1002
}
1002
{
1000
BEHIND
1070
     0
1002
}
1002
{
1000
OTHER
1070
     0
1002
}
1002
{
1000
REACTOR
1002
}
1001
GENIUS_GENOBJ-N-CHA_13
1002
{
1000
OWNER
1000
GEN
1002
}
  0
LINE
  5
19B5
330
1F
100
AcDbEntity
  8
AM_7
  6
AM_ISO08W050x2
100
AcDbLine
 10
55.1172261678373
 20
178.2704009632273
 30
0.0
 11
79.0365461678373
 21
178.2704009632273
 31
0.0
1001
GENIUS_GENOBJ-N-CEN_13
1002
{
1000
OWNER
1000
GEN
1002
}
1001
GENIUS_GENODEF_13
1002
{
1000
HIER
1070
     0
1002
}
1002
{
1000
MANEDIT
1070
     0
1002
}
1002
{
1000
NOSEL
1070
     0
1002
}
1002
{
1000
BEHIND
1070
     0
1002
}
1002
{
1000
OTHER
1070
     0
1002
}
1002
{
1000
REACTOR
1002
}
1001
GENIUS_GENCEN_19
1002
{
1040
3.0
1002
}
  0
LINE
  5
19C3
330
1F
100
AcDbEntity
  8
AM_7
100
AcDbLine
 10
67.0768861678373
 20
190.6590609632272
 30
0.0
 11
67.0768861678373
 21
144.6590609632272
 31
0.0
1001
GENIUS_GENOBJ-N-CEN_13
1002
{
1000
OWNER
1000
GEN
1002
}
1001
GENIUS_GENODEF_13
1002
{
1000
HIER
1070
     0
1002
}
1002
{
1000
MANEDIT
1070
     0
1002
}
1002
{
1000
NOSEL
1070
     0
1002
}
1002
{
1000
BEHIND
1070
     0
1002
}
1002
{
1000
OTHER
1070
     0
1002
}
1002
{
1000
REACTOR
1002
}
1001
GENIUS_GENCEN_19
1002
{
1040
3.0
1002
}
  0
MTEXT
  5
19E0
330
1F
100
AcDbEntity
  8
取付足
100
AcDbMText
 10
123.2130427554798
 20
91.65232976819595
 30
0.0
 40
4.0
 41
49.54200103342896
 71
     1
 72
     5
  1
※M3タッピングビス付
 73
     1
 44
1.0
1001
ACAD
1000
MTEXTBEGIN
1070
    73
1070
     1
1070
    44
1040
1.0
1070
    74
1070
     0
1000
MTEXTEND
  0
VIEWPORT
  5
17C
102
{ACAD_XDICTIONARY
360
1B98
102
}
330
23
100
AcDbEntity
 67
     1
  8
0
100
AcDbViewport
 10
133.3499908447265
 20
101.5999970436096
 30
0.0
 40
370.2266912936524
 41
228.4221935424805
 68
     1
 69
     1
 12
133.3499908447265
 22
101.5999970436096
 13
0.0
 23
0.0
 14
10.0
 24
10.0
 15
10.0
 25
10.0
 16
0.0
 26
0.0
 36
1.0
 17
0.0
 27
0.0
 37
0.0
 42
50.0
 43
0.0
 44
0.0
 45
228.4221935424805
 50
0.0
 51
0.0
 72
   100
 90
    32800
  1

281
     0
 71
     1
 74
     0
110
0.0
120
0.0
130
0.0
111
1.0
121
0.0
131
0.0
112
0.0
122
1.0
132
0.0
 79
     0
146
0.0
  0
ENDSEC
  0
SECTION
  2
OBJECTS
  0
DICTIONARY
  5
C
330
0
100
AcDbDictionary
281
     1
  3
ACAD_COLOR
350
BE
  3
ACAD_GROUP
350
D
  3
ACAD_LAYOUT
350
1A
  3
ACAD_MATERIAL
350
BD
  3
ACAD_MLEADERSTYLE
350
1A5B
  3
ACAD_MLINESTYLE
350
17
  3
ACAD_PLOTSETTINGS
350
19
  3
ACAD_PLOTSTYLENAME
350
E
  3
ACAD_SCALELIST
350
1A49
  3
ACAD_TABLESTYLE
350
1799
  3
ACAD_VISUALSTYLE
350
1A38
  3
ACDB_RECOMPOSE_DATA
350
1AC0
  3
AcDbVariableDictionary
350
94
  3
AcmDictionary
350
5B
  3
AMG
350
41
  3
AMGSNAPSETTINGS
350
220
  3
ASE_INDEX_DICTIONARY
350
19A0
  3
DWGPROPS
350
1B8F
  0
DICTIONARY
  5
1AC1
330
8
100
AcDbDictionary
280
     1
281
     1
  0
DICTIONARY
  5
35D
330
2
100
AcDbDictionary
280
     1
281
     1
  3
ACAD_LAYERFILTERS
360
19E5
  3
ACAD_LAYERSTATES
360
35E
  3
ACLYDICTIONARY
360
19E4
  3
AMLAYER_GROUPCOLORS
360
4A4
  0
DICTIONARY
  5
1AB0
330
10
100
AcDbDictionary
280
     1
281
     1
  3
ADSK_XREC_LAYER_RECONCILED
360
1AB1
  0
DICTIONARY
  5
1AB2
330
1FA
100
AcDbDictionary
280
     1
281
     1
  3
ADSK_XREC_LAYER_RECONCILED
360
1AB3
  0
DICTIONARY
  5
1AB4
330
206
100
AcDbDictionary
280
     1
281
     1
  3
ADSK_XREC_LAYER_RECONCILED
360
1AB5
  0
DICTIONARY
  5
1AB6
330
22C
100
AcDbDictionary
280
     1
281
     1
  3
ADSK_XREC_LAYER_RECONCILED
360
1AB7
  0
DICTIONARY
  5
1AB8
330
307
100
AcDbDictionary
280
     1
281
     1
  3
ADSK_XREC_LAYER_RECONCILED
360
1AB9
  0
DICTIONARY
  5
1ABA
330
33B
100
AcDbDictionary
280
     1
281
     1
  3
ADSK_XREC_LAYER_RECONCILED
360
1ABB
  0
DICTIONARY
  5
1ABC
330
343
100
AcDbDictionary
280
     1
281
     1
  3
ADSK_XREC_LAYER_RECONCILED
360
1ABD
  0
DICTIONARY
  5
8F
330
1F
100
AcDbDictionary
280
     1
281
     1
  0
DICTIONARY
  5
8C2
330
8B9
100
AcDbDictionary
280
     1
281
     1
  0
DICTIONARY
  5
923
330
8CE
100
AcDbDictionary
280
     1
281
     1
  0
DICTIONARY
  5
9E5
330
9D9
100
AcDbDictionary
280
     1
281
     1
  0
DICTIONARY
  5
17CC
330
17C4
100
AcDbDictionary
280
     1
281
     1
  0
DICTIONARY
  5
182B
330
17D2
100
AcDbDictionary
280
     1
281
     1
  0
DICTIONARY
  5
1B96
330
178
100
AcDbDictionary
280
     1
281
     1
  3
ACAD_XREC_ROUNDTRIP
360
1B97
  0
DICTIONARY
  5
1B98
330
17C
100
AcDbDictionary
280
     1
281
     1
  3
ACAD_XREC_ROUNDTRIP
360
1B99
  0
DICTIONARY
  5
BE
102
{ACAD_REACTORS
330
C
102
}
330
C
100
AcDbDictionary
281
     1
  0
DICTIONARY
  5
D
102
{ACAD_REACTORS
330
C
102
}
330
C
100
AcDbDictionary
281
     1
  0
DICTIONARY
  5
1A
102
{ACAD_REACTORS
330
C
102
}
330
C
100
AcDbDictionary
281
     1
  3
Model
350
22
  3
レイアウト1
350
1E
  3
レイアウト2
350
26
  0
DICTIONARY
  5
BD
102
{ACAD_REACTORS
330
C
102
}
330
C
100
AcDbDictionary
281
     1
  3
ByBlock
350
1A28
  3
ByLayer
350
1A20
  3
Global
350
1A30
  0
DICTIONARY
  5
1A5B
102
{ACAD_REACTORS
330
C
102
}
330
C
100
AcDbDictionary
281
     1
  3
Standard
350
1A5C
  0
DICTIONARY
  5
17
102
{ACAD_REACTORS
330
C
102
}
330
C
100
AcDbDictionary
281
     1
  3
Standard
350
18
  0
DICTIONARY
  5
19
102
{ACAD_REACTORS
330
C
102
}
330
C
100
AcDbDictionary
281
     1
  0
ACDBDICTIONARYWDFLT
  5
E
102
{ACAD_REACTORS
330
C
102
}
330
C
100
AcDbDictionary
281
     1
  3
Normal
350
F
100
AcDbDictionaryWithDefault
340
F
  0
DICTIONARY
  5
1A49
102
{ACAD_REACTORS
330
C
102
}
330
C
100
AcDbDictionary
281
     1
  3
A0
350
1A4A
  3
A1
350
1A4B
  3
A2
350
1A4C
  3
A3
350
1A4D
  3
A4
350
1A4E
  3
A5
350
1A4F
  3
A6
350
1A50
  3
A7
350
1A51
  3
A8
350
1A52
  3
A9
350
1A53
  3
B0
350
1A54
  3
B1
350
1A55
  3
B2
350
1A56
  3
B3
350
1A57
  3
B4
350
1A58
  3
B5
350
1A59
  3
B6
350
1A5A
  0
DICTIONARY
  5
1799
102
{ACAD_REACTORS
330
C
102
}
330
C
100
AcDbDictionary
281
     1
  3
Standard
350
179A
  0
DICTIONARY
  5
1A38
102
{ACAD_REACTORS
330
C
102
}
330
C
100
AcDbDictionary
281
     1
  3
2dWireframe
350
1A3E
  3
3D Hidden
350
1A40
  3
3dWireframe
350
1A3F
  3
Basic
350
1A3D
  3
Brighten
350
1A44
  3
ColorChange
350
1A48
  3
Conceptual
350
1A41
  3
Dim
350
1A43
  3
Facepattern
350
1A47
  3
Flat
350
1A39
  3
FlatWithEdges
350
1A3A
  3
Gouraud
350
1A3B
  3
GouraudWithEdges
350
1A3C
  3
Linepattern
350
1A46
  3
Realistic
350
1A42
  3
Thicken
350
1A45
  0
XRECORD
  5
1AC0
102
{ACAD_REACTORS
330
C
102
}
330
C
100
AcDbXrecord
280
     1
 90
        1
330
179A
  0
DICTIONARY
  5
94
102
{ACAD_REACTORS
330
C
102
}
330
C
100
AcDbDictionary
281
     1
  3
CANNOSCALE
350
1AD9
  3
CMLEADERSTYLE
350
1AD8
  3
CTABLESTYLE
350
19A4
  3
DIMASSOC
350
96
  3
INDEXCTL
350
95
  3
SORTENTS
350
1B8D
  0
DICTIONARY
  5
5B
102
{ACAD_REACTORS
330
C
102
}
330
C
100
AcDbDictionary
281
     1
  3
AcmBOM
350
5AE
  3
AcmStdDictionary
350
61
  3
AMDTSECTSYM_ARROWCOLOR
350
17B7
  0
DICTIONARY
  5
41
102
{ACAD_REACTORS
330
C
102
}
330
C
100
AcDbDictionary
281
     1
  0
DICTIONARY
  5
220
102
{ACAD_REACTORS
330
C
102
}
330
C
100
AcDbDictionary
281
     1
  0
DICTIONARY
  5
19A0
102
{ACAD_REACTORS
330
C
102
}
330
C
100
AcDbDictionary
281
     1
  3
ASEBlockHierarchyIndexRecord
350
19A2
1001
DCO15
1040
1664518373.8
  0
XRECORD
  5
1B8F
102
{ACAD_REACTORS
330
C
102
}
330
C
100
AcDbXrecord
280
     1
  1
DWGPROPS COOKIE
  2

  3

  4

  6

  7

  8
Administrator
  9

300
AmdtFileType=84
301
=
302
=
303
=
304
=
305
=
306
=
307
=
308
=
309
=
 40
0.0309781597222222
 41
2453328.652169769
 42
2455068.669052188
  1

 90
        1
  0
DICTIONARY
  5
19E5
102
{ACAD_REACTORS
330
35D
102
}
330
35D
100
AcDbDictionary
281
     1
  0
DICTIONARY
  5
35E
102
{ACAD_REACTORS
330
35D
102
}
330
35D
100
AcDbDictionary
281
     1
  3
takachi1
350
35F
  0
DICTIONARY
  5
19E4
102
{ACAD_REACTORS
330
35D
102
}
330
35D
100
AcDbDictionary
281
     1
1001
ACAD
1000
<All
  0
DICTIONARY
  5
4A4
102
{ACAD_REACTORS
330
35D
102
}
330
35D
100
AcDbDictionary
280
     1
281
     1
  0
XRECORD
  5
1AB1
102
{ACAD_REACTORS
330
1AB0
102
}
330
1AB0
100
AcDbXrecord
280
     1
290
     1
  0
XRECORD
  5
1AB3
102
{ACAD_REACTORS
330
1AB2
102
}
330
1AB2
100
AcDbXrecord
280
     1
290
     1
  0
XRECORD
  5
1AB5
102
{ACAD_REACTORS
330
1AB4
102
}
330
1AB4
100
AcDbXrecord
280
     1
290
     1
  0
XRECORD
  5
1AB7
102
{ACAD_REACTORS
330
1AB6
102
}
330
1AB6
100
AcDbXrecord
280
     1
290
     1
  0
XRECORD
  5
1AB9
102
{ACAD_REACTORS
330
1AB8
102
}
330
1AB8
100
AcDbXrecord
280
     1
290
     1
  0
XRECORD
  5
1ABB
102
{ACAD_REACTORS
330
1ABA
102
}
330
1ABA
100
AcDbXrecord
280
     1
290
     1
  0
XRECORD
  5
1ABD
102
{ACAD_REACTORS
330
1ABC
102
}
330
1ABC
100
AcDbXrecord
280
     1
290
     1
  0
XRECORD
  5
1B97
102
{ACAD_REACTORS
330
1B96
102
}
330
1B96
100
AcDbXrecord
280
     1
102
SHADEPLOT
 70
     0
  0
XRECORD
  5
1B99
102
{ACAD_REACTORS
330
1B98
102
}
330
1B98
100
AcDbXrecord
280
     1
102
SHADEPLOT
 70
     0
  0
LAYOUT
  5
22
102
{ACAD_XDICTIONARY
360
1B92
102
}
102
{ACAD_REACTORS
330
1A
102
}
330
1A
100
AcDbPlotSettings
  1

  2
RICOH IPSiO CX7200 RPCS
  4
A3
  6
AM_VIEW1
 40
5.873749732971191
 41
5.873747825622558
 42
5.873748779296875
 43
5.873748779296875
 44
296.9259948730469
 45
419.9466552734374
 46
2.589999999999999
 47
4.099999999999999
 48
10.0
 49
0.0
140
410.0
141
280.0
142
1.0
143
1.0
 70
 11956
 72
     1
 73
     1
 74
     4
  7
takachi-1.ctb
 75
    16
147
1.0
148
-10.0
149
0.0
100
AcDbLayout
  1
Model
 70
     1
 71
     0
 10
0.0
 20
0.0
 11
12.0
 21
9.0
 12
0.0
 22
0.0
 32
0.0
 14
0.0
 24
0.0
 34
0.0
 15
0.0
 25
0.0
 35
0.0
146
0.0
 13
0.0
 23
0.0
 33
0.0
 16
1.0
 26
0.0
 36
0.0
 17
0.0
 27
1.0
 37
0.0
 76
     0
330
1F
331
1A1E
  0
LAYOUT
  5
1E
102
{ACAD_XDICTIONARY
360
1B90
102
}
102
{ACAD_REACTORS
330
1A
102
}
330
1A
100
AcDbPlotSettings
  1

  2
none_device
  4
Letter_(8.50_x_11.00_Inches)
  6

 40
6.349999904632568
 41
6.349999904632568
 42
6.350006103515625
 43
6.350006103515625
 44
215.8999938964844
 45
279.3999938964844
 46
0.0
 47
0.0
 48
0.0
 49
0.0
140
0.0
141
0.0
142
1.0
143
1.0
 70
   688
 72
     1
 73
     1
 74
     5
  7
takachi-1.ctb
 75
    16
147
1.0
148
0.0
149
0.0
100
AcDbLayout
  1
レイアウト1
 70
     1
 71
     1
 10
-6.350006103515625
 20
-6.349999904632568
 11
273.0499877929688
 21
209.5499939918518
 12
0.0
 22
0.0
 32
0.0
 14
1.000000000000000E+20
 24
1.000000000000000E+20
 34
1.000000000000000E+20
 15
-1.000000000000000E+20
 25
-1.000000000000000E+20
 35
-1.000000000000000E+20
146
0.0
 13
0.0
 23
0.0
 33
0.0
 16
1.0
 26
0.0
 36
0.0
 17
0.0
 27
1.0
 37
0.0
 76
     0
330
1B
331
178
  0
LAYOUT
  5
26
102
{ACAD_XDICTIONARY
360
1B94
102
}
102
{ACAD_REACTORS
330
1A
102
}
330
1A
100
AcDbPlotSettings
  1

  2
none_device
  4
Letter_(8.50_x_11.00_Inches)
  6

 40
6.349999904632568
 41
6.349999904632568
 42
6.350006103515625
 43
6.350006103515625
 44
215.8999938964844
 45
279.3999938964844
 46
0.0
 47
0.0
 48
0.0
 49
0.0
140
0.0
141
0.0
142
1.0
143
1.0
 70
   688
 72
     1
 73
     1
 74
     5
  7
takachi-1.ctb
 75
    16
147
1.0
148
0.0
149
0.0
100
AcDbLayout
  1
レイアウト2
 70
     1
 71
     2
 10
-6.350006103515625
 20
-6.349999904632568
 11
273.0499877929688
 21
209.5499939918518
 12
0.0
 22
0.0
 32
0.0
 14
1.000000000000000E+20
 24
1.000000000000000E+20
 34
1.000000000000000E+20
 15
-1.000000000000000E+20
 25
-1.000000000000000E+20
 35
-1.000000000000000E+20
146
0.0
 13
0.0
 23
0.0
 33
0.0
 16
1.0
 26
0.0
 36
0.0
 17
0.0
 27
1.0
 37
0.0
 76
     0
330
23
331
17C
  0
MATERIAL
  5
1A28
102
{ACAD_XDICTIONARY
360
1A29
102
}
102
{ACAD_REACTORS
330
BD
102
}
330
BD
100
AcDbMaterial
  1
ByBlock
 72
     0
 43
0.0008202099737533
 43
0.0
 43
0.0
 43
0.0
 43
0.0
 43
0.0008202099737533
 43
0.0
 43
0.0
 43
0.0
 43
0.0
 43
1.0
 43
0.0
 43
0.0
 43
0.0
 43
0.0
 43
1.0
 77
     0
 47
0.0008202099737533
 47
0.0
 47
0.0
 47
0.0
 47
0.0
 47
0.0008202099737533
 47
0.0
 47
0.0
 47
0.0
 47
0.0
 47
1.0
 47
0.0
 47
0.0
 47
0.0
 47
0.0
 47
1.0
171
     0
 49
0.0008202099737533
 49
0.0
 49
0.0
 49
0.0
 49
0.0
 49
0.0008202099737533
 49
0.0
 49
0.0
 49
0.0
 49
0.0
 49
1.0
 49
0.0
 49
0.0
 49
0.0
 49
0.0
 49
1.0
175
     0
142
0.0008202099737533
142
0.0
142
0.0
142
0.0
142
0.0
142
0.0008202099737533
142
0.0
142
0.0
142
0.0
142
0.0
142
1.0
142
0.0
142
0.0
142
0.0
142
0.0
142
1.0
179
     0
144
0.0008202099737533
144
0.0
144
0.0
144
0.0
144
0.0
144
0.0008202099737533
144
0.0
144
0.0
144
0.0
144
0.0
144
1.0
144
0.0
144
0.0
144
0.0
144
0.0
144
1.0
147
0.0008202099737533
147
0.0
147
0.0
147
0.0
147
0.0
147
0.0008202099737533
147
0.0
147
0.0
147
0.0
147
0.0
147
1.0
147
0.0
147
0.0
147
0.0
147
0.0
147
1.0
  0
MATERIAL
  5
1A20
102
{ACAD_XDICTIONARY
360
1A21
102
}
102
{ACAD_REACTORS
330
BD
102
}
330
BD
100
AcDbMaterial
  1
ByLayer
 72
     0
 43
0.0008202099737533
 43
0.0
 43
0.0
 43
0.0
 43
0.0
 43
0.0008202099737533
 43
0.0
 43
0.0
 43
0.0
 43
0.0
 43
1.0
 43
0.0
 43
0.0
 43
0.0
 43
0.0
 43
1.0
 77
     0
 47
0.0008202099737533
 47
0.0
 47
0.0
 47
0.0
 47
0.0
 47
0.0008202099737533
 47
0.0
 47
0.0
 47
0.0
 47
0.0
 47
1.0
 47
0.0
 47
0.0
 47
0.0
 47
0.0
 47
1.0
171
     0
 49
0.0008202099737533
 49
0.0
 49
0.0
 49
0.0
 49
0.0
 49
0.0008202099737533
 49
0.0
 49
0.0
 49
0.0
 49
0.0
 49
1.0
 49
0.0
 49
0.0
 49
0.0
 49
0.0
 49
1.0
175
     0
142
0.0008202099737533
142
0.0
142
0.0
142
0.0
142
0.0
142
0.0008202099737533
142
0.0
142
0.0
142
0.0
142
0.0
142
1.0
142
0.0
142
0.0
142
0.0
142
0.0
142
1.0
179
     0
144
0.0008202099737533
144
0.0
144
0.0
144
0.0
144
0.0
144
0.0008202099737533
144
0.0
144
0.0
144
0.0
144
0.0
144
1.0
144
0.0
144
0.0
144
0.0
144
0.0
144
1.0
147
0.0008202099737533
147
0.0
147
0.0
147
0.0
147
0.0
147
0.0008202099737533
147
0.0
147
0.0
147
0.0
147
0.0
147
1.0
147
0.0
147
0.0
147
0.0
147
0.0
147
1.0
  0
MATERIAL
  5
1A30
102
{ACAD_XDICTIONARY
360
1A31
102
}
102
{ACAD_REACTORS
330
BD
102
}
330
BD
100
AcDbMaterial
  1
Global
 72
     0
 43
0.0008202099737533
 43
0.0
 43
0.0
 43
0.0
 43
0.0
 43
0.0008202099737533
 43
0.0
 43
0.0
 43
0.0
 43
0.0
 43
1.0
 43
0.0
 43
0.0
 43
0.0
 43
0.0
 43
1.0
 77
     0
 47
0.0008202099737533
 47
0.0
 47
0.0
 47
0.0
 47
0.0
 47
0.0008202099737533
 47
0.0
 47
0.0
 47
0.0
 47
0.0
 47
1.0
 47
0.0
 47
0.0
 47
0.0
 47
0.0
 47
1.0
171
     0
 49
0.0008202099737533
 49
0.0
 49
0.0
 49
0.0
 49
0.0
 49
0.0008202099737533
 49
0.0
 49
0.0
 49
0.0
 49
0.0
 49
1.0
 49
0.0
 49
0.0
 49
0.0
 49
0.0
 49
1.0
175
     0
142
0.0008202099737533
142
0.0
142
0.0
142
0.0
142
0.0
142
0.0008202099737533
142
0.0
142
0.0
142
0.0
142
0.0
142
1.0
142
0.0
142
0.0
142
0.0
142
0.0
142
1.0
179
     0
144
0.0008202099737533
144
0.0
144
0.0
144
0.0
144
0.0
144
0.0008202099737533
144
0.0
144
0.0
144
0.0
144
0.0
144
1.0
144
0.0
144
0.0
144
0.0
144
0.0
144
1.0
147
0.0008202099737533
147
0.0
147
0.0
147
0.0
147
0.0
147
0.0008202099737533
147
0.0
147
0.0
147
0.0
147
0.0
147
1.0
147
0.0
147
0.0
147
0.0
147
0.0
147
1.0
  0
MLEADERSTYLE
  5
1A5C
102
{ACAD_REACTORS
330
1A5B
102
}
330
1A5B
100
AcDbMLeaderStyle
170
     2
171
     1
172
     0
 90
        2
 40
0.0
 41
0.0
173
     1
 91
-1056964608
340
14
 92
       -2
290
     1
 42
2.0
291
     1
 43
0.36
  3
Standard
 44
4.0
300

342
11
174
     1
178
     6
175
     1
176
     0
 93
-1056964608
 45
4.0
292
     0
297
     0
 46
4.0
 94
-1056964608
 47
1.0
 49
1.0
140
1.0
293
     1
141
0.0
294
     1
177
     0
142
1.0
295
     0
296
     0
143
0.125
1001
ACAD_MLEADERVER
1070
     2
  0
MLINESTYLE
  5
18
102
{ACAD_REACTORS
330
17
102
}
330
17
100
AcDbMlineStyle
  2
STANDARD
 70
     0
  3

 62
   256
 51
90.0
 52
90.0
 71
     2
 49
0.5
 62
   256
  6
BYLAYER
 49
-0.5
 62
   256
  6
BYLAYER
  0
ACDBPLACEHOLDER
  5
F
102
{ACAD_REACTORS
330
E
102
}
330
E
  0
SCALE
  5
1A4A
102
{ACAD_REACTORS
330
1A49
102
}
330
1A49
100
AcDbScale
 70
     0
300
1:1
140
1.0
141
1.0
290
     1
  0
SCALE
  5
1A4B
102
{ACAD_REACTORS
330
1A49
102
}
330
1A49
100
AcDbScale
 70
     0
300
1:2
140
1.0
141
2.0
290
     0
  0
SCALE
  5
1A4C
102
{ACAD_REACTORS
330
1A49
102
}
330
1A49
100
AcDbScale
 70
     0
300
1:4
140
1.0
141
4.0
290
     0
  0
SCALE
  5
1A4D
102
{ACAD_REACTORS
330
1A49
102
}
330
1A49
100
AcDbScale
 70
     0
300
1:5
140
1.0
141
5.0
290
     0
  0
SCALE
  5
1A4E
102
{ACAD_REACTORS
330
1A49
102
}
330
1A49
100
AcDbScale
 70
     0
300
1:8
140
1.0
141
8.0
290
     0
  0
SCALE
  5
1A4F
102
{ACAD_REACTORS
330
1A49
102
}
330
1A49
100
AcDbScale
 70
     0
300
1:10
140
1.0
141
10.0
290
     0
  0
SCALE
  5
1A50
102
{ACAD_REACTORS
330
1A49
102
}
330
1A49
100
AcDbScale
 70
     0
300
1:16
140
1.0
141
16.0
290
     0
  0
SCALE
  5
1A51
102
{ACAD_REACTORS
330
1A49
102
}
330
1A49
100
AcDbScale
 70
     0
300
1:20
140
1.0
141
20.0
290
     0
  0
SCALE
  5
1A52
102
{ACAD_REACTORS
330
1A49
102
}
330
1A49
100
AcDbScale
 70
     0
300
1:30
140
1.0
141
30.0
290
     0
  0
SCALE
  5
1A53
102
{ACAD_REACTORS
330
1A49
102
}
330
1A49
100
AcDbScale
 70
     0
300
1:40
140
1.0
141
40.0
290
     0
  0
SCALE
  5
1A54
102
{ACAD_REACTORS
330
1A49
102
}
330
1A49
100
AcDbScale
 70
     0
300
1:50
140
1.0
141
50.0
290
     0
  0
SCALE
  5
1A55
102
{ACAD_REACTORS
330
1A49
102
}
330
1A49
100
AcDbScale
 70
     0
300
1:100
140
1.0
141
100.0
290
     0
  0
SCALE
  5
1A56
102
{ACAD_REACTORS
330
1A49
102
}
330
1A49
100
AcDbScale
 70
     0
300
2:1
140
2.0
141
1.0
290
     0
  0
SCALE
  5
1A57
102
{ACAD_REACTORS
330
1A49
102
}
330
1A49
100
AcDbScale
 70
     0
300
4:1
140
4.0
141
1.0
290
     0
  0
SCALE
  5
1A58
102
{ACAD_REACTORS
330
1A49
102
}
330
1A49
100
AcDbScale
 70
     0
300
8:1
140
8.0
141
1.0
290
     0
  0
SCALE
  5
1A59
102
{ACAD_REACTORS
330
1A49
102
}
330
1A49
100
AcDbScale
 70
     0
300
10:1
140
10.0
141
1.0
290
     0
  0
SCALE
  5
1A5A
102
{ACAD_REACTORS
330
1A49
102
}
330
1A49
100
AcDbScale
 70
     0
300
100:1
140
100.0
141
1.0
290
     0
  0
TABLESTYLE
  5
179A
102
{ACAD_XDICTIONARY
360
1ABE
102
}
102
{ACAD_REACTORS
330
1799
102
}
330
1799
100
AcDbTableStyle
  3
Standard
 70
     0
 71
     0
 40
1.5
 41
1.5
280
     0
281
     0
  7
STANDARD
140
4.5
170
     2
 62
     0
 63
     7
283
     0
274
    -2
284
     1
 64
     0
275
    -2
285
     1
 65
     0
276
    -2
286
     1
 66
     0
277
    -2
287
     1
 67
     0
278
    -2
288
     1
 68
     0
279
    -2
289
     1
 69
     0
  7
STANDARD
140
6.0
170
     5
 62
     0
 63
     7
283
     0
274
    -2
284
     1
 64
     0
275
    -2
285
     1
 65
     0
276
    -2
286
     1
 66
     0
277
    -2
287
     1
 67
     0
278
    -2
288
     1
 68
     0
279
    -2
289
     1
 69
     0
  7
STANDARD
140
4.5
170
     5
 62
     0
 63
     7
283
     0
274
    -2
284
     1
 64
     0
275
    -2
285
     1
 65
     0
276
    -2
286
     1
 66
     0
277
    -2
287
     1
 67
     0
278
    -2
288
     1
 68
     0
279
    -2
289
     1
 69
     0
  0
VISUALSTYLE
  5
1A3E
102
{ACAD_REACTORS
330
1A38
102
}
330
1A38
100
AcDbVisualStyle
  2
2dWireframe
 70
     4
 71
     0
 72
     2
 73
     0
 90
        0
 40
-0.6
 41
-30.0
 62
     5
 63
     7
 74
     1
 91
        4
 64
     7
 65
   257
 75
     1
175
     1
 42
1.0
 92
        0
 66
   257
 43
1.0
 76
     1
 77
     6
 78
     2
 67
     7
 79
     5
170
     0
171
     0
290
     0
174
     0
 93
        1
 44
0.0
173
     0
291
     0
 45
0.0
1001
ACAD
1000
AcDbSavedByObjectVersion
1070
     0
  0
VISUALSTYLE
  5
1A40
102
{ACAD_REACTORS
330
1A38
102
}
330
1A38
100
AcDbVisualStyle
  2
3D Hidden
 70
     6
 71
     1
 72
     2
 73
     2
 90
        0
 40
-0.6
 41
-30.0
 62
     5
 63
     7
 74
     2
 91
        2
 64
     7
 65
   257
 75
     2
175
     1
 42
40.0
 92
        0
 66
   257
 43
1.0
 76
     1
 77
     6
 78
     2
 67
     7
 79
     3
170
     0
171
     0
290
     0
174
     0
 93
        1
 44
0.0
173
     0
291
     0
 45
0.0
1001
ACAD
1000
AcDbSavedByObjectVersion
1070
     0
  0
VISUALSTYLE
  5
1A3F
102
{ACAD_REACTORS
330
1A38
102
}
330
1A38
100
AcDbVisualStyle
  2
3dWireframe
 70
     5
 71
     0
 72
     2
 73
     0
 90
        0
 40
-0.6
 41
-30.0
 62
     5
 63
     7
 74
     1
 91
        4
 64
     7
 65
   257
 75
     1
175
     1
 42
1.0
 92
        0
 66
   257
 43
1.0
 76
     1
 77
     6
 78
     2
 67
     7
 79
     5
170
     0
171
     0
290
     0
174
     0
 93
        1
 44
0.0
173
     0
291
     0
 45
0.0
1001
ACAD
1000
AcDbSavedByObjectVersion
1070
     0
  0
VISUALSTYLE
  5
1A3D
102
{ACAD_REACTORS
330
1A38
102
}
330
1A38
100
AcDbVisualStyle
  2
Basic
 70
     7
 71
     1
 72
     0
 73
     1
 90
        0
 40
-0.6
 41
-30.0
 62
     5
 63
     7
 74
     0
 91
        4
 64
     7
 65
   257
 75
     1
175
     1
 42
1.0
 92
        8
 66
     7
 43
1.0
 76
     1
 77
     6
 78
     2
 67
     7
 79
     5
170
     0
171
     0
290
     0
174
     0
 93
        1
 44
0.0
173
     0
291
     1
 45
0.0
1001
ACAD
1000
AcDbSavedByObjectVersion
1070
     0
  0
VISUALSTYLE
  5
1A44
102
{ACAD_REACTORS
330
1A38
102
}
330
1A38
100
AcDbVisualStyle
  2
Brighten
 70
    12
 71
     2
 72
     2
 73
     0
 90
        0
 40
-0.6
 41
-30.0
 62
     5
 63
     7
 74
     1
 91
        4
 64
     7
 65
   257
 75
     1
175
     1
 42
1.0
 92
        8
 66
     7
 43
1.0
 76
     1
 77
     6
 78
     2
 67
     7
 79
     5
170
     0
171
     0
290
     0
174
     0
 93
        1
 44
50.0
173
     0
291
     1
 45
0.0
1001
ACAD
1000
AcDbSavedByObjectVersion
1070
     0
  0
VISUALSTYLE
  5
1A48
102
{ACAD_REACTORS
330
1A38
102
}
330
1A38
100
AcDbVisualStyle
  2
ColorChange
 70
    16
 71
     2
 72
     2
 73
     3
 90
        0
 40
-0.6
 41
-30.0
 62
     5
 63
     8
 74
     1
 91
        4
 64
     7
 65
   257
 75
     1
175
     1
 42
1.0
 92
        8
 66
     8
 43
1.0
 76
     1
 77
     6
 78
     2
 67
     7
 79
     5
170
     0
171
     0
290
     0
174
     0
 93
        1
 44
0.0
173
     0
291
     1
 45
0.0
1001
ACAD
1000
AcDbSavedByObjectVersion
1070
     0
  0
VISUALSTYLE
  5
1A41
102
{ACAD_REACTORS
330
1A38
102
}
330
1A38
100
AcDbVisualStyle
  2
Conceptual
 70
     9
 71
     3
 72
     2
 73
     0
 90
        0
 40
-0.6
 41
-30.0
 62
     5
 63
     7
 74
     2
 91
        2
 64
     7
 65
   257
 75
     1
175
     1
 42
40.0
 92
        8
 66
     7
 43
1.0
 76
     1
 77
     6
 78
     2
 67
     7
 79
     3
170
     0
171
     0
290
     0
174
     0
 93
        1
 44
0.0
173
     0
291
     0
 45
0.0
1001
ACAD
1000
AcDbSavedByObjectVersion
1070
     0
  0
VISUALSTYLE
  5
1A43
102
{ACAD_REACTORS
330
1A38
102
}
330
1A38
100
AcDbVisualStyle
  2
Dim
 70
    11
 71
     2
 72
     2
 73
     0
 90
        0
 40
-0.6
 41
-30.0
 62
     5
 63
     7
 74
     1
 91
        4
 64
     7
 65
   257
 75
     1
175
     1
 42
1.0
 92
        8
 66
     7
 43
1.0
 76
     1
 77
     6
 78
     2
 67
     7
 79
     5
170
     0
171
     0
290
     0
174
     0
 93
        1
 44
-50.0
173
     0
291
     1
 45
0.0
1001
ACAD
1000
AcDbSavedByObjectVersion
1070
     0
  0
VISUALSTYLE
  5
1A47
102
{ACAD_REACTORS
330
1A38
102
}
330
1A38
100
AcDbVisualStyle
  2
Facepattern
 70
    15
 71
     2
 72
     2
 73
     0
 90
        0
 40
-0.6
 41
-30.0
 62
     5
 63
     7
 74
     1
 91
        4
 64
     7
 65
   257
 75
     1
175
     1
 42
1.0
 92
        8
 66
     7
 43
1.0
 76
     1
 77
     6
 78
     2
 67
     7
 79
     5
170
     0
171
     0
290
     0
174
     0
 93
        1
 44
0.0
173
     0
291
     1
 45
0.0
1001
ACAD
1000
AcDbSavedByObjectVersion
1070
     0
  0
VISUALSTYLE
  5
1A39
102
{ACAD_REACTORS
330
1A38
102
}
330
1A38
100
AcDbVisualStyle
  2
Flat
 70
     0
 71
     2
 72
     1
 73
     1
 90
        2
 40
-0.6
 41
30.0
 62
     5
 63
     7
 74
     0
 91
        4
 64
     7
 65
   257
 75
     1
175
     1
 42
1.0
 92
        8
 66
     7
 43
1.0
 76
     1
 77
     6
 78
     2
 67
     7
 79
     5
170
     0
171
     0
290
     0
174
     0
 93
       13
 44
0.0
173
     0
291
     1
 45
0.0
1001
ACAD
1000
AcDbSavedByObjectVersion
1070
     0
  0
VISUALSTYLE
  5
1A3A
102
{ACAD_REACTORS
330
1A38
102
}
330
1A38
100
AcDbVisualStyle
  2
FlatWithEdges
 70
     1
 71
     2
 72
     1
 73
     1
 90
        2
 40
-0.6
 41
30.0
 62
     5
 63
     7
 74
     1
 91
        4
 64
     7
 65
   257
 75
     1
175
     1
 42
1.0
 92
        0
 66
   257
 43
1.0
 76
     1
 77
     6
 78
     2
 67
     7
 79
     5
170
     0
171
     0
290
     0
174
     0
 93
       13
 44
0.0
173
     0
291
     1
 45
0.0
1001
ACAD
1000
AcDbSavedByObjectVersion
1070
     0
  0
VISUALSTYLE
  5
1A3B
102
{ACAD_REACTORS
330
1A38
102
}
330
1A38
100
AcDbVisualStyle
  2
Gouraud
 70
     2
 71
     2
 72
     2
 73
     1
 90
        2
 40
-0.6
 41
30.0
 62
     5
 63
     7
 74
     0
 91
        4
 64
     7
 65
   257
 75
     1
175
     1
 42
1.0
 92
        0
 66
     7
 43
1.0
 76
     1
 77
     6
 78
     2
 67
     7
 79
     5
170
     0
171
     0
290
     0
174
     0
 93
       13
 44
0.0
173
     0
291
     1
 45
0.0
1001
ACAD
1000
AcDbSavedByObjectVersion
1070
     0
  0
VISUALSTYLE
  5
1A3C
102
{ACAD_REACTORS
330
1A38
102
}
330
1A38
100
AcDbVisualStyle
  2
GouraudWithEdges
 70
     3
 71
     2
 72
     2
 73
     1
 90
        2
 40
-0.6
 41
30.0
 62
     5
 63
     7
 74
     1
 91
        4
 64
     7
 65
   257
 75
     1
175
     1
 42
1.0
 92
        0
 66
   257
 43
1.0
 76
     1
 77
     6
 78
     2
 67
     7
 79
     5
170
     0
171
     0
290
     0
174
     0
 93
       13
 44
0.0
173
     0
291
     1
 45
0.0
1001
ACAD
1000
AcDbSavedByObjectVersion
1070
     0
  0
VISUALSTYLE
  5
1A46
102
{ACAD_REACTORS
330
1A38
102
}
330
1A38
100
AcDbVisualStyle
  2
Linepattern
 70
    14
 71
     2
 72
     2
 73
     0
 90
        0
 40
-0.6
 41
-30.0
 62
     5
 63
     7
 74
     1
 91
        4
 64
     7
 65
   257
 75
     7
175
     7
 42
1.0
 92
        8
 66
     7
 43
1.0
 76
     1
 77
     6
 78
     2
 67
     7
 79
     5
170
     0
171
     0
290
     0
174
     0
 93
        1
 44
0.0
173
     0
291
     1
 45
0.0
1001
ACAD
1000
AcDbSavedByObjectVersion
1070
     0
  0
VISUALSTYLE
  5
1A42
102
{ACAD_REACTORS
330
1A38
102
}
330
1A38
100
AcDbVisualStyle
  2
Realistic
 70
     8
 71
     2
 72
     2
 73
     0
 90
        0
 40
-0.6
 41
-30.0
 62
     5
 63
     7
 74
     1
 91
        0
 64
     7
 65
   257
 75
     1
175
     1
 42
1.0
 92
        8
 66
     8
 43
1.0
 76
     1
 77
     6
 78
     2
 67
     7
 79
     5
170
     0
171
     0
290
     0
174
     0
 93
       13
 44
0.0
173
     0
291
     0
 45
0.0
1001
ACAD
1000
AcDbSavedByObjectVersion
1070
     0
  0
VISUALSTYLE
  5
1A45
102
{ACAD_REACTORS
330
1A38
102
}
330
1A38
100
AcDbVisualStyle
  2
Thicken
 70
    13
 71
     2
 72
     2
 73
     0
 90
        0
 40
-0.6
 41
-30.0
 62
     5
 63
     7
 74
     1
 91
        4
 64
     7
 65
   257
 75
     1
175
     1
 42
1.0
 92
       12
 66
     7
 43
1.0
 76
     1
 77
     6
 78
     2
 67
     7
 79
     5
170
     0
171
     0
290
     0
174
     0
 93
        1
 44
0.0
173
     0
291
     1
 45
0.0
1001
ACAD
1000
AcDbSavedByObjectVersion
1070
     0
  0
DICTIONARYVAR
  5
1AD9
102
{ACAD_REACTORS
330
94
102
}
330
94
100
DictionaryVariables
280
     0
  1
1:1
  0
DICTIONARYVAR
  5
1AD8
102
{ACAD_REACTORS
330
94
102
}
330
94
100
DictionaryVariables
280
     0
  1
STANDARD
  0
DICTIONARYVAR
  5
19A4
102
{ACAD_REACTORS
330
94
102
}
330
94
100
DictionaryVariables
280
     0
  1
STANDARD
  0
DICTIONARYVAR
  5
96
102
{ACAD_REACTORS
330
94
102
}
330
94
100
DictionaryVariables
280
     0
  1
1
  0
DICTIONARYVAR
  5
95
102
{ACAD_REACTORS
330
94
102
}
330
94
100
DictionaryVariables
280
     0
  1
0
  0
DICTIONARYVAR
  5
1B8D
102
{ACAD_REACTORS
330
94
102
}
330
94
100
DictionaryVariables
280
     0
  1
127
  0
DICTIONARY
  5
5AE
102
{ACAD_REACTORS
330
5B
102
}
330
5B
100
AcDbDictionary
281
     1
  0
DICTIONARY
  5
61
102
{ACAD_REACTORS
330
5B
102
}
330
5B
100
AcDbDictionary
281
     1
  0
XRECORD
  5
17B7
102
{ACAD_REACTORS
330
5B
102
}
330
5B
100
AcDbXrecord
280
     1
 90
-1023410169
  0
XRECORD
  5
19A2
102
{ACAD_REACTORS
330
19A0
102
}
330
19A0
100
AcDbXrecord
280
     1
330
9EF
330
9F1
330
1875
330
1876
330
187E
330
187F
330
19FA
330
19FB
330
1A05
330
1A06
330
1A0E
330
1A0F
330
1A17
330
1A18
  0
XRECORD
  5
35F
102
{ACAD_REACTORS
330
35E
102
}
330
35E
100
AcDbXrecord
280
     1
 91
       16
330
0
 90
        8
 62
    91
370
    15
331
64
  1
色_91
330
0
 90
        8
 62
    91
370
    25
331
16
  1
色_91
330
0
 90
        8
 62
    51
370
    15
331
64
  1
色_51
330
0
 90
        8
 62
    51
370
    25
331
16
  1
色_51
330
0
 90
        8
 62
     7
370
    15
331
64
  1
色_7
330
1FA
 90
        8
 62
     7
370
    25
331
16
  1
色_7
330
206
 90
        8
 62
     1
370
    -3
331
16
  1
色_1
330
0
 90
        8
 62
     1
370
    -3
331
16
  1
色_1
330
1E1
 90
        0
 62
     7
370
    -3
331
16
  1
色_7
330
343
 90
        8
 62
     1
370
    25
331
67
  1
色_1
330
33B
 90
        8
 62
     4
370
    25
331
65
  1
色_4
330
307
 90
        8
 62
     3
370
    20
331
16
  1
色_3
330
22C
 90
        8
 62
     4
370
    -3
331
203
  1
色_4
330
10
 90
        8
 62
     7
370
    -3
331
16
  1
色_7
  0
DICTIONARY
  5
1B92
330
22
100
AcDbDictionary
280
     1
281
     1
  3
ACAD_XREC_ROUNDTRIP
360
1B93
  0
DICTIONARY
  5
1B90
330
1E
100
AcDbDictionary
280
     1
281
     1
  3
ACAD_XREC_ROUNDTRIP
360
1B91
  0
DICTIONARY
  5
1B94
330
26
100
AcDbDictionary
280
     1
281
     1
  3
ACAD_XREC_ROUNDTRIP
360
1B95
  0
DICTIONARY
  5
1A29
330
1A28
100
AcDbDictionary
280
     1
281
     1
  3
ACAD_XREC_ROUNDTRIP
360
1B9C
  3
BUMPTILE
360
1A2B
  3
DIFFUSETILE
360
1A2A
  3
OPACITYTILE
360
1A2E
  3
REFLECTIONTILE
360
1A2D
  3
REFRACTIONTILE
360
1A2F
  3
SPECULARTILE
360
1A2C
  0
DICTIONARY
  5
1A21
330
1A20
100
AcDbDictionary
280
     1
281
     1
  3
ACAD_XREC_ROUNDTRIP
360
1B9B
  3
BUMPTILE
360
1A23
  3
DIFFUSETILE
360
1A22
  3
OPACITYTILE
360
1A26
  3
REFLECTIONTILE
360
1A25
  3
REFRACTIONTILE
360
1A27
  3
SPECULARTILE
360
1A24
  0
DICTIONARY
  5
1A31
330
1A30
100
AcDbDictionary
280
     1
281
     1
  3
ACAD_XREC_ROUNDTRIP
360
1B9D
  3
BUMPTILE
360
1A33
  3
DIFFUSETILE
360
1A32
  3
OPACITYTILE
360
1A36
  3
REFLECTIONTILE
360
1A35
  3
REFRACTIONTILE
360
1A37
  3
SPECULARTILE
360
1A34
  0
DICTIONARY
  5
1ABE
330
179A
100
AcDbDictionary
280
     1
281
     1
  3
ACAD_ROUNDTRIP_2008_TABLESTYLE_CELLSTYLEMAP
360
1B8E
  3
ACAD_XREC_ROUNDTRIP
360
1B9A
  0
XRECORD
  5
1B93
102
{ACAD_REACTORS
330
1B92
102
}
330
1B92
100
AcDbXrecord
280
     1
102
SHADEPLOT
 70
     0
102
SHADEPLOTRESLEVEL
 70
     2
102
SHADEPLOTCUSTOMDPI
 70
   300
  0
XRECORD
  5
1B91
102
{ACAD_REACTORS
330
1B90
102
}
330
1B90
100
AcDbXrecord
280
     1
102
SHADEPLOT
 70
     1
102
SHADEPLOTRESLEVEL
 70
     2
102
SHADEPLOTCUSTOMDPI
 70
   300
  0
XRECORD
  5
1B95
102
{ACAD_REACTORS
330
1B94
102
}
330
1B94
100
AcDbXrecord
280
     1
102
SHADEPLOT
 70
     1
102
SHADEPLOTRESLEVEL
 70
     2
102
SHADEPLOTCUSTOMDPI
 70
   300
  0
XRECORD
  5
1B9C
102
{ACAD_REACTORS
330
1A29
102
}
330
1A29
100
AcDbXrecord
280
     1
102
MATERIAL
148
0.0
149
0.0
149
0.0
 93
        0
 94
      127
282
     0
 72
     0
 77
     0
171
     0
175
     0
179
     0
273
     0
  0
XRECORD
  5
1A2B
102
{ACAD_REACTORS
330
1A29
102
}
330
1A29
100
AcDbXrecord
280
     1
270
     1
271
     1
  0
XRECORD
  5
1A2A
102
{ACAD_REACTORS
330
1A29
102
}
330
1A29
100
AcDbXrecord
280
     1
270
     1
271
     1
  0
XRECORD
  5
1A2E
102
{ACAD_REACTORS
330
1A29
102
}
330
1A29
100
AcDbXrecord
280
     1
270
     1
271
     1
  0
XRECORD
  5
1A2D
102
{ACAD_REACTORS
330
1A29
102
}
330
1A29
100
AcDbXrecord
280
     1
270
     1
271
     1
  0
XRECORD
  5
1A2F
102
{ACAD_REACTORS
330
1A29
102
}
330
1A29
100
AcDbXrecord
280
     1
270
     1
271
     1
  0
XRECORD
  5
1A2C
102
{ACAD_REACTORS
330
1A29
102
}
330
1A29
100
AcDbXrecord
280
     1
270
     1
271
     1
  0
XRECORD
  5
1B9B
102
{ACAD_REACTORS
330
1A21
102
}
330
1A21
100
AcDbXrecord
280
     1
102
MATERIAL
148
0.0
149
0.0
149
0.0
 93
        0
 94
      127
282
     0
 72
     0
 77
     0
171
     0
175
     0
179
     0
273
     0
  0
XRECORD
  5
1A23
102
{ACAD_REACTORS
330
1A21
102
}
330
1A21
100
AcDbXrecord
280
     1
270
     1
271
     1
  0
XRECORD
  5
1A22
102
{ACAD_REACTORS
330
1A21
102
}
330
1A21
100
AcDbXrecord
280
     1
270
     1
271
     1
  0
XRECORD
  5
1A26
102
{ACAD_REACTORS
330
1A21
102
}
330
1A21
100
AcDbXrecord
280
     1
270
     1
271
     1
  0
XRECORD
  5
1A25
102
{ACAD_REACTORS
330
1A21
102
}
330
1A21
100
AcDbXrecord
280
     1
270
     1
271
     1
  0
XRECORD
  5
1A27
102
{ACAD_REACTORS
330
1A21
102
}
330
1A21
100
AcDbXrecord
280
     1
270
     1
271
     1
  0
XRECORD
  5
1A24
102
{ACAD_REACTORS
330
1A21
102
}
330
1A21
100
AcDbXrecord
280
     1
270
     1
271
     1
  0
XRECORD
  5
1B9D
102
{ACAD_REACTORS
330
1A31
102
}
330
1A31
100
AcDbXrecord
280
     1
102
MATERIAL
148
0.0
149
0.0
149
0.0
 93
        0
 94
      127
282
     0
 72
     0
 77
     0
171
     0
175
     0
179
     0
273
     0
  0
XRECORD
  5
1A33
102
{ACAD_REACTORS
330
1A31
102
}
330
1A31
100
AcDbXrecord
280
     1
270
     1
271
     1
  0
XRECORD
  5
1A32
102
{ACAD_REACTORS
330
1A31
102
}
330
1A31
100
AcDbXrecord
280
     1
270
     1
271
     1
  0
XRECORD
  5
1A36
102
{ACAD_REACTORS
330
1A31
102
}
330
1A31
100
AcDbXrecord
280
     1
270
     1
271
     1
  0
XRECORD
  5
1A35
102
{ACAD_REACTORS
330
1A31
102
}
330
1A31
100
AcDbXrecord
280
     1
270
     1
271
     1
  0
XRECORD
  5
1A37
102
{ACAD_REACTORS
330
1A31
102
}
330
1A31
100
AcDbXrecord
280
     1
270
     1
271
     1
  0
XRECORD
  5
1A34
102
{ACAD_REACTORS
330
1A31
102
}
330
1A31
100
AcDbXrecord
280
     1
270
     1
271
     1
  0
CELLSTYLEMAP
  5
1B8E
102
{ACAD_REACTORS
330
1ABE
102
}
330
1ABE
100
AcDbCellStyleMap
 90
        3
300
CELLSTYLE
  1
TABLEFORMAT_BEGIN
 90
        5
170
     1
 91
        0
 92
    32768
 62
   257
 93
        1
300
CONTENTFORMAT
  1
CONTENTFORMAT_BEGIN
 90
        0
 91
        0
 92
        4
 93
        0
300

 40
0.0
140
1.0
 94
        5
 62
     0
340
11
144
6.0
309
CONTENTFORMAT_END
171
     1
301
MARGIN
  1
CELLMARGIN_BEGIN
 40
1.5
 40
1.5
 40
1.5
 40
1.5
 40
0.18
 40
0.18
309
CELLMARGIN_END
 94
        6
 95
        1
302
GRIDFORMAT
  1
GRIDFORMAT_BEGIN
 90
        0
 91
        1
 62
     0
 92
       -2
340
0
 93
        0
 40
0.045
309
GRIDFORMAT_END
 95
        2
302
GRIDFORMAT
  1
GRIDFORMAT_BEGIN
 90
        0
 91
        1
 62
     0
 92
       -2
340
0
 93
        0
 40
0.045
309
GRIDFORMAT_END
 95
        4
302
GRIDFORMAT
  1
GRIDFORMAT_BEGIN
 90
        0
 91
        1
 62
     0
 92
       -2
340
0
 93
        0
 40
0.045
309
GRIDFORMAT_END
 95
        8
302
GRIDFORMAT
  1
GRIDFORMAT_BEGIN
 90
        0
 91
        1
 62
     0
 92
       -2
340
0
 93
        0
 40
0.045
309
GRIDFORMAT_END
 95
       16
302
GRIDFORMAT
  1
GRIDFORMAT_BEGIN
 90
        0
 91
        1
 62
     0
 92
       -2
340
0
 93
        0
 40
0.045
309
GRIDFORMAT_END
 95
       32
302
GRIDFORMAT
  1
GRIDFORMAT_BEGIN
 90
        0
 91
        1
 62
     0
 92
       -2
340
0
 93
        0
 40
0.045
309
GRIDFORMAT_END
309
TABLEFORMAT_END
  1
CELLSTYLE_BEGIN
 90
        1
 91
        1
300
_TITLE
309
CELLSTYLE_END
300
CELLSTYLE
  1
TABLEFORMAT_BEGIN
 90
        5
170
     1
 91
        0
 92
        0
 62
   257
 93
        1
300
CONTENTFORMAT
  1
CONTENTFORMAT_BEGIN
 90
        0
 91
        0
 92
        4
 93
        0
300

 40
0.0
140
1.0
 94
        5
 62
     0
340
11
144
4.5
309
CONTENTFORMAT_END
171
     1
301
MARGIN
  1
CELLMARGIN_BEGIN
 40
1.5
 40
1.5
 40
1.5
 40
1.5
 40
0.18
 40
0.18
309
CELLMARGIN_END
 94
        6
 95
        1
302
GRIDFORMAT
  1
GRIDFORMAT_BEGIN
 90
        0
 91
        1
 62
     0
 92
       -2
340
0
 93
        0
 40
0.045
309
GRIDFORMAT_END
 95
        2
302
GRIDFORMAT
  1
GRIDFORMAT_BEGIN
 90
        0
 91
        1
 62
     0
 92
       -2
340
0
 93
        0
 40
0.045
309
GRIDFORMAT_END
 95
        4
302
GRIDFORMAT
  1
GRIDFORMAT_BEGIN
 90
        0
 91
        1
 62
     0
 92
       -2
340
0
 93
        0
 40
0.045
309
GRIDFORMAT_END
 95
        8
302
GRIDFORMAT
  1
GRIDFORMAT_BEGIN
 90
        0
 91
        1
 62
     0
 92
       -2
340
0
 93
        0
 40
0.045
309
GRIDFORMAT_END
 95
       16
302
GRIDFORMAT
  1
GRIDFORMAT_BEGIN
 90
        0
 91
        1
 62
     0
 92
       -2
340
0
 93
        0
 40
0.045
309
GRIDFORMAT_END
 95
       32
302
GRIDFORMAT
  1
GRIDFORMAT_BEGIN
 90
        0
 91
        1
 62
     0
 92
       -2
340
0
 93
        0
 40
0.045
309
GRIDFORMAT_END
309
TABLEFORMAT_END
  1
CELLSTYLE_BEGIN
 90
        2
 91
        1
300
_HEADER
309
CELLSTYLE_END
300
CELLSTYLE
  1
TABLEFORMAT_BEGIN
 90
        5
170
     1
 91
        0
 92
        0
 62
   257
 93
        1
300
CONTENTFORMAT
  1
CONTENTFORMAT_BEGIN
 90
        0
 91
        0
 92
        4
 93
        0
300

 40
0.0
140
1.0
 94
        2
 62
     0
340
11
144
4.5
309
CONTENTFORMAT_END
171
     1
301
MARGIN
  1
CELLMARGIN_BEGIN
 40
1.5
 40
1.5
 40
1.5
 40
1.5
 40
0.18
 40
0.18
309
CELLMARGIN_END
 94
        6
 95
        1
302
GRIDFORMAT
  1
GRIDFORMAT_BEGIN
 90
        0
 91
        1
 62
     0
 92
       -2
340
0
 93
        0
 40
0.045
309
GRIDFORMAT_END
 95
        2
302
GRIDFORMAT
  1
GRIDFORMAT_BEGIN
 90
        0
 91
        1
 62
     0
 92
       -2
340
0
 93
        0
 40
0.045
309
GRIDFORMAT_END
 95
        4
302
GRIDFORMAT
  1
GRIDFORMAT_BEGIN
 90
        0
 91
        1
 62
     0
 92
       -2
340
0
 93
        0
 40
0.045
309
GRIDFORMAT_END
 95
        8
302
GRIDFORMAT
  1
GRIDFORMAT_BEGIN
 90
        0
 91
        1
 62
     0
 92
       -2
340
0
 93
        0
 40
0.045
309
GRIDFORMAT_END
 95
       16
302
GRIDFORMAT
  1
GRIDFORMAT_BEGIN
 90
        0
 91
        1
 62
     0
 92
       -2
340
0
 93
        0
 40
0.045
309
GRIDFORMAT_END
 95
       32
302
GRIDFORMAT
  1
GRIDFORMAT_BEGIN
 90
        0
 91
        1
 62
     0
 92
       -2
340
0
 93
        0
 40
0.045
309
GRIDFORMAT_END
309
TABLEFORMAT_END
  1
CELLSTYLE_BEGIN
 90
        3
 91
        2
300
_DATA
309
CELLSTYLE_END
  0
XRECORD
  5
1B9A
102
{ACAD_REACTORS
330
1ABE
102
}
330
1ABE
100
AcDbXrecord
280
     1
102
ACAD_ROUNDTRIP_PRE2007_TABLESTYLE
 90
        4
 91
        0
  1

 92
        4
 93
        0
  2

 94
        4
 95
        0
  3

  0
ENDSEC
  0
EOF
