  0
SECTION
  2
HEADER
  9
$ACADVER
  1
AC1015
  9
$ACADMAINTVER
 70
    20
  9
$DWGCODEPAGE
  3
ANSI_932
  9
$INSBASE
 10
0.0
 20
0.0
 30
0.0
  9
$EXTMIN
 10
10.0
 20
9.999999999999893
 30
0.0
  9
$EXTMAX
 10
816.0000000000001
 20
570.0000000000001
 30
0.0
  9
$LIMMIN
 10
10.0
 20
10.0
  9
$LIMMAX
 10
816.0
 20
570.0000000000001
  9
$ORTHOMODE
 70
     0
  9
$REGENMODE
 70
     1
  9
$FILLMODE
 70
     1
  9
$QTEXTMODE
 70
     0
  9
$MIRRTEXT
 70
     1
  9
$LTSCALE
 40
2.0
  9
$ATTMODE
 70
     1
  9
$TEXTSIZE
 40
2.5
  9
$TRACEWID
 40
0.05
  9
$TEXTSTYLE
  7
takachi1
  9
$CLAYER
  8
0
  9
$CELTYPE
  6
ByLayer
  9
$CECOLOR
 62
   256
  9
$CELTSCALE
 40
1.0
  9
$DISPSILH
 70
     0
  9
$DIMSCALE
 40
1.0
  9
$DIMASZ
 40
3.5
  9
$DIMEXO
 40
1.0
  9
$DIMDLI
 40
10.0
  9
$DIMRND
 40
0.0
  9
$DIMDLE
 40
0.0
  9
$DIMEXE
 40
1.0
  9
$DIMTP
 40
0.1
  9
$DIMTM
 40
0.1
  9
$DIMTXT
 40
3.5
  9
$DIMCEN
 40
0.0
  9
$DIMTSZ
 40
0.0
  9
$DIMTOL
 70
     0
  9
$DIMLIM
 70
     0
  9
$DIMTIH
 70
     0
  9
$DIMTOH
 70
     0
  9
$DIMSE1
 70
     0
  9
$DIMSE2
 70
     0
  9
$DIMTAD
 70
     1
  9
$DIMZIN
 70
     8
  9
$DIMBLK
  1

  9
$DIMASO
 70
     1
  9
$DIMSHO
 70
     1
  9
$DIMPOST
  1

  9
$DIMAPOST
  1
"
  9
$DIMALT
 70
     0
  9
$DIMALTD
 70
     2
  9
$DIMALTF
 40
0.0393701
  9
$DIMLFAC
 40
1.0
  9
$DIMTOFL
 70
     1
  9
$DIMTVP
 40
0.0
  9
$DIMTIX
 70
     0
  9
$DIMSOXD
 70
     0
  9
$DIMSAH
 70
     0
  9
$DIMBLK1
  1

  9
$DIMBLK2
  1

  9
$DIMSTYLE
  2
AM_ISO
  9
$DIMCLRD
 70
   256
  9
$DIMCLRE
 70
   256
  9
$DIMCLRT
 70
     2
  9
$DIMTFAC
 40
0.71
  9
$DIMGAP
 40
1.5
  9
$DIMJUST
 70
     0
  9
$DIMSD1
 70
     0
  9
$DIMSD2
 70
     0
  9
$DIMTOLJ
 70
     0
  9
$DIMTZIN
 70
     8
  9
$DIMALTZ
 70
     0
  9
$DIMALTTZ
 70
     0
  9
$DIMUPT
 70
     0
  9
$DIMDEC
 70
     2
  9
$DIMTDEC
 70
     3
  9
$DIMALTU
 70
     2
  9
$DIMALTTD
 70
     4
  9
$DIMTXSTY
  7
STANDARD
  9
$DIMAUNIT
 70
     0
  9
$DIMADEC
 70
     0
  9
$DIMALTRND
 40
0.0
  9
$DIMAZIN
 70
     2
  9
$DIMDSEP
 70
    46
  9
$DIMATFIT
 70
     3
  9
$DIMFRAC
 70
     0
  9
$DIMLDRBLK
  1

  9
$DIMLUNIT
 70
     2
  9
$DIMLWD
 70
    -1
  9
$DIMLWE
 70
    -1
  9
$DIMTMOVE
 70
     0
  9
$LUNITS
 70
     2
  9
$LUPREC
 70
     2
  9
$SKETCHINC
 40
0.1
  9
$FILLETRAD
 40
5.0
  9
$AUNITS
 70
     0
  9
$AUPREC
 70
     0
  9
$MENU
  1
.
  9
$ELEVATION
 40
0.0
  9
$PELEVATION
 40
0.0
  9
$THICKNESS
 40
0.0
  9
$LIMCHECK
 70
     0
  9
$CHAMFERA
 40
5.0
  9
$CHAMFERB
 40
5.0
  9
$CHAMFERC
 40
1.0
  9
$CHAMFERD
 40
0.0
  9
$SKPOLY
 70
     0
  9
$TDCREATE
 40
2454550.581193750
  9
$TDUCREATE
 40
2454550.206193750
  9
$TDUPDATE
 40
2455491.558296621
  9
$TDUUPDATE
 40
2455491.183296620
  9
$TDINDWG
 40
0.0999544444
  9
$TDUSRTIMER
 40
0.0999544444
  9
$USRTIMER
 70
     1
  9
$ANGBASE
 50
0.0
  9
$ANGDIR
 70
     0
  9
$PDMODE
 70
     0
  9
$PDSIZE
 40
0.0
  9
$PLINEWID
 40
0.0
  9
$SPLFRAME
 70
     0
  9
$SPLINETYPE
 70
     6
  9
$SPLINESEGS
 70
     8
  9
$HANDSEED
  5
1E14
  9
$SURFTAB1
 70
     6
  9
$SURFTAB2
 70
     6
  9
$SURFTYPE
 70
     6
  9
$SURFU
 70
     6
  9
$SURFV
 70
     6
  9
$UCSBASE
  2

  9
$UCSNAME
  2

  9
$UCSORG
 10
0.0
 20
0.0
 30
0.0
  9
$UCSXDIR
 10
1.0
 20
0.0
 30
0.0
  9
$UCSYDIR
 10
0.0
 20
1.0
 30
0.0
  9
$UCSORTHOREF
  2

  9
$UCSORTHOVIEW
 70
     0
  9
$UCSORGTOP
 10
0.0
 20
0.0
 30
0.0
  9
$UCSORGBOTTOM
 10
0.0
 20
0.0
 30
0.0
  9
$UCSORGLEFT
 10
0.0
 20
0.0
 30
0.0
  9
$UCSORGRIGHT
 10
0.0
 20
0.0
 30
0.0
  9
$UCSORGFRONT
 10
0.0
 20
0.0
 30
0.0
  9
$UCSORGBACK
 10
0.0
 20
0.0
 30
0.0
  9
$PUCSBASE
  2

  9
$PUCSNAME
  2

  9
$PUCSORG
 10
0.0
 20
0.0
 30
0.0
  9
$PUCSXDIR
 10
1.0
 20
0.0
 30
0.0
  9
$PUCSYDIR
 10
0.0
 20
1.0
 30
0.0
  9
$PUCSORTHOREF
  2

  9
$PUCSORTHOVIEW
 70
     0
  9
$PUCSORGTOP
 10
0.0
 20
0.0
 30
0.0
  9
$PUCSORGBOTTOM
 10
0.0
 20
0.0
 30
0.0
  9
$PUCSORGLEFT
 10
0.0
 20
0.0
 30
0.0
  9
$PUCSORGRIGHT
 10
0.0
 20
0.0
 30
0.0
  9
$PUCSORGFRONT
 10
0.0
 20
0.0
 30
0.0
  9
$PUCSORGBACK
 10
0.0
 20
0.0
 30
0.0
  9
$USERI1
 70
     0
  9
$USERI2
 70
     0
  9
$USERI3
 70
     0
  9
$USERI4
 70
     0
  9
$USERI5
 70
     0
  9
$USERR1
 40
0.0
  9
$USERR2
 40
0.0
  9
$USERR3
 40
0.0
  9
$USERR4
 40
0.0
  9
$USERR5
 40
0.0
  9
$WORLDVIEW
 70
     1
  9
$SHADEDGE
 70
     3
  9
$SHADEDIF
 70
    70
  9
$TILEMODE
 70
     1
  9
$MAXACTVP
 70
    64
  9
$PINSBASE
 10
0.0
 20
0.0
 30
0.0
  9
$PLIMCHECK
 70
     0
  9
$PEXTMIN
 10
1.000000000000000E+20
 20
1.000000000000000E+20
 30
1.000000000000000E+20
  9
$PEXTMAX
 10
-1.000000000000000E+20
 20
-1.000000000000000E+20
 30
-1.000000000000000E+20
  9
$PLIMMIN
 10
-0.2500002402958907
 20
-0.2499999962453767
  9
$PLIMMAX
 10
10.74999951940821
 20
8.249999763458731
  9
$UNITMODE
 70
     0
  9
$VISRETAIN
 70
     1
  9
$PLINEGEN
 70
     0
  9
$PSLTSCALE
 70
     1
  9
$TREEDEPTH
 70
  3020
  9
$CMLSTYLE
  2
Standard
  9
$CMLJUST
 70
     0
  9
$CMLSCALE
 40
1.0
  9
$PROXYGRAPHICS
 70
     1
  9
$MEASUREMENT
 70
     1
  9
$CELWEIGHT
370
    -1
  9
$ENDCAPS
280
     0
  9
$JOINSTYLE
280
     0
  9
$LWDISPLAY
290
     0
  9
$INSUNITS
 70
     4
  9
$HYPERLINKBASE
  1

  9
$STYLESHEET
  1
takachi-2.ctb
  9
$XEDIT
290
     1
  9
$CEPSNTYPE
380
     0
  9
$PSTYLEMODE
290
     1
  9
$FINGERPRINTGUID
  2
{FDEAD576-A652-11D2-9A35-0060089B3A3F}
  9
$VERSIONGUID
  2
{10F98F57-3913-4CBB-8243-2EACAFA9AB17}
  9
$EXTNAMES
290
     1
  9
$PSVPSCALE
 40
0.0
  9
$OLESTARTUP
290
     0
  0
ENDSEC
  0
SECTION
  2
CLASSES
  0
CLASS
  1
ACDBDICTIONARYWDFLT
  2
AcDbDictionaryWithDefault
  3
ObjectDBX Classes
 90
        0
280
     0
281
     0
  0
CLASS
  1
ACDBPLACEHOLDER
  2
AcDbPlaceHolder
  3
ObjectDBX Classes
 90
        0
280
     0
281
     0
  0
CLASS
  1
LAYOUT
  2
AcDbLayout
  3
ObjectDBX Classes
 90
        0
280
     0
281
     0
  0
CLASS
  1
ACME_DOCUMENT
  2
AcMeDbDoc
  3
AcMeServices
 90
     1024
280
     0
281
     0
  0
CLASS
  1
AMGSETTINGSOBJ
  2
AmgSettingsObj
  3
"AcadM|Product Description: AutoCAD Mechanical|Company: Autodesk, Inc."
 90
     1024
280
     0
281
     0
  0
CLASS
  1
ACMESCOPE
  2
AcMeScope
  3
AcMeServices
 90
     1024
280
     0
281
     0
  0
CLASS
  1
ACMECOMMANDHISTORY
  2
AcMeCommandHistory
  3
AcMeServices
 90
     1024
280
     0
281
     0
  0
CLASS
  1
ACIMSYSVARMAN
  2
AcImSysVarManager
  3
AcMeServices
 90
     1024
280
     0
281
     0
  0
CLASS
  1
ACIMREALSYSVAR
  2
AcImRealSysVar
  3
AcMeServices
 90
     1024
280
     0
281
     0
  0
CLASS
  1
ACIMINTSYSVAR
  2
AcImIntSysVar
  3
AcMeServices
 90
     1024
280
     0
281
     0
  0
CLASS
  1
ACMEDRAWINGMAN
  2
AcMeDrawingMan
  3
AcMeServices
 90
     1024
280
     0
281
     0
  0
CLASS
  1
ACMEVIEW
  2
AcMeView
  3
AcMeServices
 90
     1024
280
     0
281
     0
  0
CLASS
  1
ACDBENTITYCACHE
  2
AcMeEntityCache
  3
AcMeServices
 90
     1024
280
     0
281
     0
  0
CLASS
  1
GSMANAGER
  2
AcMeGSManager
  3
AcMeServices
 90
     1024
280
     0
281
     0
  0
CLASS
  1
AMDTINTERNALREACTOR
  2
AmdtInternalReactor
  3
AcMeServices
 90
     1024
280
     0
281
     0
  0
CLASS
  1
ACMESTATEMGR
  2
AcMeStateMgr
  3
AcMeServices
 90
     1024
280
     0
281
     0
  0
CLASS
  1
ACGREFMASTER
  2
AcGrefMaster
  3
AcAttribServices
 90
     1024
280
     0
281
     0
  0
CLASS
  1
ACME_DATABASE
  2
AcMeDbDatabase
  3
AcMeServices
 90
     1024
280
     0
281
     0
  0
CLASS
  1
ACRFINSADJUSTERMGR
  2
AcRfInsAdjusterMgr
  3
AcMeServices
 90
     1024
280
     0
281
     0
  0
CLASS
  1
ACGREFACADMASTER
  2
AcGrefacadMaster
  3
AcGrefServices
 90
     1024
280
     0
281
     0
  0
CLASS
  1
AMIMASTER
  2
AmiMaster
  3
AmiServices
 90
     1024
280
     0
281
     0
  0
CLASS
  1
ACMDATADICTIONARY
  2
AcmDataDictionary
  3
"AcmSymBB|Product Description: AutoCAD Mechanical|Company: Autodesk, Inc."
 90
     1024
280
     0
281
     0
  0
CLASS
  1
ACMDATAENTRYBLOCK
  2
AcmDataEntryBlock
  3
AcmSymBB|Product Description: AutoCAD Mechanical|Company: Autodesk, Inc.
 90
    33792
280
     0
281
     0
  0
CLASS
  1
ACIMSTRSYSVAR
  2
AcImStrSysVar
  3
AcMeServices
 90
     1024
280
     0
281
     0
  0
CLASS
  1
ACMSTANDARDANSI
  2
AcmStandardANSI
  3
"Amdt_StdImp|Product Description: AutoCAD Mechanical|Company: Autodesk, Inc."
 90
    33792
280
     0
281
     0
  0
CLASS
  1
AMGOBJPROPCFG
  2
AmgObjPropCfg
  3
"AmgLay|Product Description: AutoCAD Mechanical|Company: Autodesk, Inc."
 90
     1025
280
     0
281
     0
  0
CLASS
  1
ACMSURFSTANDARDANSI
  2
AcmSurfTextStdANSI
  3
"Amdt_StdImp|Product Description: AutoCAD Mechanical|Company: Autodesk, Inc."
 90
    33792
280
     0
281
     0
  0
CLASS
  1
ACMFCFSTANDARDANSI
  2
AcmFCFStdANSI
  3
"Amdt_StdImp|Product Description: AutoCAD Mechanical|Company: Autodesk, Inc."
 90
    33792
280
     0
281
     0
  0
CLASS
  1
ACMWELDSTANDARDANSI
  2
AcmWeldingStdANSI
  3
"Amdt_StdImp|Product Description: AutoCAD Mechanical|Company: Autodesk, Inc."
 90
    33792
280
     0
281
     0
  0
CLASS
  1
ACMIDSTANDARDANSI
  2
AcmIdStdANSI
  3
"Amdt_StdImp|Product Description: AutoCAD Mechanical|Company: Autodesk, Inc."
 90
    33792
280
     0
281
     0
  0
CLASS
  1
ACMDATUMSTANDARDANSI
  2
AcmDatumStdANSI
  3
"Amdt_StdImp|Product Description: AutoCAD Mechanical|Company: Autodesk, Inc."
 90
    33792
280
     0
281
     0
  0
CLASS
  1
ACMBOMSTANDARDANSI
  2
AcmBOMStdANSI
  3
"Amdt_StdImp|Product Description: AutoCAD Mechanical|Company: Autodesk, Inc."
 90
    33792
280
     0
281
     0
  0
CLASS
  1
ACMDETAILSTANDARDANSI
  2
AmdtDetailSymStdANSI
  3
"Amdt_StdImp|Product Description: AutoCAD Mechanical|Company: Autodesk, Inc."
 90
    33792
280
     0
281
     0
  0
CLASS
  1
ACMSECTIONSTANDARDANSI
  2
AmdtSectionSymStdANSI
  3
"Amdt_StdImp|Product Description: AutoCAD Mechanical|Company: Autodesk, Inc."
 90
    33792
280
     0
281
     0
  0
CLASS
  1
ACMCENTERLINESTANDARDANSI
  2
AmdtCenterLineStdANSI
  3
"Amdt_StdImp|Product Description: AutoCAD Mechanical|Company: Autodesk, Inc."
 90
    33792
280
     0
281
     0
  0
CLASS
  1
ACMNOTESTANDARDANSI
  2
AmdtNoteStdANSI
  3
"Amdt_StdImp|Product Description: AutoCAD Mechanical|Company: Autodesk, Inc."
 90
    33792
280
     0
281
     0
  0
CLASS
  1
ACAMGLAYSTD
  2
AcAmgLayStd
  3
"AmgLay|Product Description: AutoCAD Mechanical|Company: Autodesk, Inc."
 90
     1024
280
     0
281
     0
  0
CLASS
  1
ACAMGDIMSTD
  2
AcAmgDimStd
  3
"AmgDim|Product Description: AutoCAD Mechanical|Company: Autodesk, Inc."
 90
     1024
280
     0
281
     0
  0
CLASS
  1
ACAMGHOLECHARTSTDANSI
  2
AcAmgHoleChartStdANSI
  3
AmgDim|Product Description: AutoCAD Mechanical|Company: Autodesk, Inc.
 90
    33792
280
     0
281
     0
  0
CLASS
  1
ACAMGTITLESTD
  2
AcAmgTitleStd
  3
"AmgTitle|Product Description: AutoCAD Mechanical|Company: Autodesk, Inc."
 90
     4095
280
     0
281
     0
  0
CLASS
  1
LAYER_INDEX
  2
AcDbLayerIndex
  3
ObjectDBX Classes
 90
    32768
280
     0
281
     0
  0
CLASS
  1
IDBUFFER
  2
AcDbIdBuffer
  3
ObjectDBX Classes
 90
    32768
280
     0
281
     0
  0
CLASS
  1
DICTIONARYVAR
  2
AcDbDictionaryVar
  3
ObjectDBX Classes
 90
        0
280
     0
281
     0
  0
CLASS
  1
AM_DRAWING_MGR
  2
AcDmDwgMgr
  3
AcMechDwgViewMgmt
 90
     1024
280
     0
281
     0
  0
CLASS
  1
AM_DWG_DOCUMENT
  2
AcDmDwgDocument
  3
AcMechDwgViewMgmt
 90
     1024
280
     0
281
     0
  0
CLASS
  1
AM_DWG_SHEET
  2
AcDmSheet
  3
AcMechDwgViewMgmt
 90
     1024
280
     0
281
     0
  0
CLASS
  1
AM_VIEWDIMPARMAP
  2
AcDmViewDimParMap
  3
AcMechDwgViewMgmt
 90
     1024
280
     0
281
     0
  0
CLASS
  1
AM_DWGMGR_NAME
  2
AcDmDwgMgrName
  3
AcMechDwgViewMgmt
 90
     1024
280
     0
281
     0
  0
CLASS
  1
AMDTMENUSTATEMGR
  2
AmdtMenuStateMgr
  3
McadcomServices
 90
     1024
280
     0
281
     0
  0
CLASS
  1
AMDTMCOMMENUSTATE
  2
AmdtMcomMenuState
  3
McadcomServices
 90
     1024
280
     0
281
     0
  0
CLASS
  1
MAPIAMMOUDLE
  2
MApiAmModule
  3
MApiAmServices
 90
     1024
280
     0
281
     0
  0
CLASS
  1
AMDTADMENUSTATE
  2
AmdtAdMenuState
  3
DesignerServices
 90
     1024
280
     0
281
     0
  0
CLASS
  1
ADAPPL
  2
AcAdAppl
  3
DesignerServices
 90
     1024
280
     0
281
     0
  0
CLASS
  1
DEPMGR
  2
AcAdDepMgr
  3
DesignerServices
 90
     1024
280
     0
281
     0
  0
CLASS
  1
PARAMMGR
  2
AcAdParamMgr
  3
DesignerServices
 90
     1024
280
     0
281
     0
  0
CLASS
  1
PARAMSCOPE
  2
AcAdParamScope
  3
DesignerServices
 90
     1024
280
     0
281
     0
  0
CLASS
  1
NAMEDAPPL
  2
AcAdNamedAppl
  3
DesignerServices
 90
     1024
280
     0
281
     0
  0
CLASS
  1
AMDTDMMENUSTATE
  2
AmdtDmMenuState
  3
AcMechDwgViewMgmt
 90
     1024
280
     0
281
     0
  0
CLASS
  1
AMDTAMMENUSTATE
  2
AmdtAmMenuState
  3
DesignerAssemblies
 90
     1024
280
     0
281
     0
  0
CLASS
  1
ACAMPROJECT
  2
AcAmProject
  3
DesignerAssemblies
 90
     1024
280
     0
281
     0
  0
CLASS
  1
ACAMGRCOMPDEF
  2
AcAmGrCompDef
  3
DesignerAssemblies
 90
     1024
280
     0
281
     0
  0
CLASS
  1
ACCMCONTEXT
  2
AcCmContext
  3
DesignerAssemblies
 90
     1024
280
     0
281
     0
  0
CLASS
  1
ACAMCOMPDEF
  2
AcAmCompDef
  3
DesignerAssemblies
 90
     1024
280
     0
281
     0
  0
CLASS
  1
ACAMCOMPDEFMGR
  2
AcAmCompDefMgr
  3
DesignerAssemblies
 90
     1024
280
     0
281
     0
  0
CLASS
  1
AMCONTEXTMGR
  2
AcAmContextMgr
  3
DesignerAssemblies
 90
     1024
280
     0
281
     0
  0
CLASS
  1
ACAMCONTEXTMODELER
  2
AcAmContextModeler
  3
DesignerAssemblies
 90
     1024
280
     0
281
     0
  0
CLASS
  1
ACMTHREADLINESTANDARDANSI
  2
AmdtThreadLineStdANSI
  3
"Amdt_StdImp|Product Description: AutoCAD Mechanical|Company: Autodesk, Inc."
 90
    33792
280
     0
281
     0
  0
CLASS
  1
CATALOGSTATE
  2
AcAmCatalogState
  3
DesignerAssemblies
 90
     1024
280
     0
281
     0
  0
CLASS
  1
ACAMGRCOMPDEFSET
  2
AcAmGrCompDefSet
  3
DesignerAssemblies
 90
     1024
280
     0
281
     0
  0
CLASS
  1
AMDTBROWSERDBTAB
  2
AmdtBrowserDbTab
  3
McadcomServices
 90
     1024
280
     0
281
     0
  0
CLASS
  1
CBROWSERAPPOBJECT
  2
CBrowserAppObject
  3
McadcomServices
 90
     1024
280
     0
281
     0
  0
CLASS
  1
DM_PLACEHOLDER
  2
AcDmSelsetPlaceholder
  3
AcMechDwgViewMgmt
 90
     1024
280
     0
281
     0
  0
CLASS
  1
AMDTNOTETEMPLATEDB
  2
AmdtNoteTemplateDB
  3
AcmSymBB|Product Description: AutoCAD Mechanical|Company: Autodesk, Inc.
 90
     1024
280
     0
281
     0
  0
CLASS
  1
ACMSTANDARDISO
  2
AcmStandardISO
  3
"Amdt_StdImp|Product Description: AutoCAD Mechanical|Company: Autodesk, Inc."
 90
     1024
280
     0
281
     0
  0
CLASS
  1
AMDTEDGESTANDARDISO
  2
AmdtEdgeStdISO
  3
"Amdt_StdImp|Product Description: AutoCAD Mechanical|Company: Autodesk, Inc."
 90
    33792
280
     0
281
     0
  0
CLASS
  1
ACMSURFSTANDARDISO
  2
AcmSurfTextStdISO
  3
"Amdt_StdImp|Product Description: AutoCAD Mechanical|Company: Autodesk, Inc."
 90
    33792
280
     0
281
     0
  0
CLASS
  1
ACMFCFSTANDARDISO
  2
AcmFCFStdISO
  3
"Amdt_StdImp|Product Description: AutoCAD Mechanical|Company: Autodesk, Inc."
 90
     1024
280
     0
281
     0
  0
CLASS
  1
ACMWELDSTANDARDISO
  2
AcmWeldingStdISO
  3
"Amdt_StdImp|Product Description: AutoCAD Mechanical|Company: Autodesk, Inc."
 90
     1024
280
     0
281
     0
  0
CLASS
  1
ACMIDSTANDARDISO
  2
AcmIdStdISO
  3
"Amdt_StdImp|Product Description: AutoCAD Mechanical|Company: Autodesk, Inc."
 90
     1024
280
     0
281
     0
  0
CLASS
  1
ACMDATUMSTANDARDISO
  2
AcmDatumStdISO
  3
"Amdt_StdImp|Product Description: AutoCAD Mechanical|Company: Autodesk, Inc."
 90
     1024
280
     0
281
     0
  0
CLASS
  1
ACMBOMSTANDARDISO
  2
AcmBOMStdISO
  3
"Amdt_StdImp|Product Description: AutoCAD Mechanical|Company: Autodesk, Inc."
 90
     1024
280
     0
281
     0
  0
CLASS
  1
ACMDETAILSTANDARDISO
  2
AmdtDetailSymStdISO
  3
"Amdt_StdImp|Product Description: AutoCAD Mechanical|Company: Autodesk, Inc."
 90
     1024
280
     0
281
     0
  0
CLASS
  1
ACMSECTIONSTANDARDISO
  2
AmdtSectionSymStdISO
  3
"Amdt_StdImp|Product Description: AutoCAD Mechanical|Company: Autodesk, Inc."
 90
    33792
280
     0
281
     0
  0
CLASS
  1
ACMCENTERLINESTANDARDISO
  2
AmdtCenterLineStdISO
  3
"Amdt_StdImp|Product Description: AutoCAD Mechanical|Company: Autodesk, Inc."
 90
     1024
280
     0
281
     0
  0
CLASS
  1
ACMTHREADLINESTANDARDISO
  2
AmdtThreadLineStdISO
  3
"Amdt_StdImp|Product Description: AutoCAD Mechanical|Company: Autodesk, Inc."
 90
     1024
280
     0
281
     0
  0
CLASS
  1
ACMNOTESTANDARDISO
  2
AmdtNoteStdISO
  3
"Amdt_StdImp|Product Description: AutoCAD Mechanical|Company: Autodesk, Inc."
 90
     1024
280
     0
281
     0
  0
CLASS
  1
ACAMGHOLECHARTSTDISO
  2
AcAmgHoleChartStdISO
  3
AmgDim|Product Description: AutoCAD Mechanical|Company: Autodesk, Inc.
 90
     1024
280
     0
281
     0
  0
CLASS
  1
ACAMGFILTERDAT
  2
AcAmgFilterDat
  3
"AcadM|Product Description: AutoCAD Mechanical|Company: Autodesk, Inc."
 90
    33792
280
     0
281
     0
  0
CLASS
  1
ACMBOM
  2
AcmBom
  3
"AcmSymBB|Product Description: AutoCAD Mechanical|Company: Autodesk, Inc."
 90
    33792
280
     0
281
     0
  0
CLASS
  1
AMDTFORMULAUPDATEDISPATCHER
  2
AmdtFormulaUpdateDispatcher
  3
AcMeServices
 90
    33792
280
     0
281
     0
  0
CLASS
  1
ACMPARTLIST
  2
AcmPartList
  3
"AcmSymBB|Product Description: AutoCAD Mechanical|Company: Autodesk, Inc."
 90
    36863
280
     0
281
     1
  0
CLASS
  1
ACDBOPPOLYLINERES
  2
AcDbOpPolylineRes
  3
AcGrefServices
 90
    33792
280
     0
281
     0
  0
CLASS
  1
ACRFINSADJ
  2
AcRfInsAdjuster
  3
AcMeServices
 90
    33792
280
     0
281
     0
  0
CLASS
  1
DIMASSOC
  2
AcDbDimAssoc
  3
"AcDbDimAssoc|Product Desc:     AcDim ARX App For Dimension|Company:          Autodesk, Inc.|WEB Address:      www.autodesk.com"
 90
    32768
280
     0
281
     0
  0
CLASS
  1
ACMDATAENTRYPART
  2
AcmDataEntryPart
  3
AcmSymBB|Product Description: AutoCAD Mechanical|Company: Autodesk, Inc.
 90
    33792
280
     0
281
     0
  0
CLASS
  1
ACMPARTREF
  2
AcmPartRef
  3
"AcmSymBB|Product Description: AutoCAD Mechanical|Company: Autodesk, Inc."
 90
    36863
280
     0
281
     1
  0
CLASS
  1
ACMBOMROW
  2
AcmBomRow
  3
"AcmSymBB|Product Description: AutoCAD Mechanical|Company: Autodesk, Inc."
 90
    33792
280
     0
281
     0
  0
CLASS
  1
ACMDATAENTRY
  2
AcmDataEntry
  3
AcmSymBB|Product Description: AutoCAD Mechanical|Company: Autodesk, Inc.
 90
    33792
280
     0
281
     0
  0
CLASS
  1
ACMBALLOON
  2
AcmBalloon
  3
"AcmSymBB|Product Description: AutoCAD Mechanical|Company: Autodesk, Inc."
 90
    36863
280
     0
281
     1
  0
CLASS
  1
MATERIAL
  2
AcDbMaterial
  3
ObjectDBX Classes
 90
     1153
280
     0
281
     0
  0
CLASS
  1
SORTENTSTABLE
  2
AcDbSortentsTable
  3
ObjectDBX Classes
 90
    32768
280
     0
281
     0
  0
CLASS
  1
VISUALSTYLE
  2
AcDbVisualStyle
  3
ObjectDBX Classes
 90
     4095
280
     0
281
     0
  0
CLASS
  1
TABLESTYLE
  2
AcDbTableStyle
  3
ObjectDBX Classes
 90
     4095
280
     0
281
     0
  0
CLASS
  1
SCALE
  2
AcDbScale
  3
ObjectDBX Classes
 90
     1153
280
     0
281
     0
  0
CLASS
  1
MLEADERSTYLE
  2
AcDbMLeaderStyle
  3
ACDB_MLEADERSTYLE_CLASS
 90
     4095
280
     0
281
     0
  0
CLASS
  1
ACRFATTGENMGR
  2
AcRfAttGeneralMgr
  3
AcAttribServices
 90
    33792
280
     0
281
     0
  0
CLASS
  1
ACRFOBJATTMGR
  2
AcRfObjAttGroupMgr
  3
AcAttribServices
 90
    33792
280
     0
281
     0
  0
CLASS
  1
ACRFMCADAPIATTHOLDER
  2
AcRfMCADAPIAttHolder
  3
AcAttribServices
 90
    33792
280
     0
281
     0
  0
CLASS
  1
AMDTSYSATTR
  2
AmdtSystemAttribute
  3
AcAttribServices
 90
    33792
280
     0
281
     0
  0
CLASS
  1
ACMTAPERSTANDARDISO
  2
AcmTaperStdISO
  3
"Amdt_StdImp|Product Description: AutoCAD Mechanical|Company: Autodesk, Inc."
 90
     1024
280
     0
281
     0
  0
CLASS
  1
ACMANOOTATIONVIEWSTANDARDISO
  2
AmdtAnViewStdISO
  3
"Amdt_StdImp|Product Description: AutoCAD Mechanical|Company: Autodesk, Inc."
 90
     1024
280
     0
281
     0
  0
CLASS
  1
ACMTAPERSTANDARDANSI
  2
AcmTaperStdANSI
  3
"Amdt_StdImp|Product Description: AutoCAD Mechanical|Company: Autodesk, Inc."
 90
    33792
280
     0
281
     0
  0
CLASS
  1
ACMANOOTATIONVIEWSTANDARDANSI
  2
AmdtAnViewStdANSI
  3
"Amdt_StdImp|Product Description: AutoCAD Mechanical|Company: Autodesk, Inc."
 90
    33792
280
     0
281
     0
  0
CLASS
  1
CELLSTYLEMAP
  2
AcDbCellStyleMap
  3
ObjectDBX Classes
 90
     1152
280
     0
281
     0
  0
CLASS
  1
EXACXREFPANELOBJECT
  2
ExAcXREFPanelObject
  3
EXAC_ESW
 90
     1025
280
     0
281
     0
  0
CLASS
  1
NPOCOLLECTION
  2
AcDbImpNonPersistentObjectsCollection
  3
ObjectDBX Classes
 90
     1153
280
     0
281
     0
  0
CLASS
  1
AMDTEDGESTANDARDISO13715
  2
AmdtEdgeStdISO13715
  3
"Amdt_StdImp|Product Description: AutoCAD Mechanical|Company: Autodesk, Inc."
 90
     1024
280
     0
281
     0
  0
CLASS
  1
ACMSURFSTANDARDISO2002
  2
AcmSurfTextStdISO2002
  3
"Amdt_StdImp|Product Description: AutoCAD Mechanical|Company: Autodesk, Inc."
 90
     1024
280
     0
281
     0
  0
CLASS
  1
ACMSECTIONSTANDARDISO2001
  2
AmdtSectionSymStdISO2001
  3
"Amdt_StdImp|Product Description: AutoCAD Mechanical|Company: Autodesk, Inc."
 90
     1024
280
     0
281
     0
  0
ENDSEC
  0
SECTION
  2
TABLES
  0
TABLE
  2
VPORT
  5
8
102
{ACAD_XDICTIONARY
360
1ABD
102
}
330
0
100
AcDbSymbolTable
 70
     1
  0
VPORT
  5
139A
330
8
100
AcDbSymbolTableRecord
100
AcDbViewportTableRecord
  2
*Active
 70
     0
 10
0.0
 20
0.0
 11
1.0
 21
1.0
 12
413.0000056301888
 22
290.0000039117935
 13
0.0
 23
0.0
 14
5.0
 24
5.0
 15
20.0
 25
20.0
 16
0.0
 26
0.0
 36
1.0
 17
0.0
 27
0.0
 37
0.0
 40
563.7032060418171
 41
1.648148148148148
 42
50.0
 43
0.0
 44
0.0
 50
0.0
 51
0.0
 71
     0
 72
   100
 73
     1
 74
     3
 75
     0
 76
     0
 77
     0
 78
     0
281
     0
 65
     1
110
0.0
120
0.0
130
0.0
111
1.0
121
0.0
131
0.0
112
0.0
122
1.0
132
0.0
 79
     0
146
0.0
  0
ENDTAB
  0
TABLE
  2
LTYPE
  5
5
330
0
100
AcDbSymbolTable
 70
    25
  0
LTYPE
  5
14
330
5
100
AcDbSymbolTableRecord
100
AcDbLinetypeTableRecord
  2
ByBlock
 70
     0
  3

 72
    65
 73
     0
 40
0.0
  0
LTYPE
  5
15
330
5
100
AcDbSymbolTableRecord
100
AcDbLinetypeTableRecord
  2
ByLayer
 70
     0
  3

 72
    65
 73
     0
 40
0.0
  0
LTYPE
  5
16
330
5
100
AcDbSymbolTableRecord
100
AcDbLinetypeTableRecord
  2
Continuous
 70
     0
  3
Solid line
 72
    65
 73
     0
 40
0.0
  0
LTYPE
  5
6C
330
5
100
AcDbSymbolTableRecord
100
AcDbLinetypeTableRecord
  2
AM_ISO02W050
 70
     0
  3
__ __ __ __ __ __ __ __ __ __ __ __ __ __ __
 72
    65
 73
     2
 40
7.5
 49
6.0
 74
     0
 49
-1.5
 74
     0
  0
LTYPE
  5
6D
330
5
100
AcDbSymbolTableRecord
100
AcDbLinetypeTableRecord
  2
AM_ISO08W050
 70
     0
  3
____ . ____ . ____ . ____ . ____ . ____ . ____
 72
    65
 73
     4
 40
18.0
 49
12.0
 74
     0
 49
-1.5
 74
     0
 49
3.0
 74
     0
 49
-1.5
 74
     0
  0
LTYPE
  5
6E
330
5
100
AcDbSymbolTableRecord
100
AcDbLinetypeTableRecord
  2
AM_ISO09W050
 70
     0
  3
_____ . . _____ . . _____ . . ____ .. ____
 72
    65
 73
     6
 40
22.5
 49
12.0
 74
     0
 49
-1.5
 74
     0
 49
3.0
 74
     0
 49
-1.5
 74
     0
 49
3.0
 74
     0
 49
-1.5
 74
     0
  0
LTYPE
  5
6F
330
5
100
AcDbSymbolTableRecord
100
AcDbLinetypeTableRecord
  2
Amconstr
 70
     0
  3
_______________________
 72
    65
 73
     2
 40
9999.0
 49
9999.0
 74
     0
 49
0.0
 74
     0
  0
LTYPE
  5
70
330
5
100
AcDbSymbolTableRecord
100
AcDbLinetypeTableRecord
  2
AM_ISO08W050x2
 70
     0
  3
__ . __ . __ . __ . __ . __
 72
    65
 73
     4
 40
9.0
 49
6.0
 74
     0
 49
-0.75
 74
     0
 49
1.5
 74
     0
 49
-0.75
 74
     0
  0
LTYPE
  5
71
330
5
100
AcDbSymbolTableRecord
100
AcDbLinetypeTableRecord
  2
AM_ISO02W050x2
 70
     0
  3
 _ _ _ _ _ _ _ _ _ _ _ _
 72
    65
 73
     2
 40
3.75
 49
3.0
 74
     0
 49
-0.75
 74
     0
  0
LTYPE
  5
74
330
5
100
AcDbSymbolTableRecord
100
AcDbLinetypeTableRecord
  2
Amzigzag
 70
     0
  3
/\/-/\/-/\/-/\/-/\/-/\/
 72
    65
 73
     2
 40
11.0001
 49
0.0001
 74
     4
 75
   135
340
73
 46
0.04
 50
0.0
 44
0.0
 45
0.0
 49
-11.0
 74
     0
  0
LTYPE
  5
75
330
5
100
AcDbSymbolTableRecord
100
AcDbLinetypeTableRecord
  2
HIDDEN
 70
     0
  3
Hidden __ __ __ __ __ __ __ __ __ __ __ __ __ _
 72
    65
 73
     2
 40
0.375
 49
0.25
 74
     0
 49
-0.125
 74
     0
  0
LTYPE
  5
76
330
5
100
AcDbSymbolTableRecord
100
AcDbLinetypeTableRecord
  2
CENTER
 70
     0
  3
__ . __
 72
    65
 73
     4
 40
7.0
 49
4.0
 74
     0
 49
-1.0
 74
     0
 49
1.0
 74
     0
 49
-1.0
 74
     0
  0
LTYPE
  5
77
330
5
100
AcDbSymbolTableRecord
100
AcDbLinetypeTableRecord
  2
PHANTOM2
 70
     0
  3
Phantom (.5x) ___ _ _ ___ _ _ ___ _ _ ___ _ _
 72
    65
 73
     6
 40
1.25
 49
0.625
 74
     0
 49
-0.125
 74
     0
 49
0.125
 74
     0
 49
-0.125
 74
     0
 49
0.125
 74
     0
 49
-0.125
 74
     0
  0
LTYPE
  5
78
330
5
100
AcDbSymbolTableRecord
100
AcDbLinetypeTableRecord
  2
CENTER2
 70
     0
  3
Center (.5x) ___ _ ___ _ ___ _ ___ _ ___ _ ___
 72
    65
 73
     4
 40
1.125
 49
0.75
 74
     0
 49
-0.125
 74
     0
 49
0.125
 74
     0
 49
-0.125
 74
     0
  0
LTYPE
  5
79
330
5
100
AcDbSymbolTableRecord
100
AcDbLinetypeTableRecord
  2
HIDDEN2
 70
     0
  3
Hidden (.5x) _ _ _ _ _ _ _ _ _ _ _ _ _ _ _ _ _
 72
    65
 73
     2
 40
0.1875
 49
0.125
 74
     0
 49
-0.0625
 74
     0
  0
LTYPE
  5
7A
330
5
100
AcDbSymbolTableRecord
100
AcDbLinetypeTableRecord
  2
Amzigzag2
 70
     0
  3
/\/-/\/-/\/-/\/-/\/-/\/
 72
    65
 73
     2
 40
0.4401
 49
0.0001
 74
     4
 75
   135
340
73
 46
0.0016
 50
0.0
 44
0.0
 45
0.0
 49
-0.4400000000000001
 74
     0
  0
LTYPE
  5
87
330
5
100
AcDbSymbolTableRecord
100
AcDbLinetypeTableRecord
  2
ACANSTGB
 70
     0
  3
__ . . __ . .
 72
    65
 73
     6
 40
0.35433070866
 49
0.15748031496
 74
     0
 49
-0.03937007874
 74
     0
 49
0.03937007874
 74
     0
 49
-0.03937007874
 74
     0
 49
0.03937007874
 74
     0
 49
-0.03937007874
 74
     0
  0
LTYPE
  5
88
330
5
100
AcDbSymbolTableRecord
100
AcDbLinetypeTableRecord
  2
ACANSTGL
 70
     0
  3
_ _ _ _ _
 72
    65
 73
     2
 40
0.11811023622
 49
0.07874015748
 74
     0
 49
-0.03937007874
 74
     0
  0
LTYPE
  5
1DE
330
5
100
AcDbSymbolTableRecord
100
AcDbLinetypeTableRecord
  2
ACISOWELD
 70
     0
  3
_ _ _ _ _
 72
    65
 73
     2
 40
2.0
 49
2.0
 74
     0
 49
-1.0
 74
     0
  0
LTYPE
  5
1DF
330
5
100
AcDbSymbolTableRecord
100
AcDbLinetypeTableRecord
  2
ACISOTGB
 70
     0
  3
__ . . __ . .
 72
    65
 73
     6
 40
9.0
 49
4.0
 74
     0
 49
-1.0
 74
     0
 49
1.0
 74
     0
 49
-1.0
 74
     0
 49
1.0
 74
     0
 49
-1.0
 74
     0
  0
LTYPE
  5
1E0
330
5
100
AcDbSymbolTableRecord
100
AcDbLinetypeTableRecord
  2
ACISOTGL
 70
     0
  3
_ _ _ _ _
 72
    65
 73
     2
 40
3.0
 49
2.0
 74
     0
 49
-1.0
 74
     0
  0
LTYPE
  5
1FE
330
5
100
AcDbSymbolTableRecord
100
AcDbLinetypeTableRecord
  2
gen3
 70
     0
  3
-- -- -- -- -- -- -- -- -- -- -- -- -- -- --
 72
    65
 73
     2
 40
6.25
 49
4.75
 74
     0
 49
-1.5
 74
     0
  0
LTYPE
  5
1FF
330
5
100
AcDbSymbolTableRecord
100
AcDbLinetypeTableRecord
  2
gen7
 70
     0
  3
____ . ____ . ____ . ____ . ____ . ____ . ____
 72
    65
 73
     4
 40
13.75
 49
9.75
 74
     0
 49
-1.5
 74
     0
 49
1.0
 74
     0
 49
-1.5
 74
     0
  0
LTYPE
  5
200
330
5
100
AcDbSymbolTableRecord
100
AcDbLinetypeTableRecord
  2
gen3a
 70
     0
  3
 - - - - -
 72
    65
 73
     2
 40
3.125
 49
2.25
 74
     0
 49
-0.875
 74
     0
  0
LTYPE
  5
201
330
5
100
AcDbSymbolTableRecord
100
AcDbLinetypeTableRecord
  2
gen7a
 70
     0
  3
__ . __ . __
 72
    65
 73
     4
 40
6.875
 49
4.75
 74
     0
 49
-0.875
 74
     0
 49
0.375
 74
     0
 49
-0.875
 74
     0
  0
LTYPE
  5
202
330
5
100
AcDbSymbolTableRecord
100
AcDbLinetypeTableRecord
  2
gen4a
 70
     0
  3
_____ . . _____ . . _____ . . ____ .. ____
 72
    65
 73
     6
 40
16.25
 49
9.75
 74
     0
 49
-1.5
 74
     0
 49
1.0
 74
     0
 49
-1.5
 74
     0
 49
1.0
 74
     0
 49
-1.5
 74
     0
  0
LTYPE
  5
203
330
5
100
AcDbSymbolTableRecord
100
AcDbLinetypeTableRecord
  2
genzigzag
 70
     0
  3
/\/-/\/-/\/-/\/-/\/-/\/
 72
    65
 73
     2
 40
12.0001
 49
0.0001
 74
     4
 75
   135
340
73
 46
2.0
 50
0.0
 44
0.0
 45
0.0
 49
-12.0
 74
     0
  0
ENDTAB
  0
TABLE
  2
LAYER
  5
2
102
{ACAD_XDICTIONARY
360
2C1
102
}
330
0
100
AcDbSymbolTable
 70
    16
  0
LAYER
  5
10
102
{ACAD_XDICTIONARY
360
1A0B
102
}
330
2
100
AcDbSymbolTableRecord
100
AcDbLayerTableRecord
  2
0
 70
     0
 62
     7
  6
Continuous
370
    -3
390
F
  0
LAYER
  5
1F0
102
{ACAD_XDICTIONARY
360
1A0D
102
}
330
2
100
AcDbSymbolTableRecord
100
AcDbLayerTableRecord
  2
AM_5
 70
     0
 62
     3
  6
Continuous
370
    25
390
F
  0
LAYER
  5
204
330
2
100
AcDbSymbolTableRecord
100
AcDbLayerTableRecord
  2
Defpoints
 70
     0
 62
     7
  6
Continuous
290
     0
370
    -3
390
F
  0
LAYER
  5
23E
102
{ACAD_XDICTIONARY
360
1A0F
102
}
330
2
100
AcDbSymbolTableRecord
100
AcDbLayerTableRecord
  2
7A
 70
     0
 62
     4
  6
gen7a
370
    -3
390
F
  0
LAYER
  5
23F
102
{ACAD_XDICTIONARY
360
1A11
102
}
330
2
100
AcDbSymbolTableRecord
100
AcDbLayerTableRecord
  2
RAHM2
 70
     0
 62
     1
  6
Continuous
370
    -3
390
F
  0
LAYER
  5
C81
102
{ACAD_XDICTIONARY
360
1A13
102
}
330
2
100
AcDbSymbolTableRecord
100
AcDbLayerTableRecord
  2
ｼｬｰｼ
 70
     0
 62
     2
  6
Continuous
370
    25
390
F
  0
LAYER
  5
C82
102
{ACAD_XDICTIONARY
360
1A15
102
}
330
2
100
AcDbSymbolTableRecord
100
AcDbLayerTableRecord
  2
ｼｬｰｼ0
 70
     0
 62
     2
  6
AM_ISO02W050x2
370
    13
390
F
  0
LAYER
  5
C84
102
{ACAD_XDICTIONARY
360
1A17
102
}
330
2
100
AcDbSymbolTableRecord
100
AcDbLayerTableRecord
  2
AM_7
 70
     0
 62
     4
  6
AM_ISO08W050
370
    25
390
F
  0
LAYER
  5
C85
102
{ACAD_XDICTIONARY
360
1A19
102
}
330
2
100
AcDbSymbolTableRecord
100
AcDbLayerTableRecord
  2
ｶﾊﾞｰ
 70
     0
 62
     7
  6
Continuous
370
    25
390
F
  0
LAYER
  5
C86
102
{ACAD_XDICTIONARY
360
1A1B
102
}
330
2
100
AcDbSymbolTableRecord
100
AcDbLayerTableRecord
  2
ｶﾊﾞｰ0
 70
     0
 62
     7
  6
AM_ISO02W050x2
370
    13
390
F
  0
LAYER
  5
D94
102
{ACAD_XDICTIONARY
360
1A1D
102
}
330
2
100
AcDbSymbolTableRecord
100
AcDbLayerTableRecord
  2
ｺﾞﾑ足
 70
     0
 62
     8
  6
Continuous
370
    25
390
F
  0
LAYER
  5
D95
102
{ACAD_XDICTIONARY
360
1A1F
102
}
330
2
100
AcDbSymbolTableRecord
100
AcDbLayerTableRecord
  2
ｺﾞﾑ足0
 70
     0
 62
     8
  6
AM_ISO02W050x2
370
    13
390
F
  0
LAYER
  5
DED
102
{ACAD_XDICTIONARY
360
1A21
102
}
330
2
100
AcDbSymbolTableRecord
100
AcDbLayerTableRecord
  2
AM_12
 70
     0
 62
     7
  6
Continuous
290
     0
370
    50
390
F
  0
LAYER
  5
DEE
102
{ACAD_XDICTIONARY
360
1A23
102
}
330
2
100
AcDbSymbolTableRecord
100
AcDbLayerTableRecord
  2
AM_PAREF
 70
     0
 62
     4
  6
Continuous
290
     0
370
    25
390
F
  0
LAYER
  5
E40
102
{ACAD_XDICTIONARY
360
1A25
102
}
330
2
100
AcDbSymbolTableRecord
100
AcDbLayerTableRecord
  2
ﾋﾞｽ
 70
     0
 62
     8
  6
Continuous
370
    25
390
F
  0
LAYER
  5
E41
102
{ACAD_XDICTIONARY
360
1A27
102
}
330
2
100
AcDbSymbolTableRecord
100
AcDbLayerTableRecord
  2
ﾋﾞｽ0
 70
     0
 62
     8
  6
AM_ISO02W050x2
370
    13
390
F
  0
ENDTAB
  0
TABLE
  2
STYLE
  5
3
330
0
100
AcDbSymbolTable
 70
    11
  0
STYLE
  5
11
330
3
100
AcDbSymbolTableRecord
100
AcDbTextStyleTableRecord
  2
STANDARD
 70
     0
 40
0.0
 41
1.0
 50
0.0
 71
     0
 42
0.2
  3
ISOCP.SHX
  4
EXTFONT.SHX
  0
STYLE
  5
73
330
3
100
AcDbSymbolTableRecord
100
AcDbTextStyleTableRecord
  2

 70
     1
 40
0.0
 41
1.0
 50
0.0
 71
     0
 42
0.2
  3
ltypeshp.shx
  4

  0
STYLE
  5
7B
330
3
100
AcDbSymbolTableRecord
100
AcDbTextStyleTableRecord
  2
ACANSTS
 70
     0
 40
1.0
 41
1.0
 50
0.0
 71
     0
 42
0.2
  3
isoct.shx
  4
extfont.shx
  0
STYLE
  5
86
330
3
100
AcDbSymbolTableRecord
100
AcDbTextStyleTableRecord
  2
ACANSGDT
 70
     0
 40
0.0
 41
1.0
 50
0.0
 71
     0
 42
0.2
  3
amgdtans.shx
  4

  0
STYLE
  5
13C
330
3
100
AcDbSymbolTableRecord
100
AcDbTextStyleTableRecord
  2
USER1
 70
     0
 40
0.0
 41
1.0
 50
0.0
 71
     0
 42
0.2
  3
TXT.SHX
  4

  0
STYLE
  5
13D
330
3
100
AcDbSymbolTableRecord
100
AcDbTextStyleTableRecord
  2
USER2
 70
     0
 40
0.0
 41
1.0
 50
0.0
 71
     0
 42
0.2
  3
SIMPLEX.SHX
  4

  0
STYLE
  5
13E
330
3
100
AcDbSymbolTableRecord
100
AcDbTextStyleTableRecord
  2
USER3
 70
     0
 40
0.0
 41
1.0
 50
0.0
 71
     0
 42
0.2
  3
ITALIC.SHX
  4

  0
STYLE
  5
1D0
330
3
100
AcDbSymbolTableRecord
100
AcDbTextStyleTableRecord
  2
ACISOTS
 70
     0
 40
1.0
 41
1.0
 50
0.0
 71
     0
 42
2.5
  3
isocp.shx
  4
extfont.shx
  0
STYLE
  5
1DD
330
3
100
AcDbSymbolTableRecord
100
AcDbTextStyleTableRecord
  2
ACISOGDT
 70
     0
 40
0.0
 41
1.0
 50
0.0
 71
     0
 42
2.5
  3
amgdt.shx
  4

  0
STYLE
  5
241
330
3
100
AcDbSymbolTableRecord
100
AcDbTextStyleTableRecord
  2

 70
     1
 40
0.0
 41
1.0
 50
0.0
 71
     0
 42
3.0
  3
genltshp.shx
  4

  0
STYLE
  5
94C
330
3
100
AcDbSymbolTableRecord
100
AcDbTextStyleTableRecord
  2
takachi1
 70
     0
 40
2.5
 41
1.0
 50
0.0
 71
     0
 42
2.5
  3
MS PGothic.ttf
  4

1001
ACAD
1000
MS PGothic
1071
    32818
  0
ENDTAB
  0
TABLE
  2
VIEW
  5
6
330
0
100
AcDbSymbolTable
 70
     6
  0
VIEW
  5
2A6
330
6
100
AcDbSymbolTableRecord
100
AcDbViewTableRecord
  2
AM_VIEW1
 70
     0
 40
280.0000000000001
 10
220.4358655043587
 20
430.0000000000001
 41
420.8717310087173
 11
0.0
 21
0.0
 31
1.0
 12
0.0
 22
0.0
 32
0.0
 42
50.0
 43
0.0
 44
0.0
 50
0.0
 71
     0
281
     0
 72
     0
  0
VIEW
  5
2A7
330
6
100
AcDbSymbolTableRecord
100
AcDbViewTableRecord
  2
AM_VIEW2
 70
     0
 40
280.0000000000001
 10
605.5641344956413
 20
430.0000000000001
 41
420.8717310087173
 11
0.0
 21
0.0
 31
1.0
 12
0.0
 22
0.0
 32
0.0
 42
50.0
 43
0.0
 44
0.0
 50
0.0
 71
     0
281
     0
 72
     0
  0
VIEW
  5
2A8
330
6
100
AcDbSymbolTableRecord
100
AcDbViewTableRecord
  2
AM_VIEW3
 70
     0
 40
280.0000000000001
 10
220.4358655043587
 20
150.0
 41
420.8717310087173
 11
0.0
 21
0.0
 31
1.0
 12
0.0
 22
0.0
 32
0.0
 42
50.0
 43
0.0
 44
0.0
 50
0.0
 71
     0
281
     0
 72
     0
  0
VIEW
  5
2A9
330
6
100
AcDbSymbolTableRecord
100
AcDbViewTableRecord
  2
AM_VIEW4
 70
     0
 40
280.0000000000001
 10
605.5641344956413
 20
150.0
 41
420.8717310087173
 11
0.0
 21
0.0
 31
1.0
 12
0.0
 22
0.0
 32
0.0
 42
50.0
 43
0.0
 44
0.0
 50
0.0
 71
     0
281
     0
 72
     0
  0
VIEW
  5
2AA
330
6
100
AcDbSymbolTableRecord
100
AcDbViewTableRecord
  2
AM_VIEW5
 70
     0
 40
280.0000000000001
 10
413.0
 20
290.0000000000001
 41
420.8717310087174
 11
0.0
 21
0.0
 31
1.0
 12
0.0
 22
0.0
 32
0.0
 42
50.0
 43
0.0
 44
0.0
 50
0.0
 71
     0
281
     0
 72
     0
  0
VIEW
  5
2AB
330
6
100
AcDbSymbolTableRecord
100
AcDbViewTableRecord
  2
AM_VIEW6
 70
     0
 40
559.9944000000001
 10
413.0
 20
290.0000000000001
 41
841.7350445828146
 11
0.0
 21
0.0
 31
1.0
 12
0.0
 22
0.0
 32
0.0
 42
50.0
 43
0.0
 44
0.0
 50
0.0
 71
     0
281
     0
 72
     0
  0
ENDTAB
  0
TABLE
  2
UCS
  5
7
330
0
100
AcDbSymbolTable
 70
     0
  0
ENDTAB
  0
TABLE
  2
APPID
  5
9
330
0
100
AcDbSymbolTable
 70
    40
  0
APPID
  5
12
330
9
100
AcDbSymbolTableRecord
100
AcDbRegAppTableRecord
  2
ACAD
 70
     0
  0
APPID
  5
4E
330
9
100
AcDbSymbolTableRecord
100
AcDbRegAppTableRecord
  2
MCAD_NO_VIS
 70
     0
  0
APPID
  5
4F
330
9
100
AcDbSymbolTableRecord
100
AcDbRegAppTableRecord
  2
ACAD_TEMP_GRAPHIC
 70
     0
  0
APPID
  5
60
330
9
100
AcDbSymbolTableRecord
100
AcDbRegAppTableRecord
  2
ACATTRIBSERVICES
 70
     0
  0
APPID
  5
F7
330
9
100
AcDbSymbolTableRecord
100
AcDbRegAppTableRecord
  2
AD_DRAW
 70
     0
  0
APPID
  5
115
330
9
100
AcDbSymbolTableRecord
100
AcDbRegAppTableRecord
  2
DESIGNERASSEMBLIES
 70
     0
  0
APPID
  5
11A
330
9
100
AcDbSymbolTableRecord
100
AcDbRegAppTableRecord
  2
ACADM_DIM_EDIT
 70
     0
  0
APPID
  5
11B
330
9
100
AcDbSymbolTableRecord
100
AcDbRegAppTableRecord
  2
AMDT_DM_ADJ
 70
     0
  0
APPID
  5
20C
330
9
100
AcDbSymbolTableRecord
100
AcDbRegAppTableRecord
  2
GENIUS_GENREC_14
 70
     0
  0
APPID
  5
20D
330
9
100
AcDbSymbolTableRecord
100
AcDbRegAppTableRecord
  2
GENIUS_GENODEF_13
 70
     0
  0
APPID
  5
20E
330
9
100
AcDbSymbolTableRecord
100
AcDbRegAppTableRecord
  2
GENIUS_GENOBJ-N-REC_13
 70
     0
  0
APPID
  5
20F
330
9
100
AcDbSymbolTableRecord
100
AcDbRegAppTableRecord
  2
GENIUS_GENCFG_13
 70
     0
  0
APPID
  5
210
330
9
100
AcDbSymbolTableRecord
100
AcDbRegAppTableRecord
  2
GENIUS_GENCFG0_13
 70
     0
  0
APPID
  5
211
330
9
100
AcDbSymbolTableRecord
100
AcDbRegAppTableRecord
  2
GENIUS_GENCFG1_13
 70
     0
  0
APPID
  5
212
330
9
100
AcDbSymbolTableRecord
100
AcDbRegAppTableRecord
  2
GENIUS_GENCFG2_13
 70
     0
  0
APPID
  5
213
330
9
100
AcDbSymbolTableRecord
100
AcDbRegAppTableRecord
  2
GENIUS_GENCFG3_13
 70
     0
  0
APPID
  5
214
330
9
100
AcDbSymbolTableRecord
100
AcDbRegAppTableRecord
  2
GENIUS_GENCFG4_13
 70
     0
  0
APPID
  5
215
330
9
100
AcDbSymbolTableRecord
100
AcDbRegAppTableRecord
  2
GENIUS_GEVCFG0_13
 70
     0
  0
APPID
  5
216
330
9
100
AcDbSymbolTableRecord
100
AcDbRegAppTableRecord
  2
GENIUS_GENOENT_13
 70
     0
  0
APPID
  5
217
330
9
100
AcDbSymbolTableRecord
100
AcDbRegAppTableRecord
  2
GENIUS_GENDIMSH_14
 70
     0
  0
APPID
  5
218
330
9
100
AcDbSymbolTableRecord
100
AcDbRegAppTableRecord
  2
GENIUS_GENOBJ-N-CRS_13
 70
     0
  0
APPID
  5
219
330
9
100
AcDbSymbolTableRecord
100
AcDbRegAppTableRecord
  2
GENIUS_GENOREF_13
 70
     0
  0
APPID
  5
21A
330
9
100
AcDbSymbolTableRecord
100
AcDbRegAppTableRecord
  2
GENIUS_GENOLIS_13
 70
     0
  0
APPID
  5
21B
330
9
100
AcDbSymbolTableRecord
100
AcDbRegAppTableRecord
  2
GENIUS_GENOBJ-N-TIT_13
 70
     0
  0
APPID
  5
21C
330
9
100
AcDbSymbolTableRecord
100
AcDbRegAppTableRecord
  2
GENIUS_GENTITLE_13
 70
     0
  0
APPID
  5
21D
330
9
100
AcDbSymbolTableRecord
100
AcDbRegAppTableRecord
  2
GENIUS_GENSCREG_15
 70
     0
  0
APPID
  5
21E
330
9
100
AcDbSymbolTableRecord
100
AcDbRegAppTableRecord
  2
GENIUS_GENOBJ-N-SDF_13
 70
     0
  0
APPID
  5
21F
330
9
100
AcDbSymbolTableRecord
100
AcDbRegAppTableRecord
  2
GENIUS_GENOBJ-N-CEN_13
 70
     0
  0
APPID
  5
220
330
9
100
AcDbSymbolTableRecord
100
AcDbRegAppTableRecord
  2
GENIUS_GENOBJ-N-HTC_13
 70
     0
  0
APPID
  5
221
330
9
100
AcDbSymbolTableRecord
100
AcDbRegAppTableRecord
  2
GENIUS_GENHATCH_13
 70
     0
  0
APPID
  5
222
330
9
100
AcDbSymbolTableRecord
100
AcDbRegAppTableRecord
  2
GENIUS_GENOBJ-N-ZOO_13
 70
     0
  0
APPID
  5
223
330
9
100
AcDbSymbolTableRecord
100
AcDbRegAppTableRecord
  2
GENIUS_GENZOO_17
 70
     0
  0
APPID
  5
C88
330
9
100
AcDbSymbolTableRecord
100
AcDbRegAppTableRecord
  2
GENIUS_GENOBJ-N-FIL_13
 70
     0
  0
APPID
  5
13D3
330
9
100
AcDbSymbolTableRecord
100
AcDbRegAppTableRecord
  2
ACAD_MLEADERVER
 70
     0
  0
APPID
  5
14C6
330
9
100
AcDbSymbolTableRecord
100
AcDbRegAppTableRecord
  2
ACAD_DSTYLE_DIMINSPECT
 70
     0
  0
APPID
  5
18E4
330
9
100
AcDbSymbolTableRecord
100
AcDbRegAppTableRecord
  2
ACAD_DSTYLE_DIMRADIAL_EXTENSION
 70
     0
  0
APPID
  5
1D97
330
9
100
AcDbSymbolTableRecord
100
AcDbRegAppTableRecord
  2
ACAD_DSTYLE_DIMARC_LENGTH_SYMBOL
 70
     0
  0
APPID
  5
1D98
330
9
100
AcDbSymbolTableRecord
100
AcDbRegAppTableRecord
  2
ACAD_DSTYLE_DIM_LINETYPE
 70
     0
  0
APPID
  5
1D99
330
9
100
AcDbSymbolTableRecord
100
AcDbRegAppTableRecord
  2
ACAD_DSTYLE_DIM_EXT1_LINETYPE
 70
     0
  0
APPID
  5
1D9A
330
9
100
AcDbSymbolTableRecord
100
AcDbRegAppTableRecord
  2
ACAD_DSTYLE_DIM_EXT2_LINETYPE
 70
     0
  0
ENDTAB
  0
TABLE
  2
DIMSTYLE
  5
A
330
0
100
AcDbSymbolTable
 70
    34
100
AcDbDimStyleTable
 71
     2
340
1E7
340
8C
  0
DIMSTYLE
105
27
330
A
100
AcDbSymbolTableRecord
100
AcDbDimStyleTableRecord
  2
Standard
 70
     0
340
11
  0
DIMSTYLE
105
8C
330
A
100
AcDbSymbolTableRecord
100
AcDbDimStyleTableRecord
  2
AM_ANSI
 70
     0
  4
mm
 41
0.1
 42
0.05
 43
0.5
 44
0.1
 47
0.1
 48
0.1
 78
     7
 79
     2
140
0.12
141
0.0
146
0.71
147
0.06
176
   256
177
   256
178
     2
274
     4
284
     7
340
11
371
    -1
372
    -1
  0
DIMSTYLE
105
8D
330
A
100
AcDbSymbolTableRecord
100
AcDbDimStyleTableRecord
  2
AM_ANSI$3
 70
     0
  4
mm
 41
0.1
 42
0.05
 43
0.5
 44
0.1
 47
0.1
 48
0.1
 78
     7
 79
     2
140
0.12
141
0.0
146
0.71
147
0.06
176
   256
177
   256
178
     2
274
     4
284
     7
288
     1
289
     0
340
11
371
    -1
372
    -1
  0
DIMSTYLE
105
8E
330
A
100
AcDbSymbolTableRecord
100
AcDbDimStyleTableRecord
  2
AM_ANSI$4
 70
     0
  4
mm
 41
0.1
 42
0.05
 43
0.5
 44
0.1
 47
0.1
 48
0.1
 78
     7
 79
     2
140
0.12
141
0.0
146
0.71
147
0.06
176
   256
177
   256
178
     2
274
     4
284
     7
288
     1
289
     0
340
11
371
    -1
372
    -1
  0
DIMSTYLE
105
8F
330
A
100
AcDbSymbolTableRecord
100
AcDbDimStyleTableRecord
  2
AM_ANSI$7
 70
     0
  4
mm
 41
0.1
 42
0.05
 43
0.5
 44
0.1
 47
0.1
 48
0.1
 78
     7
 79
     2
140
0.24
141
0.0
146
0.71
147
0.06
176
   256
177
   256
178
     2
274
     4
284
     7
340
11
371
    -1
372
    -1
  0
DIMSTYLE
105
90
330
A
100
AcDbSymbolTableRecord
100
AcDbDimStyleTableRecord
  2
AM_ANSI$SF
 70
     0
  4
mm
 41
0.1
 42
0.05
 43
0.5
 44
0.1
 47
0.1
 48
0.1
 75
     1
 76
     1
 78
     7
 79
     2
140
0.12
141
0.0
146
0.71
147
0.06
176
   256
177
   256
178
     2
274
     4
284
     7
340
11
371
    -1
372
    -1
  0
DIMSTYLE
105
95
330
A
100
AcDbSymbolTableRecord
100
AcDbDimStyleTableRecord
  2
AM_ANSI$SH
 70
     0
  4
mm
 41
0.1
 42
0.05
 43
0.5
 44
0.1
 47
0.1
 48
0.1
 75
     1
 76
     1
 78
     7
 79
     2
140
0.12
141
0.0
146
0.71
147
0.06
173
     1
176
   256
177
   256
178
     2
274
     4
284
     7
340
11
343
91
371
    -1
372
    -1
  0
DIMSTYLE
105
1E7
102
{ACAD_REACTORS
330
1C06
102
}
330
A
100
AcDbSymbolTableRecord
100
AcDbDimStyleTableRecord
  2
AM_ISO
 70
     0
  4
"
 41
3.5
 42
1.0
 43
10.0
 44
1.0
 47
0.1
 48
0.1
 73
     0
 74
     0
 77
     1
 78
     8
 79
     2
140
3.5
141
0.0
143
0.0393701
146
0.71
147
1.5
172
     1
176
   256
177
   256
178
     2
271
     2
272
     3
274
     4
283
     0
284
     8
340
11
371
    -1
372
    -1
1001
ACAD_DSTYLE_DIMARC_LENGTH_SYMBOL
1070
   379
1070
     1
1001
ACAD_DSTYLE_DIM_LINETYPE
1070
   380
1005
14
1001
ACAD_DSTYLE_DIM_EXT1_LINETYPE
1070
   381
1005
14
1001
ACAD_DSTYLE_DIM_EXT2_LINETYPE
1070
   382
1005
14
  0
DIMSTYLE
105
1E8
330
A
100
AcDbSymbolTableRecord
100
AcDbDimStyleTableRecord
  2
AM_ISO$3
 70
     0
  4
"
 41
3.5
 42
1.0
 43
10.0
 44
1.0
 47
0.1
 48
0.1
 73
     0
 77
     1
 78
     8
 79
     2
140
3.5
141
0.0
143
0.0393701
146
0.71
147
1.5
176
   256
177
   256
178
     2
271
     2
272
     3
274
     4
283
     0
284
     8
288
     1
289
     0
340
11
371
    -1
372
    -1
1001
ACAD_DSTYLE_DIMARC_LENGTH_SYMBOL
1070
   379
1070
     1
1001
ACAD_DSTYLE_DIM_LINETYPE
1070
   380
1005
14
1001
ACAD_DSTYLE_DIM_EXT1_LINETYPE
1070
   381
1005
14
1001
ACAD_DSTYLE_DIM_EXT2_LINETYPE
1070
   382
1005
14
  0
DIMSTYLE
105
1E9
330
A
100
AcDbSymbolTableRecord
100
AcDbDimStyleTableRecord
  2
AM_ISO$4
 70
     0
  4
"
 41
3.5
 42
1.0
 43
10.0
 44
1.0
 47
0.1
 48
0.1
 73
     0
 74
     0
 77
     1
 78
     8
 79
     2
140
3.5
141
0.0
143
0.0393701
146
0.71
147
1.5
172
     1
176
   256
177
   256
178
     2
271
     2
272
     3
274
     4
283
     0
284
     8
340
11
371
    -1
372
    -1
1001
ACAD_DSTYLE_DIMARC_LENGTH_SYMBOL
1070
   379
1070
     1
1001
ACAD_DSTYLE_DIM_LINETYPE
1070
   380
1005
14
1001
ACAD_DSTYLE_DIM_EXT1_LINETYPE
1070
   381
1005
14
1001
ACAD_DSTYLE_DIM_EXT2_LINETYPE
1070
   382
1005
14
  0
DIMSTYLE
105
1EA
330
A
100
AcDbSymbolTableRecord
100
AcDbDimStyleTableRecord
  2
AM_ISO$6
 70
     0
  4
"
 41
3.5
 42
1.0
 43
10.0
 44
1.0
 47
0.1
 48
0.1
 73
     0
 74
     0
 78
     8
 79
     2
140
3.5
141
0.0
143
0.0393701
146
0.71
147
1.5
172
     1
176
   256
177
   256
178
     2
271
     2
272
     3
274
     4
283
     0
284
     8
340
11
371
    -1
372
    -1
1001
ACAD_DSTYLE_DIMARC_LENGTH_SYMBOL
1070
   379
1070
     1
1001
ACAD_DSTYLE_DIM_LINETYPE
1070
   380
1005
14
1001
ACAD_DSTYLE_DIM_EXT1_LINETYPE
1070
   381
1005
14
1001
ACAD_DSTYLE_DIM_EXT2_LINETYPE
1070
   382
1005
14
  0
DIMSTYLE
105
1EB
330
A
100
AcDbSymbolTableRecord
100
AcDbDimStyleTableRecord
  2
AM_ISO$7
 70
     0
  4
"
 41
3.5
 42
1.0
 43
10.0
 44
1.0
 47
0.1
 48
0.1
 73
     0
 74
     0
 77
     1
 78
     8
 79
     2
140
3.5
141
0.0
143
0.0393701
146
0.71
147
1.5
172
     1
176
   256
177
   256
178
     2
271
     2
272
     3
274
     4
283
     0
284
     8
340
11
371
    -1
372
    -1
1001
ACAD_DSTYLE_DIMARC_LENGTH_SYMBOL
1070
   379
1070
     1
1001
ACAD_DSTYLE_DIM_LINETYPE
1070
   380
1005
14
1001
ACAD_DSTYLE_DIM_EXT1_LINETYPE
1070
   381
1005
14
1001
ACAD_DSTYLE_DIM_EXT2_LINETYPE
1070
   382
1005
14
  0
DIMSTYLE
105
1EC
330
A
100
AcDbSymbolTableRecord
100
AcDbDimStyleTableRecord
  2
AM_ISO$SF
 70
     0
  4
"
 41
3.5
 42
1.0
 43
10.0
 44
1.0
 47
0.1
 48
0.1
 73
     0
 74
     0
 75
     1
 76
     1
 77
     1
 78
     8
 79
     2
140
3.5
141
0.0
143
0.0393701
146
0.71
147
1.5
172
     1
176
   256
177
   256
178
     2
271
     2
272
     3
274
     4
283
     0
284
     8
340
11
371
    -1
372
    -1
1001
ACAD_DSTYLE_DIMARC_LENGTH_SYMBOL
1070
   379
1070
     1
1001
ACAD_DSTYLE_DIM_LINETYPE
1070
   380
1005
14
1001
ACAD_DSTYLE_DIM_EXT1_LINETYPE
1070
   381
1005
14
1001
ACAD_DSTYLE_DIM_EXT2_LINETYPE
1070
   382
1005
14
  0
DIMSTYLE
105
1ED
330
A
100
AcDbSymbolTableRecord
100
AcDbDimStyleTableRecord
  2
AM_ISO$SH
 70
     0
  4
"
 41
3.5
 42
1.0
 43
10.0
 44
1.0
 47
0.1
 48
0.1
 73
     0
 74
     0
 75
     1
 76
     1
 77
     1
 78
     8
 79
     2
140
3.5
141
0.0
143
0.0393701
144
2.0
146
0.71
147
1.5
172
     1
173
     1
176
   256
177
   256
178
     2
271
     2
272
     3
274
     4
283
     0
284
     8
340
11
343
91
371
    -1
372
    -1
1001
ACAD_DSTYLE_DIMARC_LENGTH_SYMBOL
1070
   379
1070
     1
1001
ACAD_DSTYLE_DIM_LINETYPE
1070
   380
1005
14
1001
ACAD_DSTYLE_DIM_EXT1_LINETYPE
1070
   381
1005
14
1001
ACAD_DSTYLE_DIM_EXT2_LINETYPE
1070
   382
1005
14
  0
DIMSTYLE
105
205
330
A
100
AcDbSymbolTableRecord
100
AcDbDimStyleTableRecord
  2
GEN-ISO
 70
     0
  4
"
 41
2.5
 42
1.0
 43
10.0
 44
1.0
 47
0.1
 48
0.1
 73
     0
 74
     0
 77
     1
 78
     8
140
3.5
141
0.0
143
0.0393701
146
0.71
147
1.5
172
     1
176
   256
177
   256
178
     2
271
     2
272
     3
274
     4
283
     0
340
11
  0
DIMSTYLE
105
206
330
A
100
AcDbSymbolTableRecord
100
AcDbDimStyleTableRecord
  2
GEN-ISO$3
 70
     0
  4
"
 41
2.5
 42
1.0
 43
10.0
 44
1.0
 47
0.1
 48
0.1
 73
     0
 77
     1
 78
     8
140
3.5
141
0.0
143
0.0393701
146
0.71
147
1.5
176
   256
177
   256
178
     2
271
     2
272
     3
274
     4
283
     0
288
     1
289
     0
340
11
  0
DIMSTYLE
105
207
330
A
100
AcDbSymbolTableRecord
100
AcDbDimStyleTableRecord
  2
GEN-ISO$4
 70
     0
  4
"
 41
2.5
 42
1.0
 43
10.0
 44
1.0
 47
0.1
 48
0.1
 73
     0
 77
     1
 78
     8
140
3.5
141
0.0
143
0.0393701
146
0.71
147
1.5
176
   256
177
   256
178
     2
271
     2
272
     3
274
     4
283
     0
288
     1
289
     0
340
11
  0
DIMSTYLE
105
208
330
A
100
AcDbSymbolTableRecord
100
AcDbDimStyleTableRecord
  2
GEN-ISO$6
 70
     0
  4
"
 41
2.5
 42
1.0
 43
10.0
 44
1.0
 47
0.1
 48
0.1
 73
     0
 74
     0
 78
     8
140
3.5
141
0.0
143
0.0393701
146
0.71
147
1.5
176
   256
177
   256
178
     2
271
     2
272
     3
274
     4
283
     0
340
11
  0
DIMSTYLE
105
209
330
A
100
AcDbSymbolTableRecord
100
AcDbDimStyleTableRecord
  2
GEN-ISO-POS
 70
     0
  4
"
 41
2.5
 42
1.0
 43
10.0
 44
1.0
 47
0.1
 48
0.1
 73
     0
 74
     0
 78
     8
140
5.0
141
0.0
143
0.0393701
146
0.71
147
1.5
176
   256
177
   256
178
     2
271
     2
272
     3
274
     4
283
     0
340
11
  0
DIMSTYLE
105
20A
330
A
100
AcDbSymbolTableRecord
100
AcDbDimStyleTableRecord
  2
GEN-ISO-AXE-F
 70
     0
  4
"
 41
2.5
 42
1.0
 43
10.0
 44
1.0
 47
0.1
 48
0.1
 73
     0
 74
     0
 75
     1
 76
     1
 77
     1
 78
     8
140
3.5
141
0.0
143
0.0393701
146
0.71
147
1.5
172
     1
176
   256
177
   256
178
     2
271
     2
272
     3
274
     4
283
     0
340
11
  0
DIMSTYLE
105
20B
330
A
100
AcDbSymbolTableRecord
100
AcDbDimStyleTableRecord
  2
GEN-ISO-AXE-H
 70
     0
  4
"
 41
2.5
 42
1.0
 43
10.0
 44
1.0
 47
0.1
 48
0.1
 73
     0
 74
     0
 75
     1
 76
     1
 77
     1
 78
     8
140
3.5
141
0.0
143
0.0393701
144
2.0
146
0.71
147
1.5
172
     1
173
     1
176
   256
177
   256
178
     2
271
     2
272
     3
274
     4
283
     0
340
11
  0
DIMSTYLE
105
2BD
330
A
100
AcDbSymbolTableRecord
100
AcDbDimStyleTableRecord
  2
ISO-35
 70
     0
 41
3.5
 42
0.875
 43
5.25
 44
1.75
 73
     0
 74
     0
 77
     1
 78
     8
140
3.5
141
3.5
143
0.0394
147
0.875
171
     4
172
     1
273
     8
274
     4
277
     6
340
11
341
1F8
342
1F8
  0
DIMSTYLE
105
2BE
330
A
100
AcDbSymbolTableRecord
100
AcDbDimStyleTableRecord
  2
ISO-5
 70
     0
 41
5.0
 42
1.25
 43
7.5
 44
2.5
 73
     0
 74
     0
 77
     1
 78
     8
140
5.0
141
5.0
143
0.0394
147
1.25
171
     4
172
     1
273
     8
274
     4
277
     6
340
11
341
1F8
342
1F8
  0
DIMSTYLE
105
2BF
330
A
100
AcDbSymbolTableRecord
100
AcDbDimStyleTableRecord
  2
ISO-7
 70
     0
 41
7.0
 42
1.75
 43
10.5
 44
3.5
 73
     0
 74
     0
 77
     1
 78
     8
140
7.0
141
7.0
143
0.0394
147
1.75
171
     4
172
     1
273
     8
274
     4
277
     6
340
11
341
1F8
342
1F8
  0
DIMSTYLE
105
2C0
330
A
100
AcDbSymbolTableRecord
100
AcDbDimStyleTableRecord
  2
ISO-4
 70
     0
 41
14.0
 42
3.5
 43
21.0
 44
7.0
 73
     0
 74
     0
 77
     1
 78
     8
140
14.0
141
14.0
143
0.0394
147
3.5
171
     4
172
     1
273
     8
274
     4
277
     6
340
11
341
1F8
342
1F8
  0
DIMSTYLE
105
C87
330
A
100
AcDbSymbolTableRecord
100
AcDbDimStyleTableRecord
  2
ISO-25
 70
     0
 41
2.5
 42
0.625
 43
3.75
 44
1.25
 73
     0
 74
     0
 77
     1
 78
     8
140
2.5
141
2.5
143
0.03937007874016
147
0.625
171
     3
172
     1
271
     2
272
     2
274
     3
278
    44
283
     0
284
     8
340
11
341
1F8
342
1F8
  0
DIMSTYLE
105
E42
330
A
100
AcDbSymbolTableRecord
100
AcDbDimStyleTableRecord
  2
AM_JIS
 70
     0
  4
"
 41
2.5
 42
1.0
 43
10.0
 44
1.0
 47
0.1
 48
0.1
 73
     0
 74
     0
 77
     3
 78
     8
 79
     2
140
3.5
141
0.0
143
0.0393701
146
0.71
147
1.5
172
     1
176
   256
177
   256
178
     2
271
     2
272
     3
274
     4
283
     0
340
11
341
1F8
342
1F8
343
1F8
344
1F8
371
    -1
372
    -1
  0
DIMSTYLE
105
E43
330
A
100
AcDbSymbolTableRecord
100
AcDbDimStyleTableRecord
  2
AM_JIS$3
 70
     0
  4
"
 41
2.5
 42
1.0
 43
10.0
 44
1.0
 47
0.1
 48
0.1
 73
     0
 77
     3
 78
     8
 79
     2
140
3.5
141
0.0
143
0.0393701
146
0.71
147
1.5
176
   256
177
   256
178
     2
271
     2
272
     3
274
     4
283
     0
288
     1
289
     0
340
11
341
1F8
342
1F8
343
1F8
344
1F8
371
    -1
372
    -1
  0
DIMSTYLE
105
E44
330
A
100
AcDbSymbolTableRecord
100
AcDbDimStyleTableRecord
  2
AM_JIS$4
 70
     0
  4
"
 41
2.5
 42
1.0
 43
10.0
 44
1.0
 47
0.1
 48
0.1
 73
     0
 77
     3
 78
     8
 79
     2
140
3.5
141
0.0
143
0.0393701
146
0.71
147
1.5
176
   256
177
   256
178
     2
271
     2
272
     3
274
     4
283
     0
288
     1
289
     0
340
11
341
1F8
342
1F8
343
1F8
344
1F8
371
    -1
372
    -1
  0
DIMSTYLE
105
E45
330
A
100
AcDbSymbolTableRecord
100
AcDbDimStyleTableRecord
  2
AM_JIS$6
 70
     0
  4
"
 41
2.5
 42
1.0
 43
10.0
 44
1.0
 47
0.1
 48
0.1
 73
     0
 74
     0
 78
     8
 79
     2
140
3.5
141
0.0
143
0.0393701
146
0.71
147
1.5
172
     1
176
   256
177
   256
178
     2
271
     2
272
     3
274
     4
283
     0
340
11
341
1F8
342
1F8
343
1F8
344
1F8
371
    -1
372
    -1
  0
DIMSTYLE
105
E46
330
A
100
AcDbSymbolTableRecord
100
AcDbDimStyleTableRecord
  2
AM_JIS$7
 70
     0
  4
"
 41
2.5
 42
1.0
 43
10.0
 44
1.0
 47
0.1
 48
0.1
 73
     0
 74
     0
 77
     3
 78
     8
 79
     2
140
5.0
141
0.0
143
0.0393701
146
0.71
147
1.5
172
     1
176
   256
177
   256
178
     2
271
     2
272
     3
274
     4
283
     0
340
11
341
1F8
342
1F8
343
1F8
344
1F8
371
    -1
372
    -1
  0
DIMSTYLE
105
E47
330
A
100
AcDbSymbolTableRecord
100
AcDbDimStyleTableRecord
  2
AM_JIS$SF
 70
     0
  4
"
 41
2.5
 42
1.0
 43
10.0
 44
1.0
 47
0.1
 48
0.1
 73
     0
 74
     0
 75
     1
 76
     1
 77
     3
 78
     8
 79
     2
140
3.5
141
0.0
143
0.0393701
146
0.71
147
1.5
172
     1
176
   256
177
   256
178
     2
271
     2
272
     3
274
     4
283
     0
340
11
341
1F8
342
1F8
343
1F8
344
1F8
371
    -1
372
    -1
  0
DIMSTYLE
105
E48
330
A
100
AcDbSymbolTableRecord
100
AcDbDimStyleTableRecord
  2
AM_JIS$SH
 70
     0
  4
"
 41
2.5
 42
1.0
 43
10.0
 44
1.0
 47
0.1
 48
0.1
 73
     0
 74
     0
 75
     1
 76
     1
 77
     3
 78
     8
 79
     2
140
3.5
141
0.0
143
0.0393701
144
2.0
146
0.71
147
1.5
172
     1
173
     1
176
   256
177
   256
178
     2
271
     2
272
     3
274
     4
283
     0
340
11
341
1F8
342
1F8
343
91
344
1F8
371
    -1
372
    -1
  0
DIMSTYLE
105
104A
102
{ACAD_REACTORS
330
12FD
330
1330
330
1352
102
}
330
A
100
AcDbSymbolTableRecord
100
AcDbDimStyleTableRecord
  2
AM_ISO$0
 70
     0
  4
"
 41
3.5
 42
1.0
 43
10.0
 44
1.0
 47
0.1
 48
0.1
 73
     0
 74
     0
 77
     1
 78
     8
 79
     2
140
3.5
141
0.0
143
0.0393701
146
0.71
147
1.5
172
     1
176
   256
177
   256
178
     2
271
     2
272
     3
274
     4
283
     0
284
     8
340
11
371
    -1
372
    -1
1001
ACAD_DSTYLE_DIMARC_LENGTH_SYMBOL
1070
   379
1070
     1
1001
ACAD_DSTYLE_DIM_LINETYPE
1070
   380
1005
14
1001
ACAD_DSTYLE_DIM_EXT1_LINETYPE
1070
   381
1005
14
1001
ACAD_DSTYLE_DIM_EXT2_LINETYPE
1070
   382
1005
14
  0
ENDTAB
  0
TABLE
  2
BLOCK_RECORD
  5
1
330
0
100
AcDbSymbolTable
 70
    46
  0
BLOCK_RECORD
  5
1F
102
{ACAD_XDICTIONARY
360
99
102
}
330
1
100
AcDbSymbolTableRecord
100
AcDbBlockTableRecord
  2
*Model_Space
340
22
  0
BLOCK_RECORD
  5
23
330
1
100
AcDbSymbolTableRecord
100
AcDbBlockTableRecord
  2
*Paper_Space
340
26
  0
BLOCK_RECORD
  5
1B
330
1
100
AcDbSymbolTableRecord
100
AcDbBlockTableRecord
  2
*Paper_Space0
340
1E
  0
BLOCK_RECORD
  5
91
330
1
100
AcDbSymbolTableRecord
100
AcDbBlockTableRecord
  2
GENAXEH
340
0
  0
BLOCK_RECORD
  5
1F8
330
1
100
AcDbSymbolTableRecord
100
AcDbBlockTableRecord
  2
_Open30
340
0
  0
BLOCK_RECORD
  5
224
102
{ACAD_XDICTIONARY
360
22D
102
}
330
1
100
AcDbSymbolTableRecord
100
AcDbBlockTableRecord
  2
TAKACHI-A3
340
0
  0
BLOCK_RECORD
  5
242
102
{ACAD_XDICTIONARY
360
297
102
}
330
1
100
AcDbSymbolTableRecord
100
AcDbBlockTableRecord
  2
TAKACHI-TITLE
340
0
  0
BLOCK_RECORD
  5
A0D
102
{ACAD_XDICTIONARY
360
A15
102
}
330
1
100
AcDbSymbolTableRecord
100
AcDbBlockTableRecord
  2
TAKACHI-A3-2
340
0
  0
BLOCK_RECORD
  5
A20
102
{ACAD_XDICTIONARY
360
A79
102
}
330
1
100
AcDbSymbolTableRecord
100
AcDbBlockTableRecord
  2
TAKACHI-TITLEA3
340
0
  0
BLOCK_RECORD
  5
AA1
102
{ACAD_XDICTIONARY
360
AA9
102
}
330
1
100
AcDbSymbolTableRecord
100
AcDbBlockTableRecord
  2
TAKACHI-A4-2
340
0
  0
BLOCK_RECORD
  5
AE9
102
{ACAD_XDICTIONARY
360
AF1
102
}
330
1
100
AcDbSymbolTableRecord
100
AcDbBlockTableRecord
  2
TK-A3
340
0
102
{BLKREFS
331
C01
102
}
  0
BLOCK_RECORD
  5
AFC
102
{ACAD_XDICTIONARY
360
B55
102
}
330
1
100
AcDbSymbolTableRecord
100
AcDbBlockTableRecord
  2
TK-TITLE
340
0
102
{BLKREFS
331
C03
102
}
  0
BLOCK_RECORD
  5
C34
330
1
100
AcDbSymbolTableRecord
100
AcDbBlockTableRecord
  2
M3x5ﾄﾗｽ
340
0
310
2800000020000000200000000100080000000000000400000000000000000000000000000000000000000000000080000080000000808000800000008000800080800000C0C0C000C0DCC000F0CAA6000020400000206000002080000020A0000020C0000020E00000400000004020000040400000406000004080000040A0
310
000040C0000040E00000600000006020000060400000606000006080000060A0000060C0000060E00000800000008020000080400000806000008080000080A0000080C0000080E00000A0000000A0200000A0400000A0600000A0800000A0A00000A0C00000A0E00000C0000000C0200000C0400000C0600000C0800000C0
310
A00000C0C00000C0E00000E0000000E0200000E0400000E0600000E0800000E0A00000E0C00000E0E00040000000400020004000400040006000400080004000A0004000C0004000E00040200000402020004020400040206000402080004020A0004020C0004020E000404000004040200040404000404060004040800040
310
40A0004040C0004040E00040600000406020004060400040606000406080004060A0004060C0004060E00040800000408020004080400040806000408080004080A0004080C0004080E00040A0000040A0200040A0400040A0600040A0800040A0A00040A0C00040A0E00040C0000040C0200040C0400040C0600040C08000
310
40C0A00040C0C00040C0E00040E0000040E0200040E0400040E0600040E0800040E0A00040E0C00040E0E00080000000800020008000400080006000800080008000A0008000C0008000E00080200000802020008020400080206000802080008020A0008020C0008020E00080400000804020008040400080406000804080
310
008040A0008040C0008040E00080600000806020008060400080606000806080008060A0008060C0008060E00080800000808020008080400080806000808080008080A0008080C0008080E00080A0000080A0200080A0400080A0600080A0800080A0A00080A0C00080A0E00080C0000080C0200080C0400080C0600080C0
310
800080C0A00080C0C00080C0E00080E0000080E0200080E0400080E0600080E0800080E0A00080E0C00080E0E000C0000000C0002000C0004000C0006000C0008000C000A000C000C000C000E000C0200000C0202000C0204000C0206000C0208000C020A000C020C000C020E000C0400000C0402000C0404000C0406000C0
310
408000C040A000C040C000C040E000C0600000C0602000C0604000C0606000C0608000C060A000C060C000C060E000C0800000C0802000C0804000C0806000C0808000C080A000C080C000C080E000C0A00000C0A02000C0A04000C0A06000C0A08000C0A0A000C0A0C000C0A0E000C0C00000C0C02000C0C04000C0C06000
310
C0C08000C0C0A000F0FBFF00A4A0A000808080000000FF0000FF000000FFFF00FF000000FF00FF00FFFF0000FFFFFF00000000000000000000000000000000000000000000000000000000000000000000000000000000000000000000000000000000000000A4A40000000000000000000000000000000000000000000000
310
00000000000000A4A4000000000000000000000000000000000000000000000000000000000000A4A4A40000000000000000000000000000000000000000000000000000000000A4A4A40000000000000000000000000000000000000000000000000000000000A4A400A40000000000000000000000000000000000000000
310
0000000000000000A4A400A400000000000000000000000000000000000000000000000000000000A4A400A400000000000000000000000000000000000000000000000000000000A4A40000A400000000000000A4A4A4A4A4A4A4A4A4A4A4A4A4A4A4A4A4A4A4A4A4A40000A400000000000000A400000000000000000000
310
000000A400A4A4A400A4A4000000A4000000000000A4A4A4A4A4A4A4A4A4A4A4A4A4A4A4A400000000A4A4000000A4000000000000A400000000000000000000000000A40000000000A4A4000000A4000000000000A400000000000000000000000000A40000000000A4A400000000A40000000000A4000000000000000000
310
00000000A40000000000A4A400000000A40000000000A400000000000000000000000000A40000000000A4A40000000000A400000000A400000000000000000000000000A40000000000A4A40000000000A400000000A400000000000000000000000000A40000000000A4A40000000000A400000000A40000000000000000
310
0000000000A40000000000A4A400000000A40000000000A400000000000000000000000000A40000000000A4A400000000A40000000000A4A4A4A4A4A4A4A4A4A4A4A4A4A4A4A400000000A4A4000000A4000000000000A400000000000000000000000000A400A4A4A400A4A4000000A4000000000000A4A4A4A4A4A4A4A4
310
A4A4A4A4A4A4A4A4A4A4A4A4A4A40000A4000000000000000000000000000000000000000000000000000000A4A40000A4000000000000000000000000000000000000000000000000000000A4A40000A4000000000000000000000000000000000000000000000000000000A4A400A4000000000000000000000000000000
310
00000000000000000000000000A4A400A400000000000000000000000000000000000000000000000000000000A4A4A40000000000000000000000000000000000000000000000000000000000A4A4A40000000000000000000000000000000000000000000000000000000000A4A400000000000000000000000000000000
310
0000000000000000000000000000A4A400000000000000000000000000000000000000000000000000000000000000000000000000000000
1001
ACAD
1000
DesignCenter Data
1002
{
1070
     1
1070
     4
1002
}
  0
BLOCK_RECORD
  5
C4A
330
1
100
AcDbSymbolTableRecord
100
AcDbBlockTableRecord
  2
M3x5ﾄﾗｽ頭
340
0
310
2800000020000000200000000100080000000000000400000000000000000000000000000000000000000000000080000080000000808000800000008000800080800000C0C0C000C0DCC000F0CAA6000020400000206000002080000020A0000020C0000020E00000400000004020000040400000406000004080000040A0
310
000040C0000040E00000600000006020000060400000606000006080000060A0000060C0000060E00000800000008020000080400000806000008080000080A0000080C0000080E00000A0000000A0200000A0400000A0600000A0800000A0A00000A0C00000A0E00000C0000000C0200000C0400000C0600000C0800000C0
310
A00000C0C00000C0E00000E0000000E0200000E0400000E0600000E0800000E0A00000E0C00000E0E00040000000400020004000400040006000400080004000A0004000C0004000E00040200000402020004020400040206000402080004020A0004020C0004020E000404000004040200040404000404060004040800040
310
40A0004040C0004040E00040600000406020004060400040606000406080004060A0004060C0004060E00040800000408020004080400040806000408080004080A0004080C0004080E00040A0000040A0200040A0400040A0600040A0800040A0A00040A0C00040A0E00040C0000040C0200040C0400040C0600040C08000
310
40C0A00040C0C00040C0E00040E0000040E0200040E0400040E0600040E0800040E0A00040E0C00040E0E00080000000800020008000400080006000800080008000A0008000C0008000E00080200000802020008020400080206000802080008020A0008020C0008020E00080400000804020008040400080406000804080
310
008040A0008040C0008040E00080600000806020008060400080606000806080008060A0008060C0008060E00080800000808020008080400080806000808080008080A0008080C0008080E00080A0000080A0200080A0400080A0600080A0800080A0A00080A0C00080A0E00080C0000080C0200080C0400080C0600080C0
310
800080C0A00080C0C00080C0E00080E0000080E0200080E0400080E0600080E0800080E0A00080E0C00080E0E000C0000000C0002000C0004000C0006000C0008000C000A000C000C000C000E000C0200000C0202000C0204000C0206000C0208000C020A000C020C000C020E000C0400000C0402000C0404000C0406000C0
310
408000C040A000C040C000C040E000C0600000C0602000C0604000C0606000C0608000C060A000C060C000C060E000C0800000C0802000C0804000C0806000C0808000C080A000C080C000C080E000C0A00000C0A02000C0A04000C0A06000C0A08000C0A0A000C0A0C000C0A0E000C0C00000C0C02000C0C04000C0C06000
310
C0C08000C0C0A000F0FBFF00A4A0A000808080000000FF0000FF000000FFFF00FF000000FF00FF00FFFF0000FFFFFF000000000000000000000000000000000000000000000000000000000000000000000000000000000000000000000000000000A4A4000000000000000000000000000000000000000000000000000000
310
0000A4A4A40000000000000000000000000000000000000000000000000000000000A4A4A400000000000000000000000000000000000000000000000000000000A400A4A4000000000000000000000000000000000000000000000000000000A40000A4A40000000000000000000000000000000000000000000000000000
310
00A40000A4A40000000000000000000000000000000000000000000000000000A4000000A4A400000000000000000000000000000000000000000000000000A400000000A4A400000000000000000000000000000000000000000000000000A400000000A4A4000000000000000000000000000000000000000000000000A4
310
0000000000A4A4000000000000000000000000000000000000000000000000A40000000000A4A4000000000000000000000000000000000000000000000000A40000000000A4A4000000000000000000000000000000000000000000000000A40000000000A4A4000000000000000000000000000000000000000000000000
310
A40000000000A4A4000000000000000000000000000000000000000000000000A40000000000A4A4000000000000000000000000000000000000000000000000A40000000000A4A4000000000000000000000000000000000000000000000000A40000000000A4A40000000000000000000000000000000000000000000000
310
00A40000000000A4A4000000000000000000000000000000000000000000000000A40000000000A4A4000000000000000000000000000000000000000000000000A40000000000A4A4000000000000000000000000000000000000000000000000A40000000000A4A400000000000000000000000000000000000000000000
310
000000A400000000A4A400000000000000000000000000000000000000000000000000A400000000A4A40000000000000000000000000000000000000000000000000000A4000000A4A4000000000000000000000000000000000000000000000000000000A40000A4A4000000000000000000000000000000000000000000
310
000000000000A40000A4A400000000000000000000000000000000000000000000000000000000A400A4A40000000000000000000000000000000000000000000000000000000000A4A4A40000000000000000000000000000000000000000000000000000000000A4A4A40000000000000000000000000000000000000000
310
00000000000000000000A4A40000000000000000000000000000000000000000000000000000000000000000000000000000000000000000
1001
ACAD
1000
DesignCenter Data
1002
{
1070
     1
1070
     4
1002
}
  0
BLOCK_RECORD
  5
C58
330
1
100
AcDbSymbolTableRecord
100
AcDbBlockTableRecord
  2
M3x5ﾄﾗｽ-2
340
0
310
2800000020000000200000000100080000000000000400000000000000000000000000000000000000000000000080000080000000808000800000008000800080800000C0C0C000C0DCC000F0CAA6000020400000206000002080000020A0000020C0000020E00000400000004020000040400000406000004080000040A0
310
000040C0000040E00000600000006020000060400000606000006080000060A0000060C0000060E00000800000008020000080400000806000008080000080A0000080C0000080E00000A0000000A0200000A0400000A0600000A0800000A0A00000A0C00000A0E00000C0000000C0200000C0400000C0600000C0800000C0
310
A00000C0C00000C0E00000E0000000E0200000E0400000E0600000E0800000E0A00000E0C00000E0E00040000000400020004000400040006000400080004000A0004000C0004000E00040200000402020004020400040206000402080004020A0004020C0004020E000404000004040200040404000404060004040800040
310
40A0004040C0004040E00040600000406020004060400040606000406080004060A0004060C0004060E00040800000408020004080400040806000408080004080A0004080C0004080E00040A0000040A0200040A0400040A0600040A0800040A0A00040A0C00040A0E00040C0000040C0200040C0400040C0600040C08000
310
40C0A00040C0C00040C0E00040E0000040E0200040E0400040E0600040E0800040E0A00040E0C00040E0E00080000000800020008000400080006000800080008000A0008000C0008000E00080200000802020008020400080206000802080008020A0008020C0008020E00080400000804020008040400080406000804080
310
008040A0008040C0008040E00080600000806020008060400080606000806080008060A0008060C0008060E00080800000808020008080400080806000808080008080A0008080C0008080E00080A0000080A0200080A0400080A0600080A0800080A0A00080A0C00080A0E00080C0000080C0200080C0400080C0600080C0
310
800080C0A00080C0C00080C0E00080E0000080E0200080E0400080E0600080E0800080E0A00080E0C00080E0E000C0000000C0002000C0004000C0006000C0008000C000A000C000C000C000E000C0200000C0202000C0204000C0206000C0208000C020A000C020C000C020E000C0400000C0402000C0404000C0406000C0
310
408000C040A000C040C000C040E000C0600000C0602000C0604000C0606000C0608000C060A000C060C000C060E000C0800000C0802000C0804000C0806000C0808000C080A000C080C000C080E000C0A00000C0A02000C0A04000C0A06000C0A08000C0A0A000C0A0C000C0A0E000C0C00000C0C02000C0C04000C0C06000
310
C0C08000C0C0A000F0FBFF00A4A0A000808080000000FF0000FF000000FFFF00FF000000FF00FF00FFFF0000FFFFFF0000000000000000000000000000000000000000000000000000000000000000000000000000000000000000000000A4A4A400000000000000000000000000000000000000000000000000A4A4A4A400
310
0000A4A4A4A400000000000000000000000000000000000000A4A40000000000000000000000A4A4A4000000000000000000000000000000A400000000000000000000000000000000A400000000000000000000000000A4000000000000000000000000000000000000A40000000000000000000000A40000000000000000
310
000000000000000000000000A4000000000000000000A400000000000000000000000000000000000000000000A400000000000000A4000000000000000000000000000000000000000000000000A4000000000000A4000000000000000000000000000000000000000000000000A4000000000000A4000000000000000000
310
00A4A4A4A40000000000000000000000A400000000A400000000000000000000A400000000A400000000000000000000A400000000A4000000000000000000A4000000000000A4000000000000000000A400000000A40000000000000000A40000000000000000A40000000000000000A400000000A400000000000000A400
310
000000000000000000A40000000000000000A40000A40000000000000000A400000000000000000000A40000000000000000A40000A40000000000000000A400000000000000000000A40000000000000000A40000A40000000000000000A400000000000000000000A40000000000000000A4000000A40000000000000000
310
A40000000000000000A40000000000000000A400000000A4000000000000000000A4000000000000A4000000000000000000A400000000A400000000000000000000A400000000A400000000000000000000A400000000A40000000000000000000000A4A4A4A40000000000000000000000A40000000000A4000000000000
310
000000000000000000000000000000000000A4000000000000A4000000000000000000000000000000000000000000000000A400000000000000A400000000000000000000000000000000000000000000A4000000000000000000A40000000000000000000000000000000000000000A40000000000000000000000A40000
310
00000000000000000000000000000000A400000000000000000000000000A400000000000000000000000000000000A4000000000000000000000000000000A4A4000000000000000000000000A4A4000000000000000000000000000000000000A4A4A4A400000000A4A4A4A4000000000000000000000000000000000000
310
000000000000A4A4A4A400000000000000000000000000000000000000000000000000000000000000000000000000000000000000000000
1001
ACAD
1000
DesignCenter Data
1002
{
1070
     1
1070
     4
1002
}
  0
BLOCK_RECORD
  5
C6C
330
1
100
AcDbSymbolTableRecord
100
AcDbBlockTableRecord
  2
M3x10ﾅﾍﾞ2
340
0
310
2800000020000000200000000100080000000000000400000000000000000000000000000000000000000000000080000080000000808000800000008000800080800000C0C0C000C0DCC000F0CAA6000020400000206000002080000020A0000020C0000020E00000400000004020000040400000406000004080000040A0
310
000040C0000040E00000600000006020000060400000606000006080000060A0000060C0000060E00000800000008020000080400000806000008080000080A0000080C0000080E00000A0000000A0200000A0400000A0600000A0800000A0A00000A0C00000A0E00000C0000000C0200000C0400000C0600000C0800000C0
310
A00000C0C00000C0E00000E0000000E0200000E0400000E0600000E0800000E0A00000E0C00000E0E00040000000400020004000400040006000400080004000A0004000C0004000E00040200000402020004020400040206000402080004020A0004020C0004020E000404000004040200040404000404060004040800040
310
40A0004040C0004040E00040600000406020004060400040606000406080004060A0004060C0004060E00040800000408020004080400040806000408080004080A0004080C0004080E00040A0000040A0200040A0400040A0600040A0800040A0A00040A0C00040A0E00040C0000040C0200040C0400040C0600040C08000
310
40C0A00040C0C00040C0E00040E0000040E0200040E0400040E0600040E0800040E0A00040E0C00040E0E00080000000800020008000400080006000800080008000A0008000C0008000E00080200000802020008020400080206000802080008020A0008020C0008020E00080400000804020008040400080406000804080
310
008040A0008040C0008040E00080600000806020008060400080606000806080008060A0008060C0008060E00080800000808020008080400080806000808080008080A0008080C0008080E00080A0000080A0200080A0400080A0600080A0800080A0A00080A0C00080A0E00080C0000080C0200080C0400080C0600080C0
310
800080C0A00080C0C00080C0E00080E0000080E0200080E0400080E0600080E0800080E0A00080E0C00080E0E000C0000000C0002000C0004000C0006000C0008000C000A000C000C000C000E000C0200000C0202000C0204000C0206000C0208000C020A000C020C000C020E000C0400000C0402000C0404000C0406000C0
310
408000C040A000C040C000C040E000C0600000C0602000C0604000C0606000C0608000C060A000C060C000C060E000C0800000C0802000C0804000C0806000C0808000C080A000C080C000C080E000C0A00000C0A02000C0A04000C0A06000C0A08000C0A0A000C0A0C000C0A0E000C0C00000C0C02000C0C04000C0C06000
310
C0C08000C0C0A000F0FBFF00A4A0A000808080000000FF0000FF000000FFFF00FF000000FF00FF00FFFF0000FFFFFF000000000000000000000000000000000000000000000000000000000000000000000000000000000000000000000000A4A4A400000000000000000000000000000000000000000000000000A4A4A4A4
310
000000A4A4A4A4000000000000000000000000000000000000A4A4A40000000000000000000000A4A4000000000000000000000000000000A400000000000000000000000000000000A400000000000000000000000000A4000000000000000000000000000000000000A40000000000000000000000A400000000000000A4
310
A4A4A4A4A400000000000000A4000000000000000000A40000000000000000A400000000A40000000000000000A400000000000000A4000000000000000000A400000000A4000000000000000000A4000000000000A40000000000000000A4000000000000A40000000000000000A4000000000000A400000000000000A400
310
00000000000000A40000000000000000A400000000A400000000000000A400000000000000000000A400000000000000A400000000A4000000000000A4000000000000000000000000A4000000000000A400000000A4000000A4A4A40000000000000000000000000000A4A4A4000000A400000000A4000000A40000000000
310
00000000000000000000000000A400000000A40000A400000000A4000000000000000000000000000000000000A400000000A40000A400000000A4000000000000000000000000000000000000A400000000A40000A400000000A4000000000000000000000000000000000000A400000000A4000000A4000000A4A4A40000
310
000000000000000000000000A4A4A4000000A400000000A4000000000000A4000000000000000000000000A4000000000000A400000000A400000000000000A400000000000000000000A400000000000000A400000000A40000000000000000A40000000000000000A40000000000000000A40000000000A4000000000000
310
0000A4000000000000A40000000000000000A4000000000000A4000000000000000000A400000000A4000000000000000000A400000000000000A40000000000000000A400000000A40000000000000000A4000000000000000000A400000000000000A4A4A4A4A4A400000000000000A40000000000000000000000A40000
310
00000000000000000000000000000000A400000000000000000000000000A400000000000000000000000000000000A4000000000000000000000000000000A4A4000000000000000000000000A4A4000000000000000000000000000000000000A4A4A4A400000000A4A4A4A4000000000000000000000000000000000000
310
000000000000A4A4A4A400000000000000000000000000000000000000000000000000000000000000000000000000000000000000000000
1001
ACAD
1000
DesignCenter Data
1002
{
1070
     1
1070
     4
1002
}
  0
BLOCK_RECORD
  5
D7F
330
1
100
AcDbSymbolTableRecord
100
AcDbBlockTableRecord
  2
M3x10ﾅﾍﾞ
340
0
310
2800000020000000200000000100080000000000000400000000000000000000000000000000000000000000000080000080000000808000800000008000800080800000C0C0C000C0DCC000F0CAA6000020400000206000002080000020A0000020C0000020E00000400000004020000040400000406000004080000040A0
310
000040C0000040E00000600000006020000060400000606000006080000060A0000060C0000060E00000800000008020000080400000806000008080000080A0000080C0000080E00000A0000000A0200000A0400000A0600000A0800000A0A00000A0C00000A0E00000C0000000C0200000C0400000C0600000C0800000C0
310
A00000C0C00000C0E00000E0000000E0200000E0400000E0600000E0800000E0A00000E0C00000E0E00040000000400020004000400040006000400080004000A0004000C0004000E00040200000402020004020400040206000402080004020A0004020C0004020E000404000004040200040404000404060004040800040
310
40A0004040C0004040E00040600000406020004060400040606000406080004060A0004060C0004060E00040800000408020004080400040806000408080004080A0004080C0004080E00040A0000040A0200040A0400040A0600040A0800040A0A00040A0C00040A0E00040C0000040C0200040C0400040C0600040C08000
310
40C0A00040C0C00040C0E00040E0000040E0200040E0400040E0600040E0800040E0A00040E0C00040E0E00080000000800020008000400080006000800080008000A0008000C0008000E00080200000802020008020400080206000802080008020A0008020C0008020E00080400000804020008040400080406000804080
310
008040A0008040C0008040E00080600000806020008060400080606000806080008060A0008060C0008060E00080800000808020008080400080806000808080008080A0008080C0008080E00080A0000080A0200080A0400080A0600080A0800080A0A00080A0C00080A0E00080C0000080C0200080C0400080C0600080C0
310
800080C0A00080C0C00080C0E00080E0000080E0200080E0400080E0600080E0800080E0A00080E0C00080E0E000C0000000C0002000C0004000C0006000C0008000C000A000C000C000C000E000C0200000C0202000C0204000C0206000C0208000C020A000C020C000C020E000C0400000C0402000C0404000C0406000C0
310
408000C040A000C040C000C040E000C0600000C0602000C0604000C0606000C0608000C060A000C060C000C060E000C0800000C0802000C0804000C0806000C0808000C080A000C080C000C080E000C0A00000C0A02000C0A04000C0A06000C0A08000C0A0A000C0A0C000C0A0E000C0C00000C0C02000C0C04000C0C06000
310
C0C08000C0C0A000F0FBFF00A4A0A000808080000000FF0000FF000000FFFF00FF000000FF00FF00FFFF0000FFFFFF0000000000000000000000000000000000000000000000000000000000000000000000000000000000000000000000000000000000000000000000000000000000000000000000000000000000A4A4A4
310
A4A4A4A4A40000000000000000000000000000000000000000000000A40000000000000000A4000000000000000000000000000000000000000000A400000000000000000000A40000000000000000000000000000000000000000A40000000000000000000000A4000000000000000000000000000000000000A4A4A4A4A4
310
A4A4A4A4A4A4A4A4A4000000000000000000000000000000000000000000A4000000000000A4000000000000000000000000000000000000000000000000A4A40000000000A4000000000000000000000000000000000000000000000000A4A400000000A4A4000000000000000000000000000000000000000000000000A4
310
A4A4A4A4A4A4A4000000000000000000000000000000000000000000000000A4A400000000A4A4000000000000000000000000000000000000000000000000A4A400000000A4A4000000000000000000000000000000000000000000000000A4A400000000A4A4000000000000000000000000000000000000000000000000
310
A4A400000000A4A4000000000000000000000000000000000000000000000000A4A400000000A4A4000000000000000000000000000000000000000000000000A4A400000000A4A4000000000000000000000000000000000000000000000000A4A400000000A4A40000000000000000000000000000000000000000000000
310
00A4A400000000A4A4000000000000000000000000000000000000000000000000A4A400000000A4A4000000000000000000000000000000000000000000000000A4A400000000A4A4000000000000000000000000000000000000000000000000A4A400000000A4A400000000000000000000000000000000000000000000
310
0000A4A400000000A4A4000000000000000000000000000000000000000000000000A4A400000000A4A4000000000000000000000000000000000000000000000000A4A400000000A4A4000000000000000000000000000000000000000000000000A4A400000000A4A4000000000000000000000000000000000000000000
310
000000A4A400000000A4A4000000000000000000000000000000000000000000000000A4A400000000A4A4000000000000000000000000000000000000000000000000A4A400000000A4A4000000000000000000000000000000000000000000000000A4A400000000A4A40000000000000000000000000000000000000000
310
00000000A4A4A4A4A4A4A4A40000000000000000000000000000000000000000000000000000000000000000000000000000000000000000
1001
ACAD
1000
DesignCenter Data
1002
{
1070
     1
1070
     4
1002
}
  0
BLOCK_RECORD
  5
ED8
102
{ACAD_XDICTIONARY
360
EEA
102
}
330
1
100
AcDbSymbolTableRecord
100
AcDbBlockTableRecord
  2
A$C0A5A384E
340
0
  0
BLOCK_RECORD
  5
EFC
102
{ACAD_XDICTIONARY
360
F0D
102
}
330
1
100
AcDbSymbolTableRecord
100
AcDbBlockTableRecord
  2
A$C74A544B9
340
0
  0
BLOCK_RECORD
  5
F1F
102
{ACAD_XDICTIONARY
360
F31
102
}
330
1
100
AcDbSymbolTableRecord
100
AcDbBlockTableRecord
  2
A$C7E216A30
340
0
102
{BLKREFS
331
F34
102
}
  0
BLOCK_RECORD
  5
F38
102
{ACAD_XDICTIONARY
360
F48
102
}
330
1
100
AcDbSymbolTableRecord
100
AcDbBlockTableRecord
  2
A$C5DA11B1F
340
0
102
{BLKREFS
331
F4D
331
F59
102
}
  0
BLOCK_RECORD
  5
11B2
330
1
100
AcDbSymbolTableRecord
100
AcDbBlockTableRecord
  2
ｺﾞﾑ足
340
0
310
2800000020000000200000000100080000000000000400000000000000000000000000000000000000000000000080000080000000808000800000008000800080800000C0C0C000C0DCC000F0CAA6000020400000206000002080000020A0000020C0000020E00000400000004020000040400000406000004080000040A0
310
000040C0000040E00000600000006020000060400000606000006080000060A0000060C0000060E00000800000008020000080400000806000008080000080A0000080C0000080E00000A0000000A0200000A0400000A0600000A0800000A0A00000A0C00000A0E00000C0000000C0200000C0400000C0600000C0800000C0
310
A00000C0C00000C0E00000E0000000E0200000E0400000E0600000E0800000E0A00000E0C00000E0E00040000000400020004000400040006000400080004000A0004000C0004000E00040200000402020004020400040206000402080004020A0004020C0004020E000404000004040200040404000404060004040800040
310
40A0004040C0004040E00040600000406020004060400040606000406080004060A0004060C0004060E00040800000408020004080400040806000408080004080A0004080C0004080E00040A0000040A0200040A0400040A0600040A0800040A0A00040A0C00040A0E00040C0000040C0200040C0400040C0600040C08000
310
40C0A00040C0C00040C0E00040E0000040E0200040E0400040E0600040E0800040E0A00040E0C00040E0E00080000000800020008000400080006000800080008000A0008000C0008000E00080200000802020008020400080206000802080008020A0008020C0008020E00080400000804020008040400080406000804080
310
008040A0008040C0008040E00080600000806020008060400080606000806080008060A0008060C0008060E00080800000808020008080400080806000808080008080A0008080C0008080E00080A0000080A0200080A0400080A0600080A0800080A0A00080A0C00080A0E00080C0000080C0200080C0400080C0600080C0
310
800080C0A00080C0C00080C0E00080E0000080E0200080E0400080E0600080E0800080E0A00080E0C00080E0E000C0000000C0002000C0004000C0006000C0008000C000A000C000C000C000E000C0200000C0202000C0204000C0206000C0208000C020A000C020C000C020E000C0400000C0402000C0404000C0406000C0
310
408000C040A000C040C000C040E000C0600000C0602000C0604000C0606000C0608000C060A000C060C000C060E000C0800000C0802000C0804000C0806000C0808000C080A000C080C000C080E000C0A00000C0A02000C0A04000C0A06000C0A08000C0A0A000C0A0C000C0A0E000C0C00000C0C02000C0C04000C0C06000
310
C0C08000C0C0A000F0FBFF00A4A0A000808080000000FF0000FF000000FFFF00FF000000FF00FF00FFFF0000FFFFFF0000000000000000000000000000000000000000000000000000000000000000000000000000000000000000000000000000000000000000000000000000000000000000000000000000000000000000
310
00000000000000000000000000000000000000000000000000000000000000000000000000000000000000000000000000000000000000000000000000000000000000000000000000000000000000000000000000A4A4A4A4A4A4A4A4A4A4A4A4A4A4A4A4A4A4A4A4A4A4A4A400000000000000A400000000000000000000
310
0000000000000000000000000000A4000000000000A4000000000000000000000000000000000000000000000000A4000000000000A4000000000000000000000000000000000000000000000000A40000000000A40000000000000000000000000000000000000000000000000000A400000000A400000000000000000000
310
00000000000000000000000000000000A400000000A40000000000000000000000000000000000000000000000000000A400000000A40000000000000000000000000000000000000000000000000000A4000000A400000000000000000000000000000000000000000000000000000000A40000A400000000000000000000
310
000000000000000000000000000000000000A40000A4A4A4A4A4A4A4A4A4A4A4A4A4A4A4A4A4A4A4A4A4A4A4A4A4A4A4A4A4A400000000000000000000A4000000000000000000000000A40000000000000000000000000000000000A4A4A4A4A4A4A4A4A4A4A4A4A4A4A4A400000000000000000000000000000000A40000
310
000000000000000000000000A400000000000000000000000000000000A40000000000000000000000000000A400000000000000000000000000000000A40000000000000000000000000000A400000000000000000000000000000000A40000000000000000000000000000A40000000000000000000000000000000000A4
310
000000000000000000000000A4000000000000000000000000000000000000A4000000000000000000000000A4000000000000000000000000000000000000A4000000000000000000000000A4000000000000000000000000000000000000A4000000000000000000000000A4000000000000000000000000000000000000
310
A4A4A4A4A4A4A4A4A4A4A4A4A4A40000000000000000000000000000000000000000000000000000000000000000000000000000000000000000000000000000000000000000000000000000000000000000000000000000000000000000000000000000000000000000000000000000000000000000000000000000000000
310
0000000000000000000000000000000000000000000000000000000000000000000000000000000000000000000000000000000000000000
1001
ACAD
1000
DesignCenter Data
1002
{
1070
     1
1070
     4
1002
}
  0
BLOCK_RECORD
  5
11C1
330
1
100
AcDbSymbolTableRecord
100
AcDbBlockTableRecord
  2
ｺﾞﾑ足2
340
0
310
2800000020000000200000000100080000000000000400000000000000000000000000000000000000000000000080000080000000808000800000008000800080800000C0C0C000C0DCC000F0CAA6000020400000206000002080000020A0000020C0000020E00000400000004020000040400000406000004080000040A0
310
000040C0000040E00000600000006020000060400000606000006080000060A0000060C0000060E00000800000008020000080400000806000008080000080A0000080C0000080E00000A0000000A0200000A0400000A0600000A0800000A0A00000A0C00000A0E00000C0000000C0200000C0400000C0600000C0800000C0
310
A00000C0C00000C0E00000E0000000E0200000E0400000E0600000E0800000E0A00000E0C00000E0E00040000000400020004000400040006000400080004000A0004000C0004000E00040200000402020004020400040206000402080004020A0004020C0004020E000404000004040200040404000404060004040800040
310
40A0004040C0004040E00040600000406020004060400040606000406080004060A0004060C0004060E00040800000408020004080400040806000408080004080A0004080C0004080E00040A0000040A0200040A0400040A0600040A0800040A0A00040A0C00040A0E00040C0000040C0200040C0400040C0600040C08000
310
40C0A00040C0C00040C0E00040E0000040E0200040E0400040E0600040E0800040E0A00040E0C00040E0E00080000000800020008000400080006000800080008000A0008000C0008000E00080200000802020008020400080206000802080008020A0008020C0008020E00080400000804020008040400080406000804080
310
008040A0008040C0008040E00080600000806020008060400080606000806080008060A0008060C0008060E00080800000808020008080400080806000808080008080A0008080C0008080E00080A0000080A0200080A0400080A0600080A0800080A0A00080A0C00080A0E00080C0000080C0200080C0400080C0600080C0
310
800080C0A00080C0C00080C0E00080E0000080E0200080E0400080E0600080E0800080E0A00080E0C00080E0E000C0000000C0002000C0004000C0006000C0008000C000A000C000C000C000E000C0200000C0202000C0204000C0206000C0208000C020A000C020C000C020E000C0400000C0402000C0404000C0406000C0
310
408000C040A000C040C000C040E000C0600000C0602000C0604000C0606000C0608000C060A000C060C000C060E000C0800000C0802000C0804000C0806000C0808000C080A000C080C000C080E000C0A00000C0A02000C0A04000C0A06000C0A08000C0A0A000C0A0C000C0A0E000C0C00000C0C02000C0C04000C0C06000
310
C0C08000C0C0A000F0FBFF00A4A0A000808080000000FF0000FF000000FFFF00FF000000FF00FF00FFFF0000FFFFFF0000000000000000000000000000000000000000000000000000000000000000000000000000000000000000000000000000000000000000000000000000000000000000000000000000000000000000
310
00000000000000000000000000000000000000000000000000000000000000000000000000000000000000000000000000000000000000000000000000000000000000000000000000000000000000000000000000000000000000000000000000000000000000000000000000000000000000000000000000000000000000
310
00000000000000000000000000000000000000000000000000000000000000000000000000000000000000000000000000000000000000000000000000000000000000000000000000000000000000000000000000000000000000000000000000000000000000000000000000000000000000000000000000000000000000
310
00000000000000000000000000000000000000000000A4A4A4A4A4A4A4A4A4A4A4A4A4A4A4A4A4A4A4A4A4A4A4A4A4A4000000000000A4000000000000000000000000000000000000000000000000A4000000000000A4000000000000000000000000000000000000000000000000A40000000000A4000000000000000000
310
0000000000000000000000000000000000A400000000A40000000000000000000000000000000000000000000000000000A400000000A40000000000000000000000000000000000000000000000000000A400000000A40000000000000000000000000000000000000000000000000000A4000000A4000000000000000000
310
00000000000000000000000000000000000000A40000A400000000000000000000000000000000000000000000000000000000A40000A4A4A4A4A4A4A4A4A4A4A4A4A4A4A4A4A4A4A4A4A4A4A4A4A4A4A4A4A4A400000000000000000000000000000000000000000000000000000000000000000000000000000000000000
310
00000000000000000000000000000000000000000000000000000000000000000000000000000000000000000000000000000000000000000000000000000000000000000000000000000000000000000000000000000000000000000000000000000000000000000000000000000000000000000000000000000000000000
310
00000000000000000000000000000000000000000000000000000000000000000000000000000000000000000000000000000000000000000000000000000000000000000000000000000000000000000000000000000000000000000000000000000000000000000000000000000000000000000000000000000000000000
310
0000000000000000000000000000000000000000000000000000000000000000000000000000000000000000000000000000000000000000
1001
ACAD
1000
DesignCenter Data
1002
{
1070
     1
1070
     4
1002
}
  0
BLOCK_RECORD
  5
11CA
330
1
100
AcDbSymbolTableRecord
100
AcDbBlockTableRecord
  2
ｺﾞﾑ足3
340
0
310
2800000020000000200000000100080000000000000400000000000000000000000000000000000000000000000080000080000000808000800000008000800080800000C0C0C000C0DCC000F0CAA6000020400000206000002080000020A0000020C0000020E00000400000004020000040400000406000004080000040A0
310
000040C0000040E00000600000006020000060400000606000006080000060A0000060C0000060E00000800000008020000080400000806000008080000080A0000080C0000080E00000A0000000A0200000A0400000A0600000A0800000A0A00000A0C00000A0E00000C0000000C0200000C0400000C0600000C0800000C0
310
A00000C0C00000C0E00000E0000000E0200000E0400000E0600000E0800000E0A00000E0C00000E0E00040000000400020004000400040006000400080004000A0004000C0004000E00040200000402020004020400040206000402080004020A0004020C0004020E000404000004040200040404000404060004040800040
310
40A0004040C0004040E00040600000406020004060400040606000406080004060A0004060C0004060E00040800000408020004080400040806000408080004080A0004080C0004080E00040A0000040A0200040A0400040A0600040A0800040A0A00040A0C00040A0E00040C0000040C0200040C0400040C0600040C08000
310
40C0A00040C0C00040C0E00040E0000040E0200040E0400040E0600040E0800040E0A00040E0C00040E0E00080000000800020008000400080006000800080008000A0008000C0008000E00080200000802020008020400080206000802080008020A0008020C0008020E00080400000804020008040400080406000804080
310
008040A0008040C0008040E00080600000806020008060400080606000806080008060A0008060C0008060E00080800000808020008080400080806000808080008080A0008080C0008080E00080A0000080A0200080A0400080A0600080A0800080A0A00080A0C00080A0E00080C0000080C0200080C0400080C0600080C0
310
800080C0A00080C0C00080C0E00080E0000080E0200080E0400080E0600080E0800080E0A00080E0C00080E0E000C0000000C0002000C0004000C0006000C0008000C000A000C000C000C000E000C0200000C0202000C0204000C0206000C0208000C020A000C020C000C020E000C0400000C0402000C0404000C0406000C0
310
408000C040A000C040C000C040E000C0600000C0602000C0604000C0606000C0608000C060A000C060C000C060E000C0800000C0802000C0804000C0806000C0808000C080A000C080C000C080E000C0A00000C0A02000C0A04000C0A06000C0A08000C0A0A000C0A0C000C0A0E000C0C00000C0C02000C0C04000C0C06000
310
C0C08000C0C0A000F0FBFF00A4A0A000808080000000FF0000FF000000FFFF00FF000000FF00FF00FFFF0000FFFFFF00000000000000000000000000000000000000000000000000000000000000000000000000000000000000000000000000000000000000000000000000000000000000000000000000000000A4A4A4A4
310
A4A4A4A4A4A40000000000000000000000000000000000000000A4A400000000000000000000A4A40000000000000000000000000000000000A40000000000000000000000000000A4000000000000000000000000000000A400000000000000000000000000000000A4000000000000000000000000A4A400000000000000
310
0000000000000000000000A4A4000000000000000000A400000000000000000000000000000000000000000000A40000000000000000A4000000000000000000A4A40000000000000000000000A400000000000000A4000000000000000000A4A4A4A4A4A4000000000000000000A4000000000000A400000000000000A4A4
310
A4000000A4A4A4A400000000000000A4000000000000A4000000000000A400A400000000000000A4A400000000000000A400000000A4000000000000A400A4000000000000000000A400000000000000A400000000A4000000000000A4A400000000000000000000A4A4000000000000A4000000A400000000000000A4A400
310
00000000000000000000A400000000000000A40000A400000000000000A4A40000000000000000000000A4A4000000000000A40000A400000000000000A4A40000000000000000000000A4A4000000000000A4000000A4000000000000A4A400000000000000000000A4A4000000000000A400000000A4000000000000A4A4
310
00000000000000000000A4A4000000000000A400000000A4000000000000A400A4000000000000000000A400000000000000A40000000000A4000000000000A400A400000000000000A4A4000000000000A4000000000000A400000000000000A4A4A400000000A4A4A400000000000000A4000000000000A4000000000000
310
000000A4A4A4A4A4A4000000000000000000A400000000000000A4000000000000000000A4A40000000000000000000000A40000000000000000A400000000000000000000000000000000000000000000A4000000000000000000A4A4000000000000000000000000000000000000A4A4000000000000000000000000A400
310
000000000000000000000000000000A4000000000000000000000000000000A40000000000000000000000000000A40000000000000000000000000000000000A4A400000000000000000000A4A40000000000000000000000000000000000000000A4A4A4A4A4A4A4A4A4A400000000000000000000000000000000000000
310
0000000000000000000000000000000000000000000000000000000000000000000000000000000000000000000000000000000000000000
1001
ACAD
1000
DesignCenter Data
1002
{
1070
     1
1070
     4
1002
}
  0
BLOCK_RECORD
  5
11D0
330
1
100
AcDbSymbolTableRecord
100
AcDbBlockTableRecord
  2
ｺﾞﾑ足4
340
0
310
2800000020000000200000000100080000000000000400000000000000000000000000000000000000000000000080000080000000808000800000008000800080800000C0C0C000C0DCC000F0CAA6000020400000206000002080000020A0000020C0000020E00000400000004020000040400000406000004080000040A0
310
000040C0000040E00000600000006020000060400000606000006080000060A0000060C0000060E00000800000008020000080400000806000008080000080A0000080C0000080E00000A0000000A0200000A0400000A0600000A0800000A0A00000A0C00000A0E00000C0000000C0200000C0400000C0600000C0800000C0
310
A00000C0C00000C0E00000E0000000E0200000E0400000E0600000E0800000E0A00000E0C00000E0E00040000000400020004000400040006000400080004000A0004000C0004000E00040200000402020004020400040206000402080004020A0004020C0004020E000404000004040200040404000404060004040800040
310
40A0004040C0004040E00040600000406020004060400040606000406080004060A0004060C0004060E00040800000408020004080400040806000408080004080A0004080C0004080E00040A0000040A0200040A0400040A0600040A0800040A0A00040A0C00040A0E00040C0000040C0200040C0400040C0600040C08000
310
40C0A00040C0C00040C0E00040E0000040E0200040E0400040E0600040E0800040E0A00040E0C00040E0E00080000000800020008000400080006000800080008000A0008000C0008000E00080200000802020008020400080206000802080008020A0008020C0008020E00080400000804020008040400080406000804080
310
008040A0008040C0008040E00080600000806020008060400080606000806080008060A0008060C0008060E00080800000808020008080400080806000808080008080A0008080C0008080E00080A0000080A0200080A0400080A0600080A0800080A0A00080A0C00080A0E00080C0000080C0200080C0400080C0600080C0
310
800080C0A00080C0C00080C0E00080E0000080E0200080E0400080E0600080E0800080E0A00080E0C00080E0E000C0000000C0002000C0004000C0006000C0008000C000A000C000C000C000E000C0200000C0202000C0204000C0206000C0208000C020A000C020C000C020E000C0400000C0402000C0404000C0406000C0
310
408000C040A000C040C000C040E000C0600000C0602000C0604000C0606000C0608000C060A000C060C000C060E000C0800000C0802000C0804000C0806000C0808000C080A000C080C000C080E000C0A00000C0A02000C0A04000C0A06000C0A08000C0A0A000C0A0C000C0A0E000C0C00000C0C02000C0C04000C0C06000
310
C0C08000C0C0A000F0FBFF00A4A0A000808080000000FF0000FF000000FFFF00FF000000FF00FF00FFFF0000FFFFFF0000000000000000000000000000000000000000000000000000000000000000000000000000000000000000000000000000000000000000000000000000000000000000000000000000000000000000
310
00000000000000000000000000000000000000000000000000000000000000000000000000000000000000000000000000000000000000000000000000000000000000000000000000000000000000000000000000000000000000000000000000000000000000000000000000000000000000000000000000000000000000
310
00000000000000000000000000000000000000000000000000000000000000000000000000000000000000000000000000000000000000000000000000000000000000000000000000000000000000000000000000000000000000000000000000000000000000000000000000000000000000000000000000000000000000
310
000000000000000000000000000000000000000000000000000000000000000000000000000000000000000000000000000000000000A4A4A4A4A4A4A4A4A4A4A4A4A4A4A4A4A4A4A4A4A4A4A4A4A4A4000000000000A4000000000000000000000000000000000000000000000000A40000000000A4000000000000000000
310
0000000000000000000000000000000000A400000000A40000000000000000000000000000000000000000000000000000A400000000A40000000000000000000000000000000000000000000000000000A400000000A40000000000000000000000000000000000000000000000000000A4000000A4000000000000000000
310
00000000000000000000000000000000000000A40000A400000000000000000000000000000000000000000000000000000000A4000000000000000000000000000000000000000000000000000000000000000000000000000000000000000000000000000000000000000000000000000000000000000000000000000000
310
00000000000000000000000000000000000000000000000000000000000000000000000000000000000000000000000000000000000000000000000000000000000000000000000000000000000000000000000000000000000000000000000000000000000000000000000000000000000000000000000000000000000000
310
00000000000000000000000000000000000000000000000000000000000000000000000000000000000000000000000000000000000000000000000000000000000000000000000000000000000000000000000000000000000000000000000000000000000000000000000000000000000000000000000000000000000000
310
0000000000000000000000000000000000000000000000000000000000000000000000000000000000000000000000000000000000000000
1001
ACAD
1000
DesignCenter Data
1002
{
1070
     1
1070
     4
1002
}
  0
BLOCK_RECORD
  5
12FE
330
1
100
AcDbSymbolTableRecord
100
AcDbBlockTableRecord
  2
*D23
340
0
  0
BLOCK_RECORD
  5
1331
330
1
100
AcDbSymbolTableRecord
100
AcDbBlockTableRecord
  2
*D24
340
0
  0
BLOCK_RECORD
  5
1353
330
1
100
AcDbSymbolTableRecord
100
AcDbBlockTableRecord
  2
*D25
340
0
  0
BLOCK_RECORD
  5
1A29
330
1
100
AcDbSymbolTableRecord
100
AcDbBlockTableRecord
  2
*S26
340
0
102
{BLKREFS
331
DEF
102
}
  0
BLOCK_RECORD
  5
1A30
330
1
100
AcDbSymbolTableRecord
100
AcDbBlockTableRecord
  2
*S27
340
0
102
{BLKREFS
331
DF4
102
}
  0
BLOCK_RECORD
  5
1A38
330
1
100
AcDbSymbolTableRecord
100
AcDbBlockTableRecord
  2
*S28
340
0
102
{BLKREFS
331
DF6
102
}
  0
BLOCK_RECORD
  5
1A3F
330
1
100
AcDbSymbolTableRecord
100
AcDbBlockTableRecord
  2
*S29
340
0
102
{BLKREFS
331
DF9
102
}
  0
BLOCK_RECORD
  5
1A47
330
1
100
AcDbSymbolTableRecord
100
AcDbBlockTableRecord
  2
*S30
340
0
102
{BLKREFS
331
DFB
102
}
  0
BLOCK_RECORD
  5
1A4E
330
1
100
AcDbSymbolTableRecord
100
AcDbBlockTableRecord
  2
*S31
340
0
102
{BLKREFS
331
DFE
102
}
  0
BLOCK_RECORD
  5
1A56
330
1
100
AcDbSymbolTableRecord
100
AcDbBlockTableRecord
  2
*S32
340
0
102
{BLKREFS
331
E11
102
}
  0
BLOCK_RECORD
  5
1A5D
330
1
100
AcDbSymbolTableRecord
100
AcDbBlockTableRecord
  2
*S33
340
0
102
{BLKREFS
331
E14
102
}
  0
BLOCK_RECORD
  5
1A65
330
1
100
AcDbSymbolTableRecord
100
AcDbBlockTableRecord
  2
*S34
340
0
102
{BLKREFS
331
F95
102
}
  0
BLOCK_RECORD
  5
1A6C
330
1
100
AcDbSymbolTableRecord
100
AcDbBlockTableRecord
  2
*S35
340
0
102
{BLKREFS
331
F98
102
}
  0
BLOCK_RECORD
  5
1A74
330
1
100
AcDbSymbolTableRecord
100
AcDbBlockTableRecord
  2
*S36
340
0
102
{BLKREFS
331
F9A
102
}
  0
ENDTAB
  0
ENDSEC
  0
SECTION
  2
BLOCKS
  0
BLOCK
  5
20
330
1F
100
AcDbEntity
  8
0
100
AcDbBlockBegin
  2
*Model_Space
 70
     0
 10
0.0
 20
0.0
 30
0.0
  3
*Model_Space
  1

  0
ENDBLK
  5
21
330
1F
100
AcDbEntity
  8
0
100
AcDbBlockEnd
  0
BLOCK
  5
24
330
23
100
AcDbEntity
 67
     1
  8
0
100
AcDbBlockBegin
  2
*Paper_Space
 70
     0
 10
0.0
 20
0.0
 30
0.0
  3
*Paper_Space
  1

  0
ENDBLK
  5
25
330
23
100
AcDbEntity
 67
     1
  8
0
100
AcDbBlockEnd
  0
BLOCK
  5
1C
330
1B
100
AcDbEntity
 67
     1
  8
0
100
AcDbBlockBegin
  2
*Paper_Space0
 70
     0
 10
0.0
 20
0.0
 30
0.0
  3
*Paper_Space0
  1

  0
VIEWPORT
  5
182
102
{ACAD_XDICTIONARY
360
1E09
102
}
330
1B
100
AcDbEntity
 67
     1
  8
0
100
AcDbViewport
 10
5.249999639556163
 20
3.999999883606677
 30
0.0
 40
14.57585398793907
 41
8.992999745766947
 68
     0
 69
     0
 12
5.249999639556163
 22
3.999999883606677
 13
0.0
 23
0.0
 14
10.0
 24
10.0
 15
10.0
 25
10.0
 16
0.0
 26
0.0
 36
1.0
 17
0.0
 27
0.0
 37
0.0
 42
50.0
 43
0.0
 44
0.0
 45
8.992999745766947
 50
0.0
 51
0.0
 72
   100
 90
    32800
  1

281
     0
 71
     1
 74
     0
110
0.0
120
0.0
130
0.0
111
1.0
121
0.0
131
0.0
112
0.0
122
1.0
132
0.0
 79
     0
146
0.0
1001
GENIUS_GENODEF_13
1002
{
1000
HIER
1070
     0
1002
}
1002
{
1000
MANEDIT
1070
     0
1002
}
1002
{
1000
NOSEL
1070
     0
1002
}
1002
{
1000
BEHIND
1070
     0
1002
}
1002
{
1000
OTHER
1070
     0
1002
}
1002
{
1000
REACTOR
1002
}
1001
GENIUS_GENOBJ-N-SDF_13
1002
{
1000
OWNER
1000
GEN
1002
}
1001
GENIUS_GENSCREG_15
1000
PF
1040
1.0
1000
DF
1040
1.0
1000
MIN
1011
-2.037927354413371
1021
-0.4964999892767957
1031
0.0
1000
MAX
1011
12.5379266335257
1021
8.496499756490152
1031
0.0
1000
FLAGS
1070
     4
  0
ENDBLK
  5
1D
330
1B
100
AcDbEntity
 67
     1
  8
0
100
AcDbBlockEnd
  0
BLOCK
  5
1B54
330
91
100
AcDbEntity
  8
0
100
AcDbBlockBegin
  2
GENAXEH
 70
     0
 10
0.0
 20
0.0
 30
0.0
  3
GENAXEH
  1

  0
LINE
  5
1B55
330
91
100
AcDbEntity
  8
0
100
AcDbLine
 10
-1.0
 20
0.0
 30
0.0
 11
1.0
 21
0.0
 31
0.0
  0
ENDBLK
  5
1B56
330
91
100
AcDbEntity
  8
0
100
AcDbBlockEnd
  0
BLOCK
  5
1B48
330
1F8
100
AcDbEntity
  8
0
100
AcDbBlockBegin
  2
_Open30
 70
     0
 10
0.0
 20
0.0
 30
0.0
  3
_Open30
  1

  0
LINE
  5
1B49
330
1F8
100
AcDbEntity
  8
0
  6
ByBlock
 62
     0
370
    -2
100
AcDbLine
 10
-1.0
 20
0.26794919
 30
0.0
 11
0.0
 21
0.0
 31
0.0
  0
LINE
  5
1B4A
330
1F8
100
AcDbEntity
  8
0
  6
ByBlock
 62
     0
370
    -2
100
AcDbLine
 10
0.0
 20
0.0
 30
0.0
 11
-1.0
 21
-0.26794919
 31
0.0
  0
LINE
  5
1B4B
330
1F8
100
AcDbEntity
  8
0
  6
ByBlock
 62
     0
370
    -2
100
AcDbLine
 10
0.0
 20
0.0
 30
0.0
 11
-1.0
 21
0.0
 31
0.0
  0
ENDBLK
  5
1B4C
330
1F8
100
AcDbEntity
  8
0
100
AcDbBlockEnd
  0
BLOCK
  5
22E
330
224
100
AcDbEntity
  8
0
100
AcDbBlockBegin
  2
TAKACHI-A3
 70
     0
 10
0.0
 20
0.0
 30
0.0
  3
TAKACHI-A3
  1

  0
LWPOLYLINE
  5
225
330
224
100
AcDbEntity
  8
0
100
AcDbPolyline
 90
        4
 70
     1
 43
0.0
 10
10.0
 20
0.0
 10
410.0
 20
0.0
 10
410.0
 20
280.0
 10
10.00000000000003
 20
280.0
1001
GENIUS_GENREC_14
1002
{
1000
PYDIR
1011
10.00000000000001
1021
280.0
1031
0.0
1002
}
1002
{
1000
PXDIR
1011
410.0
1021
0.0
1031
0.0
1002
}
1002
{
1000
PORI
1011
10.0
1021
0.0
1031
0.0
1002
}
1002
{
1000
PINS
1011
210.0
1021
139.9999999999999
1031
0.0
1002
}
1002
{
1000
HVAL
1000
280
1002
}
1002
{
1000
H
1070
     2
1002
}
1002
{
1000
WVAL
1000
400
1002
}
1002
{
1000
W
1070
     2
1002
}
1002
{
1000
C
1070
     4
1002
}
1001
GENIUS_GENODEF_13
1002
{
1000
HIER
1070
     0
1002
}
1002
{
1000
MANEDIT
1070
     0
1002
}
1002
{
1000
NOSEL
1070
     0
1002
}
1002
{
1000
BEHIND
1070
     0
1002
}
1002
{
1000
REACTOR
1002
}
1001
GENIUS_GENOBJ-N-REC_13
1002
{
1000
OWNER
1000
GEN
1002
}
  0
TEXT
  5
226
330
224
100
AcDbEntity
  8
0
 60
     1
100
AcDbText
 10
15.00000000000003
 20
50.0
 30
0.0
 40
2.5
  1
!GENTITLE-LL
100
AcDbText
  0
TEXT
  5
227
330
224
100
AcDbEntity
  8
0
 60
     1
100
AcDbText
 10
410.0
 20
0.0
 30
0.0
 40
2.5
  1
!GENTITLE-INSERT
100
AcDbText
  0
TEXT
  5
228
330
224
100
AcDbEntity
  8
0
 60
     1
100
AcDbText
 10
405.0
 20
275.0
 30
0.0
 40
2.5
  1
!GENTITLE-RU
100
AcDbText
  0
TEXT
  5
229
330
224
100
AcDbEntity
  8
0
 60
     1
100
AcDbText
 10
410.0
 20
280.0
 30
0.0
 40
2.5
  1
!GENTITLE-MAX
100
AcDbText
  0
LINE
  5
22A
330
224
100
AcDbEntity
  8
0
100
AcDbLine
 10
366.0
 20
275.0
 30
0.0
 11
410.0
 21
275.0
 31
0.0
  0
MTEXT
  5
22B
330
224
100
AcDbEntity
  8
0
100
AcDbMText
 10
409.3592953827348
 20
276.108542987227
 30
0.0
 40
2.5
 41
43.07840397728298
 71
     9
 72
     5
  1
(文書番号：TY-34)2004.10.29
 73
     1
 44
1.0
1001
ACAD
1000
MTEXTBEGIN
1070
    73
1070
     1
1070
    44
1040
1.0
1070
    74
1070
     0
1000
MTEXTEND
  0
LINE
  5
22C
330
224
100
AcDbEntity
  8
0
100
AcDbLine
 10
366.0
 20
280.0
 30
0.0
 11
366.0
 21
275.0
 31
0.0
  0
ENDBLK
  5
22F
330
224
100
AcDbEntity
  8
0
100
AcDbBlockEnd
  0
BLOCK
  5
298
330
242
100
AcDbEntity
  8
0
100
AcDbBlockBegin
  2
TAKACHI-TITLE
 70
     2
 10
0.0
 20
0.0
 30
0.0
  3
TAKACHI-TITLE
  1

  0
LINE
  5
243
330
242
100
AcDbEntity
  8
RAHM2
100
AcDbLine
 10
-195.0
 20
30.00000000000003
 30
0.0
 11
-94.0
 21
30.00000000000003
 31
0.0
  0
LINE
  5
244
330
242
100
AcDbEntity
  8
RAHM2
100
AcDbLine
 10
-195.0
 20
35.00000000000003
 30
0.0
 11
-94.0
 21
35.00000000000003
 31
0.0
  0
LINE
  5
245
330
242
100
AcDbEntity
  8
RAHM2
100
AcDbLine
 10
-195.0
 20
40.00000000000002
 30
0.0
 11
-94.0
 21
40.00000000000002
 31
0.0
  0
LINE
  5
246
330
242
100
AcDbEntity
  8
RAHM2
100
AcDbLine
 10
-195.0
 20
45.00000000000002
 30
0.0
 11
-94.0
 21
45.00000000000002
 31
0.0
  0
LINE
  5
247
330
242
100
AcDbEntity
  8
0
100
AcDbLine
 10
-195.0
 20
7.0
 30
0.0
 11
-94.0
 21
7.0
 31
0.0
  0
LINE
  5
248
330
242
100
AcDbEntity
  8
0
100
AcDbLine
 10
-195.0
 20
19.99999999999997
 30
0.0
 11
-94.0
 21
19.99999999999997
 31
0.0
  0
ATTDEF
  5
249
330
242
100
AcDbEntity
  8
0
100
AcDbText
 10
-183.2438527145607
 20
8.617517191094748
 30
0.0
 40
2.5
  1

 11
-183.2438527145607
 21
8.617517191094748
 31
0.0
100
AcDbAttributeDefinition
  3
サブタイトル
  2
GEN-TITLE-DES2
 70
     0
 74
     1
  0
ATTDEF
  5
24A
330
242
100
AcDbEntity
  8
0
100
AcDbText
 10
-183.2438527145607
 20
1.617517191094748
 30
0.0
 40
3.0
  1

 11
-183.2438527145607
 21
1.617517191094748
 31
0.0
100
AcDbAttributeDefinition
  3
図番
  2
GEN-TITLE-NR
 70
     0
 74
     1
  0
MTEXT
  5
24B
330
242
100
AcDbEntity
  8
RAHM2
100
AcDbMText
 10
-193.8002551371314
 20
5.801035407279641
 30
0.0
 40
2.5
 41
90.0
 71
     1
 72
     5
  1
図番
 73
     1
 44
1.0
1001
ACAD
1000
MTEXTBEGIN
1070
    73
1070
     1
1070
    44
1040
1.0
1070
    74
1070
     0
1000
MTEXTEND
  0
ATTDEF
  5
24C
330
242
100
AcDbEntity
  8
0
100
AcDbText
 10
-183.2438527145607
 20
13.87395286168501
 30
0.0
 40
4.0
  1

 11
-183.2438527145607
 21
13.87395286168501
 31
0.0
100
AcDbAttributeDefinition
  3
品名
  2
GEN-TITLE-DES1
 70
     0
 74
     1
  0
LINE
  5
24D
330
242
100
AcDbEntity
  8
RAHM2
100
AcDbLine
 10
-187.5751288694036
 20
30.40000000000004
 30
0.0
 11
-190.0
 21
34.60000000000003
 31
0.0
  0
LINE
  5
24E
330
242
100
AcDbEntity
  8
RAHM2
100
AcDbLine
 10
-190.0
 20
34.60000000000003
 30
0.0
 11
-192.4248711305964
 21
30.40000000000004
 31
0.0
  0
LINE
  5
24F
330
242
100
AcDbEntity
  8
RAHM2
100
AcDbLine
 10
-185.0
 20
50.00000000000003
 30
0.0
 11
-185.0
 21
19.99999999999994
 31
0.0
  0
LINE
  5
250
330
242
100
AcDbEntity
  8
RAHM2
100
AcDbLine
 10
-192.4248711305964
 20
30.40000000000004
 30
0.0
 11
-187.5751288694036
 21
30.40000000000004
 31
0.0
  0
MTEXT
  5
251
330
242
100
AcDbEntity
  8
RAHM2
100
AcDbMText
 10
-190.0
 20
22.49999999999997
 30
0.0
 40
2.5
 41
10.0
 71
     5
 72
     5
  1
符号
 73
     1
 44
1.0
1001
ACAD
1000
MTEXTBEGIN
1070
    73
1070
     1
1070
    44
1040
1.0
1070
    74
1070
     0
1000
MTEXTEND
  0
MTEXT
  5
252
330
242
100
AcDbEntity
  8
RAHM2
100
AcDbMText
 10
-193.8002551371314
 20
18.80103540727961
 30
0.0
 40
2.5
 41
90.0
 71
     1
 72
     5
  1
品名
 73
     1
 44
1.0
1001
ACAD
1000
MTEXTBEGIN
1070
    73
1070
     1
1070
    44
1040
1.0
1070
    74
1070
     0
1000
MTEXTEND
  0
LINE
  5
253
330
242
100
AcDbEntity
  8
RAHM2
100
AcDbLine
 10
-192.4248711305964
 20
45.40000000000003
 30
0.0
 11
-187.5751288694036
 21
45.40000000000003
 31
0.0
  0
LINE
  5
254
330
242
100
AcDbEntity
  8
RAHM2
100
AcDbLine
 10
-187.5751288694036
 20
45.40000000000003
 30
0.0
 11
-190.0
 21
49.60000000000002
 31
0.0
  0
LINE
  5
255
330
242
100
AcDbEntity
  8
RAHM2
100
AcDbLine
 10
-192.4248711305964
 20
40.40000000000003
 30
0.0
 11
-187.5751288694036
 21
40.40000000000003
 31
0.0
  0
LINE
  5
256
330
242
100
AcDbEntity
  8
RAHM2
100
AcDbLine
 10
-187.5751288694036
 20
40.40000000000003
 30
0.0
 11
-190.0
 21
44.60000000000002
 31
0.0
  0
LINE
  5
257
330
242
100
AcDbEntity
  8
RAHM2
100
AcDbLine
 10
-192.4248711305964
 20
35.40000000000004
 30
0.0
 11
-187.5751288694036
 21
35.40000000000004
 31
0.0
  0
LINE
  5
258
330
242
100
AcDbEntity
  8
RAHM2
100
AcDbLine
 10
-187.5751288694036
 20
35.40000000000004
 30
0.0
 11
-190.0
 21
39.60000000000002
 31
0.0
  0
LINE
  5
259
330
242
100
AcDbEntity
  8
RAHM2
100
AcDbLine
 10
-190.0
 20
39.60000000000002
 30
0.0
 11
-192.4248711305964
 21
35.40000000000004
 31
0.0
  0
LINE
  5
25A
330
242
100
AcDbEntity
  8
RAHM2
100
AcDbLine
 10
-190.0
 20
44.60000000000002
 30
0.0
 11
-192.4248711305964
 21
40.40000000000003
 31
0.0
  0
LINE
  5
25B
330
242
100
AcDbEntity
  8
RAHM2
100
AcDbLine
 10
-190.0
 20
49.60000000000002
 30
0.0
 11
-192.4248711305964
 21
45.40000000000003
 31
0.0
  0
LINE
  5
25C
330
242
100
AcDbEntity
  8
RAHM2
100
AcDbLine
 10
-129.0
 20
50.00000000000003
 30
0.0
 11
-129.0
 21
19.99999999999994
 31
0.0
  0
MTEXT
  5
25D
330
242
100
AcDbEntity
  8
RAHM2
100
AcDbMText
 10
-157.1448171868856
 20
22.49999999999997
 30
0.0
 40
2.5
 41
45.0
 71
     5
 72
     5
  1
変更記事
 73
     1
 44
1.0
1001
ACAD
1000
MTEXTBEGIN
1070
    73
1070
     1
1070
    44
1040
1.0
1070
    74
1070
     0
1000
MTEXTEND
  0
LINE
  5
25E
330
242
100
AcDbEntity
  8
0
100
AcDbLine
 10
-34.0
 20
50.0
 30
0.0
 11
-34.0
 21
0.0
 31
0.0
  0
LINE
  5
25F
330
242
100
AcDbEntity
  8
0
100
AcDbLine
 10
-94.0
 20
50.0
 30
0.0
 11
-94.0
 21
0.0
 31
0.0
  0
MTEXT
  5
260
330
242
100
AcDbEntity
  8
0
100
AcDbMText
 10
-64.0
 20
5.0
 30
0.0
 40
3.5
 41
60.0
 71
     5
 72
     5
  1
\fＭＳ ゴシック|b0|i0|c128|p49;株式会社タカチ電機工業
 73
     1
 44
1.0
1001
ACAD
1000
MTEXTBEGIN
1070
    73
1070
     1
1070
    44
1040
1.0
1070
    74
1070
     0
1000
MTEXTEND
  0
LINE
  5
261
330
242
100
AcDbEntity
  8
0
100
AcDbLine
 10
-94.0
 20
10.0
 30
0.0
 11
-34.0
 21
10.0
 31
0.0
  0
ATTDEF
  5
262
330
242
100
AcDbEntity
  8
0
100
AcDbText
 10
-58.01405119799745
 20
39.25500556178349
 30
0.0
 40
3.0
  1

 72
     2
 11
-58.01405119799745
 21
39.25500556178349
 31
0.0
100
AcDbAttributeDefinition
  3
尺度
  2
GEN-TITLE-SCA
 70
     0
  0
ATTDEF
  5
263
330
242
100
AcDbEntity
  8
0
100
AcDbText
 10
-77.00284966649007
 20
30.62180787943475
 30
0.0
 40
3.0
  1

 11
-77.00284966649007
 21
30.62180787943475
 31
0.0
100
AcDbAttributeDefinition
  3
材質
  2
GEN-TITLE-MAT1
 70
     0
 74
     1
  0
ATTDEF
  5
264
330
242
100
AcDbEntity
  8
0
100
AcDbText
 10
-77.00284966649007
 20
20.62180787943475
 30
0.0
 40
3.0
  1

 11
-77.00284966649007
 21
20.62180787943475
 31
0.0
100
AcDbAttributeDefinition
  3
表面処理
  2
GEN-TITLE-MAT2
 70
     0
 74
     1
  0
ATTDEF
  5
265
330
242
100
AcDbEntity
  8
0
100
AcDbText
 10
-77.00284966649007
 20
11.61751719109475
 30
0.0
 40
3.0
  1

 11
-77.00284966649007
 21
11.61751719109475
 31
0.0
100
AcDbAttributeDefinition
  3
日付
  2
GEN-TITLE-DAT
 70
     0
 74
     1
  0
LINE
  5
266
330
242
100
AcDbEntity
  8
0
100
AcDbLine
 10
-94.0
 20
37.5
 30
0.0
 11
-34.0
 21
37.5
 31
0.0
  0
LINE
  5
267
330
242
100
AcDbEntity
  8
0
100
AcDbLine
 10
-94.0
 20
27.5
 30
0.0
 11
-34.0
 21
27.5
 31
0.0
  0
LINE
  5
268
330
242
100
AcDbEntity
  8
0
100
AcDbLine
 10
-94.0
 20
17.5
 30
0.0
 11
-34.0
 21
17.5
 31
0.0
  0
LINE
  5
269
330
242
100
AcDbEntity
  8
RAHM2
100
AcDbLine
 10
-109.0
 20
50.00000000000003
 30
0.0
 11
-109.0
 21
19.99999999999994
 31
0.0
  0
MTEXT
  5
26A
330
242
100
AcDbEntity
  8
RAHM2
100
AcDbMText
 10
-119.4582894723942
 20
32.50000000000003
 30
0.0
 40
2.5
 41
20.0
 71
     5
 72
     5
  1
・  ・   
 73
     1
 44
1.0
1001
ACAD
1000
MTEXTBEGIN
1070
    73
1070
     1
1070
    44
1040
1.0
1070
    74
1070
     0
1000
MTEXTEND
  0
MTEXT
  5
26B
330
242
100
AcDbEntity
  8
RAHM2
100
AcDbMText
 10
-118.738119805002
 20
22.49999999999997
 30
0.0
 40
2.5
 41
20.0
 71
     5
 72
     5
  1
年・月・日
 73
     1
 44
1.0
1001
ACAD
1000
MTEXTBEGIN
1070
    73
1070
     1
1070
    44
1040
1.0
1070
    74
1070
     0
1000
MTEXTEND
  0
MTEXT
  5
26C
330
242
100
AcDbEntity
  8
RAHM2
100
AcDbMText
 10
-101.5
 20
22.49999999999997
 30
0.0
 40
2.5
 41
15.0
 71
     5
 72
     5
  1
担当
 73
     1
 44
1.0
1001
ACAD
1000
MTEXTBEGIN
1070
    73
1070
     1
1070
    44
1040
1.0
1070
    74
1070
     0
1000
MTEXTEND
  0
MTEXT
  5
26D
330
242
100
AcDbEntity
  8
RAHM2
100
AcDbMText
 10
-119.4582894723942
 20
42.50000000000002
 30
0.0
 40
2.5
 41
20.0
 71
     5
 72
     5
  1
・  ・   
 73
     1
 44
1.0
1001
ACAD
1000
MTEXTBEGIN
1070
    73
1070
     1
1070
    44
1040
1.0
1070
    74
1070
     0
1000
MTEXTEND
  0
MTEXT
  5
26E
330
242
100
AcDbEntity
  8
RAHM2
100
AcDbMText
 10
-119.4582894723942
 20
37.50000000000003
 30
0.0
 40
2.5
 41
20.0
 71
     5
 72
     5
  1
・  ・   
 73
     1
 44
1.0
1001
ACAD
1000
MTEXTBEGIN
1070
    73
1070
     1
1070
    44
1040
1.0
1070
    74
1070
     0
1000
MTEXTEND
  0
MTEXT
  5
26F
330
242
100
AcDbEntity
  8
RAHM2
100
AcDbMText
 10
-119.4582894723942
 20
47.50000000000002
 30
0.0
 40
2.5
 41
20.0
 71
     5
 72
     5
  1
・  ・   
 73
     1
 44
1.0
1001
ACAD
1000
MTEXTBEGIN
1070
    73
1070
     1
1070
    44
1040
1.0
1070
    74
1070
     0
1000
MTEXTEND
  0
MTEXT
  5
270
330
242
100
AcDbEntity
  8
RAHM2
100
AcDbMText
 10
-92.80025513713145
 20
16.30103540727964
 30
0.0
 40
2.5
 41
60.0
 71
     1
 72
     5
  1
日付
 73
     1
 44
1.0
1001
ACAD
1000
MTEXTBEGIN
1070
    73
1070
     1
1070
    44
1040
1.0
1070
    74
1070
     0
1000
MTEXTEND
  0
MTEXT
  5
271
330
242
100
AcDbEntity
  8
RAHM2
100
AcDbMText
 10
-92.80025513713145
 20
26.30103540727964
 30
0.0
 40
2.5
 41
60.0
 71
     1
 72
     5
  1
表面処理
 73
     1
 44
1.0
1001
ACAD
1000
MTEXTBEGIN
1070
    73
1070
     1
1070
    44
1040
1.0
1070
    74
1070
     0
1000
MTEXTEND
  0
LINE
  5
272
330
242
100
AcDbEntity
  8
7A
100
AcDbLine
 10
-89.0
 20
43.75
 30
0.0
 11
-75.2186915997147
 21
43.75
 31
0.0
1001
GENIUS_GENOREF_13
1005
285
  0
LINE
  5
273
330
242
100
AcDbEntity
  8
0
100
AcDbLine
 10
-84.0
 20
45.75
 30
0.0
 11
-76.0
 21
46.74999999999999
 31
0.0
  0
LINE
  5
274
330
242
100
AcDbEntity
  8
0
100
AcDbLine
 10
-76.0
 20
40.75
 30
0.0
 11
-84.0
 21
41.74999999999999
 31
0.0
  0
LINE
  5
275
330
242
100
AcDbEntity
  8
7A
100
AcDbLine
 10
-89.0
 20
43.75
 30
0.0
 11
-89.0
 21
47.32478664473148
 31
0.0
1001
GENIUS_GENOREF_13
1005
285
  0
CIRCLE
  5
276
330
242
100
AcDbEntity
  8
0
100
AcDbCircle
 10
-89.0
 20
43.75
 30
0.0
 40
2.0
  0
CIRCLE
  5
277
330
242
100
AcDbEntity
  8
0
100
AcDbCircle
 10
-89.0
 20
43.75
 30
0.0
 40
3.0
  0
LINE
  5
278
330
242
100
AcDbEntity
  8
0
100
AcDbLine
 10
-84.0
 20
41.74999999999999
 30
0.0
 11
-84.0
 21
45.75
 31
0.0
  0
MTEXT
  5
279
330
242
100
AcDbEntity
  8
RAHM2
100
AcDbMText
 10
-92.80025513713145
 20
36.30103540727964
 30
0.0
 40
2.5
 41
60.0
 71
     1
 72
     5
  1
材質
 73
     1
 44
1.0
1001
ACAD
1000
MTEXTBEGIN
1070
    73
1070
     1
1070
    44
1040
1.0
1070
    74
1070
     0
1000
MTEXTEND
  0
LINE
  5
27A
330
242
100
AcDbEntity
  8
7A
100
AcDbLine
 10
-89.0
 20
43.75
 30
0.0
 11
-92.72303737125117
 21
43.75
 31
0.0
1001
GENIUS_GENOREF_13
1005
285
  0
LINE
  5
27B
330
242
100
AcDbEntity
  8
7A
100
AcDbLine
 10
-89.0
 20
43.75
 30
0.0
 11
-89.0
 21
40.03991724228479
 31
0.0
1001
GENIUS_GENOREF_13
1005
285
  0
LINE
  5
27C
330
242
100
AcDbEntity
  8
0
100
AcDbLine
 10
-76.0
 20
46.74999999999999
 30
0.0
 11
-76.0
 21
40.75
 31
0.0
  0
LINE
  5
27D
330
242
100
AcDbEntity
  8
0
100
AcDbLine
 10
-74.0
 20
50.0
 30
0.0
 11
-74.0
 21
37.5
 31
0.0
  0
MTEXT
  5
27E
330
242
100
AcDbEntity
  8
RAHM2
100
AcDbMText
 10
-72.80025513713145
 20
48.80103540727964
 30
0.0
 40
2.5
 41
20.0
 71
     1
 72
     5
  1
尺度
 73
     1
 44
1.0
1001
ACAD
1000
MTEXTBEGIN
1070
    73
1070
     1
1070
    44
1040
1.0
1070
    74
1070
     0
1000
MTEXTEND
  0
ATTDEF
  5
27F
330
242
100
AcDbEntity
  8
0
100
AcDbText
 10
-37.76317379391503
 20
39.25500556178349
 30
0.0
 40
3.0
  1

 72
     2
 11
-37.76317379391503
 21
39.25500556178349
 31
0.0
100
AcDbAttributeDefinition
  3
数量
  2
GEN-TITLE-QTY
 70
     0
  0
LINE
  5
280
330
242
100
AcDbEntity
  8
0
100
AcDbLine
 10
-34.0
 20
25.0
 30
0.0
 11
0.0
 21
25.0
 31
0.0
  0
LINE
  5
281
330
242
100
AcDbEntity
  8
0
100
AcDbLine
 10
-54.0
 20
50.0
 30
0.0
 11
-54.0
 21
37.5
 31
0.0
  0
MTEXT
  5
282
330
242
100
AcDbEntity
  8
RAHM2
100
AcDbMText
 10
-52.80025513713145
 20
48.80103540727964
 30
0.0
 40
2.5
 41
20.0
 71
     1
 72
     5
  1
数量
 73
     1
 44
1.0
1001
ACAD
1000
MTEXTBEGIN
1070
    73
1070
     1
1070
    44
1040
1.0
1070
    74
1070
     0
1000
MTEXTEND
  0
MTEXT
  5
283
330
242
100
AcDbEntity
  8
RAHM2
100
AcDbMText
 10
-25.5
 20
23.80103540727964
 30
0.0
 40
2.5
 41
17.0
 71
     2
 72
     5
  1
承認
 73
     1
 44
1.0
1001
ACAD
1000
MTEXTBEGIN
1070
    73
1070
     1
1070
    44
1040
1.0
1070
    74
1070
     0
1000
MTEXTEND
  0
MTEXT
  5
284
330
242
100
AcDbEntity
  8
RAHM2
100
AcDbMText
 10
-25.5
 20
48.80103540727964
 30
0.0
 40
2.5
 41
17.0
 71
     2
 72
     5
  1
承認
 73
     1
 44
1.0
1001
ACAD
1000
MTEXTBEGIN
1070
    73
1070
     1
1070
    44
1040
1.0
1070
    74
1070
     0
1000
MTEXTEND
  0
POINT
  5
285
330
242
100
AcDbEntity
  8
0
 60
     1
100
AcDbPoint
 10
-320.5355579819676
 20
-138.1104841268254
 30
0.0
1001
GENIUS_GENODEF_13
1002
{
1000
HIER
1070
    10
1002
}
1002
{
1000
MANEDIT
1070
     0
1002
}
1002
{
1000
NOSEL
1070
     0
1002
}
1002
{
1000
BEHIND
1070
     0
1002
}
1002
{
1000
REACTOR
1002
}
1001
GENIUS_GENOBJ-N-CRS_13
1002
{
1000
OWNER
1000
GEN
1002
}
1001
GENIUS_GENOENT_13
1002
{
1000
MYREF
1005
285
1002
}
1002
{
1000
GRP
1005
0
1002
}
1001
GENIUS_GENOLIS_13
1002
{
1000
ENT
1005
27B
1005
27A
1005
275
1005
272
1002
}
  0
LINE
  5
286
330
242
100
AcDbEntity
  8
RAHM2
100
AcDbLine
 10
-190.0
 20
29.60000000000002
 30
0.0
 11
-192.4248711305964
 21
25.40000000000004
 31
0.0
  0
LINE
  5
287
330
242
100
AcDbEntity
  8
RAHM2
100
AcDbLine
 10
-187.5751288694036
 20
25.40000000000004
 30
0.0
 11
-190.0
 21
29.60000000000002
 31
0.0
  0
LINE
  5
288
330
242
100
AcDbEntity
  8
RAHM2
100
AcDbLine
 10
-192.4248711305964
 20
25.40000000000004
 30
0.0
 11
-187.5751288694036
 21
25.40000000000004
 31
0.0
  0
LINE
  5
289
330
242
100
AcDbEntity
  8
RAHM2
100
AcDbLine
 10
-195.0
 20
25.00000000000003
 30
0.0
 11
-94.0
 21
25.00000000000003
 31
0.0
  0
MTEXT
  5
28A
330
242
100
AcDbEntity
  8
RAHM2
100
AcDbMText
 10
-119.4582894723942
 20
27.50000000000003
 30
0.0
 40
2.5
 41
20.0
 71
     5
 72
     5
  1
・  ・   
 73
     1
 44
1.0
1001
ACAD
1000
MTEXTBEGIN
1070
    73
1070
     1
1070
    44
1040
1.0
1070
    74
1070
     0
1000
MTEXTEND
  0
TEXT
  5
28B
330
242
100
AcDbEntity
  8
RAHM2
100
AcDbText
 10
-190.8155863565801
 20
25.65000000000003
 30
0.0
 40
2.5
  1
1
 72
     1
 11
-190.1905863565802
 21
25.65000000000003
 31
0.0
100
AcDbText
 73
     1
  0
TEXT
  5
28C
330
242
100
AcDbEntity
  8
RAHM2
100
AcDbText
 10
-190.9183316929134
 20
30.65000000000003
 30
0.0
 40
2.5
  1
2
 72
     1
 11
-190.0
 21
30.65000000000003
 31
0.0
100
AcDbText
 73
     1
  0
TEXT
  5
28D
330
242
100
AcDbEntity
  8
RAHM2
100
AcDbText
 10
-190.9267766952966
 20
35.65000000000001
 30
0.0
 40
2.5
  1
3
 72
     1
 11
-190.0
 21
35.65000000000001
 31
0.0
100
AcDbText
 73
     1
  0
TEXT
  5
28E
330
242
100
AcDbEntity
  8
RAHM2
100
AcDbText
 10
-191.0
 20
40.65000000000003
 30
0.0
 40
2.5
  1
4
 72
     1
 11
-190.0
 21
40.65000000000003
 31
0.0
100
AcDbText
 73
     1
  0
TEXT
  5
28F
330
242
100
AcDbEntity
  8
RAHM2
100
AcDbText
 10
-190.9267766952966
 20
45.65000000000003
 30
0.0
 40
2.5
  1
5
 72
     1
 11
-190.0
 21
45.65000000000003
 31
0.0
100
AcDbText
 73
     1
  0
LINE
  5
290
330
242
100
AcDbEntity
  8
0
100
AcDbLine
 10
-17.0
 20
50.0
 30
0.0
 11
-17.0
 21
0.0
 31
0.0
  0
LINE
  5
291
330
242
100
AcDbEntity
  8
0
100
AcDbLine
 10
-195.0
 20
0.0
 30
0.0
 11
0.0
 21
0.0
 31
0.0
1001
GENIUS_GENREC_14
1002
{
1000
PYDIR
1011
-184.0
1021
50.0
1031
0.0
1002
}
1002
{
1000
PXDIR
1011
0.0
1021
0.0
1031
0.0
1002
}
1002
{
1000
PORI
1011
-184.0
1021
0.0
1031
0.0
1002
}
1002
{
1000
PINS
1011
-100.5
1021
25.0
1031
0.0
1002
}
1002
{
1000
HVAL
1000
50
1002
}
1002
{
1000
H
1070
     2
1002
}
1002
{
1000
WVAL
1000
167
1002
}
1002
{
1000
W
1070
     2
1002
}
1002
{
1000
C
1070
     4
1002
}
1001
GENIUS_GENODEF_13
1002
{
1000
HIER
1070
     0
1002
}
1002
{
1000
MANEDIT
1070
     0
1002
}
1002
{
1000
NOSEL
1070
     0
1002
}
1002
{
1000
BEHIND
1070
     0
1002
}
1002
{
1000
REACTOR
1002
}
1001
GENIUS_GENOBJ-N-REC_13
1002
{
1000
OWNER
1000
GEN
1002
}
  0
LINE
  5
292
330
242
100
AcDbEntity
  8
0
100
AcDbLine
 10
0.0
 20
0.0
 30
0.0
 11
0.0
 21
50.0
 31
0.0
1001
GENIUS_GENREC_14
1002
{
1000
PYDIR
1011
-184.0
1021
50.0
1031
0.0
1002
}
1002
{
1000
PXDIR
1011
0.0
1021
0.0
1031
0.0
1002
}
1002
{
1000
PORI
1011
-184.0
1021
0.0
1031
0.0
1002
}
1002
{
1000
PINS
1011
-100.5
1021
25.0
1031
0.0
1002
}
1002
{
1000
HVAL
1000
50
1002
}
1002
{
1000
H
1070
     2
1002
}
1002
{
1000
WVAL
1000
167
1002
}
1002
{
1000
W
1070
     2
1002
}
1002
{
1000
C
1070
     4
1002
}
1001
GENIUS_GENODEF_13
1002
{
1000
HIER
1070
     0
1002
}
1002
{
1000
MANEDIT
1070
     0
1002
}
1002
{
1000
NOSEL
1070
     0
1002
}
1002
{
1000
BEHIND
1070
     0
1002
}
1002
{
1000
REACTOR
1002
}
1001
GENIUS_GENOBJ-N-REC_13
1002
{
1000
OWNER
1000
GEN
1002
}
  0
LINE
  5
293
330
242
100
AcDbEntity
  8
0
100
AcDbLine
 10
0.0
 20
50.0
 30
0.0
 11
-195.0
 21
50.00000000000003
 31
0.0
1001
GENIUS_GENREC_14
1002
{
1000
PYDIR
1011
-184.0
1021
50.0
1031
0.0
1002
}
1002
{
1000
PXDIR
1011
0.0
1021
0.0
1031
0.0
1002
}
1002
{
1000
PORI
1011
-184.0
1021
0.0
1031
0.0
1002
}
1002
{
1000
PINS
1011
-100.5
1021
25.0
1031
0.0
1002
}
1002
{
1000
HVAL
1000
50
1002
}
1002
{
1000
H
1070
     2
1002
}
1002
{
1000
WVAL
1000
167
1002
}
1002
{
1000
W
1070
     2
1002
}
1002
{
1000
C
1070
     4
1002
}
1001
GENIUS_GENODEF_13
1002
{
1000
HIER
1070
     0
1002
}
1002
{
1000
MANEDIT
1070
     0
1002
}
1002
{
1000
NOSEL
1070
     0
1002
}
1002
{
1000
BEHIND
1070
     0
1002
}
1002
{
1000
REACTOR
1002
}
1001
GENIUS_GENOBJ-N-REC_13
1002
{
1000
OWNER
1000
GEN
1002
}
  0
LINE
  5
294
330
242
100
AcDbEntity
  8
0
100
AcDbLine
 10
-195.0
 20
50.00000000000003
 30
0.0
 11
-195.0
 21
0.0
 31
0.0
1001
GENIUS_GENREC_14
1002
{
1000
PYDIR
1011
-195.0
1021
50.0
1031
0.0
1002
}
1002
{
1000
PXDIR
1011
-11.0
1021
0.0
1031
0.0
1002
}
1002
{
1000
PORI
1011
-195.0
1021
0.0
1031
0.0
1002
}
1002
{
1000
PINS
1011
-111.5
1021
25.0
1031
0.0
1002
}
1002
{
1000
HVAL
1000
50
1002
}
1002
{
1000
H
1070
     2
1002
}
1002
{
1000
WVAL
1000
167
1002
}
1002
{
1000
W
1070
     2
1002
}
1002
{
1000
C
1070
     4
1002
}
1001
GENIUS_GENODEF_13
1002
{
1000
HIER
1070
     0
1002
}
1002
{
1000
MANEDIT
1070
     0
1002
}
1002
{
1000
NOSEL
1070
     0
1002
}
1002
{
1000
BEHIND
1070
     0
1002
}
1002
{
1000
REACTOR
1002
}
1001
GENIUS_GENOBJ-N-REC_13
1002
{
1000
OWNER
1000
GEN
1002
}
  0
MTEXT
  5
295
330
242
100
AcDbEntity
  8
RAHM2
100
AcDbMText
 10
-8.5
 20
48.80103540727964
 30
0.0
 40
2.5
 41
17.0
 71
     2
 72
     5
  1
検図
 73
     1
 44
1.0
1001
ACAD
1000
MTEXTBEGIN
1070
    73
1070
     1
1070
    44
1040
1.0
1070
    74
1070
     0
1000
MTEXTEND
  0
MTEXT
  5
296
330
242
100
AcDbEntity
  8
RAHM2
100
AcDbMText
 10
-8.5
 20
23.80103540727964
 30
0.0
 40
2.5
 41
17.0
 71
     2
 72
     5
  1
製図
 73
     1
 44
1.0
1001
ACAD
1000
MTEXTBEGIN
1070
    73
1070
     1
1070
    44
1040
1.0
1070
    74
1070
     0
1000
MTEXTEND
  0
ENDBLK
  5
299
330
242
100
AcDbEntity
  8
0
100
AcDbBlockEnd
  0
BLOCK
  5
A16
330
A0D
100
AcDbEntity
  8
0
100
AcDbBlockBegin
  2
TAKACHI-A3-2
 70
     0
 10
0.0
 20
0.0
 30
0.0
  3
TAKACHI-A3-2
  1

  0
LINE
  5
A0E
330
A0D
100
AcDbEntity
  8
0
100
AcDbLine
 10
359.0
 20
280.0
 30
0.0
 11
359.0
 21
275.0
 31
0.0
  0
MTEXT
  5
A0F
330
A0D
100
AcDbEntity
  8
0
100
AcDbMText
 10
402.3592953827349
 20
276.108542987227
 30
0.0
 40
2.5
 41
43.07840397728298
 71
     9
 72
     5
  1
(文書番号：TY-34)2008.02.08
 73
     1
 44
1.0
1001
ACAD
1000
MTEXTBEGIN
1070
    73
1070
     1
1070
    44
1040
1.0
1070
    74
1070
     0
1000
MTEXTEND
  0
LINE
  5
A10
330
A0D
100
AcDbEntity
  8
0
100
AcDbLine
 10
359.0
 20
275.0
 30
0.0
 11
403.0
 21
275.0
 31
0.0
  0
TEXT
  5
A11
330
A0D
100
AcDbEntity
  8
0
 60
     1
100
AcDbText
 10
403.0
 20
0.0
 30
0.0
 40
2.5
  1
!GENTITLE-INSERT
100
AcDbText
  0
TEXT
  5
A12
330
A0D
100
AcDbEntity
  8
0
 60
     1
100
AcDbText
 10
0.0
 20
0.0
 30
0.0
 40
2.5
  1
!GENTITLE-LL
100
AcDbText
  0
TEXT
  5
A13
330
A0D
100
AcDbEntity
  8
0
 60
     1
100
AcDbText
 10
403.0
 20
280.0
 30
0.0
 40
2.5
  1
!GENTITLE-MAX
100
AcDbText
  0
LWPOLYLINE
  5
A14
330
A0D
100
AcDbEntity
  8
0
100
AcDbPolyline
 90
        4
 70
     1
 43
0.0
 10
0.0
 20
0.0
 10
403.0
 20
0.0
 10
403.0
 20
280.0
 10
0.0
 20
280.0000000000001
1001
GENIUS_GENREC_14
1002
{
1000
PYDIR
1011
0.0000000000000178
1021
280.0
1031
0.0
1002
}
1002
{
1000
PXDIR
1011
403.0
1021
0.0
1031
0.0
1002
}
1002
{
1000
PORI
1011
0.0
1021
0.0
1031
0.0
1002
}
1002
{
1000
PINS
1011
0.0
1021
0.0
1031
0.0
1002
}
1002
{
1000
PINS2
1011
403.0
1021
280.0
1031
0.0
1002
}
1002
{
1000
C
1070
     1
1002
}
1001
GENIUS_GENODEF_13
1002
{
1000
HIER
1070
     0
1002
}
1002
{
1000
MANEDIT
1070
     0
1002
}
1002
{
1000
NOSEL
1070
     0
1002
}
1002
{
1000
BEHIND
1070
     0
1002
}
1002
{
1000
OTHER
1070
     0
1002
}
1002
{
1000
REACTOR
1002
}
1001
GENIUS_GENOBJ-N-REC_13
1002
{
1000
OWNER
1000
GEN
1002
}
  0
ENDBLK
  5
A17
330
A0D
100
AcDbEntity
  8
0
100
AcDbBlockEnd
  0
BLOCK
  5
A7A
330
A20
100
AcDbEntity
  8
0
100
AcDbBlockBegin
  2
TAKACHI-TITLEA3
 70
     2
 10
0.0
 20
0.0
 30
0.0
  3
TAKACHI-TITLEA3
  1

  0
LINE
  5
A21
330
A20
100
AcDbEntity
  8
0
100
AcDbLine
 10
-167.0
 20
12.49999999999996
 30
0.0
 11
-193.0000000000001
 21
12.49999999999996
 31
0.0
  0
LINE
  5
A22
330
A20
100
AcDbEntity
  8
0
100
AcDbLine
 10
-167.0
 20
37.49999999999998
 30
0.0
 11
-193.0000000000001
 21
37.49999999999998
 31
0.0
  0
ATTDEF
  5
A23
330
A20
100
AcDbEntity
  8
0
100
AcDbText
 10
-180.2171951662138
 20
3.588342537610664
 30
0.0
 40
3.0
  1

 72
     1
 11
-180.2171951662138
 21
3.588342537610664
 31
0.0
100
AcDbAttributeDefinition
  3
日付
  2
GEN-TITLE-DAT
 70
     0
 74
     1
  0
MTEXT
  5
A24
330
A20
100
AcDbEntity
  8
RAHM2
100
AcDbMText
 10
-191.8002551371315
 20
11.3010354072796
 30
0.0
 40
2.5
 41
60.0
 71
     1
 72
     5
  1
日付
 73
     1
 44
1.0
1001
ACAD
1000
MTEXTBEGIN
1070
    73
1070
     1
1070
    44
1040
1.0
1070
    74
1070
     0
1000
MTEXTEND
  0
ATTDEF
  5
A25
330
A20
100
AcDbEntity
  8
0
100
AcDbText
 10
-177.824739614424
 20
28.29999999999998
 30
0.0
 40
3.0
  1

 72
     2
 11
-177.824739614424
 21
28.29999999999998
 31
0.0
100
AcDbAttributeDefinition
  3
尺度
  2
GEN-TITLE-SCA
 70
     0
 74
     1
  0
MTEXT
  5
A26
330
A20
100
AcDbEntity
  8
RAHM2
100
AcDbMText
 10
-191.8002551371315
 20
36.30103540727966
 30
0.0
 40
2.5
 41
20.0
 71
     1
 72
     5
  1
尺度
 73
     1
 44
1.0
1001
ACAD
1000
MTEXTBEGIN
1070
    73
1070
     1
1070
    44
1040
1.0
1070
    74
1070
     0
1000
MTEXTEND
  0
MTEXT
  5
A27
330
A20
100
AcDbEntity
  8
RAHM2
100
AcDbMText
 10
-191.8002551371315
 20
23.80103540727963
 30
0.0
 40
2.5
 41
20.0
 71
     1
 72
     5
  1
数量
 73
     1
 44
1.0
1001
ACAD
1000
MTEXTBEGIN
1070
    73
1070
     1
1070
    44
1040
1.0
1070
    74
1070
     0
1000
MTEXTEND
  0
ATTDEF
  5
A28
330
A20
100
AcDbEntity
  8
0
100
AcDbText
 10
-175.6127409126095
 20
15.79999999999994
 30
0.0
 40
3.0
  1

 72
     2
 11
-175.6127409126095
 21
15.79999999999994
 31
0.0
100
AcDbAttributeDefinition
  3
数量
  2
GEN-TITLE-QTY
 70
     0
 74
     1
  0
LINE
  5
A29
330
A20
100
AcDbEntity
  8
0
100
AcDbLine
 10
-193.0000000000001
 20
49.99999999999999
 30
0.0
 11
-193.0000000000001
 21
-0.0000000000000142
 31
0.0
  0
LINE
  5
A2A
330
A20
100
AcDbEntity
  8
7A
100
AcDbLine
 10
-184.7167418745796
 20
43.74999999999995
 30
0.0
 11
-170.9354334742943
 21
43.74999999999995
 31
0.0
1001
GENIUS_GENOREF_13
1005
A78
  0
LINE
  5
A2B
330
A20
100
AcDbEntity
  8
0
100
AcDbLine
 10
-179.7167418745796
 20
45.74999999999994
 30
0.0
 11
-171.7167418745796
 21
46.74999999999995
 31
0.0
  0
LINE
  5
A2C
330
A20
100
AcDbEntity
  8
0
100
AcDbLine
 10
-171.7167418745796
 20
40.74999999999994
 30
0.0
 11
-179.7167418745796
 21
41.74999999999995
 31
0.0
  0
LINE
  5
A2D
330
A20
100
AcDbEntity
  8
7A
100
AcDbLine
 10
-184.7167418745796
 20
43.74999999999995
 30
0.0
 11
-184.7167418745796
 21
47.32478664473144
 31
0.0
1001
GENIUS_GENOREF_13
1005
A78
  0
CIRCLE
  5
A2E
330
A20
100
AcDbEntity
  8
0
100
AcDbCircle
 10
-184.7167418745796
 20
43.74999999999995
 30
0.0
 40
2.0
  0
CIRCLE
  5
A2F
330
A20
100
AcDbEntity
  8
0
100
AcDbCircle
 10
-184.7167418745796
 20
43.74999999999995
 30
0.0
 40
3.0
  0
LINE
  5
A30
330
A20
100
AcDbEntity
  8
0
100
AcDbLine
 10
-179.7167418745796
 20
41.74999999999995
 30
0.0
 11
-179.7167418745796
 21
45.74999999999994
 31
0.0
  0
LINE
  5
A31
330
A20
100
AcDbEntity
  8
7A
100
AcDbLine
 10
-184.7167418745796
 20
43.74999999999995
 30
0.0
 11
-188.4397792458307
 21
43.74999999999995
 31
0.0
1001
GENIUS_GENOREF_13
1005
A78
  0
LINE
  5
A32
330
A20
100
AcDbEntity
  8
7A
100
AcDbLine
 10
-184.7167418745796
 20
43.74999999999995
 30
0.0
 11
-184.7167418745796
 21
40.03991724228473
 31
0.0
1001
GENIUS_GENOREF_13
1005
A78
  0
LINE
  5
A33
330
A20
100
AcDbEntity
  8
0
100
AcDbLine
 10
-171.7167418745796
 20
46.74999999999995
 30
0.0
 11
-171.7167418745796
 21
40.74999999999994
 31
0.0
  0
LINE
  5
A34
330
A20
100
AcDbEntity
  8
0
100
AcDbLine
 10
-167.0
 20
24.99999999999997
 30
0.0
 11
-193.0000000000001
 21
24.99999999999997
 31
0.0
  0
LINE
  5
A35
330
A20
100
AcDbEntity
  8
0
100
AcDbLine
 10
-167.0
 20
39.99999999999991
 30
0.0
 11
-96.0
 21
39.99999999999992
 31
0.0
  0
MTEXT
  5
A36
330
A20
100
AcDbEntity
  8
RAHM2
100
AcDbMText
 10
-165.8002551371314
 20
38.80103540727956
 30
0.0
 40
2.5
 41
60.0
 71
     1
 72
     5
  1
表面処理
 73
     1
 44
1.0
1001
ACAD
1000
MTEXTBEGIN
1070
    73
1070
     1
1070
    44
1040
1.0
1070
    74
1070
     0
1000
MTEXTEND
  0
MTEXT
  5
A37
330
A20
100
AcDbEntity
  8
RAHM2
100
AcDbMText
 10
-165.8002551371314
 20
48.80103540727955
 30
0.0
 40
2.5
 41
60.0
 71
     1
 72
     5
  1
材質
 73
     1
 44
1.0
1001
ACAD
1000
MTEXTBEGIN
1070
    73
1070
     1
1070
    44
1040
1.0
1070
    74
1070
     0
1000
MTEXTEND
  0
ATTDEF
  5
A38
330
A20
100
AcDbEntity
  8
0
100
AcDbText
 10
-148.9618675835291
 20
33.29999999999991
 30
0.0
 40
3.0
  1

100
AcDbAttributeDefinition
  3
表面処理
  2
GEN-TITLE-MAT2
 70
     0
  0
ATTDEF
  5
A39
330
A20
100
AcDbEntity
  8
0
100
AcDbText
 10
-148.9618675835291
 20
43.29999999999991
 30
0.0
 40
3.0
  1

100
AcDbAttributeDefinition
  3
材質
  2
GEN-TITLE-MAT1
 70
     0
  0
MTEXT
  5
A3A
330
A20
100
AcDbEntity
  8
0
100
AcDbMText
 10
-131.5000000000001
 20
24.99999999999992
 30
0.0
 40
3.5
 41
60.0
 71
     5
 72
     5
  1
\fＭＳ ゴシック|b0|i0|c128|p49;株式会社タカチ電機工業
 73
     1
 44
1.0
1001
ACAD
1000
MTEXTBEGIN
1070
    73
1070
     1
1070
    44
1040
1.0
1070
    74
1070
     0
1000
MTEXTEND
  0
LINE
  5
A3B
330
A20
100
AcDbEntity
  8
0
100
AcDbLine
 10
-167.0
 20
29.99999999999992
 30
0.0
 11
-96.0
 21
29.99999999999992
 31
0.0
  0
MTEXT
  5
A3C
330
A20
100
AcDbEntity
  8
RAHM2
100
AcDbMText
 10
-158.1250000000001
 20
18.80103540727956
 30
0.0
 40
2.5
 41
17.0
 71
     2
 72
     5
  1
承認
 73
     1
 44
1.0
1001
ACAD
1000
MTEXTBEGIN
1070
    73
1070
     1
1070
    44
1040
1.0
1070
    74
1070
     0
1000
MTEXTEND
  0
MTEXT
  5
A3D
330
A20
100
AcDbEntity
  8
RAHM2
100
AcDbMText
 10
-140.3750000000001
 20
18.80103540727958
 30
0.0
 40
2.5
 41
17.0
 71
     2
 72
     5
  1
承認
 73
     1
 44
1.0
1001
ACAD
1000
MTEXTBEGIN
1070
    73
1070
     1
1070
    44
1040
1.0
1070
    74
1070
     0
1000
MTEXTEND
  0
LINE
  5
A3E
330
A20
100
AcDbEntity
  8
0
100
AcDbLine
 10
-149.2500000000001
 20
19.99999999999993
 30
0.0
 11
-149.2500000000001
 21
-0.0000000000000462
 31
0.0
  0
LINE
  5
A3F
330
A20
100
AcDbEntity
  8
0
100
AcDbLine
 10
-167.0
 20
49.99999999999995
 30
0.0
 11
-167.0
 21
-0.0000000000000497
 31
0.0
  0
MTEXT
  5
A40
330
A20
100
AcDbEntity
  8
RAHM2
100
AcDbMText
 10
-122.6250000000001
 20
18.80103540727958
 30
0.0
 40
2.5
 41
17.0
 71
     2
 72
     5
  1
検図
 73
     1
 44
1.0
1001
ACAD
1000
MTEXTBEGIN
1070
    73
1070
     1
1070
    44
1040
1.0
1070
    74
1070
     0
1000
MTEXTEND
  0
LINE
  5
A41
330
A20
100
AcDbEntity
  8
0
100
AcDbLine
 10
-131.5000000000001
 20
19.99999999999993
 30
0.0
 11
-131.5000000000001
 21
-0.0000000000000533
 31
0.0
  0
LINE
  5
A42
330
A20
100
AcDbEntity
  8
0
100
AcDbLine
 10
-113.75
 20
19.99999999999993
 30
0.0
 11
-113.75
 21
-0.0000000000000533
 31
0.0
  0
LINE
  5
A43
330
A20
100
AcDbEntity
  8
0
100
AcDbLine
 10
-167.0
 20
19.99999999999993
 30
0.0
 11
-96.0
 21
19.99999999999993
 31
0.0
  0
MTEXT
  5
A44
330
A20
100
AcDbEntity
  8
RAHM2
100
AcDbMText
 10
-104.875
 20
18.80103540727957
 30
0.0
 40
2.5
 41
17.0
 71
     2
 72
     5
  1
製図
 73
     1
 44
1.0
1001
ACAD
1000
MTEXTBEGIN
1070
    73
1070
     1
1070
    44
1040
1.0
1070
    74
1070
     0
1000
MTEXTEND
  0
MTEXT
  5
A45
330
A20
100
AcDbEntity
  8
RAHM2
100
AcDbMText
 10
-16.85742592933491
 20
3.434762466565985
 30
0.0
 40
2.5
 41
7.936478436748416
 71
     5
 72
     5
  1
Rev.
 73
     1
 44
1.0
1001
ACAD
1000
MTEXTBEGIN
1070
    73
1070
     1
1070
    44
1040
1.0
1070
    74
1070
     0
1000
MTEXTEND
  0
LINE
  5
A46
330
A20
100
AcDbEntity
  8
0
100
AcDbLine
 10
-21.17541926625711
 20
0.0
 30
0.0
 11
-21.17541926625734
 21
7.0
 31
0.0
  0
LINE
  5
A47
330
A20
100
AcDbEntity
  8
RAHM2
100
AcDbLine
 10
-96.0
 20
29.99999999999992
 30
0.0
 11
0.0000000000001137
 21
30.00000000000003
 31
0.0
  0
LINE
  5
A48
330
A20
100
AcDbEntity
  8
RAHM2
100
AcDbLine
 10
-96.0
 20
35.00000000000003
 30
0.0
 11
0.0000000000001137
 21
35.00000000000003
 31
0.0
  0
LINE
  5
A49
330
A20
100
AcDbEntity
  8
RAHM2
100
AcDbLine
 10
-96.0
 20
39.99999999999993
 30
0.0
 11
0.0000000000001137
 21
40.00000000000002
 31
0.0
  0
LINE
  5
A4A
330
A20
100
AcDbEntity
  8
RAHM2
100
AcDbLine
 10
-96.0
 20
45.00000000000002
 30
0.0
 11
0.0000000000001137
 21
45.00000000000002
 31
0.0
  0
LINE
  5
A4B
330
A20
100
AcDbEntity
  8
0
100
AcDbLine
 10
-96.0
 20
7.0
 30
0.0
 11
0.0000000000001137
 21
7.0
 31
0.0
  0
LINE
  5
A4C
330
A20
100
AcDbEntity
  8
0
100
AcDbLine
 10
-96.0
 20
19.99999999999997
 30
0.0
 11
0.0000000000001137
 21
19.99999999999997
 31
0.0
  0
MTEXT
  5
A4D
330
A20
100
AcDbEntity
  8
RAHM2
100
AcDbMText
 10
-94.80025513713144
 20
5.801035407279627
 30
0.0
 40
2.5
 41
90.0
 71
     1
 72
     5
  1
図番
 73
     1
 44
1.0
1001
ACAD
1000
MTEXTBEGIN
1070
    73
1070
     1
1070
    44
1040
1.0
1070
    74
1070
     0
1000
MTEXTEND
  0
LINE
  5
A4E
330
A20
100
AcDbEntity
  8
RAHM2
100
AcDbLine
 10
-88.57512886940355
 20
30.40000000000002
 30
0.0
 11
-91.0
 21
34.60000000000001
 31
0.0
  0
LINE
  5
A4F
330
A20
100
AcDbEntity
  8
RAHM2
100
AcDbLine
 10
-91.0
 20
34.60000000000001
 30
0.0
 11
-93.42487113059645
 21
30.40000000000002
 31
0.0
  0
LINE
  5
A50
330
A20
100
AcDbEntity
  8
RAHM2
100
AcDbLine
 10
-86.0
 20
50.00000000000001
 30
0.0
 11
-86.0
 21
19.99999999999993
 31
0.0
  0
LINE
  5
A51
330
A20
100
AcDbEntity
  8
RAHM2
100
AcDbLine
 10
-93.42487113059645
 20
30.40000000000002
 30
0.0
 11
-88.57512886940355
 21
30.40000000000002
 31
0.0
  0
MTEXT
  5
A52
330
A20
100
AcDbEntity
  8
RAHM2
100
AcDbMText
 10
-91.0
 20
22.49999999999996
 30
0.0
 40
2.5
 41
10.0
 71
     5
 72
     5
  1
符号
 73
     1
 44
1.0
1001
ACAD
1000
MTEXTBEGIN
1070
    73
1070
     1
1070
    44
1040
1.0
1070
    74
1070
     0
1000
MTEXTEND
  0
MTEXT
  5
A53
330
A20
100
AcDbEntity
  8
RAHM2
100
AcDbMText
 10
-94.80025513713144
 20
18.8010354072796
 30
0.0
 40
2.5
 41
90.0
 71
     1
 72
     5
  1
品名
 73
     1
 44
1.0
1001
ACAD
1000
MTEXTBEGIN
1070
    73
1070
     1
1070
    44
1040
1.0
1070
    74
1070
     0
1000
MTEXTEND
  0
LINE
  5
A54
330
A20
100
AcDbEntity
  8
RAHM2
100
AcDbLine
 10
-93.42487113059645
 20
45.40000000000001
 30
0.0
 11
-88.57512886940355
 21
45.40000000000001
 31
0.0
  0
LINE
  5
A55
330
A20
100
AcDbEntity
  8
RAHM2
100
AcDbLine
 10
-88.57512886940355
 20
45.40000000000001
 30
0.0
 11
-91.0
 21
49.6
 31
0.0
  0
LINE
  5
A56
330
A20
100
AcDbEntity
  8
RAHM2
100
AcDbLine
 10
-93.42487113059645
 20
40.40000000000001
 30
0.0
 11
-88.57512886940355
 21
40.40000000000001
 31
0.0
  0
LINE
  5
A57
330
A20
100
AcDbEntity
  8
RAHM2
100
AcDbLine
 10
-88.57512886940355
 20
40.40000000000001
 30
0.0
 11
-91.0
 21
44.6
 31
0.0
  0
LINE
  5
A58
330
A20
100
AcDbEntity
  8
RAHM2
100
AcDbLine
 10
-93.42487113059645
 20
35.40000000000002
 30
0.0
 11
-88.57512886940355
 21
35.40000000000002
 31
0.0
  0
LINE
  5
A59
330
A20
100
AcDbEntity
  8
RAHM2
100
AcDbLine
 10
-88.57512886940355
 20
35.40000000000002
 30
0.0
 11
-91.0
 21
39.60000000000001
 31
0.0
  0
LINE
  5
A5A
330
A20
100
AcDbEntity
  8
RAHM2
100
AcDbLine
 10
-91.0
 20
39.60000000000001
 30
0.0
 11
-93.42487113059645
 21
35.40000000000002
 31
0.0
  0
LINE
  5
A5B
330
A20
100
AcDbEntity
  8
RAHM2
100
AcDbLine
 10
-91.0
 20
44.6
 30
0.0
 11
-93.42487113059645
 21
40.40000000000001
 31
0.0
  0
LINE
  5
A5C
330
A20
100
AcDbEntity
  8
RAHM2
100
AcDbLine
 10
-91.0
 20
49.6
 30
0.0
 11
-93.42487113059645
 21
45.40000000000001
 31
0.0
  0
LINE
  5
A5D
330
A20
100
AcDbEntity
  8
RAHM2
100
AcDbLine
 10
-31.82081941068907
 20
50.00000000000003
 30
0.0
 11
-31.82081941068918
 21
19.99999999999994
 31
0.0
  0
MTEXT
  5
A5E
330
A20
100
AcDbEntity
  8
RAHM2
100
AcDbMText
 10
-59.0
 20
22.49999999999996
 30
0.0
 40
2.5
 41
45.0
 71
     5
 72
     5
  1
変更記事
 73
     1
 44
1.0
1001
ACAD
1000
MTEXTBEGIN
1070
    73
1070
     1
1070
    44
1040
1.0
1070
    74
1070
     0
1000
MTEXTEND
  0
LINE
  5
A5F
330
A20
100
AcDbEntity
  8
RAHM2
100
AcDbLine
 10
-11.82081941068907
 20
50.00000000000003
 30
0.0
 11
-11.82081941068907
 21
19.99999999999994
 31
0.0
  0
MTEXT
  5
A60
330
A20
100
AcDbEntity
  8
RAHM2
100
AcDbMText
 10
-22.27910888308327
 20
32.50000000000003
 30
0.0
 40
2.5
 41
20.0
 71
     5
 72
     5
  1
・  ・   
 73
     1
 44
1.0
1001
ACAD
1000
MTEXTBEGIN
1070
    73
1070
     1
1070
    44
1040
1.0
1070
    74
1070
     0
1000
MTEXTEND
  0
MTEXT
  5
A61
330
A20
100
AcDbEntity
  8
RAHM2
100
AcDbMText
 10
-21.55893921569111
 20
22.49999999999997
 30
0.0
 40
2.5
 41
20.0
 71
     5
 72
     5
  1
年・月・日
 73
     1
 44
1.0
1001
ACAD
1000
MTEXTBEGIN
1070
    73
1070
     1
1070
    44
1040
1.0
1070
    74
1070
     0
1000
MTEXTEND
  0
MTEXT
  5
A62
330
A20
100
AcDbEntity
  8
RAHM2
100
AcDbMText
 10
-5.910409705344477
 20
22.49999999999997
 30
0.0
 40
2.5
 41
15.0
 71
     5
 72
     5
  1
担当
 73
     1
 44
1.0
1001
ACAD
1000
MTEXTBEGIN
1070
    73
1070
     1
1070
    44
1040
1.0
1070
    74
1070
     0
1000
MTEXTEND
  0
MTEXT
  5
A63
330
A20
100
AcDbEntity
  8
RAHM2
100
AcDbMText
 10
-22.27910888308327
 20
42.50000000000002
 30
0.0
 40
2.5
 41
20.0
 71
     5
 72
     5
  1
・  ・   
 73
     1
 44
1.0
1001
ACAD
1000
MTEXTBEGIN
1070
    73
1070
     1
1070
    44
1040
1.0
1070
    74
1070
     0
1000
MTEXTEND
  0
MTEXT
  5
A64
330
A20
100
AcDbEntity
  8
RAHM2
100
AcDbMText
 10
-22.27910888308327
 20
37.50000000000003
 30
0.0
 40
2.5
 41
20.0
 71
     5
 72
     5
  1
・  ・   
 73
     1
 44
1.0
1001
ACAD
1000
MTEXTBEGIN
1070
    73
1070
     1
1070
    44
1040
1.0
1070
    74
1070
     0
1000
MTEXTEND
  0
MTEXT
  5
A65
330
A20
100
AcDbEntity
  8
RAHM2
100
AcDbMText
 10
-22.27910888308327
 20
47.50000000000002
 30
0.0
 40
2.5
 41
20.0
 71
     5
 72
     5
  1
・  ・   
 73
     1
 44
1.0
1001
ACAD
1000
MTEXTBEGIN
1070
    73
1070
     1
1070
    44
1040
1.0
1070
    74
1070
     0
1000
MTEXTEND
  0
LINE
  5
A66
330
A20
100
AcDbEntity
  8
RAHM2
100
AcDbLine
 10
-91.0
 20
29.60000000000001
 30
0.0
 11
-93.42487113059645
 21
25.40000000000002
 31
0.0
  0
LINE
  5
A67
330
A20
100
AcDbEntity
  8
RAHM2
100
AcDbLine
 10
-88.57512886940355
 20
25.40000000000002
 30
0.0
 11
-91.0
 21
29.60000000000001
 31
0.0
  0
LINE
  5
A68
330
A20
100
AcDbEntity
  8
RAHM2
100
AcDbLine
 10
-93.42487113059645
 20
25.40000000000002
 30
0.0
 11
-88.57512886940355
 21
25.40000000000002
 31
0.0
  0
LINE
  5
A69
330
A20
100
AcDbEntity
  8
RAHM2
100
AcDbLine
 10
-96.0
 20
25.0
 30
0.0
 11
0.0000000000001137
 21
25.00000000000003
 31
0.0
  0
MTEXT
  5
A6A
330
A20
100
AcDbEntity
  8
RAHM2
100
AcDbMText
 10
-22.27910888308327
 20
27.50000000000003
 30
0.0
 40
2.5
 41
20.0
 71
     5
 72
     5
  1
・  ・   
 73
     1
 44
1.0
1001
ACAD
1000
MTEXTBEGIN
1070
    73
1070
     1
1070
    44
1040
1.0
1070
    74
1070
     0
1000
MTEXTEND
  0
TEXT
  5
A6B
330
A20
100
AcDbEntity
  8
RAHM2
100
AcDbText
 10
-91.81558635658019
 20
25.65000000000002
 30
0.0
 40
2.5
  1
1
 72
     1
 11
-91.19058635658019
 21
25.65000000000002
 31
0.0
100
AcDbText
 73
     1
  0
TEXT
  5
A6C
330
A20
100
AcDbEntity
  8
RAHM2
100
AcDbText
 10
-91.91833169291339
 20
30.65000000000002
 30
0.0
 40
2.5
  1
2
 72
     1
 11
-91.0
 21
30.65000000000002
 31
0.0
100
AcDbText
 73
     1
  0
TEXT
  5
A6D
330
A20
100
AcDbEntity
  8
RAHM2
100
AcDbText
 10
-91.92677669529663
 20
35.64999999999999
 30
0.0
 40
2.5
  1
3
 72
     1
 11
-91.0
 21
35.64999999999999
 31
0.0
100
AcDbText
 73
     1
  0
TEXT
  5
A6E
330
A20
100
AcDbEntity
  8
RAHM2
100
AcDbText
 10
-92.0
 20
40.65000000000002
 30
0.0
 40
2.5
  1
4
 72
     1
 11
-91.0
 21
40.65000000000002
 31
0.0
100
AcDbText
 73
     1
  0
TEXT
  5
A6F
330
A20
100
AcDbEntity
  8
RAHM2
100
AcDbText
 10
-91.92677669529663
 20
45.65000000000002
 30
0.0
 40
2.5
  1
5
 72
     1
 11
-91.0
 21
45.65000000000002
 31
0.0
100
AcDbText
 73
     1
  0
LINE
  5
A70
330
A20
100
AcDbEntity
  8
0
100
AcDbLine
 10
-193.0000000000001
 20
0.0
 30
0.0
 11
0.0
 21
0.0
 31
0.0
1001
GENIUS_GENREC_14
1002
{
1000
PYDIR
1011
-184.0
1021
50.0
1031
0.0
1002
}
1002
{
1000
PXDIR
1011
0.0
1021
0.0
1031
0.0
1002
}
1002
{
1000
PORI
1011
-184.0
1021
0.0
1031
0.0
1002
}
1002
{
1000
PINS
1011
-100.5
1021
25.0
1031
0.0
1002
}
1002
{
1000
HVAL
1000
50
1002
}
1002
{
1000
H
1070
     2
1002
}
1002
{
1000
WVAL
1000
167
1002
}
1002
{
1000
W
1070
     2
1002
}
1002
{
1000
C
1070
     4
1002
}
1001
GENIUS_GENODEF_13
1002
{
1000
HIER
1070
     0
1002
}
1002
{
1000
MANEDIT
1070
     0
1002
}
1002
{
1000
NOSEL
1070
     0
1002
}
1002
{
1000
BEHIND
1070
     0
1002
}
1002
{
1000
REACTOR
1002
}
1001
GENIUS_GENOBJ-N-REC_13
1002
{
1000
OWNER
1000
GEN
1002
}
  0
LINE
  5
A71
330
A20
100
AcDbEntity
  8
0
100
AcDbLine
 10
0.0
 20
50.0
 30
0.0
 11
-193.0000000000001
 21
50.00000000000002
 31
0.0
1001
GENIUS_GENREC_14
1002
{
1000
PYDIR
1011
-184.0
1021
50.0
1031
0.0
1002
}
1002
{
1000
PXDIR
1011
0.0
1021
0.0
1031
0.0
1002
}
1002
{
1000
PORI
1011
-184.0
1021
0.0
1031
0.0
1002
}
1002
{
1000
PINS
1011
-100.5
1021
25.0
1031
0.0
1002
}
1002
{
1000
HVAL
1000
50
1002
}
1002
{
1000
H
1070
     2
1002
}
1002
{
1000
WVAL
1000
167
1002
}
1002
{
1000
W
1070
     2
1002
}
1002
{
1000
C
1070
     4
1002
}
1001
GENIUS_GENODEF_13
1002
{
1000
HIER
1070
     0
1002
}
1002
{
1000
MANEDIT
1070
     0
1002
}
1002
{
1000
NOSEL
1070
     0
1002
}
1002
{
1000
BEHIND
1070
     0
1002
}
1002
{
1000
REACTOR
1002
}
1001
GENIUS_GENOBJ-N-REC_13
1002
{
1000
OWNER
1000
GEN
1002
}
  0
LINE
  5
A72
330
A20
100
AcDbEntity
  8
0
100
AcDbLine
 10
-96.0
 20
50.00000000000001
 30
0.0
 11
-96.0
 21
-0.0000000000000142
 31
0.0
1001
GENIUS_GENREC_14
1002
{
1000
PYDIR
1011
-96.0
1021
49.99999999999999
1031
0.0
1002
}
1002
{
1000
PXDIR
1011
88.0
1021
-0.0000000000000142
1031
0.0
1002
}
1002
{
1000
PORI
1011
-96.0
1021
-0.0000000000000142
1031
0.0
1002
}
1002
{
1000
PINS
1011
-12.5
1021
24.99999999999999
1031
0.0
1002
}
1002
{
1000
HVAL
1000
50
1002
}
1002
{
1000
H
1070
     2
1002
}
1002
{
1000
WVAL
1000
167
1002
}
1002
{
1000
W
1070
     2
1002
}
1002
{
1000
C
1070
     4
1002
}
1001
GENIUS_GENODEF_13
1002
{
1000
HIER
1070
     0
1002
}
1002
{
1000
MANEDIT
1070
     0
1002
}
1002
{
1000
NOSEL
1070
     0
1002
}
1002
{
1000
BEHIND
1070
     0
1002
}
1002
{
1000
REACTOR
1002
}
1001
GENIUS_GENOBJ-N-REC_13
1002
{
1000
OWNER
1000
GEN
1002
}
  0
ATTDEF
  5
A73
330
A20
100
AcDbEntity
  8
0
100
AcDbText
 10
-84.0
 20
1.999999999999957
 30
0.0
 40
3.0
  1

100
AcDbAttributeDefinition
  3
図番
  2
GEN-TITLE-NR1
 70
     0
  0
ATTDEF
  5
A74
330
A20
100
AcDbEntity
  8
0
100
AcDbText
 10
-84.0
 20
9.149999999999948
 30
0.0
 40
2.5
  1

100
AcDbAttributeDefinition
  3
サブタイトル
  2
GEN-TITLE-DES2
 70
     0
  0
LINE
  5
A75
330
A20
100
AcDbEntity
  8
0
100
AcDbLine
 10
0.0
 20
0.0
 30
0.0
 11
0.0
 21
50.0
 31
0.0
1001
GENIUS_GENREC_14
1002
{
1000
PYDIR
1011
-414.0
1021
291.0
1031
0.0
1002
}
1002
{
1000
PXDIR
1011
6.0
1021
-6.0
1031
0.0
1002
}
1002
{
1000
PORI
1011
-414.0
1021
-6.0
1031
0.0
1002
}
1002
{
1000
PINS
1011
-414.0
1021
-6.0
1031
0.0
1002
}
1002
{
1000
HVAL
1000
297
1002
}
1002
{
1000
H
1070
     2
1002
}
1002
{
1000
WVAL
1000
420
1002
}
1002
{
1000
W
1070
     2
1002
}
1002
{
1000
C
1070
     1
1002
}
1001
GENIUS_GENODEF_13
1002
{
1000
HIER
1070
     0
1002
}
1002
{
1000
MANEDIT
1070
     0
1002
}
1002
{
1000
NOSEL
1070
     0
1002
}
1002
{
1000
BEHIND
1070
     0
1002
}
1002
{
1000
OTHER
1070
     0
1002
}
1002
{
1000
REACTOR
1002
}
1001
GENIUS_GENOBJ-N-REC_13
1002
{
1000
OWNER
1000
GEN
1002
}
  0
ATTDEF
  5
A76
330
A20
100
AcDbEntity
  8
0
100
AcDbText
 10
-84.14251901585329
 20
12.82790432564377
 30
0.0
 40
3.5
  1

100
AcDbAttributeDefinition
  3
品名
  2
GEN-TITLE-DES1
 70
     0
  0
ATTDEF
  5
A77
330
A20
100
AcDbEntity
  8
0
100
AcDbText
 10
-8.002309189545826
 20
1.705189434395036
 30
0.0
 40
2.5
  1

100
AcDbAttributeDefinition
  3
Rev.
  2
GEN-TITLE-NR2
 70
     0
  0
POINT
  5
A78
330
A20
100
AcDbEntity
  8
0
 60
     1
100
AcDbPoint
 10
-418.5355579819675
 20
-138.1104841268254
 30
0.0
1001
GENIUS_GENODEF_13
1002
{
1000
HIER
1070
    10
1002
}
1002
{
1000
MANEDIT
1070
     0
1002
}
1002
{
1000
NOSEL
1070
     0
1002
}
1002
{
1000
BEHIND
1070
     0
1002
}
1002
{
1000
REACTOR
1002
}
1001
GENIUS_GENOBJ-N-CRS_13
1002
{
1000
OWNER
1000
GEN
1002
}
1001
GENIUS_GENOENT_13
1002
{
1000
MYREF
1005
A78
1002
}
1002
{
1000
GRP
1005
0
1002
}
1001
GENIUS_GENOLIS_13
1002
{
1000
ENT
1005
A32
1005
A31
1005
A2D
1005
A2A
1002
}
  0
ENDBLK
  5
A7B
330
A20
100
AcDbEntity
  8
0
100
AcDbBlockEnd
  0
BLOCK
  5
AAA
330
AA1
100
AcDbEntity
  8
0
100
AcDbBlockBegin
  2
TAKACHI-A4-2
 70
     0
 10
0.0
 20
0.0
 30
0.0
  3
TAKACHI-A4-2
  1

  0
LINE
  5
AA2
330
AA1
100
AcDbEntity
  8
0
100
AcDbLine
 10
149.0
 20
275.0
 30
0.0
 11
193.0
 21
275.0
 31
0.0
  0
MTEXT
  5
AA3
330
AA1
100
AcDbEntity
  8
0
100
AcDbMText
 10
192.3592953827349
 20
276.1085429872271
 30
0.0
 40
2.5
 41
43.07840397728298
 71
     9
 72
     5
  1
(文書番号：TY-34)2008.02.08
 73
     1
 44
1.0
1001
ACAD
1000
MTEXTBEGIN
1070
    73
1070
     1
1070
    44
1040
1.0
1070
    74
1070
     0
1000
MTEXTEND
  0
LINE
  5
AA4
330
AA1
100
AcDbEntity
  8
0
100
AcDbLine
 10
149.0
 20
280.0000000000001
 30
0.0
 11
149.0
 21
275.0
 31
0.0
  0
LWPOLYLINE
  5
AA5
330
AA1
100
AcDbEntity
  8
0
100
AcDbPolyline
 90
        4
 70
     1
 43
0.0
 10
0.0
 20
0.0
 10
193.0
 20
0.0
 10
193.0
 20
280.0
 10
0.0
 20
280.0
1001
GENIUS_GENREC_14
1002
{
1000
PYDIR
1011
-8.5
1021
288.5
1031
0.0
1002
}
1002
{
1000
PXDIR
1011
201.5
1021
-8.5
1031
0.0
1002
}
1002
{
1000
PORI
1011
-8.5
1021
-8.5
1031
0.0
1002
}
1002
{
1000
PINS
1011
-8.5
1021
-8.5
1031
0.0
1002
}
1002
{
1000
HVAL
1000
297
1002
}
1002
{
1000
H
1070
     2
1002
}
1002
{
1000
WVAL
1000
210
1002
}
1002
{
1000
W
1070
     2
1002
}
1002
{
1000
C
1070
     1
1002
}
1001
GENIUS_GENOBJ-N-REC_13
1002
{
1000
OWNER
1000
GEN
1002
}
1001
GENIUS_GENODEF_13
1002
{
1000
HIER
1070
     0
1002
}
1002
{
1000
MANEDIT
1070
     0
1002
}
1002
{
1000
NOSEL
1070
     0
1002
}
1002
{
1000
BEHIND
1070
     0
1002
}
1002
{
1000
OTHER
1070
     0
1002
}
1002
{
1000
REACTOR
1002
}
  0
TEXT
  5
AA6
330
AA1
100
AcDbEntity
  8
0
 60
     1
100
AcDbText
 10
193.0
 20
0.0
 30
0.0
 40
2.5
  1
!GENTITLE-INSERT
100
AcDbText
  0
TEXT
  5
AA7
330
AA1
100
AcDbEntity
  8
0
 60
     1
100
AcDbText
 10
193.0
 20
280.0
 30
0.0
 40
2.5
  1
!GENTITLE-MAX
100
AcDbText
  0
TEXT
  5
AA8
330
AA1
100
AcDbEntity
  8
0
 60
     1
100
AcDbText
 10
0.0
 20
0.0
 30
0.0
 40
2.5
  1
!GENTITLE-LL
100
AcDbText
  0
ENDBLK
  5
AAB
330
AA1
100
AcDbEntity
  8
0
100
AcDbBlockEnd
  0
BLOCK
  5
AF2
330
AE9
100
AcDbEntity
  8
0
100
AcDbBlockBegin
  2
TK-A3
 70
     0
 10
0.0
 20
0.0
 30
0.0
  3
TK-A3
  1

  0
LINE
  5
AEA
330
AE9
100
AcDbEntity
  8
0
100
AcDbLine
 10
359.0
 20
280.0
 30
0.0
 11
359.0
 21
275.0
 31
0.0
  0
MTEXT
  5
AEB
330
AE9
100
AcDbEntity
  8
0
100
AcDbMText
 10
402.3592953827349
 20
276.108542987227
 30
0.0
 40
2.5
 41
43.07840397728298
 71
     9
 72
     5
  1
(文書番号：TY-34)2008.02.08
 73
     1
 44
1.0
1001
ACAD
1000
MTEXTBEGIN
1070
    73
1070
     1
1070
    44
1040
1.0
1070
    74
1070
     0
1000
MTEXTEND
  0
LINE
  5
AEC
330
AE9
100
AcDbEntity
  8
0
100
AcDbLine
 10
359.0
 20
275.0
 30
0.0
 11
403.0
 21
275.0
 31
0.0
  0
TEXT
  5
AED
330
AE9
100
AcDbEntity
  8
0
 60
     1
100
AcDbText
 10
403.0
 20
0.0
 30
0.0
 40
2.5
  1
!GENTITLE-INSERT
100
AcDbText
  0
TEXT
  5
AEE
330
AE9
100
AcDbEntity
  8
0
 60
     1
100
AcDbText
 10
0.0
 20
0.0
 30
0.0
 40
2.5
  1
!GENTITLE-LL
100
AcDbText
  0
TEXT
  5
AEF
330
AE9
100
AcDbEntity
  8
0
 60
     1
100
AcDbText
 10
403.0
 20
280.0
 30
0.0
 40
2.5
  1
!GENTITLE-MAX
100
AcDbText
  0
LWPOLYLINE
  5
AF0
330
AE9
100
AcDbEntity
  8
0
100
AcDbPolyline
 90
        4
 70
     1
 43
0.0
 10
0.0
 20
0.0
 10
403.0
 20
0.0
 10
403.0
 20
280.0
 10
0.0
 20
280.0000000000001
1001
GENIUS_GENREC_14
1002
{
1000
PYDIR
1011
0.0000000000000178
1021
280.0
1031
0.0
1002
}
1002
{
1000
PXDIR
1011
403.0
1021
0.0
1031
0.0
1002
}
1002
{
1000
PORI
1011
0.0
1021
0.0
1031
0.0
1002
}
1002
{
1000
PINS
1011
0.0
1021
0.0
1031
0.0
1002
}
1002
{
1000
PINS2
1011
403.0
1021
280.0
1031
0.0
1002
}
1002
{
1000
C
1070
     1
1002
}
1001
GENIUS_GENODEF_13
1002
{
1000
HIER
1070
     0
1002
}
1002
{
1000
MANEDIT
1070
     0
1002
}
1002
{
1000
NOSEL
1070
     0
1002
}
1002
{
1000
BEHIND
1070
     0
1002
}
1002
{
1000
OTHER
1070
     0
1002
}
1002
{
1000
REACTOR
1002
}
1001
GENIUS_GENOBJ-N-REC_13
1002
{
1000
OWNER
1000
GEN
1002
}
  0
ENDBLK
  5
AF3
330
AE9
100
AcDbEntity
  8
0
100
AcDbBlockEnd
  0
BLOCK
  5
B56
330
AFC
100
AcDbEntity
  8
0
100
AcDbBlockBegin
  2
TK-TITLE
 70
     2
 10
0.0
 20
0.0
 30
0.0
  3
TK-TITLE
  1

  0
LINE
  5
AFD
330
AFC
100
AcDbEntity
  8
0
100
AcDbLine
 10
-167.0
 20
12.49999999999996
 30
0.0
 11
-193.0000000000001
 21
12.49999999999996
 31
0.0
  0
LINE
  5
AFE
330
AFC
100
AcDbEntity
  8
0
100
AcDbLine
 10
-167.0
 20
37.49999999999998
 30
0.0
 11
-193.0000000000001
 21
37.49999999999998
 31
0.0
  0
ATTDEF
  5
AFF
330
AFC
100
AcDbEntity
  8
0
100
AcDbText
 10
-180.2171951662138
 20
3.588342537610664
 30
0.0
 40
3.0
  1

 72
     1
 11
-180.2171951662138
 21
3.588342537610664
 31
0.0
100
AcDbAttributeDefinition
  3
日付
  2
GEN-TITLE-DAT
 70
     0
 74
     1
  0
MTEXT
  5
B00
330
AFC
100
AcDbEntity
  8
RAHM2
100
AcDbMText
 10
-191.8002551371315
 20
11.3010354072796
 30
0.0
 40
2.5
 41
60.0
 71
     1
 72
     5
  1
日付
 73
     1
 44
1.0
1001
ACAD
1000
MTEXTBEGIN
1070
    73
1070
     1
1070
    44
1040
1.0
1070
    74
1070
     0
1000
MTEXTEND
  0
ATTDEF
  5
B01
330
AFC
100
AcDbEntity
  8
0
100
AcDbText
 10
-177.824739614424
 20
28.29999999999998
 30
0.0
 40
3.0
  1

 72
     2
 11
-177.824739614424
 21
28.29999999999998
 31
0.0
100
AcDbAttributeDefinition
  3
尺度
  2
GEN-TITLE-SCA
 70
     0
 74
     1
  0
MTEXT
  5
B02
330
AFC
100
AcDbEntity
  8
RAHM2
100
AcDbMText
 10
-191.8002551371315
 20
36.30103540727966
 30
0.0
 40
2.5
 41
20.0
 71
     1
 72
     5
  1
尺度
 73
     1
 44
1.0
1001
ACAD
1000
MTEXTBEGIN
1070
    73
1070
     1
1070
    44
1040
1.0
1070
    74
1070
     0
1000
MTEXTEND
  0
MTEXT
  5
B03
330
AFC
100
AcDbEntity
  8
RAHM2
100
AcDbMText
 10
-191.8002551371315
 20
23.80103540727963
 30
0.0
 40
2.5
 41
20.0
 71
     1
 72
     5
  1
数量
 73
     1
 44
1.0
1001
ACAD
1000
MTEXTBEGIN
1070
    73
1070
     1
1070
    44
1040
1.0
1070
    74
1070
     0
1000
MTEXTEND
  0
ATTDEF
  5
B04
330
AFC
100
AcDbEntity
  8
0
100
AcDbText
 10
-175.6127409126095
 20
15.79999999999994
 30
0.0
 40
3.0
  1

 72
     2
 11
-175.6127409126095
 21
15.79999999999994
 31
0.0
100
AcDbAttributeDefinition
  3
数量
  2
GEN-TITLE-QTY
 70
     0
 74
     1
  0
LINE
  5
B05
330
AFC
100
AcDbEntity
  8
0
100
AcDbLine
 10
-193.0000000000001
 20
49.99999999999999
 30
0.0
 11
-193.0000000000001
 21
-0.0000000000000142
 31
0.0
  0
LINE
  5
B06
330
AFC
100
AcDbEntity
  8
7A
100
AcDbLine
 10
-184.7167418745796
 20
43.74999999999995
 30
0.0
 11
-170.9354334742943
 21
43.74999999999995
 31
0.0
1001
GENIUS_GENOREF_13
1005
B54
  0
LINE
  5
B07
330
AFC
100
AcDbEntity
  8
0
100
AcDbLine
 10
-179.7167418745796
 20
45.74999999999994
 30
0.0
 11
-171.7167418745796
 21
46.74999999999995
 31
0.0
  0
LINE
  5
B08
330
AFC
100
AcDbEntity
  8
0
100
AcDbLine
 10
-171.7167418745796
 20
40.74999999999994
 30
0.0
 11
-179.7167418745796
 21
41.74999999999995
 31
0.0
  0
LINE
  5
B09
330
AFC
100
AcDbEntity
  8
7A
100
AcDbLine
 10
-184.7167418745796
 20
43.74999999999995
 30
0.0
 11
-184.7167418745796
 21
47.32478664473144
 31
0.0
1001
GENIUS_GENOREF_13
1005
B54
  0
CIRCLE
  5
B0A
330
AFC
100
AcDbEntity
  8
0
100
AcDbCircle
 10
-184.7167418745796
 20
43.74999999999995
 30
0.0
 40
2.0
  0
CIRCLE
  5
B0B
330
AFC
100
AcDbEntity
  8
0
100
AcDbCircle
 10
-184.7167418745796
 20
43.74999999999995
 30
0.0
 40
3.0
  0
LINE
  5
B0C
330
AFC
100
AcDbEntity
  8
0
100
AcDbLine
 10
-179.7167418745796
 20
41.74999999999995
 30
0.0
 11
-179.7167418745796
 21
45.74999999999994
 31
0.0
  0
LINE
  5
B0D
330
AFC
100
AcDbEntity
  8
7A
100
AcDbLine
 10
-184.7167418745796
 20
43.74999999999995
 30
0.0
 11
-188.4397792458307
 21
43.74999999999995
 31
0.0
1001
GENIUS_GENOREF_13
1005
B54
  0
LINE
  5
B0E
330
AFC
100
AcDbEntity
  8
7A
100
AcDbLine
 10
-184.7167418745796
 20
43.74999999999995
 30
0.0
 11
-184.7167418745796
 21
40.03991724228473
 31
0.0
1001
GENIUS_GENOREF_13
1005
B54
  0
LINE
  5
B0F
330
AFC
100
AcDbEntity
  8
0
100
AcDbLine
 10
-171.7167418745796
 20
46.74999999999995
 30
0.0
 11
-171.7167418745796
 21
40.74999999999994
 31
0.0
  0
LINE
  5
B10
330
AFC
100
AcDbEntity
  8
0
100
AcDbLine
 10
-167.0
 20
24.99999999999997
 30
0.0
 11
-193.0000000000001
 21
24.99999999999997
 31
0.0
  0
LINE
  5
B11
330
AFC
100
AcDbEntity
  8
0
100
AcDbLine
 10
-167.0
 20
39.99999999999991
 30
0.0
 11
-96.0
 21
39.99999999999992
 31
0.0
  0
MTEXT
  5
B12
330
AFC
100
AcDbEntity
  8
RAHM2
100
AcDbMText
 10
-165.8002551371314
 20
38.80103540727956
 30
0.0
 40
2.5
 41
60.0
 71
     1
 72
     5
  1
表面処理
 73
     1
 44
1.0
1001
ACAD
1000
MTEXTBEGIN
1070
    73
1070
     1
1070
    44
1040
1.0
1070
    74
1070
     0
1000
MTEXTEND
  0
MTEXT
  5
B13
330
AFC
100
AcDbEntity
  8
RAHM2
100
AcDbMText
 10
-165.8002551371314
 20
48.80103540727955
 30
0.0
 40
2.5
 41
60.0
 71
     1
 72
     5
  1
材質
 73
     1
 44
1.0
1001
ACAD
1000
MTEXTBEGIN
1070
    73
1070
     1
1070
    44
1040
1.0
1070
    74
1070
     0
1000
MTEXTEND
  0
ATTDEF
  5
B14
330
AFC
100
AcDbEntity
  8
0
100
AcDbText
 10
-148.9618675835291
 20
33.29999999999991
 30
0.0
 40
3.0
  1

100
AcDbAttributeDefinition
  3
表面処理
  2
GEN-TITLE-MAT2
 70
     0
  0
ATTDEF
  5
B15
330
AFC
100
AcDbEntity
  8
0
100
AcDbText
 10
-148.9618675835291
 20
43.29999999999991
 30
0.0
 40
3.0
  1

100
AcDbAttributeDefinition
  3
材質
  2
GEN-TITLE-MAT1
 70
     0
  0
MTEXT
  5
B16
330
AFC
100
AcDbEntity
  8
0
100
AcDbMText
 10
-131.5000000000001
 20
24.99999999999992
 30
0.0
 40
3.5
 41
60.0
 71
     5
 72
     5
  1
\fＭＳ ゴシック|b0|i0|c128|p49;株式会社タカチ電機工業
 73
     1
 44
1.0
1001
ACAD
1000
MTEXTBEGIN
1070
    73
1070
     1
1070
    44
1040
1.0
1070
    74
1070
     0
1000
MTEXTEND
  0
LINE
  5
B17
330
AFC
100
AcDbEntity
  8
0
100
AcDbLine
 10
-167.0
 20
29.99999999999992
 30
0.0
 11
-96.0
 21
29.99999999999992
 31
0.0
  0
MTEXT
  5
B18
330
AFC
100
AcDbEntity
  8
RAHM2
100
AcDbMText
 10
-158.1250000000001
 20
18.80103540727956
 30
0.0
 40
2.5
 41
17.0
 71
     2
 72
     5
  1
承認
 73
     1
 44
1.0
1001
ACAD
1000
MTEXTBEGIN
1070
    73
1070
     1
1070
    44
1040
1.0
1070
    74
1070
     0
1000
MTEXTEND
  0
MTEXT
  5
B19
330
AFC
100
AcDbEntity
  8
RAHM2
100
AcDbMText
 10
-140.3750000000001
 20
18.80103540727958
 30
0.0
 40
2.5
 41
17.0
 71
     2
 72
     5
  1
承認
 73
     1
 44
1.0
1001
ACAD
1000
MTEXTBEGIN
1070
    73
1070
     1
1070
    44
1040
1.0
1070
    74
1070
     0
1000
MTEXTEND
  0
LINE
  5
B1A
330
AFC
100
AcDbEntity
  8
0
100
AcDbLine
 10
-149.2500000000001
 20
19.99999999999993
 30
0.0
 11
-149.2500000000001
 21
-0.0000000000000462
 31
0.0
  0
LINE
  5
B1B
330
AFC
100
AcDbEntity
  8
0
100
AcDbLine
 10
-167.0
 20
49.99999999999995
 30
0.0
 11
-167.0
 21
-0.0000000000000497
 31
0.0
  0
MTEXT
  5
B1C
330
AFC
100
AcDbEntity
  8
RAHM2
100
AcDbMText
 10
-122.6250000000001
 20
18.80103540727958
 30
0.0
 40
2.5
 41
17.0
 71
     2
 72
     5
  1
検図
 73
     1
 44
1.0
1001
ACAD
1000
MTEXTBEGIN
1070
    73
1070
     1
1070
    44
1040
1.0
1070
    74
1070
     0
1000
MTEXTEND
  0
LINE
  5
B1D
330
AFC
100
AcDbEntity
  8
0
100
AcDbLine
 10
-131.5000000000001
 20
19.99999999999993
 30
0.0
 11
-131.5000000000001
 21
-0.0000000000000533
 31
0.0
  0
LINE
  5
B1E
330
AFC
100
AcDbEntity
  8
0
100
AcDbLine
 10
-113.75
 20
19.99999999999993
 30
0.0
 11
-113.75
 21
-0.0000000000000533
 31
0.0
  0
LINE
  5
B1F
330
AFC
100
AcDbEntity
  8
0
100
AcDbLine
 10
-167.0
 20
19.99999999999993
 30
0.0
 11
-96.0
 21
19.99999999999993
 31
0.0
  0
MTEXT
  5
B20
330
AFC
100
AcDbEntity
  8
RAHM2
100
AcDbMText
 10
-104.875
 20
18.80103540727957
 30
0.0
 40
2.5
 41
17.0
 71
     2
 72
     5
  1
製図
 73
     1
 44
1.0
1001
ACAD
1000
MTEXTBEGIN
1070
    73
1070
     1
1070
    44
1040
1.0
1070
    74
1070
     0
1000
MTEXTEND
  0
MTEXT
  5
B21
330
AFC
100
AcDbEntity
  8
RAHM2
100
AcDbMText
 10
-16.85742592933491
 20
3.434762466565985
 30
0.0
 40
2.5
 41
7.936478436748416
 71
     5
 72
     5
  1
Rev.
 73
     1
 44
1.0
1001
ACAD
1000
MTEXTBEGIN
1070
    73
1070
     1
1070
    44
1040
1.0
1070
    74
1070
     0
1000
MTEXTEND
  0
LINE
  5
B22
330
AFC
100
AcDbEntity
  8
0
100
AcDbLine
 10
-21.17541926625711
 20
0.0
 30
0.0
 11
-21.17541926625734
 21
7.0
 31
0.0
  0
LINE
  5
B23
330
AFC
100
AcDbEntity
  8
RAHM2
100
AcDbLine
 10
-96.0
 20
29.99999999999992
 30
0.0
 11
0.0000000000001137
 21
30.00000000000003
 31
0.0
  0
LINE
  5
B24
330
AFC
100
AcDbEntity
  8
RAHM2
100
AcDbLine
 10
-96.0
 20
35.00000000000003
 30
0.0
 11
0.0000000000001137
 21
35.00000000000003
 31
0.0
  0
LINE
  5
B25
330
AFC
100
AcDbEntity
  8
RAHM2
100
AcDbLine
 10
-96.0
 20
39.99999999999993
 30
0.0
 11
0.0000000000001137
 21
40.00000000000002
 31
0.0
  0
LINE
  5
B26
330
AFC
100
AcDbEntity
  8
RAHM2
100
AcDbLine
 10
-96.0
 20
45.00000000000002
 30
0.0
 11
0.0000000000001137
 21
45.00000000000002
 31
0.0
  0
LINE
  5
B27
330
AFC
100
AcDbEntity
  8
0
100
AcDbLine
 10
-96.0
 20
7.0
 30
0.0
 11
0.0000000000001137
 21
7.0
 31
0.0
  0
LINE
  5
B28
330
AFC
100
AcDbEntity
  8
0
100
AcDbLine
 10
-96.0
 20
19.99999999999997
 30
0.0
 11
0.0000000000001137
 21
19.99999999999997
 31
0.0
  0
MTEXT
  5
B29
330
AFC
100
AcDbEntity
  8
RAHM2
100
AcDbMText
 10
-94.80025513713144
 20
5.801035407279627
 30
0.0
 40
2.5
 41
90.0
 71
     1
 72
     5
  1
図番
 73
     1
 44
1.0
1001
ACAD
1000
MTEXTBEGIN
1070
    73
1070
     1
1070
    44
1040
1.0
1070
    74
1070
     0
1000
MTEXTEND
  0
LINE
  5
B2A
330
AFC
100
AcDbEntity
  8
RAHM2
100
AcDbLine
 10
-88.57512886940355
 20
30.40000000000002
 30
0.0
 11
-91.0
 21
34.60000000000001
 31
0.0
  0
LINE
  5
B2B
330
AFC
100
AcDbEntity
  8
RAHM2
100
AcDbLine
 10
-91.0
 20
34.60000000000001
 30
0.0
 11
-93.42487113059645
 21
30.40000000000002
 31
0.0
  0
LINE
  5
B2C
330
AFC
100
AcDbEntity
  8
RAHM2
100
AcDbLine
 10
-86.0
 20
50.00000000000001
 30
0.0
 11
-86.0
 21
19.99999999999993
 31
0.0
  0
LINE
  5
B2D
330
AFC
100
AcDbEntity
  8
RAHM2
100
AcDbLine
 10
-93.42487113059645
 20
30.40000000000002
 30
0.0
 11
-88.57512886940355
 21
30.40000000000002
 31
0.0
  0
MTEXT
  5
B2E
330
AFC
100
AcDbEntity
  8
RAHM2
100
AcDbMText
 10
-91.0
 20
22.49999999999996
 30
0.0
 40
2.5
 41
10.0
 71
     5
 72
     5
  1
符号
 73
     1
 44
1.0
1001
ACAD
1000
MTEXTBEGIN
1070
    73
1070
     1
1070
    44
1040
1.0
1070
    74
1070
     0
1000
MTEXTEND
  0
MTEXT
  5
B2F
330
AFC
100
AcDbEntity
  8
RAHM2
100
AcDbMText
 10
-94.80025513713144
 20
18.8010354072796
 30
0.0
 40
2.5
 41
90.0
 71
     1
 72
     5
  1
品名
 73
     1
 44
1.0
1001
ACAD
1000
MTEXTBEGIN
1070
    73
1070
     1
1070
    44
1040
1.0
1070
    74
1070
     0
1000
MTEXTEND
  0
LINE
  5
B30
330
AFC
100
AcDbEntity
  8
RAHM2
100
AcDbLine
 10
-93.42487113059645
 20
45.40000000000001
 30
0.0
 11
-88.57512886940355
 21
45.40000000000001
 31
0.0
  0
LINE
  5
B31
330
AFC
100
AcDbEntity
  8
RAHM2
100
AcDbLine
 10
-88.57512886940355
 20
45.40000000000001
 30
0.0
 11
-91.0
 21
49.6
 31
0.0
  0
LINE
  5
B32
330
AFC
100
AcDbEntity
  8
RAHM2
100
AcDbLine
 10
-93.42487113059645
 20
40.40000000000001
 30
0.0
 11
-88.57512886940355
 21
40.40000000000001
 31
0.0
  0
LINE
  5
B33
330
AFC
100
AcDbEntity
  8
RAHM2
100
AcDbLine
 10
-88.57512886940355
 20
40.40000000000001
 30
0.0
 11
-91.0
 21
44.6
 31
0.0
  0
LINE
  5
B34
330
AFC
100
AcDbEntity
  8
RAHM2
100
AcDbLine
 10
-93.42487113059645
 20
35.40000000000002
 30
0.0
 11
-88.57512886940355
 21
35.40000000000002
 31
0.0
  0
LINE
  5
B35
330
AFC
100
AcDbEntity
  8
RAHM2
100
AcDbLine
 10
-88.57512886940355
 20
35.40000000000002
 30
0.0
 11
-91.0
 21
39.60000000000001
 31
0.0
  0
LINE
  5
B36
330
AFC
100
AcDbEntity
  8
RAHM2
100
AcDbLine
 10
-91.0
 20
39.60000000000001
 30
0.0
 11
-93.42487113059645
 21
35.40000000000002
 31
0.0
  0
LINE
  5
B37
330
AFC
100
AcDbEntity
  8
RAHM2
100
AcDbLine
 10
-91.0
 20
44.6
 30
0.0
 11
-93.42487113059645
 21
40.40000000000001
 31
0.0
  0
LINE
  5
B38
330
AFC
100
AcDbEntity
  8
RAHM2
100
AcDbLine
 10
-91.0
 20
49.6
 30
0.0
 11
-93.42487113059645
 21
45.40000000000001
 31
0.0
  0
LINE
  5
B39
330
AFC
100
AcDbEntity
  8
RAHM2
100
AcDbLine
 10
-31.82081941068907
 20
50.00000000000003
 30
0.0
 11
-31.82081941068918
 21
19.99999999999994
 31
0.0
  0
MTEXT
  5
B3A
330
AFC
100
AcDbEntity
  8
RAHM2
100
AcDbMText
 10
-59.0
 20
22.49999999999996
 30
0.0
 40
2.5
 41
45.0
 71
     5
 72
     5
  1
変更記事
 73
     1
 44
1.0
1001
ACAD
1000
MTEXTBEGIN
1070
    73
1070
     1
1070
    44
1040
1.0
1070
    74
1070
     0
1000
MTEXTEND
  0
LINE
  5
B3B
330
AFC
100
AcDbEntity
  8
RAHM2
100
AcDbLine
 10
-11.82081941068907
 20
50.00000000000003
 30
0.0
 11
-11.82081941068907
 21
19.99999999999994
 31
0.0
  0
MTEXT
  5
B3C
330
AFC
100
AcDbEntity
  8
RAHM2
100
AcDbMText
 10
-22.27910888308327
 20
32.50000000000003
 30
0.0
 40
2.5
 41
20.0
 71
     5
 72
     5
  1
・  ・   
 73
     1
 44
1.0
1001
ACAD
1000
MTEXTBEGIN
1070
    73
1070
     1
1070
    44
1040
1.0
1070
    74
1070
     0
1000
MTEXTEND
  0
MTEXT
  5
B3D
330
AFC
100
AcDbEntity
  8
RAHM2
100
AcDbMText
 10
-21.55893921569111
 20
22.49999999999997
 30
0.0
 40
2.5
 41
20.0
 71
     5
 72
     5
  1
年・月・日
 73
     1
 44
1.0
1001
ACAD
1000
MTEXTBEGIN
1070
    73
1070
     1
1070
    44
1040
1.0
1070
    74
1070
     0
1000
MTEXTEND
  0
MTEXT
  5
B3E
330
AFC
100
AcDbEntity
  8
RAHM2
100
AcDbMText
 10
-5.910409705344477
 20
22.49999999999997
 30
0.0
 40
2.5
 41
15.0
 71
     5
 72
     5
  1
担当
 73
     1
 44
1.0
1001
ACAD
1000
MTEXTBEGIN
1070
    73
1070
     1
1070
    44
1040
1.0
1070
    74
1070
     0
1000
MTEXTEND
  0
MTEXT
  5
B3F
330
AFC
100
AcDbEntity
  8
RAHM2
100
AcDbMText
 10
-22.27910888308327
 20
42.50000000000002
 30
0.0
 40
2.5
 41
20.0
 71
     5
 72
     5
  1
・  ・   
 73
     1
 44
1.0
1001
ACAD
1000
MTEXTBEGIN
1070
    73
1070
     1
1070
    44
1040
1.0
1070
    74
1070
     0
1000
MTEXTEND
  0
MTEXT
  5
B40
330
AFC
100
AcDbEntity
  8
RAHM2
100
AcDbMText
 10
-22.27910888308327
 20
37.50000000000003
 30
0.0
 40
2.5
 41
20.0
 71
     5
 72
     5
  1
・  ・   
 73
     1
 44
1.0
1001
ACAD
1000
MTEXTBEGIN
1070
    73
1070
     1
1070
    44
1040
1.0
1070
    74
1070
     0
1000
MTEXTEND
  0
MTEXT
  5
B41
330
AFC
100
AcDbEntity
  8
RAHM2
100
AcDbMText
 10
-22.27910888308327
 20
47.50000000000002
 30
0.0
 40
2.5
 41
20.0
 71
     5
 72
     5
  1
・  ・   
 73
     1
 44
1.0
1001
ACAD
1000
MTEXTBEGIN
1070
    73
1070
     1
1070
    44
1040
1.0
1070
    74
1070
     0
1000
MTEXTEND
  0
LINE
  5
B42
330
AFC
100
AcDbEntity
  8
RAHM2
100
AcDbLine
 10
-91.0
 20
29.60000000000001
 30
0.0
 11
-93.42487113059645
 21
25.40000000000002
 31
0.0
  0
LINE
  5
B43
330
AFC
100
AcDbEntity
  8
RAHM2
100
AcDbLine
 10
-88.57512886940355
 20
25.40000000000002
 30
0.0
 11
-91.0
 21
29.60000000000001
 31
0.0
  0
LINE
  5
B44
330
AFC
100
AcDbEntity
  8
RAHM2
100
AcDbLine
 10
-93.42487113059645
 20
25.40000000000002
 30
0.0
 11
-88.57512886940355
 21
25.40000000000002
 31
0.0
  0
LINE
  5
B45
330
AFC
100
AcDbEntity
  8
RAHM2
100
AcDbLine
 10
-96.0
 20
25.0
 30
0.0
 11
0.0000000000001137
 21
25.00000000000003
 31
0.0
  0
MTEXT
  5
B46
330
AFC
100
AcDbEntity
  8
RAHM2
100
AcDbMText
 10
-22.27910888308327
 20
27.50000000000003
 30
0.0
 40
2.5
 41
20.0
 71
     5
 72
     5
  1
・  ・   
 73
     1
 44
1.0
1001
ACAD
1000
MTEXTBEGIN
1070
    73
1070
     1
1070
    44
1040
1.0
1070
    74
1070
     0
1000
MTEXTEND
  0
TEXT
  5
B47
330
AFC
100
AcDbEntity
  8
RAHM2
100
AcDbText
 10
-91.81558635658019
 20
25.65000000000002
 30
0.0
 40
2.5
  1
1
 72
     1
 11
-91.19058635658019
 21
25.65000000000002
 31
0.0
100
AcDbText
 73
     1
  0
TEXT
  5
B48
330
AFC
100
AcDbEntity
  8
RAHM2
100
AcDbText
 10
-91.91833169291339
 20
30.65000000000002
 30
0.0
 40
2.5
  1
2
 72
     1
 11
-91.0
 21
30.65000000000002
 31
0.0
100
AcDbText
 73
     1
  0
TEXT
  5
B49
330
AFC
100
AcDbEntity
  8
RAHM2
100
AcDbText
 10
-91.92677669529663
 20
35.64999999999999
 30
0.0
 40
2.5
  1
3
 72
     1
 11
-91.0
 21
35.64999999999999
 31
0.0
100
AcDbText
 73
     1
  0
TEXT
  5
B4A
330
AFC
100
AcDbEntity
  8
RAHM2
100
AcDbText
 10
-92.0
 20
40.65000000000002
 30
0.0
 40
2.5
  1
4
 72
     1
 11
-91.0
 21
40.65000000000002
 31
0.0
100
AcDbText
 73
     1
  0
TEXT
  5
B4B
330
AFC
100
AcDbEntity
  8
RAHM2
100
AcDbText
 10
-91.92677669529663
 20
45.65000000000002
 30
0.0
 40
2.5
  1
5
 72
     1
 11
-91.0
 21
45.65000000000002
 31
0.0
100
AcDbText
 73
     1
  0
LINE
  5
B4C
330
AFC
100
AcDbEntity
  8
0
100
AcDbLine
 10
-193.0000000000001
 20
0.0
 30
0.0
 11
0.0
 21
0.0
 31
0.0
1001
GENIUS_GENREC_14
1002
{
1000
PYDIR
1011
-184.0
1021
50.0
1031
0.0
1002
}
1002
{
1000
PXDIR
1011
0.0
1021
0.0
1031
0.0
1002
}
1002
{
1000
PORI
1011
-184.0
1021
0.0
1031
0.0
1002
}
1002
{
1000
PINS
1011
-100.5
1021
25.0
1031
0.0
1002
}
1002
{
1000
HVAL
1000
50
1002
}
1002
{
1000
H
1070
     2
1002
}
1002
{
1000
WVAL
1000
167
1002
}
1002
{
1000
W
1070
     2
1002
}
1002
{
1000
C
1070
     4
1002
}
1001
GENIUS_GENODEF_13
1002
{
1000
HIER
1070
     0
1002
}
1002
{
1000
MANEDIT
1070
     0
1002
}
1002
{
1000
NOSEL
1070
     0
1002
}
1002
{
1000
BEHIND
1070
     0
1002
}
1002
{
1000
REACTOR
1002
}
1001
GENIUS_GENOBJ-N-REC_13
1002
{
1000
OWNER
1000
GEN
1002
}
  0
LINE
  5
B4D
330
AFC
100
AcDbEntity
  8
0
100
AcDbLine
 10
0.0
 20
50.0
 30
0.0
 11
-193.0000000000001
 21
50.00000000000002
 31
0.0
1001
GENIUS_GENREC_14
1002
{
1000
PYDIR
1011
-184.0
1021
50.0
1031
0.0
1002
}
1002
{
1000
PXDIR
1011
0.0
1021
0.0
1031
0.0
1002
}
1002
{
1000
PORI
1011
-184.0
1021
0.0
1031
0.0
1002
}
1002
{
1000
PINS
1011
-100.5
1021
25.0
1031
0.0
1002
}
1002
{
1000
HVAL
1000
50
1002
}
1002
{
1000
H
1070
     2
1002
}
1002
{
1000
WVAL
1000
167
1002
}
1002
{
1000
W
1070
     2
1002
}
1002
{
1000
C
1070
     4
1002
}
1001
GENIUS_GENODEF_13
1002
{
1000
HIER
1070
     0
1002
}
1002
{
1000
MANEDIT
1070
     0
1002
}
1002
{
1000
NOSEL
1070
     0
1002
}
1002
{
1000
BEHIND
1070
     0
1002
}
1002
{
1000
REACTOR
1002
}
1001
GENIUS_GENOBJ-N-REC_13
1002
{
1000
OWNER
1000
GEN
1002
}
  0
LINE
  5
B4E
330
AFC
100
AcDbEntity
  8
0
100
AcDbLine
 10
-96.0
 20
50.00000000000001
 30
0.0
 11
-96.0
 21
-0.0000000000000142
 31
0.0
1001
GENIUS_GENREC_14
1002
{
1000
PYDIR
1011
-96.0
1021
49.99999999999999
1031
0.0
1002
}
1002
{
1000
PXDIR
1011
88.0
1021
-0.0000000000000142
1031
0.0
1002
}
1002
{
1000
PORI
1011
-96.0
1021
-0.0000000000000142
1031
0.0
1002
}
1002
{
1000
PINS
1011
-12.5
1021
24.99999999999999
1031
0.0
1002
}
1002
{
1000
HVAL
1000
50
1002
}
1002
{
1000
H
1070
     2
1002
}
1002
{
1000
WVAL
1000
167
1002
}
1002
{
1000
W
1070
     2
1002
}
1002
{
1000
C
1070
     4
1002
}
1001
GENIUS_GENODEF_13
1002
{
1000
HIER
1070
     0
1002
}
1002
{
1000
MANEDIT
1070
     0
1002
}
1002
{
1000
NOSEL
1070
     0
1002
}
1002
{
1000
BEHIND
1070
     0
1002
}
1002
{
1000
REACTOR
1002
}
1001
GENIUS_GENOBJ-N-REC_13
1002
{
1000
OWNER
1000
GEN
1002
}
  0
ATTDEF
  5
B4F
330
AFC
100
AcDbEntity
  8
0
100
AcDbText
 10
-84.0
 20
1.999999999999957
 30
0.0
 40
3.0
  1

100
AcDbAttributeDefinition
  3
図番
  2
GEN-TITLE-NR1
 70
     0
  0
ATTDEF
  5
B50
330
AFC
100
AcDbEntity
  8
0
100
AcDbText
 10
-84.0
 20
9.149999999999948
 30
0.0
 40
2.5
  1

100
AcDbAttributeDefinition
  3
サブタイトル
  2
GEN-TITLE-DES2
 70
     0
  0
LINE
  5
B51
330
AFC
100
AcDbEntity
  8
0
100
AcDbLine
 10
0.0
 20
0.0
 30
0.0
 11
0.0
 21
50.0
 31
0.0
1001
GENIUS_GENREC_14
1002
{
1000
PYDIR
1011
-414.0
1021
291.0
1031
0.0
1002
}
1002
{
1000
PXDIR
1011
6.0
1021
-6.0
1031
0.0
1002
}
1002
{
1000
PORI
1011
-414.0
1021
-6.0
1031
0.0
1002
}
1002
{
1000
PINS
1011
-414.0
1021
-6.0
1031
0.0
1002
}
1002
{
1000
HVAL
1000
297
1002
}
1002
{
1000
H
1070
     2
1002
}
1002
{
1000
WVAL
1000
420
1002
}
1002
{
1000
W
1070
     2
1002
}
1002
{
1000
C
1070
     1
1002
}
1001
GENIUS_GENODEF_13
1002
{
1000
HIER
1070
     0
1002
}
1002
{
1000
MANEDIT
1070
     0
1002
}
1002
{
1000
NOSEL
1070
     0
1002
}
1002
{
1000
BEHIND
1070
     0
1002
}
1002
{
1000
OTHER
1070
     0
1002
}
1002
{
1000
REACTOR
1002
}
1001
GENIUS_GENOBJ-N-REC_13
1002
{
1000
OWNER
1000
GEN
1002
}
  0
ATTDEF
  5
B52
330
AFC
100
AcDbEntity
  8
0
100
AcDbText
 10
-84.14251901585329
 20
12.82790432564377
 30
0.0
 40
3.5
  1

100
AcDbAttributeDefinition
  3
品名
  2
GEN-TITLE-DES1
 70
     0
  0
ATTDEF
  5
B53
330
AFC
100
AcDbEntity
  8
0
100
AcDbText
 10
-8.002309189545826
 20
1.705189434395036
 30
0.0
 40
2.5
  1

100
AcDbAttributeDefinition
  3
Rev.
  2
GEN-TITLE-NR2
 70
     0
  0
POINT
  5
B54
330
AFC
100
AcDbEntity
  8
0
 60
     1
100
AcDbPoint
 10
-418.5355579819675
 20
-138.1104841268254
 30
0.0
1001
GENIUS_GENODEF_13
1002
{
1000
HIER
1070
    10
1002
}
1002
{
1000
MANEDIT
1070
     0
1002
}
1002
{
1000
NOSEL
1070
     0
1002
}
1002
{
1000
BEHIND
1070
     0
1002
}
1002
{
1000
REACTOR
1002
}
1001
GENIUS_GENOBJ-N-CRS_13
1002
{
1000
OWNER
1000
GEN
1002
}
1001
GENIUS_GENOENT_13
1002
{
1000
MYREF
1005
B54
1002
}
1002
{
1000
GRP
1005
0
1002
}
1001
GENIUS_GENOLIS_13
1002
{
1000
ENT
1005
B0E
1005
B0D
1005
B09
1005
B06
1002
}
  0
ENDBLK
  5
B57
330
AFC
100
AcDbEntity
  8
0
100
AcDbBlockEnd
  0
BLOCK
  5
C35
330
C34
100
AcDbEntity
  8
0
100
AcDbBlockBegin
  2
M3x5ﾄﾗｽ
 70
     0
 10
0.0
 20
0.0
 30
0.0
  3
M3x5ﾄﾗｽ
  1

  0
ARC
  5
C36
330
C34
100
AcDbEntity
  8
ｶﾊﾞｰ
100
AcDbCircle
 10
-2.807916666666869
 20
0.0
 30
0.0
 40
4.64791666666675
100
AcDbArc
 50
312.0750220508495
 51
47.92497794915271
  0
LINE
  5
C37
330
C34
100
AcDbEntity
  8
ｶﾊﾞｰ
100
AcDbLine
 10
0.0
 20
3.450000000000045
 30
0.0
 11
0.3066666666666151
 21
3.450000000000045
 31
0.0
  0
LINE
  5
C38
330
C34
100
AcDbEntity
  8
ｶﾊﾞｰ
100
AcDbLine
 10
-5.0
 20
-1.5
 30
0.0
 11
-5.0
 21
1.5
 31
0.0
  0
LINE
  5
C39
330
C34
100
AcDbEntity
  8
ｶﾊﾞｰ0
100
AcDbLine
 10
-1.499999999999772
 20
-1.5
 30
0.0
 11
-1.5
 21
1.5
 31
0.0
  0
LINE
  5
C3A
330
C34
100
AcDbEntity
  8
ｶﾊﾞｰ0
100
AcDbLine
 10
0.0000000000002274
 20
-1.5
 30
0.0
 11
-1.499999999999772
 21
-1.199999999999931
 31
0.0
  0
LINE
  5
C3B
330
C34
100
AcDbEntity
  8
ｶﾊﾞｰ0
100
AcDbLine
 10
0.0
 20
1.5
 30
0.0
 11
-1.499999999999772
 21
1.200000000000045
 31
0.0
  0
LINE
  5
C3C
330
C34
100
AcDbEntity
  8
ｶﾊﾞｰ
100
AcDbLine
 10
0.0
 20
-3.449999999999988
 30
0.0
 11
0.3066666666666151
 21
-3.450000000000045
 31
0.0
  0
LINE
  5
C3D
330
C34
100
AcDbEntity
  8
ｶﾊﾞｰ0
100
AcDbLine
 10
-1.5
 20
1.199999999999988
 30
0.0
 11
-5.0
 21
1.199999999999874
 31
0.0
  0
LINE
  5
C3E
330
C34
100
AcDbEntity
  8
ｶﾊﾞｰ0
100
AcDbLine
 10
-1.499999999999772
 20
-1.199999999999931
 30
0.0
 11
-5.0
 21
-1.199999999999931
 31
0.0
  0
LINE
  5
C3F
330
C34
100
AcDbEntity
  8
ｶﾊﾞｰ
100
AcDbLine
 10
-5.0
 20
1.499999999999943
 30
0.0
 11
0.0
 21
1.5
 31
0.0
  0
LINE
  5
C40
330
C34
100
AcDbEntity
  8
ｶﾊﾞｰ
100
AcDbLine
 10
0.0000000000002274
 20
-1.5
 30
0.0
 11
-5.0
 21
-1.499999999999943
 31
0.0
  0
POLYLINE
  5
C41
330
C34
100
AcDbEntity
  8
ｶﾊﾞｰ
100
AcDb2dPolyline
 66
     1
 10
0.0
 20
0.0
 30
0.0
  0
VERTEX
  5
C42
330
C41
100
AcDbEntity
  8
ｶﾊﾞｰ
  6
Continuous
 62
     7
100
AcDbVertex
100
AcDb2dVertex
 10
0.0
 20
3.450000000000045
 30
0.0
  0
VERTEX
  5
C43
330
C41
100
AcDbEntity
  8
ｶﾊﾞｰ
  6
Continuous
 62
     7
100
AcDbVertex
100
AcDb2dVertex
 10
0.0
 20
-3.449999999999988
 30
0.0
  0
SEQEND
  5
C44
330
C41
100
AcDbEntity
  8
ｶﾊﾞｰ
  6
Continuous
 62
     7
  0
POLYLINE
  5
C45
330
C34
100
AcDbEntity
  8
ｶﾊﾞｰ
100
AcDb2dPolyline
 66
     1
 10
0.0
 20
0.0
 30
0.0
  0
VERTEX
  5
C46
330
C45
100
AcDbEntity
  8
ｶﾊﾞｰ
  6
Continuous
 62
     7
100
AcDbVertex
100
AcDb2dVertex
 10
0.3066666666666151
 20
3.450000000000045
 30
0.0
  0
VERTEX
  5
C47
330
C45
100
AcDbEntity
  8
ｶﾊﾞｰ
  6
Continuous
 62
     7
100
AcDbVertex
100
AcDb2dVertex
 10
0.3066666666666151
 20
-3.449999999999988
 30
0.0
  0
SEQEND
  5
C48
330
C45
100
AcDbEntity
  8
ｶﾊﾞｰ
  6
Continuous
 62
     7
  0
ENDBLK
  5
C49
330
C34
100
AcDbEntity
  8
0
100
AcDbBlockEnd
  0
BLOCK
  5
C4B
330
C4A
100
AcDbEntity
  8
0
100
AcDbBlockBegin
  2
M3x5ﾄﾗｽ頭
 70
     0
 10
0.0
 20
0.0
 30
0.0
  3
M3x5ﾄﾗｽ頭
  1

  0
ARC
  5
C4C
330
C4A
100
AcDbEntity
  8
ｶﾊﾞｰ
100
AcDbCircle
 10
2.807916666666869
 20
0.0
 30
0.0
 40
4.64791666666675
100
AcDbArc
 50
132.0750220508473
 51
227.9249779491493
  0
POLYLINE
  5
C4D
330
C4A
100
AcDbEntity
  8
ｶﾊﾞｰ
100
AcDb2dPolyline
 66
     1
 10
0.0
 20
0.0
 30
0.0
  0
VERTEX
  5
C4E
330
C4D
100
AcDbEntity
  8
ｶﾊﾞｰ
  6
Continuous
 62
     7
100
AcDbVertex
100
AcDb2dVertex
 10
-0.3066666666666151
 20
3.450000000000045
 30
0.0
  0
VERTEX
  5
C4F
330
C4D
100
AcDbEntity
  8
ｶﾊﾞｰ
  6
Continuous
 62
     7
100
AcDbVertex
100
AcDb2dVertex
 10
-0.3066666666666151
 20
-3.449999999999988
 30
0.0
  0
SEQEND
  5
C50
330
C4D
100
AcDbEntity
  8
ｶﾊﾞｰ
  6
Continuous
 62
     7
  0
POLYLINE
  5
C51
330
C4A
100
AcDbEntity
  8
ｶﾊﾞｰ
100
AcDb2dPolyline
 66
     1
 10
0.0
 20
0.0
 30
0.0
  0
VERTEX
  5
C52
330
C51
100
AcDbEntity
  8
ｶﾊﾞｰ
  6
Continuous
 62
     7
100
AcDbVertex
100
AcDb2dVertex
 10
0.0
 20
3.450000000000045
 30
0.0
  0
VERTEX
  5
C53
330
C51
100
AcDbEntity
  8
ｶﾊﾞｰ
  6
Continuous
 62
     7
100
AcDbVertex
100
AcDb2dVertex
 10
0.0
 20
-3.449999999999988
 30
0.0
  0
SEQEND
  5
C54
330
C51
100
AcDbEntity
  8
ｶﾊﾞｰ
  6
Continuous
 62
     7
  0
LINE
  5
C55
330
C4A
100
AcDbEntity
  8
ｶﾊﾞｰ
100
AcDbLine
 10
0.0
 20
-3.449999999999988
 30
0.0
 11
-0.3066666666666151
 21
-3.450000000000045
 31
0.0
  0
LINE
  5
C56
330
C4A
100
AcDbEntity
  8
ｶﾊﾞｰ
100
AcDbLine
 10
0.0
 20
3.450000000000045
 30
0.0
 11
-0.3066666666666151
 21
3.450000000000045
 31
0.0
  0
ENDBLK
  5
C57
330
C4A
100
AcDbEntity
  8
0
100
AcDbBlockEnd
  0
BLOCK
  5
C59
330
C58
100
AcDbEntity
  8
0
100
AcDbBlockBegin
  2
M3x5ﾄﾗｽ-2
 70
     0
 10
0.0
 20
0.0
 30
0.0
  3
M3x5ﾄﾗｽ-2
  1

  0
CIRCLE
  5
C5A
330
C58
100
AcDbEntity
  8
ｶﾊﾞｰ
100
AcDbCircle
 10
0.0
 20
0.0
 30
0.0
 40
3.450000000000889
  0
LINE
  5
C5B
330
C58
100
AcDbEntity
  8
ｶﾊﾞｰ
100
AcDbLine
 10
0.3295454545454959
 20
1.450000000000045
 30
0.0
 11
0.3295454545454959
 21
1.252272727272782
 31
0.0
  0
LINE
  5
C5C
330
C58
100
AcDbEntity
  8
ｶﾊﾞｰ
100
AcDbLine
 10
1.252272727272611
 20
0.329545454545439
 30
0.0
 11
1.450000000000045
 21
0.329545454545439
 31
0.0
  0
ARC
  5
C5D
330
C58
100
AcDbEntity
  8
ｶﾊﾞｰ
100
AcDbCircle
 10
1.252272727272611
 20
1.252272727272725
 30
0.0
 40
0.9227272727272604
100
AcDbArc
 50
180.0
 51
270.0
  0
LINE
  5
C5E
330
C58
100
AcDbEntity
  8
ｶﾊﾞｰ
100
AcDbLine
 10
1.450000000000045
 20
0.329545454545439
 30
0.0
 11
1.450000000000045
 21
-0.3295454545454959
 31
0.0
  0
LINE
  5
C5F
330
C58
100
AcDbEntity
  8
ｶﾊﾞｰ
100
AcDbLine
 10
1.450000000000045
 20
-0.3295454545454959
 30
0.0
 11
1.252272727272611
 21
-0.3295454545454959
 31
0.0
  0
LINE
  5
C60
330
C58
100
AcDbEntity
  8
ｶﾊﾞｰ
100
AcDbLine
 10
0.3295454545454959
 20
-1.252272727272725
 30
0.0
 11
0.3295454545454959
 21
-1.450000000000045
 31
0.0
  0
ARC
  5
C61
330
C58
100
AcDbEntity
  8
ｶﾊﾞｰ
100
AcDbCircle
 10
1.252272727272611
 20
-1.252272727272725
 30
0.0
 40
0.9227272727272604
100
AcDbArc
 50
90.0
 51
180.0
  0
LINE
  5
C62
330
C58
100
AcDbEntity
  8
ｶﾊﾞｰ
100
AcDbLine
 10
0.3295454545454959
 20
-1.449999999999931
 30
0.0
 11
-0.3295454545454959
 21
-1.449999999999931
 31
0.0
  0
LINE
  5
C63
330
C58
100
AcDbEntity
  8
ｶﾊﾞｰ
100
AcDbLine
 10
-0.3295454545454959
 20
-1.449999999999931
 30
0.0
 11
-0.3295454545454959
 21
-1.252272727272725
 31
0.0
  0
LINE
  5
C64
330
C58
100
AcDbEntity
  8
ｶﾊﾞｰ
100
AcDbLine
 10
-1.252272727272611
 20
-0.3295454545454959
 30
0.0
 11
-1.450000000000045
 21
-0.3295454545454959
 31
0.0
  0
LINE
  5
C65
330
C58
100
AcDbEntity
  8
ｶﾊﾞｰ
100
AcDbLine
 10
-1.450000000000045
 20
-0.3295454545454959
 30
0.0
 11
-1.449999999999818
 21
0.329545454545439
 31
0.0
  0
ARC
  5
C66
330
C58
100
AcDbEntity
  8
ｶﾊﾞｰ
100
AcDbCircle
 10
-1.252272727272611
 20
-1.252272727272725
 30
0.0
 40
0.9227272727272604
100
AcDbArc
 50
0.0
 51
90.0
  0
ARC
  5
C67
330
C58
100
AcDbEntity
  8
ｶﾊﾞｰ
100
AcDbCircle
 10
-1.252272727272838
 20
1.252272727272725
 30
0.0
 40
0.9227272727272604
100
AcDbArc
 50
270.0
 51
0.0
  0
LINE
  5
C68
330
C58
100
AcDbEntity
  8
ｶﾊﾞｰ
100
AcDbLine
 10
-0.3295454545454959
 20
1.450000000000045
 30
0.0
 11
0.3295454545454959
 21
1.449999999999988
 31
0.0
  0
LINE
  5
C69
330
C58
100
AcDbEntity
  8
ｶﾊﾞｰ
100
AcDbLine
 10
-0.3295454545454959
 20
1.252272727272725
 30
0.0
 11
-0.3295454545454959
 21
1.450000000000045
 31
0.0
  0
LINE
  5
C6A
330
C58
100
AcDbEntity
  8
ｶﾊﾞｰ
100
AcDbLine
 10
-1.450000000000045
 20
0.329545454545439
 30
0.0
 11
-1.252272727272838
 21
0.329545454545439
 31
0.0
  0
ENDBLK
  5
C6B
330
C58
100
AcDbEntity
  8
0
100
AcDbBlockEnd
  0
BLOCK
  5
C6D
330
C6C
100
AcDbEntity
  8
0
100
AcDbBlockBegin
  2
M3x10ﾅﾍﾞ2
 70
     0
 10
0.0
 20
0.0
 30
0.0
  3
M3x10ﾅﾍﾞ2
  1

  0
LINE
  5
C6E
330
C6C
100
AcDbEntity
  8
ｶﾊﾞｰ
100
AcDbLine
 10
0.4090909090909918
 20
1.554545454545404
 30
0.0
 11
0.4090909090909918
 21
1.800000000000068
 31
0.0
  0
LINE
  5
C6F
330
C6C
100
AcDbEntity
  8
ｶﾊﾞｰ
100
AcDbLine
 10
1.799999999999954
 20
0.4090909090908781
 30
0.0
 11
1.554545454545404
 21
0.4090909090908781
 31
0.0
  0
LINE
  5
C70
330
C6C
100
AcDbEntity
  8
ｶﾊﾞｰ
100
AcDbLine
 10
1.800000000000181
 20
-0.4090909090908781
 30
0.0
 11
1.799999999999954
 21
0.4090909090908781
 31
0.0
  0
LINE
  5
C71
330
C6C
100
AcDbEntity
  8
ｶﾊﾞｰ
100
AcDbLine
 10
1.554545454545404
 20
-0.4090909090908781
 30
0.0
 11
1.799999999999954
 21
-0.4090909090908781
 31
0.0
  0
LINE
  5
C72
330
C6C
100
AcDbEntity
  8
ｶﾊﾞｰ
100
AcDbLine
 10
0.4090909090909918
 20
-1.800000000000068
 30
0.0
 11
0.4090909090909918
 21
-1.554545454545518
 31
0.0
  0
LINE
  5
C73
330
C6C
100
AcDbEntity
  8
ｶﾊﾞｰ
100
AcDbLine
 10
-1.799999999999954
 20
-0.4090909090908781
 30
0.0
 11
-1.554545454545404
 21
-0.4090909090908781
 31
0.0
  0
LINE
  5
C74
330
C6C
100
AcDbEntity
  8
ｶﾊﾞｰ
100
AcDbLine
 10
-0.4090909090909918
 20
-1.554545454545518
 30
0.0
 11
-0.4090909090909918
 21
-1.800000000000068
 31
0.0
  0
LINE
  5
C75
330
C6C
100
AcDbEntity
  8
ｶﾊﾞｰ
100
AcDbLine
 10
-0.4090909090909918
 20
-1.800000000000068
 30
0.0
 11
0.4090909090909918
 21
-1.800000000000068
 31
0.0
  0
ARC
  5
C76
330
C6C
100
AcDbEntity
  8
ｶﾊﾞｰ
100
AcDbCircle
 10
-1.554545454545404
 20
-1.554545454545518
 30
0.0
 40
1.145454545454539
100
AcDbArc
 50
0.0
 51
90.0
  0
ARC
  5
C77
330
C6C
100
AcDbEntity
  8
ｶﾊﾞｰ
100
AcDbCircle
 10
-1.554545454545404
 20
1.554545454545404
 30
0.0
 40
1.145454545454539
100
AcDbArc
 50
270.0
 51
0.0
  0
LINE
  5
C78
330
C6C
100
AcDbEntity
  8
ｶﾊﾞｰ
100
AcDbLine
 10
-1.799999999999954
 20
0.4090909090908781
 30
0.0
 11
-1.800000000000181
 21
-0.4090909090908781
 31
0.0
  0
LINE
  5
C79
330
C6C
100
AcDbEntity
  8
ｶﾊﾞｰ
100
AcDbLine
 10
-1.554545454545404
 20
0.4090909090908781
 30
0.0
 11
-1.799999999999954
 21
0.4090909090908781
 31
0.0
  0
LINE
  5
C7A
330
C6C
100
AcDbEntity
  8
ｶﾊﾞｰ
100
AcDbLine
 10
-0.4090909090907644
 20
1.799999999999954
 30
0.0
 11
-0.4090909090907644
 21
1.554545454545404
 31
0.0
  0
ARC
  5
C7B
330
C6C
100
AcDbEntity
  8
ｶﾊﾞｰ
100
AcDbCircle
 10
1.554545454545404
 20
1.554545454545404
 30
0.0
 40
1.145454545454539
100
AcDbArc
 50
180.0
 51
270.0
  0
ARC
  5
C7C
330
C6C
100
AcDbEntity
  8
ｶﾊﾞｰ
100
AcDbCircle
 10
1.554545454545404
 20
-1.554545454545518
 30
0.0
 40
1.145454545454539
100
AcDbArc
 50
90.0
 51
180.0
  0
LINE
  5
C7D
330
C6C
100
AcDbEntity
  8
ｶﾊﾞｰ
100
AcDbLine
 10
0.4090909090909918
 20
1.79999999999984
 30
0.0
 11
-0.4090909090907644
 21
1.799999999999954
 31
0.0
  0
CIRCLE
  5
C7E
330
C6C
100
AcDbEntity
  8
ｶﾊﾞｰ
100
AcDbCircle
 10
0.0
 20
0.0
 30
0.0
 40
2.749999999996779
  0
ENDBLK
  5
C7F
330
C6C
100
AcDbEntity
  8
0
100
AcDbBlockEnd
  0
BLOCK
  5
D80
330
D7F
100
AcDbEntity
  8
0
100
AcDbBlockBegin
  2
M3x10ﾅﾍﾞ
 70
     0
 10
0.0
 20
0.0
 30
0.0
  3
M3x10ﾅﾍﾞ
  1

  0
LINE
  5
D81
330
D7F
100
AcDbEntity
  8
ｶﾊﾞｰ
100
AcDbLine
 10
1.500000000000113
 20
10.0
 30
0.0
 11
-1.499999999999886
 21
10.0
 31
0.0
  0
LINE
  5
D82
330
D7F
100
AcDbEntity
  8
ｶﾊﾞｰ
100
AcDbLine
 10
2.749999999995566
 20
-0.0000000000001137
 30
0.0
 11
2.490262402674375
 21
-0.9693539098394694
 31
0.0
  0
LINE
  5
D83
330
D7F
100
AcDbEntity
  8
ｶﾊﾞｰ0
100
AcDbLine
 10
-1.499999999999886
 20
0.0000000000001137
 30
0.0
 11
-1.199999999999931
 21
1.499999999999886
 31
0.0
  0
LINE
  5
D84
330
D7F
100
AcDbEntity
  8
ｶﾊﾞｰ0
100
AcDbLine
 10
1.500000000000113
 20
-0.0000000000001137
 30
0.0
 11
1.200000000000159
 21
1.499999999999886
 31
0.0
  0
LINE
  5
D85
330
D7F
100
AcDbEntity
  8
ｶﾊﾞｰ0
100
AcDbLine
 10
1.500000000000113
 20
1.499999999999886
 30
0.0
 11
-1.499999999999886
 21
1.500000000000113
 31
0.0
  0
ARC
  5
D86
330
D7F
100
AcDbEntity
  8
ｶﾊﾞｰ
100
AcDbCircle
 10
-0.0000000000001137
 20
5.028571428575901
 30
0.0
 40
7.071428571430372
100
AcDbArc
 50
257.323161521125
 51
282.6768384788932
  0
ARC
  5
D87
330
D7F
100
AcDbEntity
  8
ｶﾊﾞｰ
100
AcDbCircle
 10
1.275955649626553
 20
-0.6439813959967751
 30
0.0
 40
1.257142857141384
100
AcDbArc
 50
282.6768384788932
 51
345.0000000000056
  0
ARC
  5
D88
330
D7F
100
AcDbEntity
  8
ｶﾊﾞｰ
100
AcDbCircle
 10
-1.275955649625416
 20
-0.6439813960001857
 30
0.0
 40
1.257142857141384
100
AcDbArc
 50
194.9999999999944
 51
257.323161521125
  0
LINE
  5
D89
330
D7F
100
AcDbEntity
  8
ｶﾊﾞｰ
100
AcDbLine
 10
1.500000000000113
 20
-0.0000000000001137
 30
0.0
 11
1.500000000000227
 21
10.0
 31
0.0
  0
LINE
  5
D8A
330
D7F
100
AcDbEntity
  8
ｶﾊﾞｰ
100
AcDbLine
 10
-1.499999999999545
 20
10.0
 30
0.0
 11
-1.499999999999886
 21
0.0000000000001137
 31
0.0
  0
LINE
  5
D8B
330
D7F
100
AcDbEntity
  8
ｶﾊﾞｰ0
100
AcDbLine
 10
1.200000000000159
 20
1.499999999999886
 30
0.0
 11
1.200000000000159
 21
10.0
 31
0.0
  0
LINE
  5
D8C
330
D7F
100
AcDbEntity
  8
ｶﾊﾞｰ0
100
AcDbLine
 10
-1.199999999999931
 20
1.500000000000113
 30
0.0
 11
-1.199999999999931
 21
10.0
 31
0.0
  0
LINE
  5
D8D
330
D7F
100
AcDbEntity
  8
ｺﾞﾑ足0
100
AcDbLine
 10
1.499999999999886
 20
0.0
 30
0.0
 11
1.499999999999886
 21
4.500000000000113
 31
0.0
  0
LINE
  5
D8E
330
D7F
100
AcDbEntity
  8
ｺﾞﾑ足0
100
AcDbLine
 10
-1.500000000000113
 20
0.0
 30
0.0
 11
-1.500000000000113
 21
4.500000000000113
 31
0.0
  0
LINE
  5
D8F
330
D7F
100
AcDbEntity
  8
ｺﾞﾑ足
100
AcDbLine
 10
1.499999999999658
 20
5.5
 30
0.0
 11
1.499999999999658
 21
0.0
 31
0.0
  0
LINE
  5
D90
330
D7F
100
AcDbEntity
  8
ｺﾞﾑ足
100
AcDbLine
 10
-1.500000000000341
 20
5.499999999999943
 30
0.0
 11
-1.500000000000227
 21
-0.0000000000000568
 31
0.0
  0
LINE
  5
D91
330
D7F
100
AcDbEntity
  8
ｶﾊﾞｰ
100
AcDbLine
 10
-2.490262402673238
 20
-0.96935390984288
 30
0.0
 11
-2.749999999995566
 21
0.0000000000001137
 31
0.0
  0
LINE
  5
D92
330
D7F
100
AcDbEntity
  8
ｶﾊﾞｰ
100
AcDbLine
 10
-2.749999999995566
 20
0.0000000000001137
 30
0.0
 11
2.749999999995566
 21
-0.0000000000001137
 31
0.0
  0
ENDBLK
  5
D93
330
D7F
100
AcDbEntity
  8
0
100
AcDbBlockEnd
  0
BLOCK
  5
EEB
330
ED8
100
AcDbEntity
  8
0
100
AcDbBlockBegin
  2
A$C0A5A384E
 70
     0
 10
0.0
 20
0.0
 30
0.0
  3
A$C0A5A384E
  1

  0
CIRCLE
  5
ED9
330
ED8
100
AcDbEntity
  8
ﾋﾞｽ
100
AcDbCircle
 10
0.0
 20
0.0
 30
0.0
 40
2.749999999996779
  0
LINE
  5
EDA
330
ED8
100
AcDbEntity
  8
ﾋﾞｽ
100
AcDbLine
 10
-0.4090909090908781
 20
1.800000000000039
 30
0.0
 11
0.4090909090908781
 21
1.800000000000039
 31
0.0
  0
ARC
  5
EDB
330
ED8
100
AcDbEntity
  8
ﾋﾞｽ
100
AcDbCircle
 10
1.554545454545404
 20
1.554545454545461
 30
0.0
 40
1.145454545454539
100
AcDbArc
 50
180.0
 51
270.0
  0
LINE
  5
EDC
330
ED8
100
AcDbEntity
  8
ﾋﾞｽ
100
AcDbLine
 10
0.4090909090908781
 20
-1.800000000000039
 30
0.0
 11
-0.4090909090909918
 21
-1.800000000000039
 31
0.0
  0
ARC
  5
EDD
330
ED8
100
AcDbEntity
  8
ﾋﾞｽ
100
AcDbCircle
 10
1.554545454545404
 20
-1.554545454545433
 30
0.0
 40
1.145454545454539
100
AcDbArc
 50
90.0
 51
180.0
  0
LINE
  5
EDE
330
ED8
100
AcDbEntity
  8
ﾋﾞｽ
100
AcDbLine
 10
-0.4090909090909918
 20
-1.799999999999926
 30
0.0
 11
-0.4090909090909918
 21
-1.554545454545433
 31
0.0
  0
LINE
  5
EDF
330
ED8
100
AcDbEntity
  8
ﾋﾞｽ
100
AcDbLine
 10
-1.554545454545404
 20
-0.4090909090909065
 30
0.0
 11
-1.800000000000068
 21
-0.4090909090909065
 31
0.0
  0
LINE
  5
EE0
330
ED8
100
AcDbEntity
  8
ﾋﾞｽ
100
AcDbLine
 10
-1.800000000000068
 20
-0.4090909090909065
 30
0.0
 11
-1.800000000000181
 21
0.4090909090908781
 31
0.0
  0
ARC
  5
EE1
330
ED8
100
AcDbEntity
  8
ﾋﾞｽ
100
AcDbCircle
 10
-1.554545454545404
 20
-1.554545454545433
 30
0.0
 40
1.145454545454539
100
AcDbArc
 50
0.0
 51
90.0
  0
ARC
  5
EE2
330
ED8
100
AcDbEntity
  8
ﾋﾞｽ
100
AcDbCircle
 10
-1.554545454545518
 20
1.554545454545461
 30
0.0
 40
1.145454545454539
100
AcDbArc
 50
270.0
 51
0.0
  0
LINE
  5
EE3
330
ED8
100
AcDbEntity
  8
ﾋﾞｽ
100
AcDbLine
 10
-0.4090909090909918
 20
1.554545454545461
 30
0.0
 11
-0.4090909090909918
 21
1.800000000000039
 31
0.0
  0
LINE
  5
EE4
330
ED8
100
AcDbEntity
  8
ﾋﾞｽ
100
AcDbLine
 10
-1.800000000000068
 20
0.4090909090909065
 30
0.0
 11
-1.554545454545518
 21
0.4090909090909065
 31
0.0
  0
LINE
  5
EE5
330
ED8
100
AcDbEntity
  8
ﾋﾞｽ
100
AcDbLine
 10
0.4090909090908781
 20
1.800000000000039
 30
0.0
 11
0.4090909090908781
 21
1.554545454545547
 31
0.0
  0
LINE
  5
EE6
330
ED8
100
AcDbEntity
  8
ﾋﾞｽ
100
AcDbLine
 10
1.554545454545404
 20
0.4090909090909065
 30
0.0
 11
1.799999999999954
 21
0.4090909090909065
 31
0.0
  0
LINE
  5
EE7
330
ED8
100
AcDbEntity
  8
ﾋﾞｽ
100
AcDbLine
 10
1.799999999999954
 20
0.409090909090935
 30
0.0
 11
1.799999999999954
 21
-0.4090909090909065
 31
0.0
  0
LINE
  5
EE8
330
ED8
100
AcDbEntity
  8
ﾋﾞｽ
100
AcDbLine
 10
1.799999999999954
 20
-0.4090909090909065
 30
0.0
 11
1.554545454545404
 21
-0.4090909090909065
 31
0.0
  0
LINE
  5
EE9
330
ED8
100
AcDbEntity
  8
ﾋﾞｽ
100
AcDbLine
 10
0.4090909090908781
 20
-1.554545454545433
 30
0.0
 11
0.4090909090908781
 21
-1.800000000000039
 31
0.0
  0
ENDBLK
  5
EEC
330
ED8
100
AcDbEntity
  8
0
100
AcDbBlockEnd
  0
BLOCK
  5
F0E
330
EFC
100
AcDbEntity
  8
0
100
AcDbBlockBegin
  2
A$C74A544B9
 70
     0
 10
0.0
 20
0.0
 30
0.0
  3
A$C74A544B9
  1

  0
LINE
  5
EFD
330
EFC
100
AcDbEntity
  8
ﾋﾞｽ0
100
AcDbLine
 10
0.0
 20
1.199999999999988
 30
0.0
 11
10.0
 21
1.199999999999988
 31
0.0
  0
LINE
  5
EFE
330
EFC
100
AcDbEntity
  8
ﾋﾞｽ0
100
AcDbLine
 10
0.0
 20
-1.199999999999988
 30
0.0
 11
10.0
 21
-1.199999999999988
 31
0.0
  0
LINE
  5
EFF
330
EFC
100
AcDbEntity
  8
ﾋﾞｽ
100
AcDbLine
 10
10.00000000000011
 20
1.5
 30
0.0
 11
1.249999999999772
 21
1.5
 31
0.0
  0
LINE
  5
F00
330
EFC
100
AcDbEntity
  8
ﾋﾞｽ
100
AcDbLine
 10
1.249999999999545
 20
-1.500000000000028
 30
0.0
 11
10.0
 21
-1.5
 31
0.0
  0
LINE
  5
F01
330
EFC
100
AcDbEntity
  8
ﾋﾞｽ
100
AcDbLine
 10
0.0
 20
2.749999999995509
 30
0.0
 11
0.0
 21
-2.749999999995509
 31
0.0
  0
LINE
  5
F02
330
EFC
100
AcDbEntity
  8
ﾋﾞｽ
100
AcDbLine
 10
1.249999999999545
 20
-1.5
 30
0.0
 11
1.249999999999772
 21
1.5
 31
0.0
  0
LINE
  5
F03
330
EFC
100
AcDbEntity
  8
ﾋﾞｽ
100
AcDbLine
 10
0.123337295247552
 20
-1.229600950859435
 30
0.0
 11
1.249999999999545
 21
-1.5
 31
0.0
  0
LINE
  5
F04
330
EFC
100
AcDbEntity
  8
ﾋﾞｽ
100
AcDbLine
 10
0.123337295247552
 20
1.229600950859349
 30
0.0
 11
1.249999999999772
 21
1.5
 31
0.0
  0
LINE
  5
F05
330
EFC
100
AcDbEntity
  8
ﾋﾞｽ
100
AcDbLine
 10
10.0
 20
-1.5
 30
0.0
 11
10.0
 21
1.5
 31
0.0
  0
LINE
  5
F06
330
EFC
100
AcDbEntity
  8
ﾋﾞｽ
100
AcDbLine
 10
-0.8472488828795121
 20
2.675875327558543
 30
0.0
 11
0.0
 21
2.749999999995509
 31
0.0
  0
LINE
  5
F07
330
EFC
100
AcDbEntity
  8
ﾋﾞｽ
100
AcDbLine
 10
-0.8472488828795121
 20
-2.675875327558571
 30
0.0
 11
0.0
 21
-2.749999999995509
 31
0.0
  0
ARC
  5
F08
330
EFC
100
AcDbEntity
  8
ﾋﾞｽ
100
AcDbCircle
 10
5.0
 20
0.0
 30
0.0
 40
7.0
100
AcDbArc
 50
163.7429721034431
 51
196.2570278965584
  0
ARC
  5
F09
330
EFC
100
AcDbEntity
  8
ﾋﾞｽ
100
AcDbCircle
 10
-0.7600931401318576
 20
1.67968062946673
 30
0.0
 40
1.0
100
AcDbArc
 50
94.99999999999975
 51
163.7429721034369
1001
GENIUS_GENODEF_13
1002
{
1000
HIER
1070
     0
1002
}
1002
{
1000
MANEDIT
1070
     0
1002
}
1002
{
1000
NOSEL
1070
     0
1002
}
1002
{
1000
BEHIND
1070
     0
1002
}
1002
{
1000
OTHER
1070
     0
1002
}
1002
{
1000
REACTOR
1002
}
1001
GENIUS_GENOBJ-N-FIL_13
1002
{
1000
OWNER
1000
GEN
1002
}
  0
ARC
  5
F0A
330
EFC
100
AcDbEntity
  8
ﾋﾞｽ
100
AcDbCircle
 10
-0.7600931401318576
 20
-1.679680629466787
 30
0.0
 40
1.0
100
AcDbArc
 50
196.25702789656
 51
265.0000000000003
1001
GENIUS_GENOBJ-N-FIL_13
1002
{
1000
OWNER
1000
GEN
1002
}
1001
GENIUS_GENODEF_13
1002
{
1000
HIER
1070
     0
1002
}
1002
{
1000
MANEDIT
1070
     0
1002
}
1002
{
1000
NOSEL
1070
     0
1002
}
1002
{
1000
BEHIND
1070
     0
1002
}
1002
{
1000
OTHER
1070
     0
1002
}
1002
{
1000
REACTOR
1002
}
  0
ARC
  5
F0B
330
EFC
100
AcDbEntity
  8
ﾋﾞｽ
100
AcDbCircle
 10
0.0999999999999091
 20
-1.326839681057492
 30
0.0
 40
0.1
100
AcDbArc
 50
76.50426671919925
 51
179.9999999999984
1001
GENIUS_GENODEF_13
1002
{
1000
HIER
1070
     0
1002
}
1002
{
1000
MANEDIT
1070
     0
1002
}
1002
{
1000
NOSEL
1070
     0
1002
}
1002
{
1000
BEHIND
1070
     0
1002
}
1002
{
1000
OTHER
1070
     0
1002
}
1002
{
1000
REACTOR
1002
}
1001
GENIUS_GENOBJ-N-FIL_13
1002
{
1000
OWNER
1000
GEN
1002
}
  0
ARC
  5
F0C
330
EFC
100
AcDbEntity
  8
ﾋﾞｽ
100
AcDbCircle
 10
0.1000000000000227
 20
1.326839681057407
 30
0.0
 40
0.1
100
AcDbArc
 50
179.9999999999984
 51
283.4957332808008
1001
GENIUS_GENODEF_13
1002
{
1000
HIER
1070
     0
1002
}
1002
{
1000
MANEDIT
1070
     0
1002
}
1002
{
1000
NOSEL
1070
     0
1002
}
1002
{
1000
BEHIND
1070
     0
1002
}
1002
{
1000
OTHER
1070
     0
1002
}
1002
{
1000
REACTOR
1002
}
1001
GENIUS_GENOBJ-N-FIL_13
1002
{
1000
OWNER
1000
GEN
1002
}
  0
ENDBLK
  5
F0F
330
EFC
100
AcDbEntity
  8
0
100
AcDbBlockEnd
  0
BLOCK
  5
F32
330
F1F
100
AcDbEntity
  8
0
100
AcDbBlockBegin
  2
A$C7E216A30
 70
     0
 10
0.0
 20
0.0
 30
0.0
  3
A$C7E216A30
  1

  0
CIRCLE
  5
F20
330
F1F
100
AcDbEntity
  8
ﾋﾞｽ
100
AcDbCircle
 10
0.0
 20
0.0
 30
0.0
 40
3.450000000000889
  0
LINE
  5
F21
330
F1F
100
AcDbEntity
  8
ﾋﾞｽ
100
AcDbLine
 10
-1.450000000000045
 20
0.329545454545439
 30
0.0
 11
-1.252272727272725
 21
0.329545454545439
 31
0.0
  0
LINE
  5
F22
330
F1F
100
AcDbEntity
  8
ﾋﾞｽ
100
AcDbLine
 10
-0.3295454545454959
 20
1.252272727272696
 30
0.0
 11
-0.3295454545454959
 21
1.450000000000017
 31
0.0
  0
ARC
  5
F23
330
F1F
100
AcDbEntity
  8
ﾋﾞｽ
100
AcDbCircle
 10
-1.252272727272725
 20
1.252272727272696
 30
0.0
 40
0.9227272727272604
100
AcDbArc
 50
270.0
 51
0.0
  0
ARC
  5
F24
330
F1F
100
AcDbEntity
  8
ﾋﾞｽ
100
AcDbCircle
 10
-1.252272727272725
 20
-1.252272727272696
 30
0.0
 40
0.9227272727272604
100
AcDbArc
 50
0.0
 51
90.0
  0
LINE
  5
F25
330
F1F
100
AcDbEntity
  8
ﾋﾞｽ
100
AcDbLine
 10
-1.450000000000045
 20
-0.3295454545454675
 30
0.0
 11
-1.450000000000045
 21
0.329545454545439
 31
0.0
  0
LINE
  5
F26
330
F1F
100
AcDbEntity
  8
ﾋﾞｽ
100
AcDbLine
 10
-1.252272727272725
 20
-0.3295454545454675
 30
0.0
 11
-1.450000000000045
 21
-0.3295454545454675
 31
0.0
  0
LINE
  5
F27
330
F1F
100
AcDbEntity
  8
ﾋﾞｽ
100
AcDbLine
 10
-0.3295454545454959
 20
-1.44999999999996
 30
0.0
 11
-0.3295454545454959
 21
-1.252272727272696
 31
0.0
  0
ARC
  5
F28
330
F1F
100
AcDbEntity
  8
ﾋﾞｽ
100
AcDbCircle
 10
1.252272727272725
 20
-1.252272727272696
 30
0.0
 40
0.9227272727272604
100
AcDbArc
 50
90.0
 51
180.0
  0
LINE
  5
F29
330
F1F
100
AcDbEntity
  8
ﾋﾞｽ
100
AcDbLine
 10
0.3295454545453822
 20
-1.450000000000045
 30
0.0
 11
-0.3295454545454959
 21
-1.450000000000045
 31
0.0
  0
LINE
  5
F2A
330
F1F
100
AcDbEntity
  8
ﾋﾞｽ
100
AcDbLine
 10
0.3295454545453822
 20
-1.252272727272696
 30
0.0
 11
0.3295454545453822
 21
-1.450000000000045
 31
0.0
  0
LINE
  5
F2B
330
F1F
100
AcDbEntity
  8
ﾋﾞｽ
100
AcDbLine
 10
1.449999999999931
 20
-0.3295454545454675
 30
0.0
 11
1.252272727272725
 21
-0.3295454545454675
 31
0.0
  0
LINE
  5
F2C
330
F1F
100
AcDbEntity
  8
ﾋﾞｽ
100
AcDbLine
 10
1.449999999999931
 20
0.3295454545454106
 30
0.0
 11
1.449999999999931
 21
-0.3295454545454675
 31
0.0
  0
ARC
  5
F2D
330
F1F
100
AcDbEntity
  8
ﾋﾞｽ
100
AcDbCircle
 10
1.252272727272611
 20
1.252272727272696
 30
0.0
 40
0.9227272727272604
100
AcDbArc
 50
180.0
 51
270.0
  0
LINE
  5
F2E
330
F1F
100
AcDbEntity
  8
ﾋﾞｽ
100
AcDbLine
 10
1.252272727272611
 20
0.329545454545439
 30
0.0
 11
1.450000000000045
 21
0.329545454545439
 31
0.0
  0
LINE
  5
F2F
330
F1F
100
AcDbEntity
  8
ﾋﾞｽ
100
AcDbLine
 10
0.3295454545453822
 20
1.450000000000017
 30
0.0
 11
0.3295454545453822
 21
1.252272727272782
 31
0.0
  0
LINE
  5
F30
330
F1F
100
AcDbEntity
  8
ﾋﾞｽ
100
AcDbLine
 10
-0.3295454545454959
 20
1.450000000000017
 30
0.0
 11
0.3295454545453822
 21
1.450000000000017
 31
0.0
  0
ENDBLK
  5
F33
330
F1F
100
AcDbEntity
  8
0
100
AcDbBlockEnd
  0
BLOCK
  5
F49
330
F38
100
AcDbEntity
  8
0
100
AcDbBlockBegin
  2
A$C5DA11B1F
 70
     0
 10
0.0
 20
0.0
 30
0.0
  3
A$C5DA11B1F
  1

  0
LINE
  5
F39
330
F38
100
AcDbEntity
  8
ﾋﾞｽ
100
AcDbLine
 10
0.0
 20
3.450000000000017
 30
0.0
 11
-0.0000000000001137
 21
-3.450000000000017
 31
0.0
  0
ARC
  5
F3A
330
F38
100
AcDbEntity
  8
ﾋﾞｽ
100
AcDbCircle
 10
0.0999999999999091
 20
1.326839681057379
 30
0.0
 40
0.1
100
AcDbArc
 50
179.9999999999984
 51
283.4957332808008
1001
GENIUS_GENODEF_13
1002
{
1000
HIER
1070
     0
1002
}
1002
{
1000
MANEDIT
1070
     0
1002
}
1002
{
1000
NOSEL
1070
     0
1002
}
1002
{
1000
BEHIND
1070
     0
1002
}
1002
{
1000
OTHER
1070
     0
1002
}
1002
{
1000
REACTOR
1002
}
1001
GENIUS_GENOBJ-N-FIL_13
1002
{
1000
OWNER
1000
GEN
1002
}
  0
ARC
  5
F3B
330
F38
100
AcDbEntity
  8
ﾋﾞｽ
100
AcDbCircle
 10
0.0999999999999091
 20
-1.326839681057521
 30
0.0
 40
0.1
100
AcDbArc
 50
76.50426671919925
 51
179.9999999999984
1001
GENIUS_GENODEF_13
1002
{
1000
HIER
1070
     0
1002
}
1002
{
1000
MANEDIT
1070
     0
1002
}
1002
{
1000
NOSEL
1070
     0
1002
}
1002
{
1000
BEHIND
1070
     0
1002
}
1002
{
1000
OTHER
1070
     0
1002
}
1002
{
1000
REACTOR
1002
}
1001
GENIUS_GENOBJ-N-FIL_13
1002
{
1000
OWNER
1000
GEN
1002
}
  0
LINE
  5
F3C
330
F38
100
AcDbEntity
  8
ﾋﾞｽ
100
AcDbLine
 10
4.999999999999886
 20
-1.500000000000028
 30
0.0
 11
4.999999999999886
 21
1.499999999999971
 31
0.0
  0
LINE
  5
F3D
330
F38
100
AcDbEntity
  8
ﾋﾞｽ
100
AcDbLine
 10
0.1233372952474383
 20
1.229600950859321
 30
0.0
 11
1.249999999999658
 21
1.499999999999971
 31
0.0
  0
LINE
  5
F3E
330
F38
100
AcDbEntity
  8
ﾋﾞｽ
100
AcDbLine
 10
0.1233372952474383
 20
-1.229600950859463
 30
0.0
 11
1.249999999999545
 21
-1.500000000000028
 31
0.0
  0
LINE
  5
F3F
330
F38
100
AcDbEntity
  8
ﾋﾞｽ
100
AcDbLine
 10
1.249999999999545
 20
-1.500000000000028
 30
0.0
 11
1.249999999999658
 21
1.499999999999971
 31
0.0
  0
LINE
  5
F40
330
F38
100
AcDbEntity
  8
ﾋﾞｽ
100
AcDbLine
 10
1.249999999999545
 20
-1.500000000000056
 30
0.0
 11
4.999999999999886
 21
-1.500000000000028
 31
0.0
  0
LINE
  5
F41
330
F38
100
AcDbEntity
  8
ﾋﾞｽ
100
AcDbLine
 10
4.999999999999886
 20
1.499999999999971
 30
0.0
 11
1.249999999999658
 21
1.499999999999971
 31
0.0
  0
LINE
  5
F42
330
F38
100
AcDbEntity
  8
ﾋﾞｽ0
100
AcDbLine
 10
-0.0000000000001137
 20
-1.200000000000017
 30
0.0
 11
4.999999999999886
 21
-1.199999999999988
 31
0.0
  0
LINE
  5
F43
330
F38
100
AcDbEntity
  8
ﾋﾞｽ0
100
AcDbLine
 10
0.0
 20
1.19999999999996
 30
0.0
 11
4.999999999999772
 21
1.19999999999996
 31
0.0
  0
LINE
  5
F44
330
F38
100
AcDbEntity
  8
ﾋﾞｽ
100
AcDbLine
 10
0.0
 20
3.450000000000017
 30
0.0
 11
-0.3426140077242508
 21
3.450000000000017
 31
0.0
  0
LINE
  5
F45
330
F38
100
AcDbEntity
  8
ﾋﾞｽ
100
AcDbLine
 10
-0.0000000000001137
 20
-3.450000000000017
 30
0.0
 11
-0.3426140077242508
 21
-3.450000000000017
 31
0.0
  0
ARC
  5
F46
330
F38
100
AcDbEntity
  8
ﾋﾞｽ
100
AcDbCircle
 10
2.700000000000045
 20
0.0
 30
0.0
 40
4.599999999999999
100
AcDbArc
 50
131.4096221092697
 51
228.5903778907302
  0
LINE
  5
F47
330
F38
100
AcDbEntity
  8
ﾋﾞｽ
100
AcDbLine
 10
-0.3426140077242508
 20
3.450000000000045
 30
0.0
 11
-0.3426140077242508
 21
-3.450000000000045
 31
0.0
  0
ENDBLK
  5
F4A
330
F38
100
AcDbEntity
  8
0
100
AcDbBlockEnd
  0
BLOCK
  5
11B3
330
11B2
100
AcDbEntity
  8
0
100
AcDbBlockBegin
  2
ｺﾞﾑ足
 70
     0
 10
0.0
 20
0.0
 30
0.0
  3
ｺﾞﾑ足
  1

  0
LINE
  5
11B4
330
11B2
100
AcDbEntity
  8
ｺﾞﾑ足
100
AcDbLine
 10
3.0
 20
0.0
 30
0.0
 11
3.0
 21
1.0
 31
0.0
  0
LINE
  5
11B5
330
11B2
100
AcDbEntity
  8
ｺﾞﾑ足
100
AcDbLine
 10
-3.0
 20
0.0
 30
0.0
 11
-3.0
 21
1.0
 31
0.0
  0
LINE
  5
11B6
330
11B2
100
AcDbEntity
  8
ｺﾞﾑ足
100
AcDbLine
 10
-6.5
 20
0.0
 30
0.0
 11
-5.587007726909064
 21
-4.108465228909324
 31
0.0
  0
LINE
  5
11B7
330
11B2
100
AcDbEntity
  8
ｺﾞﾑ足
100
AcDbLine
 10
-5.098914196817077
 20
-4.5
 30
0.0
 11
5.098914196817048
 21
-4.5
 31
0.0
  0
LINE
  5
11B8
330
11B2
100
AcDbEntity
  8
ｺﾞﾑ足
100
AcDbLine
 10
5.587007726909007
 20
-4.108465228909352
 30
0.0
 11
6.5
 21
0.0
 31
0.0
  0
LINE
  5
11B9
330
11B2
100
AcDbEntity
  8
ｺﾞﾑ足
100
AcDbLine
 10
6.5
 20
0.0
 30
0.0
 11
-6.5
 21
0.0
 31
0.0
  0
LINE
  5
11BA
330
11B2
100
AcDbEntity
  8
ｺﾞﾑ足
100
AcDbLine
 10
3.5
 20
1.0
 30
0.0
 11
-3.5
 21
1.0
 31
0.0
  0
LINE
  5
11BB
330
11B2
100
AcDbEntity
  8
ｺﾞﾑ足
100
AcDbLine
 10
-3.5
 20
1.0
 30
0.0
 11
-3.0
 21
5.0
 31
0.0
  0
LINE
  5
11BC
330
11B2
100
AcDbEntity
  8
ｺﾞﾑ足
100
AcDbLine
 10
-3.0
 20
5.0
 30
0.0
 11
3.0
 21
5.0
 31
0.0
  0
LINE
  5
11BD
330
11B2
100
AcDbEntity
  8
ｺﾞﾑ足
100
AcDbLine
 10
3.0
 20
5.0
 30
0.0
 11
3.5
 21
1.0
 31
0.0
  0
ARC
  5
11BE
330
11B2
100
AcDbEntity
  8
ｺﾞﾑ足
100
AcDbCircle
 10
-5.098914196817077
 20
-4.0
 30
0.0
 40
0.5
100
AcDbArc
 50
192.528807709151
 51
270.0
1001
GENIUS_GENODEF_13
1002
{
1000
HIER
1070
     0
1002
}
1002
{
1000
MANEDIT
1070
     0
1002
}
1002
{
1000
NOSEL
1070
     0
1002
}
1002
{
1000
BEHIND
1070
     0
1002
}
1002
{
1000
OTHER
1070
     0
1002
}
1002
{
1000
REACTOR
1002
}
1001
GENIUS_GENOBJ-N-FIL_13
1002
{
1000
OWNER
1000
GEN
1002
}
  0
ARC
  5
11BF
330
11B2
100
AcDbEntity
  8
ｺﾞﾑ足
100
AcDbCircle
 10
5.098914196817048
 20
-4.0
 30
0.0
 40
0.5
100
AcDbArc
 50
270.0
 51
347.471192290849
1001
GENIUS_GENODEF_13
1002
{
1000
HIER
1070
     0
1002
}
1002
{
1000
MANEDIT
1070
     0
1002
}
1002
{
1000
NOSEL
1070
     0
1002
}
1002
{
1000
BEHIND
1070
     0
1002
}
1002
{
1000
OTHER
1070
     0
1002
}
1002
{
1000
REACTOR
1002
}
1001
GENIUS_GENOBJ-N-FIL_13
1002
{
1000
OWNER
1000
GEN
1002
}
  0
ENDBLK
  5
11C0
330
11B2
100
AcDbEntity
  8
0
100
AcDbBlockEnd
  0
BLOCK
  5
11C2
330
11C1
100
AcDbEntity
  8
0
100
AcDbBlockBegin
  2
ｺﾞﾑ足2
 70
     0
 10
0.0
 20
0.0
 30
0.0
  3
ｺﾞﾑ足2
  1

  0
ARC
  5
11C3
330
11C1
100
AcDbEntity
  8
ｺﾞﾑ足
100
AcDbCircle
 10
5.098914196817048
 20
-4.0
 30
0.0
 40
0.5
100
AcDbArc
 50
270.0
 51
347.471192290849
1001
GENIUS_GENODEF_13
1002
{
1000
HIER
1070
     0
1002
}
1002
{
1000
MANEDIT
1070
     0
1002
}
1002
{
1000
NOSEL
1070
     0
1002
}
1002
{
1000
BEHIND
1070
     0
1002
}
1002
{
1000
OTHER
1070
     0
1002
}
1002
{
1000
REACTOR
1002
}
1001
GENIUS_GENOBJ-N-FIL_13
1002
{
1000
OWNER
1000
GEN
1002
}
  0
ARC
  5
11C4
330
11C1
100
AcDbEntity
  8
ｺﾞﾑ足
100
AcDbCircle
 10
-5.098914196817077
 20
-4.0
 30
0.0
 40
0.5
100
AcDbArc
 50
192.528807709151
 51
270.0
1001
GENIUS_GENODEF_13
1002
{
1000
HIER
1070
     0
1002
}
1002
{
1000
MANEDIT
1070
     0
1002
}
1002
{
1000
NOSEL
1070
     0
1002
}
1002
{
1000
BEHIND
1070
     0
1002
}
1002
{
1000
OTHER
1070
     0
1002
}
1002
{
1000
REACTOR
1002
}
1001
GENIUS_GENOBJ-N-FIL_13
1002
{
1000
OWNER
1000
GEN
1002
}
  0
LINE
  5
11C5
330
11C1
100
AcDbEntity
  8
ｺﾞﾑ足
100
AcDbLine
 10
6.5
 20
0.0
 30
0.0
 11
-6.5
 21
0.0
 31
0.0
  0
LINE
  5
11C6
330
11C1
100
AcDbEntity
  8
ｺﾞﾑ足
100
AcDbLine
 10
5.587007726909007
 20
-4.108465228909352
 30
0.0
 11
6.5
 21
0.0
 31
0.0
  0
LINE
  5
11C7
330
11C1
100
AcDbEntity
  8
ｺﾞﾑ足
100
AcDbLine
 10
-5.098914196817077
 20
-4.5
 30
0.0
 11
5.098914196817048
 21
-4.5
 31
0.0
  0
LINE
  5
11C8
330
11C1
100
AcDbEntity
  8
ｺﾞﾑ足
100
AcDbLine
 10
-6.5
 20
0.0
 30
0.0
 11
-5.587007726909064
 21
-4.108465228909324
 31
0.0
  0
ENDBLK
  5
11C9
330
11C1
100
AcDbEntity
  8
0
100
AcDbBlockEnd
  0
BLOCK
  5
11CB
330
11CA
100
AcDbEntity
  8
0
100
AcDbBlockBegin
  2
ｺﾞﾑ足3
 70
     0
 10
0.0
 20
0.0
 30
0.0
  3
ｺﾞﾑ足3
  1

  0
CIRCLE
  5
11CC
330
11CA
100
AcDbEntity
  8
ｺﾞﾑ足
100
AcDbCircle
 10
0.0
 20
0.0
 30
0.0
 40
6.5
  0
CIRCLE
  5
11CD
330
11CA
100
AcDbEntity
  8
ｺﾞﾑ足
100
AcDbCircle
 10
0.0
 20
0.0
 30
0.0
 40
3.0
  0
CIRCLE
  5
11CE
330
11CA
100
AcDbEntity
  8
ｺﾞﾑ足
100
AcDbCircle
 10
0.0
 20
0.0
 30
0.0
 40
3.5
  0
ENDBLK
  5
11CF
330
11CA
100
AcDbEntity
  8
0
100
AcDbBlockEnd
  0
BLOCK
  5
11D1
330
11D0
100
AcDbEntity
  8
0
100
AcDbBlockBegin
  2
ｺﾞﾑ足4
 70
     0
 10
0.0
 20
0.0
 30
0.0
  3
ｺﾞﾑ足4
  1

  0
LINE
  5
11D2
330
11D0
100
AcDbEntity
  8
ｺﾞﾑ足
100
AcDbLine
 10
-6.277777777777771
 20
3.499999999999914
 30
0.0
 11
-5.587007726909064
 21
0.3915347710906758
 31
0.0
  0
LINE
  5
11D3
330
11D0
100
AcDbEntity
  8
ｺﾞﾑ足
100
AcDbLine
 10
-5.098914196817077
 20
0.0
 30
0.0
 11
5.098914196817077
 21
0.0
 31
0.0
  0
LINE
  5
11D4
330
11D0
100
AcDbEntity
  8
ｺﾞﾑ足
100
AcDbLine
 10
5.587007726909007
 20
0.3915347710906474
 30
0.0
 11
6.277777777777771
 21
3.499999999999914
 31
0.0
  0
ARC
  5
11D5
330
11D0
100
AcDbEntity
  8
ｺﾞﾑ足
100
AcDbCircle
 10
-5.098914196817077
 20
0.5
 30
0.0
 40
0.5
100
AcDbArc
 50
192.5288077091511
 51
270.0
1001
GENIUS_GENODEF_13
1002
{
1000
HIER
1070
     0
1002
}
1002
{
1000
MANEDIT
1070
     0
1002
}
1002
{
1000
NOSEL
1070
     0
1002
}
1002
{
1000
BEHIND
1070
     0
1002
}
1002
{
1000
OTHER
1070
     0
1002
}
1002
{
1000
REACTOR
1002
}
1001
GENIUS_GENOBJ-N-FIL_13
1002
{
1000
OWNER
1000
GEN
1002
}
  0
ARC
  5
11D6
330
11D0
100
AcDbEntity
  8
ｺﾞﾑ足
100
AcDbCircle
 10
5.098914196817077
 20
0.5
 30
0.0
 40
0.5
100
AcDbArc
 50
270.0
 51
347.4711922908488
1001
GENIUS_GENODEF_13
1002
{
1000
HIER
1070
     0
1002
}
1002
{
1000
MANEDIT
1070
     0
1002
}
1002
{
1000
NOSEL
1070
     0
1002
}
1002
{
1000
BEHIND
1070
     0
1002
}
1002
{
1000
OTHER
1070
     0
1002
}
1002
{
1000
REACTOR
1002
}
1001
GENIUS_GENOBJ-N-FIL_13
1002
{
1000
OWNER
1000
GEN
1002
}
  0
ENDBLK
  5
11D7
330
11D0
100
AcDbEntity
  8
0
100
AcDbBlockEnd
  0
BLOCK
  5
131F
330
12FE
100
AcDbEntity
  8
0
100
AcDbBlockBegin
  2
*D23
 70
     1
 10
0.0
 20
0.0
 30
0.0
  3
*D23
  1

  0
LINE
  5
1C35
330
12FE
100
AcDbEntity
  8
AM_5
  6
ByBlock
100
AcDbLine
 10
296.7889525038846
 20
391.0660043498998
 30
0.0
 11
296.7889525038846
 21
416.0660053598998
 31
0.0
  0
LINE
  5
1C36
330
12FE
100
AcDbEntity
  8
AM_5
  6
ByBlock
100
AcDbLine
 10
236.7889525038846
 20
391.0660043498998
 30
0.0
 11
236.7889525038846
 21
416.0660053598998
 31
0.0
  0
LINE
  5
1C37
330
12FE
100
AcDbEntity
  8
AM_5
  6
ByBlock
100
AcDbLine
 10
289.7889525038846
 20
414.0660053598997
 30
0.0
 11
243.7889525038846
 21
414.0660053598997
 31
0.0
  0
SOLID
  5
1C38
330
12FE
100
AcDbEntity
  8
AM_5
100
AcDbTrace
 10
289.7889525038846
 20
415.2326720265665
 30
0.0
 11
289.7889525038846
 21
412.899338693233
 31
0.0
 12
296.7889525038846
 22
414.0660053598997
 32
0.0
 13
296.7889525038846
 23
414.0660053598997
 33
0.0
  0
SOLID
  5
1C39
330
12FE
100
AcDbEntity
  8
AM_5
100
AcDbTrace
 10
243.7889525038846
 20
415.2326720265665
 30
0.0
 11
243.7889525038846
 21
412.899338693233
 31
0.0
 12
236.7889525038846
 22
414.0660053598997
 32
0.0
 13
236.7889525038846
 23
414.0660053598997
 33
0.0
  0
MTEXT
  5
1C3A
330
12FE
100
AcDbEntity
  8
AM_5
 62
     2
100
AcDbMText
 10
266.7889525038846
 20
420.5660053598998
 30
0.0
 40
7.0
 41
0.0
 71
     5
 72
     1
  1
60
 73
     1
 44
1.0
1001
ACAD
1000
MTEXTBEGIN
1070
    73
1070
     1
1070
    44
1040
1.0
1070
    74
1070
     0
1000
MTEXTEND
  0
POINT
  5
1C3B
330
12FE
100
AcDbEntity
  8
Defpoints
 62
     0
100
AcDbPoint
 10
296.7889525038846
 20
389.0660043498998
 30
0.0
  0
POINT
  5
1C3C
330
12FE
100
AcDbEntity
  8
Defpoints
 62
     0
100
AcDbPoint
 10
236.7889525038846
 20
389.0660043498998
 30
0.0
  0
POINT
  5
1C3D
330
12FE
100
AcDbEntity
  8
Defpoints
 62
     0
100
AcDbPoint
 10
236.7889525038846
 20
414.0660053598997
 30
0.0
  0
ENDBLK
  5
1320
330
12FE
100
AcDbEntity
  8
0
100
AcDbBlockEnd
  0
BLOCK
  5
1369
330
1331
100
AcDbEntity
  8
0
100
AcDbBlockBegin
  2
*D24
 70
     1
 10
0.0
 20
0.0
 30
0.0
  3
*D24
  1

  0
LINE
  5
1C3E
330
1331
100
AcDbEntity
  8
AM_5
  6
ByBlock
100
AcDbLine
 10
235.7889525038846
 20
390.0660043498998
 30
0.0
 11
210.7889525038846
 21
390.0660043498998
 31
0.0
  0
LINE
  5
1C3F
330
1331
100
AcDbEntity
  8
AM_5
  6
ByBlock
100
AcDbLine
 10
234.7889525038846
 20
320.0660043498998
 30
0.0
 11
210.7889525038846
 21
320.0660043498998
 31
0.0
  0
LINE
  5
1C40
330
1331
100
AcDbEntity
  8
AM_5
  6
ByBlock
100
AcDbLine
 10
212.7889525038846
 20
383.0660043498998
 30
0.0
 11
212.7889525038846
 21
327.0660043498998
 31
0.0
  0
SOLID
  5
1C41
330
1331
100
AcDbEntity
  8
AM_5
100
AcDbTrace
 10
211.622285837218
 20
383.0660043498998
 30
0.0
 11
213.9556191705513
 21
383.0660043498998
 31
0.0
 12
212.7889525038846
 22
390.0660043498998
 32
0.0
 13
212.7889525038846
 23
390.0660043498998
 33
0.0
  0
SOLID
  5
1C42
330
1331
100
AcDbEntity
  8
AM_5
100
AcDbTrace
 10
211.622285837218
 20
327.0660043498998
 30
0.0
 11
213.9556191705513
 21
327.0660043498998
 31
0.0
 12
212.7889525038846
 22
320.0660043498998
 32
0.0
 13
212.7889525038846
 23
320.0660043498998
 33
0.0
  0
MTEXT
  5
1C43
330
1331
100
AcDbEntity
  8
AM_5
 62
     2
100
AcDbMText
 10
206.2889525038845
 20
355.0660043498999
 30
0.0
 40
7.0
 41
0.0
 71
     5
 72
     1
  1
70
 11
0.0000000000000001
 21
1.0
 31
0.0
 73
     1
 44
1.0
1001
ACAD
1000
MTEXTBEGIN
1070
    73
1070
     1
1070
    44
1040
1.0
1070
    74
1070
     0
1000
MTEXTEND
  0
POINT
  5
1C44
330
1331
100
AcDbEntity
  8
Defpoints
 62
     0
100
AcDbPoint
 10
237.7889525038846
 20
390.0660043498998
 30
0.0
  0
POINT
  5
1C45
330
1331
100
AcDbEntity
  8
Defpoints
 62
     0
100
AcDbPoint
 10
236.7889525038846
 20
320.0660043498998
 30
0.0
  0
POINT
  5
1C46
330
1331
100
AcDbEntity
  8
Defpoints
 62
     0
100
AcDbPoint
 10
212.7889525038846
 20
320.0660043498998
 30
0.0
  0
ENDBLK
  5
136A
330
1331
100
AcDbEntity
  8
0
100
AcDbBlockEnd
  0
BLOCK
  5
136B
330
1353
100
AcDbEntity
  8
0
100
AcDbBlockBegin
  2
*D25
 70
     1
 10
0.0
 20
0.0
 30
0.0
  3
*D25
  1

  0
LINE
  5
1C47
330
1353
100
AcDbEntity
  8
AM_5
  6
ByBlock
100
AcDbLine
 10
234.7889525038846
 20
121.003104230141
 30
0.0
 11
210.7889525038845
 21
121.003104230141
 31
0.0
  0
LINE
  5
1C48
330
1353
100
AcDbEntity
  8
AM_5
  6
ByBlock
100
AcDbLine
 10
234.7889525038846
 20
241.003104230141
 30
0.0
 11
210.7889525038845
 21
241.003104230141
 31
0.0
  0
LINE
  5
1C49
330
1353
100
AcDbEntity
  8
AM_5
  6
ByBlock
100
AcDbLine
 10
212.7889525038845
 20
128.003104230141
 30
0.0
 11
212.7889525038845
 21
234.003104230141
 31
0.0
  0
SOLID
  5
1C4A
330
1353
100
AcDbEntity
  8
AM_5
100
AcDbTrace
 10
211.6222858372179
 20
128.003104230141
 30
0.0
 11
213.9556191705512
 21
128.003104230141
 31
0.0
 12
212.7889525038845
 22
121.003104230141
 32
0.0
 13
212.7889525038845
 23
121.003104230141
 33
0.0
  0
SOLID
  5
1C4B
330
1353
100
AcDbEntity
  8
AM_5
100
AcDbTrace
 10
211.6222858372179
 20
234.003104230141
 30
0.0
 11
213.9556191705512
 21
234.003104230141
 31
0.0
 12
212.7889525038845
 22
241.003104230141
 32
0.0
 13
212.7889525038845
 23
241.003104230141
 33
0.0
  0
MTEXT
  5
1C4C
330
1353
100
AcDbEntity
  8
AM_5
 62
     2
100
AcDbMText
 10
206.2882635275065
 20
181.0031042301411
 30
0.0
 40
7.0
 41
0.0
 71
     5
 72
     1
  1
120
 11
0.0000000000000001
 21
1.0
 31
0.0
 73
     1
 44
1.0
1001
ACAD
1000
MTEXTBEGIN
1070
    73
1070
     1
1070
    44
1040
1.0
1070
    74
1070
     0
1000
MTEXTEND
  0
POINT
  5
1C4D
330
1353
100
AcDbEntity
  8
Defpoints
 62
     0
100
AcDbPoint
 10
236.7889525038846
 20
121.003104230141
 30
0.0
  0
POINT
  5
1C4E
330
1353
100
AcDbEntity
  8
Defpoints
 62
     0
100
AcDbPoint
 10
236.7889525038846
 20
241.003104230141
 30
0.0
  0
POINT
  5
1C4F
330
1353
100
AcDbEntity
  8
Defpoints
 62
     0
100
AcDbPoint
 10
212.7889525038845
 20
241.003104230141
 30
0.0
  0
ENDBLK
  5
136C
330
1353
100
AcDbEntity
  8
0
100
AcDbBlockEnd
  0
BLOCK
  5
1A2D
330
1A29
100
AcDbEntity
  8
0
100
AcDbBlockBegin
  2
*S26
 70
     1
 10
0.0
 20
0.0
 30
0.0
  3
*S26
  1

  0
CIRCLE
  5
1A2A
330
1A29
100
AcDbEntity
  8
AM_12
 62
     4
100
AcDbCircle
 10
443.6532455754177
 20
354.5045387249925
 30
0.0
 40
3.5
  0
LINE
  5
1A2B
330
1A29
100
AcDbEntity
  8
AM_12
 62
     4
100
AcDbLine
 10
440.1532455754177
 20
351.0045387249925
 30
0.0
 11
447.1532455754177
 21
358.0045387249925
 31
0.0
  0
LINE
  5
1A2C
330
1A29
100
AcDbEntity
  8
AM_12
 62
     4
100
AcDbLine
 10
440.1532455754177
 20
358.0045387249925
 30
0.0
 11
447.1532455754177
 21
351.0045387249925
 31
0.0
  0
ENDBLK
  5
1A2E
330
1A29
100
AcDbEntity
  8
0
100
AcDbBlockEnd
  0
BLOCK
  5
1A35
330
1A30
100
AcDbEntity
  8
0
100
AcDbBlockBegin
  2
*S27
 70
     1
 10
0.0
 20
0.0
 30
0.0
  3
*S27
  1

  0
LINE
  5
1A31
330
1A30
100
AcDbEntity
  8
AM_5
100
AcDbLine
 10
392.9633872167884
 20
385.3716852889423
 30
0.0
 11
437.6745079833607
 21
358.1452387682982
 31
0.0
  0
TRACE
  5
1A32
330
1A30
100
AcDbEntity
  8
AM_5
  6
Continuous
100
AcDbTrace
 10
437.1952007318316
 20
357.3581230353961
 30
0.0
 11
438.1538152348899
 21
358.9323545012002
 31
0.0
 12
443.6532455754177
 22
354.5045387249925
 32
0.0
 13
443.6532455754177
 23
354.5045387249925
 33
0.0
  0
MTEXT
  5
1A33
330
1A30
100
AcDbEntity
  8
AM_5
 62
     7
100
AcDbMText
 10
382.5005964306888
 20
391.7429103647272
 30
0.0
 40
7.0
 41
0.0
 71
     5
 72
     5
  1
1
  7
ACISOTS
 73
     1
 44
1.0
1001
ACAD
1000
MTEXTBEGIN
1070
    73
1070
     1
1070
    44
1040
1.0
1070
    74
1070
     0
1000
MTEXTEND
  0
CIRCLE
  5
1A34
330
1A30
100
AcDbEntity
  8
AM_5
 62
     3
100
AcDbCircle
 10
382.5005964306888
 20
391.7429103647272
 30
0.0
 40
12.25
  0
ENDBLK
  5
1A36
330
1A30
100
AcDbEntity
  8
0
100
AcDbBlockEnd
  0
BLOCK
  5
1A3C
330
1A38
100
AcDbEntity
  8
0
100
AcDbBlockBegin
  2
*S28
 70
     1
 10
0.0
 20
0.0
 30
0.0
  3
*S28
  1

  0
CIRCLE
  5
1A39
330
1A38
100
AcDbEntity
  8
AM_12
 62
     4
100
AcDbCircle
 10
283.2570878719075
 20
345.8197179055969
 30
0.0
 40
3.5
  0
LINE
  5
1A3A
330
1A38
100
AcDbEntity
  8
AM_12
 62
     4
100
AcDbLine
 10
279.7570878719075
 20
342.3197179055969
 30
0.0
 11
286.7570878719075
 21
349.3197179055969
 31
0.0
  0
LINE
  5
1A3B
330
1A38
100
AcDbEntity
  8
AM_12
 62
     4
100
AcDbLine
 10
279.7570878719075
 20
349.3197179055969
 30
0.0
 11
286.7570878719075
 21
342.3197179055969
 31
0.0
  0
ENDBLK
  5
1A3D
330
1A38
100
AcDbEntity
  8
0
100
AcDbBlockEnd
  0
BLOCK
  5
1A44
330
1A3F
100
AcDbEntity
  8
0
100
AcDbBlockBegin
  2
*S29
 70
     1
 10
0.0
 20
0.0
 30
0.0
  3
*S29
  1

  0
LINE
  5
1A40
330
1A3F
100
AcDbEntity
  8
AM_5
100
AcDbLine
 10
323.4114405306592
 20
315.2925272447114
 30
0.0
 11
288.8295624616854
 21
341.5832657406032
 31
0.0
  0
TRACE
  5
1A41
330
1A3F
100
AcDbEntity
  8
AM_5
  6
Continuous
100
AcDbTrace
 10
289.3873019676279
 20
342.3168959348165
 30
0.0
 11
288.2718229557429
 21
340.8496355463899
 31
0.0
 12
283.2570878719075
 22
345.8197179055969
 32
0.0
 13
283.2570878719075
 23
345.8197179055969
 33
0.0
  0
MTEXT
  5
1A42
330
1A3F
100
AcDbEntity
  8
AM_5
 62
     7
100
AcDbMText
 10
333.1632710627705
 20
307.8787359559724
 30
0.0
 40
7.0
 41
0.0
 71
     5
 72
     5
  1
2
  7
ACISOTS
 73
     1
 44
1.0
1001
ACAD
1000
MTEXTBEGIN
1070
    73
1070
     1
1070
    44
1040
1.0
1070
    74
1070
     0
1000
MTEXTEND
  0
CIRCLE
  5
1A43
330
1A3F
100
AcDbEntity
  8
AM_5
 62
     3
100
AcDbCircle
 10
333.1632710627705
 20
307.8787359559724
 30
0.0
 40
12.25
  0
ENDBLK
  5
1A45
330
1A3F
100
AcDbEntity
  8
0
100
AcDbBlockEnd
  0
BLOCK
  5
1A4B
330
1A47
100
AcDbEntity
  8
0
100
AcDbBlockBegin
  2
*S30
 70
     1
 10
0.0
 20
0.0
 30
0.0
  3
*S30
  1

  0
CIRCLE
  5
1A48
330
1A47
100
AcDbEntity
  8
AM_12
 62
     4
100
AcDbCircle
 10
479.0815967835904
 20
179.2169613965941
 30
0.0
 40
3.5
  0
LINE
  5
1A49
330
1A47
100
AcDbEntity
  8
AM_12
 62
     4
100
AcDbLine
 10
475.5815967835903
 20
175.7169613965941
 30
0.0
 11
482.5815967835904
 21
182.7169613965941
 31
0.0
  0
LINE
  5
1A4A
330
1A47
100
AcDbEntity
  8
AM_12
 62
     4
100
AcDbLine
 10
475.5815967835903
 20
182.7169613965941
 30
0.0
 11
482.5815967835904
 21
175.7169613965941
 31
0.0
  0
ENDBLK
  5
1A4C
330
1A47
100
AcDbEntity
  8
0
100
AcDbBlockEnd
  0
BLOCK
  5
1A53
330
1A4E
100
AcDbEntity
  8
0
100
AcDbBlockBegin
  2
*S31
 70
     1
 10
0.0
 20
0.0
 30
0.0
  3
*S31
  1

  0
LINE
  5
1A4F
330
1A4E
100
AcDbEntity
  8
AM_5
100
AcDbLine
 10
452.4815583000193
 20
211.0487923128968
 30
0.0
 11
474.5929892377679
 21
184.5884046197499
 31
0.0
  0
TRACE
  5
1A50
330
1A4E
100
AcDbEntity
  8
AM_5
  6
Continuous
100
AcDbTrace
 10
473.8858253249457
 20
183.9974682282893
 30
0.0
 11
475.30015315059
 21
185.1793410112104
 31
0.0
 12
479.0815967835904
 22
179.2169613965941
 32
0.0
 13
479.0815967835904
 23
179.2169613965941
 33
0.0
  0
MTEXT
  5
1A51
330
1A4E
100
AcDbEntity
  8
AM_5
 62
     7
100
AcDbMText
 10
444.62649509483
 20
220.4488179534194
 30
0.0
 40
7.0
 41
0.0
 71
     5
 72
     5
  1
3
  7
ACISOTS
 73
     1
 44
1.0
1001
ACAD
1000
MTEXTBEGIN
1070
    73
1070
     1
1070
    44
1040
1.0
1070
    74
1070
     0
1000
MTEXTEND
  0
CIRCLE
  5
1A52
330
1A4E
100
AcDbEntity
  8
AM_5
 62
     3
100
AcDbCircle
 10
444.62649509483
 20
220.4488179534194
 30
0.0
 40
12.25
  0
ENDBLK
  5
1A54
330
1A4E
100
AcDbEntity
  8
0
100
AcDbBlockEnd
  0
BLOCK
  5
1A5A
330
1A56
100
AcDbEntity
  8
0
100
AcDbBlockBegin
  2
*S32
 70
     1
 10
0.0
 20
0.0
 30
0.0
  3
*S32
  1

  0
CIRCLE
  5
1A57
330
1A56
100
AcDbEntity
  8
AM_12
 62
     4
100
AcDbCircle
 10
568.8627067223758
 20
176.8330413329718
 30
0.0
 40
3.5
  0
LINE
  5
1A58
330
1A56
100
AcDbEntity
  8
AM_12
 62
     4
100
AcDbLine
 10
565.3627067223758
 20
173.3330413329718
 30
0.0
 11
572.3627067223758
 21
180.3330413329718
 31
0.0
  0
LINE
  5
1A59
330
1A56
100
AcDbEntity
  8
AM_12
 62
     4
100
AcDbLine
 10
565.3627067223758
 20
180.3330413329718
 30
0.0
 11
572.3627067223758
 21
173.3330413329718
 31
0.0
  0
ENDBLK
  5
1A5B
330
1A56
100
AcDbEntity
  8
0
100
AcDbBlockEnd
  0
BLOCK
  5
1A62
330
1A5D
100
AcDbEntity
  8
0
100
AcDbBlockBegin
  2
*S33
 70
     1
 10
0.0
 20
0.0
 30
0.0
  3
*S33
  1

  0
LINE
  5
1A5E
330
1A5D
100
AcDbEntity
  8
AM_5
100
AcDbLine
 10
551.7031844996739
 20
209.822873925154
 30
0.0
 11
565.6325249624372
 21
183.0431883358825
 31
0.0
  0
TRACE
  5
1A5F
330
1A5D
100
AcDbEntity
  8
AM_5
  6
Continuous
100
AcDbTrace
 10
564.8149436027671
 20
182.6179268414227
 30
0.0
 11
566.4501063221075
 21
183.4684498303422
 31
0.0
 12
568.8627067223758
 22
176.8330413329718
 32
0.0
 13
568.8627067223758
 23
176.8330413329718
 33
0.0
  0
MTEXT
  5
1A60
330
1A5D
100
AcDbEntity
  8
AM_5
 62
     7
100
AcDbMText
 10
546.0503664197815
 20
220.6906311802477
 30
0.0
 40
7.0
 41
0.0
 71
     5
 72
     5
  1
4
  7
ACISOTS
 73
     1
 44
1.0
1001
ACAD
1000
MTEXTBEGIN
1070
    73
1070
     1
1070
    44
1040
1.0
1070
    74
1070
     0
1000
MTEXTEND
  0
CIRCLE
  5
1A61
330
1A5D
100
AcDbEntity
  8
AM_5
 62
     3
100
AcDbCircle
 10
546.0503664197815
 20
220.6906311802477
 30
0.0
 40
12.25
  0
ENDBLK
  5
1A63
330
1A5D
100
AcDbEntity
  8
0
100
AcDbBlockEnd
  0
BLOCK
  5
1A69
330
1A65
100
AcDbEntity
  8
0
100
AcDbBlockBegin
  2
*S34
 70
     1
 10
0.0
 20
0.0
 30
0.0
  3
*S34
  1

  0
CIRCLE
  5
1A66
330
1A65
100
AcDbEntity
  8
AM_12
 62
     4
100
AcDbCircle
 10
625.5504477543129
 20
177.3701553958201
 30
0.0
 40
3.5
  0
LINE
  5
1A67
330
1A65
100
AcDbEntity
  8
AM_12
 62
     4
100
AcDbLine
 10
622.0504477543129
 20
173.8701553958201
 30
0.0
 11
629.0504477543129
 21
180.8701553958201
 31
0.0
  0
LINE
  5
1A68
330
1A65
100
AcDbEntity
  8
AM_12
 62
     4
100
AcDbLine
 10
622.0504477543129
 20
180.8701553958201
 30
0.0
 11
629.0504477543129
 21
173.8701553958201
 31
0.0
  0
ENDBLK
  5
1A6A
330
1A65
100
AcDbEntity
  8
0
100
AcDbBlockEnd
  0
BLOCK
  5
1A71
330
1A6C
100
AcDbEntity
  8
0
100
AcDbBlockBegin
  2
*S35
 70
     1
 10
0.0
 20
0.0
 30
0.0
  3
*S35
  1

  0
LINE
  5
1A6D
330
1A6C
100
AcDbEntity
  8
AM_5
100
AcDbLine
 10
611.1926191808016
 20
208.1861697745774
 30
0.0
 11
622.5941352071864
 21
183.7152492583017
 31
0.0
  0
TRACE
  5
1A6E
330
1A6C
100
AcDbEntity
  8
AM_5
  6
Continuous
100
AcDbTrace
 10
621.7587877564913
 20
183.3260433295601
 30
0.0
 11
623.4294826578815
 21
184.1044551870434
 31
0.0
 12
625.5504477543129
 22
177.3701553958201
 32
0.0
 13
625.5504477543129
 23
177.3701553958201
 33
0.0
  0
MTEXT
  5
1A6F
330
1A6C
100
AcDbEntity
  8
AM_5
 62
     7
100
AcDbMText
 10
606.0190722233303
 20
219.2900840339202
 30
0.0
 40
7.0
 41
0.0
 71
     5
 72
     5
  1
5
  7
ACISOTS
 73
     1
 44
1.0
1001
ACAD
1000
MTEXTBEGIN
1070
    73
1070
     1
1070
    44
1040
1.0
1070
    74
1070
     0
1000
MTEXTEND
  0
CIRCLE
  5
1A70
330
1A6C
100
AcDbEntity
  8
AM_5
 62
     3
100
AcDbCircle
 10
606.0190722233303
 20
219.2900840339202
 30
0.0
 40
12.25
  0
ENDBLK
  5
1A72
330
1A6C
100
AcDbEntity
  8
0
100
AcDbBlockEnd
  0
BLOCK
  5
1AB7
330
1A74
100
AcDbEntity
  8
0
100
AcDbBlockBegin
  2
*S36
 70
     1
 10
0.0
 20
0.0
 30
0.0
  3
*S36
  1

  0
LINE
  5
1A75
330
1A74
100
AcDbEntity
  8
0
 62
     1
100
AcDbLine
 10
430.0
 20
532.95
 30
0.0
 11
816.0
 21
532.95
 31
0.0
  0
LINE
  5
1A76
330
1A74
100
AcDbEntity
  8
0
 62
     1
100
AcDbLine
 10
430.0
 20
520.6
 30
0.0
 11
816.0
 21
520.6
 31
0.0
  0
LINE
  5
1A77
330
1A74
100
AcDbEntity
  8
0
 62
     1
100
AcDbLine
 10
430.0
 20
508.25
 30
0.0
 11
816.0
 21
508.25
 31
0.0
  0
LINE
  5
1A78
330
1A74
100
AcDbEntity
  8
0
 62
     1
100
AcDbLine
 10
430.0
 20
495.8999999999999
 30
0.0
 11
816.0
 21
495.8999999999999
 31
0.0
  0
MTEXT
  5
1A79
330
1A74
100
AcDbEntity
  8
0
 62
     2
100
AcDbMText
 10
445.0
 20
542.6
 30
0.0
 40
7.0
 41
26.4
 71
     2
 72
     5
  1
1
  7
ACISOTS
 73
     1
 44
1.0
1001
ACAD
1000
MTEXTBEGIN
1070
    73
1070
     1
1070
    44
1040
1.0
1070
    74
1070
     0
1000
MTEXTEND
  0
LINE
  5
1A7A
330
1A74
100
AcDbEntity
  8
0
 62
     1
100
AcDbLine
 10
460.0
 20
545.2999999999999
 30
0.0
 11
460.0
 21
532.95
 31
0.0
  0
MTEXT
  5
1A7B
330
1A74
100
AcDbEntity
  8
0
 62
     2
100
AcDbMText
 10
461.8
 20
542.6
 30
0.0
 40
7.0
 41
116.4
 71
     1
 72
     5
  1
カバー
  7
ACISOTS
 73
     1
 44
1.0
1001
ACAD
1000
MTEXTBEGIN
1070
    73
1070
     1
1070
    44
1040
1.0
1070
    74
1070
     0
1000
MTEXTEND
  0
LINE
  5
1A7C
330
1A74
100
AcDbEntity
  8
0
 62
     1
100
AcDbLine
 10
580.0
 20
545.2999999999999
 30
0.0
 11
580.0
 21
532.95
 31
0.0
  0
MTEXT
  5
1A7D
330
1A74
100
AcDbEntity
  8
0
 62
     2
100
AcDbMText
 10
595.0
 20
542.6
 30
0.0
 40
7.0
 41
26.4
 71
     2
 72
     5
  1
1
  7
ACISOTS
 73
     1
 44
1.0
1001
ACAD
1000
MTEXTBEGIN
1070
    73
1070
     1
1070
    44
1040
1.0
1070
    74
1070
     0
1000
MTEXTEND
  0
LINE
  5
1A7E
330
1A74
100
AcDbEntity
  8
0
 62
     1
100
AcDbLine
 10
610.0
 20
545.2999999999999
 30
0.0
 11
610.0
 21
532.95
 31
0.0
  0
MTEXT
  5
1A7F
330
1A74
100
AcDbEntity
  8
0
 62
     2
100
AcDbMText
 10
611.7999999999999
 20
542.6
 30
0.0
 40
7.0
 41
76.4
 71
     1
 72
     5
  1
SECC t1.0
  7
ACISOTS
 73
     1
 44
1.0
1001
ACAD
1000
MTEXTBEGIN
1070
    73
1070
     1
1070
    44
1040
1.0
1070
    74
1070
     0
1000
MTEXTEND
  0
LINE
  5
1A80
330
1A74
100
AcDbEntity
  8
0
 62
     1
100
AcDbLine
 10
690.0
 20
545.2999999999999
 30
0.0
 11
690.0
 21
532.95
 31
0.0
  0
MTEXT
  5
1A81
330
1A74
100
AcDbEntity
  8
0
 62
     2
100
AcDbMText
 10
691.7999999999999
 20
542.6
 30
0.0
 40
7.0
 41
122.4
 71
     1
 72
     5
  1
黒塗装(ワントーン)
  7
ACISOTS
 73
     1
 44
1.0
1001
ACAD
1000
MTEXTBEGIN
1070
    73
1070
     1
1070
    44
1040
1.0
1070
    74
1070
     0
1000
MTEXTEND
  0
MTEXT
  5
1A82
330
1A74
100
AcDbEntity
  8
0
 62
     2
100
AcDbMText
 10
445.0
 20
530.25
 30
0.0
 40
7.0
 41
26.4
 71
     2
 72
     5
  1
2
  7
ACISOTS
 73
     1
 44
1.0
1001
ACAD
1000
MTEXTBEGIN
1070
    73
1070
     1
1070
    44
1040
1.0
1070
    74
1070
     0
1000
MTEXTEND
  0
LINE
  5
1A83
330
1A74
100
AcDbEntity
  8
0
 62
     1
100
AcDbLine
 10
460.0
 20
532.95
 30
0.0
 11
460.0
 21
520.6
 31
0.0
  0
MTEXT
  5
1A84
330
1A74
100
AcDbEntity
  8
0
 62
     2
100
AcDbMText
 10
461.8
 20
530.25
 30
0.0
 40
7.0
 41
116.4
 71
     1
 72
     5
  1
シャーシ
  7
ACISOTS
 73
     1
 44
1.0
1001
ACAD
1000
MTEXTBEGIN
1070
    73
1070
     1
1070
    44
1040
1.0
1070
    74
1070
     0
1000
MTEXTEND
  0
LINE
  5
1A85
330
1A74
100
AcDbEntity
  8
0
 62
     1
100
AcDbLine
 10
580.0
 20
532.95
 30
0.0
 11
580.0
 21
520.6
 31
0.0
  0
MTEXT
  5
1A86
330
1A74
100
AcDbEntity
  8
0
 62
     2
100
AcDbMText
 10
595.0
 20
530.25
 30
0.0
 40
7.0
 41
26.4
 71
     2
 72
     5
  1
1
  7
ACISOTS
 73
     1
 44
1.0
1001
ACAD
1000
MTEXTBEGIN
1070
    73
1070
     1
1070
    44
1040
1.0
1070
    74
1070
     0
1000
MTEXTEND
  0
LINE
  5
1A87
330
1A74
100
AcDbEntity
  8
0
 62
     1
100
AcDbLine
 10
610.0
 20
532.95
 30
0.0
 11
610.0
 21
520.6
 31
0.0
  0
MTEXT
  5
1A88
330
1A74
100
AcDbEntity
  8
0
 62
     2
100
AcDbMText
 10
611.7999999999999
 20
530.25
 30
0.0
 40
7.0
 41
76.4
 71
     1
 72
     5
  1
A1100P-H24 t1.0
  7
ACISOTS
 73
     1
 44
1.0
1001
ACAD
1000
MTEXTBEGIN
1070
    73
1070
     1
1070
    44
1040
1.0
1070
    74
1070
     0
1000
MTEXTEND
  0
LINE
  5
1A89
330
1A74
100
AcDbEntity
  8
0
 62
     1
100
AcDbLine
 10
690.0
 20
532.95
 30
0.0
 11
690.0
 21
520.6
 31
0.0
  0
MTEXT
  5
1A8A
330
1A74
100
AcDbEntity
  8
0
 62
     2
100
AcDbMText
 10
691.7999999999999
 20
530.25
 30
0.0
 40
7.0
 41
122.4
 71
     1
 72
     5
  1
カラーアルミシルバー
  7
ACISOTS
 73
     1
 44
1.0
1001
ACAD
1000
MTEXTBEGIN
1070
    73
1070
     1
1070
    44
1040
1.0
1070
    74
1070
     0
1000
MTEXTEND
  0
MTEXT
  5
1A8B
330
1A74
100
AcDbEntity
  8
0
 62
     2
100
AcDbMText
 10
445.0
 20
517.9
 30
0.0
 40
7.0
 41
26.4
 71
     2
 72
     5
  1
3
  7
ACISOTS
 73
     1
 44
1.0
1001
ACAD
1000
MTEXTBEGIN
1070
    73
1070
     1
1070
    44
1040
1.0
1070
    74
1070
     0
1000
MTEXTEND
  0
LINE
  5
1A8C
330
1A74
100
AcDbEntity
  8
0
 62
     1
100
AcDbLine
 10
460.0
 20
520.6
 30
0.0
 11
460.0
 21
508.25
 31
0.0
  0
MTEXT
  5
1A8D
330
1A74
100
AcDbEntity
  8
0
 62
     2
100
AcDbMText
 10
461.8
 20
517.9
 30
0.0
 40
7.0
 41
116.4
 71
     1
 72
     5
  1
ゴム足(B-P11)
  7
ACISOTS
 73
     1
 44
1.0
1001
ACAD
1000
MTEXTBEGIN
1070
    73
1070
     1
1070
    44
1040
1.0
1070
    74
1070
     0
1000
MTEXTEND
  0
LINE
  5
1A8E
330
1A74
100
AcDbEntity
  8
0
 62
     1
100
AcDbLine
 10
580.0
 20
520.6
 30
0.0
 11
580.0
 21
508.25
 31
0.0
  0
MTEXT
  5
1A8F
330
1A74
100
AcDbEntity
  8
0
 62
     2
100
AcDbMText
 10
595.0
 20
517.9
 30
0.0
 40
7.0
 41
26.4
 71
     2
 72
     5
  1
4
  7
ACISOTS
 73
     1
 44
1.0
1001
ACAD
1000
MTEXTBEGIN
1070
    73
1070
     1
1070
    44
1040
1.0
1070
    74
1070
     0
1000
MTEXTEND
  0
LINE
  5
1A90
330
1A74
100
AcDbEntity
  8
0
 62
     1
100
AcDbLine
 10
610.0
 20
520.6
 30
0.0
 11
610.0
 21
508.25
 31
0.0
  0
MTEXT
  5
1A91
330
1A74
100
AcDbEntity
  8
0
 62
     2
100
AcDbMText
 10
611.7999999999999
 20
517.9
 30
0.0
 40
7.0
 41
76.4
 71
     1
 72
     5
  1
天然ゴム
  7
ACISOTS
 73
     1
 44
1.0
1001
ACAD
1000
MTEXTBEGIN
1070
    73
1070
     1
1070
    44
1040
1.0
1070
    74
1070
     0
1000
MTEXTEND
  0
LINE
  5
1A92
330
1A74
100
AcDbEntity
  8
0
 62
     1
100
AcDbLine
 10
690.0
 20
520.6
 30
0.0
 11
690.0
 21
508.25
 31
0.0
  0
MTEXT
  5
1A93
330
1A74
100
AcDbEntity
  8
0
 62
     2
100
AcDbMText
 10
691.7999999999999
 20
517.9
 30
0.0
 40
7.0
 41
122.4
 71
     1
 72
     5
  1
黒
  7
ACISOTS
 73
     1
 44
1.0
1001
ACAD
1000
MTEXTBEGIN
1070
    73
1070
     1
1070
    44
1040
1.0
1070
    74
1070
     0
1000
MTEXTEND
  0
MTEXT
  5
1A94
330
1A74
100
AcDbEntity
  8
0
 62
     2
100
AcDbMText
 10
445.0
 20
505.55
 30
0.0
 40
7.0
 41
26.4
 71
     2
 72
     5
  1
4
  7
ACISOTS
 73
     1
 44
1.0
1001
ACAD
1000
MTEXTBEGIN
1070
    73
1070
     1
1070
    44
1040
1.0
1070
    74
1070
     0
1000
MTEXTEND
  0
LINE
  5
1A95
330
1A74
100
AcDbEntity
  8
0
 62
     1
100
AcDbLine
 10
460.0
 20
508.25
 30
0.0
 11
460.0
 21
495.8999999999999
 31
0.0
  0
MTEXT
  5
1A96
330
1A74
100
AcDbEntity
  8
0
 62
     2
100
AcDbMText
 10
461.8
 20
505.55
 30
0.0
 40
7.0
 41
116.4
 71
     1
 72
     5
  1
取付ビス(ﾄﾗｽM3×5)
  7
ACISOTS
 73
     1
 44
1.0
1001
ACAD
1000
MTEXTBEGIN
1070
    73
1070
     1
1070
    44
1040
1.0
1070
    74
1070
     0
1000
MTEXTEND
  0
LINE
  5
1A97
330
1A74
100
AcDbEntity
  8
0
 62
     1
100
AcDbLine
 10
580.0
 20
508.25
 30
0.0
 11
580.0
 21
495.8999999999999
 31
0.0
  0
MTEXT
  5
1A98
330
1A74
100
AcDbEntity
  8
0
 62
     2
100
AcDbMText
 10
595.0
 20
505.55
 30
0.0
 40
7.0
 41
26.4
 71
     2
 72
     5
  1
4
  7
ACISOTS
 73
     1
 44
1.0
1001
ACAD
1000
MTEXTBEGIN
1070
    73
1070
     1
1070
    44
1040
1.0
1070
    74
1070
     0
1000
MTEXTEND
  0
LINE
  5
1A99
330
1A74
100
AcDbEntity
  8
0
 62
     1
100
AcDbLine
 10
610.0
 20
508.25
 30
0.0
 11
610.0
 21
495.8999999999999
 31
0.0
  0
MTEXT
  5
1A9A
330
1A74
100
AcDbEntity
  8
0
 62
     2
100
AcDbMText
 10
611.7999999999999
 20
505.55
 30
0.0
 40
7.0
 41
76.4
 71
     1
 72
     5
  1
真ちゅう
  7
ACISOTS
 73
     1
 44
1.0
1001
ACAD
1000
MTEXTBEGIN
1070
    73
1070
     1
1070
    44
1040
1.0
1070
    74
1070
     0
1000
MTEXTEND
  0
LINE
  5
1A9B
330
1A74
100
AcDbEntity
  8
0
 62
     1
100
AcDbLine
 10
690.0
 20
508.25
 30
0.0
 11
690.0
 21
495.8999999999999
 31
0.0
  0
MTEXT
  5
1A9C
330
1A74
100
AcDbEntity
  8
0
 62
     2
100
AcDbMText
 10
691.7999999999999
 20
505.55
 30
0.0
 40
7.0
 41
122.4
 71
     1
 72
     5
  1
ニッケルメッキ
  7
ACISOTS
 73
     1
 44
1.0
1001
ACAD
1000
MTEXTBEGIN
1070
    73
1070
     1
1070
    44
1040
1.0
1070
    74
1070
     0
1000
MTEXTEND
  0
MTEXT
  5
1A9D
330
1A74
100
AcDbEntity
  8
0
 62
     2
100
AcDbMText
 10
445.0
 20
493.2
 30
0.0
 40
7.0
 41
26.4
 71
     2
 72
     5
  1
5
  7
ACISOTS
 73
     1
 44
1.0
1001
ACAD
1000
MTEXTBEGIN
1070
    73
1070
     1
1070
    44
1040
1.0
1070
    74
1070
     0
1000
MTEXTEND
  0
LINE
  5
1A9E
330
1A74
100
AcDbEntity
  8
0
 62
     1
100
AcDbLine
 10
460.0
 20
495.8999999999999
 30
0.0
 11
460.0
 21
483.55
 31
0.0
  0
MTEXT
  5
1A9F
330
1A74
100
AcDbEntity
  8
0
 62
     2
100
AcDbMText
 10
461.8
 20
493.2
 30
0.0
 40
7.0
 41
116.4
 71
     1
 72
     5
  1
M3用平ワッシャー
  7
ACISOTS
 73
     1
 44
1.0
1001
ACAD
1000
MTEXTBEGIN
1070
    73
1070
     1
1070
    44
1040
1.0
1070
    74
1070
     0
1000
MTEXTEND
  0
LINE
  5
1AA0
330
1A74
100
AcDbEntity
  8
0
 62
     1
100
AcDbLine
 10
580.0
 20
495.8999999999999
 30
0.0
 11
580.0
 21
483.55
 31
0.0
  0
MTEXT
  5
1AA1
330
1A74
100
AcDbEntity
  8
0
 62
     2
100
AcDbMText
 10
595.0
 20
493.2
 30
0.0
 40
7.0
 41
26.4
 71
     2
 72
     5
  1
4
  7
ACISOTS
 73
     1
 44
1.0
1001
ACAD
1000
MTEXTBEGIN
1070
    73
1070
     1
1070
    44
1040
1.0
1070
    74
1070
     0
1000
MTEXTEND
  0
LINE
  5
1AA2
330
1A74
100
AcDbEntity
  8
0
 62
     1
100
AcDbLine
 10
610.0
 20
495.8999999999999
 30
0.0
 11
610.0
 21
483.55
 31
0.0
  0
MTEXT
  5
1AA3
330
1A74
100
AcDbEntity
  8
0
 62
     2
100
AcDbMText
 10
611.7999999999999
 20
493.2
 30
0.0
 40
7.0
 41
76.4
 71
     1
 72
     5
  1
真ちゅう
  7
ACISOTS
 73
     1
 44
1.0
1001
ACAD
1000
MTEXTBEGIN
1070
    73
1070
     1
1070
    44
1040
1.0
1070
    74
1070
     0
1000
MTEXTEND
  0
LINE
  5
1AA4
330
1A74
100
AcDbEntity
  8
0
 62
     1
100
AcDbLine
 10
690.0
 20
495.8999999999999
 30
0.0
 11
690.0
 21
483.55
 31
0.0
  0
MTEXT
  5
1AA5
330
1A74
100
AcDbEntity
  8
0
 62
     2
100
AcDbMText
 10
691.7999999999999
 20
493.2
 30
0.0
 40
7.0
 41
122.4
 71
     1
 72
     5
  1
ニッケルメッキ
  7
ACISOTS
 73
     1
 44
1.0
1001
ACAD
1000
MTEXTBEGIN
1070
    73
1070
     1
1070
    44
1040
1.0
1070
    74
1070
     0
1000
MTEXTEND
  0
LINE
  5
1AA6
330
1A74
100
AcDbEntity
  8
0
 62
     1
100
AcDbLine
 10
430.0
 20
545.2999999999999
 30
0.0
 11
816.0
 21
545.2999999999999
 31
0.0
  0
MTEXT
  5
1AA7
330
1A74
100
AcDbEntity
  8
0
 62
     2
100
AcDbMText
 10
445.0
 20
554.95
 30
0.0
 40
7.0
 41
26.4
 71
     2
 72
     5
  1
照番
  7
ACISOTS
 73
     1
 44
1.0
1001
ACAD
1000
MTEXTBEGIN
1070
    73
1070
     1
1070
    44
1040
1.0
1070
    74
1070
     0
1000
MTEXTEND
  0
LINE
  5
1AA8
330
1A74
100
AcDbEntity
  8
0
 62
     1
100
AcDbLine
 10
460.0
 20
557.65
 30
0.0
 11
460.0
 21
545.2999999999999
 31
0.0
  0
MTEXT
  5
1AA9
330
1A74
100
AcDbEntity
  8
0
 62
     2
100
AcDbMText
 10
520.0
 20
554.95
 30
0.0
 40
7.0
 41
116.4
 71
     2
 72
     5
  1
名称
  7
ACISOTS
 73
     1
 44
1.0
1001
ACAD
1000
MTEXTBEGIN
1070
    73
1070
     1
1070
    44
1040
1.0
1070
    74
1070
     0
1000
MTEXTEND
  0
LINE
  5
1AAA
330
1A74
100
AcDbEntity
  8
0
 62
     1
100
AcDbLine
 10
580.0
 20
557.65
 30
0.0
 11
580.0
 21
545.2999999999999
 31
0.0
  0
MTEXT
  5
1AAB
330
1A74
100
AcDbEntity
  8
0
 62
     2
100
AcDbMText
 10
595.0
 20
554.95
 30
0.0
 40
7.0
 41
26.4
 71
     2
 72
     5
  1
数量
  7
ACISOTS
 73
     1
 44
1.0
1001
ACAD
1000
MTEXTBEGIN
1070
    73
1070
     1
1070
    44
1040
1.0
1070
    74
1070
     0
1000
MTEXTEND
  0
LINE
  5
1AAC
330
1A74
100
AcDbEntity
  8
0
 62
     1
100
AcDbLine
 10
610.0
 20
557.65
 30
0.0
 11
610.0
 21
545.2999999999999
 31
0.0
  0
MTEXT
  5
1AAD
330
1A74
100
AcDbEntity
  8
0
 62
     2
100
AcDbMText
 10
650.0
 20
554.95
 30
0.0
 40
7.0
 41
76.4
 71
     2
 72
     5
  1
材質
  7
ACISOTS
 73
     1
 44
1.0
1001
ACAD
1000
MTEXTBEGIN
1070
    73
1070
     1
1070
    44
1040
1.0
1070
    74
1070
     0
1000
MTEXTEND
  0
LINE
  5
1AAE
330
1A74
100
AcDbEntity
  8
0
 62
     1
100
AcDbLine
 10
690.0
 20
557.65
 30
0.0
 11
690.0
 21
545.2999999999999
 31
0.0
  0
MTEXT
  5
1AAF
330
1A74
100
AcDbEntity
  8
0
 62
     2
100
AcDbMText
 10
753.0
 20
554.95
 30
0.0
 40
7.0
 41
122.4
 71
     2
 72
     5
  1
色・表面処理
  7
ACISOTS
 73
     1
 44
1.0
1001
ACAD
1000
MTEXTBEGIN
1070
    73
1070
     1
1070
    44
1040
1.0
1070
    74
1070
     0
1000
MTEXTEND
  0
MTEXT
  5
1AB0
330
1A74
100
AcDbEntity
  8
0
 62
     2
100
AcDbMText
 10
623.0
 20
563.825
 30
0.0
 40
7.0
 41
0.0
 71
     5
 72
     5
  1
構成内容
  7
ACISOTS
 73
     1
 44
1.0
1001
ACAD
1000
MTEXTBEGIN
1070
    73
1070
     1
1070
    44
1040
1.0
1070
    74
1070
     0
1000
MTEXTEND
  0
LINE
  5
1AB1
330
1A74
100
AcDbEntity
  8
0
 62
     1
100
AcDbLine
 10
430.0
 20
557.65
 30
0.0
 11
816.0
 21
557.65
 31
0.0
  0
LINE
  5
1AB2
330
1A74
100
AcDbEntity
  8
0
 62
     1
100
AcDbLine
 10
430.0
 20
570.0
 30
0.0
 11
816.0
 21
570.0
 31
0.0
  0
LINE
  5
1AB3
330
1A74
100
AcDbEntity
  8
0
 62
     7
100
AcDbLine
 10
430.0
 20
483.55
 30
0.0
 11
430.0
 21
570.0
 31
0.0
  0
LINE
  5
1AB4
330
1A74
100
AcDbEntity
  8
0
 62
     7
100
AcDbLine
 10
430.0
 20
570.0
 30
0.0
 11
816.0
 21
570.0
 31
0.0
  0
LINE
  5
1AB5
330
1A74
100
AcDbEntity
  8
0
 62
     7
100
AcDbLine
 10
816.0
 20
570.0
 30
0.0
 11
816.0
 21
483.55
 31
0.0
  0
LINE
  5
1AB6
330
1A74
100
AcDbEntity
  8
0
 62
     7
100
AcDbLine
 10
430.0
 20
483.55
 30
0.0
 11
816.0
 21
483.55
 31
0.0
  0
ENDBLK
  5
1AB8
330
1A74
100
AcDbEntity
  8
0
100
AcDbBlockEnd
  0
ENDSEC
  0
SECTION
  2
ENTITIES
  0
INSERT
  5
C01
330
1F
100
AcDbEntity
  8
0
370
     0
100
AcDbBlockReference
  2
TK-A3
 10
10.0
 20
10.0
 30
0.0
 41
2.0
 42
2.0
 43
2.0
1001
GENIUS_GENOREF_13
1005
C0E
1001
GENIUS_GENOBJ-N-SDF_13
1002
{
1000
OWNER
1000
GEN
1002
}
1001
GENIUS_GENODEF_13
1002
{
1000
HIER
1070
     0
1002
}
1002
{
1000
MANEDIT
1070
     0
1002
}
1002
{
1000
NOSEL
1070
     0
1002
}
1002
{
1000
BEHIND
1070
     0
1002
}
1002
{
1000
OTHER
1070
     0
1002
}
1002
{
1000
REACTOR
1002
}
1001
GENIUS_GENSCREG_15
1040
2.0
1040
1.0
1011
10.0
1021
10.0
1031
0.0
1011
816.0
1021
570.0000000000001
1031
0.0
1070
     3
  0
INSERT
  5
C03
330
1F
100
AcDbEntity
  8
0
370
     0
100
AcDbBlockReference
 66
     1
  2
TK-TITLE
 10
816.0
 20
10.0
 30
0.0
 41
2.0
 42
2.0
 43
2.0
1001
GENIUS_GENOREF_13
1005
C0E
  0
ATTRIB
  5
C05
330
C03
100
AcDbEntity
  8
0
100
AcDbText
 10
435.6616136045802
 20
17.17668507522133
 30
0.0
 40
6.0
  1
2010/10/22
 72
     1
 11
455.5656096675723
 21
17.17668507522133
 31
0.0
100
AcDbAttribute
  2
GEN-TITLE-DAT
 70
     0
 74
     1
  0
ATTRIB
  5
C06
330
C03
100
AcDbEntity
  8
0
100
AcDbText
 10
451.8901664404432
 20
66.59999999999995
 30
0.0
 40
6.0
  1
1:2
 72
     2
 11
460.3505207711519
 21
66.59999999999995
 31
0.0
100
AcDbAttribute
  2
GEN-TITLE-SCA
 70
     0
 74
     1
  0
ATTRIB
  5
C07
330
C03
100
AcDbEntity
  8
0
100
AcDbText
 10
464.7745181747809
 20
41.59999999999988
 30
0.0
 40
6.0
  1

 72
     2
 11
464.7745181747809
 21
41.59999999999988
 31
0.0
100
AcDbAttribute
  2
GEN-TITLE-QTY
 70
     0
 74
     1
  0
ATTRIB
  5
C08
330
C03
100
AcDbEntity
  8
0
100
AcDbText
 10
518.0762648329416
 20
76.59999999999982
 30
0.0
 40
6.0
  1

100
AcDbAttribute
  2
GEN-TITLE-MAT2
 70
     0
  0
ATTRIB
  5
C09
330
C03
100
AcDbEntity
  8
0
100
AcDbText
 10
518.0762648329416
 20
96.59999999999982
 30
0.0
 40
6.0
  1

100
AcDbAttribute
  2
GEN-TITLE-MAT1
 70
     0
  0
ATTRIB
  5
C0A
330
C03
100
AcDbEntity
  8
0
100
AcDbText
 10
648.0
 20
13.99999999999991
 30
0.0
 40
6.0
  1

100
AcDbAttribute
  2
GEN-TITLE-NR1
 70
     0
  0
ATTRIB
  5
C0B
330
C03
100
AcDbEntity
  8
0
100
AcDbText
 10
648.0
 20
28.2999999999999
 30
0.0
 40
5.0
  1
HU-N型万能ケース
100
AcDbAttribute
  2
GEN-TITLE-DES2
 70
     0
  0
ATTRIB
  5
C0C
330
C03
100
AcDbEntity
  8
0
100
AcDbText
 10
647.7149619682934
 20
35.65580865128755
 30
0.0
 40
7.0
  1
HU-1N
100
AcDbAttribute
  2
GEN-TITLE-DES1
 70
     0
  0
ATTRIB
  5
C0D
330
C03
100
AcDbEntity
  8
0
100
AcDbText
 10
799.9953816209083
 20
13.41037886879007
 30
0.0
 40
5.0
  1

100
AcDbAttribute
  2
GEN-TITLE-NR2
 70
     0
  0
SEQEND
  5
C04
330
C03
100
AcDbEntity
  8
0
370
     0
  0
POINT
  5
C0E
330
1F
100
AcDbEntity
  8
0
 60
     1
100
AcDbPoint
 10
0.0
 20
0.0
 30
0.0
1001
GENIUS_GENODEF_13
1002
{
1000
HIER
1070
     1
1002
}
1002
{
1000
MANEDIT
1070
     0
1002
}
1002
{
1000
NOSEL
1070
     0
1002
}
1002
{
1000
BEHIND
1070
     0
1002
}
1002
{
1000
OTHER
1070
     0
1002
}
1002
{
1000
REACTOR
1002
}
1001
GENIUS_GENOENT_13
1002
{
1000
MYREF
1005
C0E
1002
}
1002
{
1000
GRP
1005
0
1002
}
1001
GENIUS_GENOBJ-N-TIT_13
1002
{
1000
OWNER
1000
GEN
1002
}
1001
GENIUS_GENOLIS_13
1002
{
1000
ENT
1005
C03
1005
C01
1002
}
1001
GENIUS_GENTITLE_13
1002
{
1000
BORDER
1000
TK-A3
1002
}
1002
{
1000
TITLE
1000
TK-TITLE
1002
}
1002
{
1000
ADDITIONAL1
1000

1002
}
1002
{
1000
ADDITIONAL2
1000

1002
}
1002
{
1000
SCALE
1000
1:2
1002
}
1002
{
1000
TITLESTD
1000
ISO
1002
}
1002
{
1000
HRA
1005
C01
1002
}
1002
{
1000
HTIT
1005
C03
1002
}
1002
{
1000
GENIUSID
1005
C0E
1002
}
1002
{
1000
INVTXTID
1005
0
1002
}
1002
{
1000
UNCHG
1002
{
1000
GEN-TITLE-SIZ
1000
GEN-TITLE-SCA
1002
}
1002
}
  0
INSERT
  5
DEF
330
1F
100
AcDbEntity
  8
AM_12
100
AcDbBlockReference
  2
*S26
 10
0.0
 20
0.0
 30
0.0
  0
INSERT
  5
DF4
330
1F
100
AcDbEntity
  8
AM_5
100
AcDbBlockReference
  2
*S27
 10
0.0
 20
0.0
 30
0.0
  0
INSERT
  5
DF6
330
1F
100
AcDbEntity
  8
AM_12
100
AcDbBlockReference
  2
*S28
 10
0.0
 20
0.0
 30
0.0
  0
INSERT
  5
DF9
330
1F
100
AcDbEntity
  8
AM_5
100
AcDbBlockReference
  2
*S29
 10
0.0
 20
0.0
 30
0.0
  0
INSERT
  5
DFB
330
1F
100
AcDbEntity
  8
AM_12
100
AcDbBlockReference
  2
*S30
 10
0.0
 20
0.0
 30
0.0
  0
INSERT
  5
DFE
330
1F
100
AcDbEntity
  8
AM_5
100
AcDbBlockReference
  2
*S31
 10
0.0
 20
0.0
 30
0.0
  0
INSERT
  5
E11
330
1F
100
AcDbEntity
  8
AM_12
100
AcDbBlockReference
  2
*S32
 10
0.0
 20
0.0
 30
0.0
  0
INSERT
  5
E14
330
1F
100
AcDbEntity
  8
AM_5
100
AcDbBlockReference
  2
*S33
 10
0.0
 20
0.0
 30
0.0
  0
INSERT
  5
F34
330
1F
100
AcDbEntity
  8
0
100
AcDbBlockReference
  2
A$C7E216A30
 10
570.6656395482821
 20
175.3320719281505
 30
0.0
  0
INSERT
  5
F4D
330
1F
100
AcDbEntity
  8
0
100
AcDbBlockReference
  2
A$C5DA11B1F
 10
570.6656395482821
 20
201.231910405296
 30
0.0
 50
90.0
  0
INSERT
  5
F59
330
1F
100
AcDbEntity
  8
0
100
AcDbBlockReference
  2
A$C5DA11B1F
 10
544.7658010711365
 20
175.3320719281505
 30
0.0
 50
180.0
  0
CIRCLE
  5
F65
330
1F
100
AcDbEntity
  8
ﾋﾞｽ
100
AcDbCircle
 10
627.5472951744029
 20
175.3320719281505
 30
0.0
 40
3.85
  0
CIRCLE
  5
F66
330
1F
100
AcDbEntity
  8
ﾋﾞｽ
100
AcDbCircle
 10
627.5472951744029
 20
175.3320719281505
 30
0.0
 40
1.649999999999999
  0
INSERT
  5
F95
330
1F
100
AcDbEntity
  8
AM_12
100
AcDbBlockReference
  2
*S34
 10
0.0
 20
0.0
 30
0.0
  0
INSERT
  5
F98
330
1F
100
AcDbEntity
  8
AM_5
100
AcDbBlockReference
  2
*S35
 10
0.0
 20
0.0
 30
0.0
  0
INSERT
  5
F9A
330
1F
100
AcDbEntity
  8
0
100
AcDbBlockReference
  2
*S36
 10
0.0
 20
0.0
 30
0.0
  0
LINE
  5
FF5
330
1F
100
AcDbEntity
  8
ﾋﾞｽ
100
AcDbLine
 10
610.973836771894
 20
171.4820719281505
 30
0.0
 11
611.2738367718939
 21
171.4820719281505
 31
0.0
1001
GENIUS_GENREC_14
1002
{
1000
PYDIR
1011
610.973836771894
1021
179.1820719281505
1031
0.0
1002
}
1002
{
1000
PXDIR
1011
611.2738367718939
1021
171.4820719281505
1031
0.0
1002
}
1002
{
1000
PORI
1011
610.973836771894
1021
171.4820719281505
1031
0.0
1002
}
1002
{
1000
PINS
1011
610.973836771894
1021
175.3320719281505
1031
0.0
1002
}
1002
{
1000
HVAL
1000
7.7
1002
}
1002
{
1000
H
1070
     2
1002
}
1002
{
1000
WVAL
1000
0.3
1002
}
1002
{
1000
W
1070
     2
1002
}
1002
{
1000
C
1070
     3
1002
}
1001
GENIUS_GENOBJ-N-REC_13
1002
{
1000
OWNER
1000
GEN
1002
}
1001
GENIUS_GENODEF_13
1002
{
1000
HIER
1070
     0
1002
}
1002
{
1000
MANEDIT
1070
     0
1002
}
1002
{
1000
NOSEL
1070
     0
1002
}
1002
{
1000
BEHIND
1070
     0
1002
}
1002
{
1000
OTHER
1070
     0
1002
}
1002
{
1000
REACTOR
1002
}
  0
LINE
  5
FF6
330
1F
100
AcDbEntity
  8
ﾋﾞｽ
100
AcDbLine
 10
611.2738367718939
 20
171.4820719281505
 30
0.0
 11
611.2738367718939
 21
179.1820719281505
 31
0.0
1001
GENIUS_GENREC_14
1002
{
1000
PYDIR
1011
610.973836771894
1021
179.1820719281505
1031
0.0
1002
}
1002
{
1000
PXDIR
1011
611.2738367718939
1021
171.4820719281505
1031
0.0
1002
}
1002
{
1000
PORI
1011
610.973836771894
1021
171.4820719281505
1031
0.0
1002
}
1002
{
1000
PINS
1011
610.973836771894
1021
175.3320719281505
1031
0.0
1002
}
1002
{
1000
HVAL
1000
7.7
1002
}
1002
{
1000
H
1070
     2
1002
}
1002
{
1000
WVAL
1000
0.3
1002
}
1002
{
1000
W
1070
     2
1002
}
1002
{
1000
C
1070
     3
1002
}
1001
GENIUS_GENOBJ-N-REC_13
1002
{
1000
OWNER
1000
GEN
1002
}
1001
GENIUS_GENODEF_13
1002
{
1000
HIER
1070
     0
1002
}
1002
{
1000
MANEDIT
1070
     0
1002
}
1002
{
1000
NOSEL
1070
     0
1002
}
1002
{
1000
BEHIND
1070
     0
1002
}
1002
{
1000
OTHER
1070
     0
1002
}
1002
{
1000
REACTOR
1002
}
  0
LINE
  5
FF7
330
1F
100
AcDbEntity
  8
ﾋﾞｽ
100
AcDbLine
 10
611.2738367718939
 20
179.1820719281505
 30
0.0
 11
610.973836771894
 21
179.1820719281505
 31
0.0
1001
GENIUS_GENREC_14
1002
{
1000
PYDIR
1011
610.973836771894
1021
179.1820719281505
1031
0.0
1002
}
1002
{
1000
PXDIR
1011
611.2738367718939
1021
171.4820719281505
1031
0.0
1002
}
1002
{
1000
PORI
1011
610.973836771894
1021
171.4820719281505
1031
0.0
1002
}
1002
{
1000
PINS
1011
610.973836771894
1021
175.3320719281505
1031
0.0
1002
}
1002
{
1000
HVAL
1000
7.7
1002
}
1002
{
1000
H
1070
     2
1002
}
1002
{
1000
WVAL
1000
0.3
1002
}
1002
{
1000
W
1070
     2
1002
}
1002
{
1000
C
1070
     3
1002
}
1001
GENIUS_GENOBJ-N-REC_13
1002
{
1000
OWNER
1000
GEN
1002
}
1001
GENIUS_GENODEF_13
1002
{
1000
HIER
1070
     0
1002
}
1002
{
1000
MANEDIT
1070
     0
1002
}
1002
{
1000
NOSEL
1070
     0
1002
}
1002
{
1000
BEHIND
1070
     0
1002
}
1002
{
1000
OTHER
1070
     0
1002
}
1002
{
1000
REACTOR
1002
}
  0
LINE
  5
FF8
330
1F
100
AcDbEntity
  8
ﾋﾞｽ
100
AcDbLine
 10
610.973836771894
 20
179.1820719281505
 30
0.0
 11
610.973836771894
 21
171.4820719281505
 31
0.0
1001
GENIUS_GENREC_14
1002
{
1000
PYDIR
1011
610.973836771894
1021
179.1820719281505
1031
0.0
1002
}
1002
{
1000
PXDIR
1011
611.2738367718939
1021
171.4820719281505
1031
0.0
1002
}
1002
{
1000
PORI
1011
610.973836771894
1021
171.4820719281505
1031
0.0
1002
}
1002
{
1000
PINS
1011
610.973836771894
1021
175.3320719281505
1031
0.0
1002
}
1002
{
1000
HVAL
1000
7.7
1002
}
1002
{
1000
H
1070
     2
1002
}
1002
{
1000
WVAL
1000
0.3
1002
}
1002
{
1000
W
1070
     2
1002
}
1002
{
1000
C
1070
     3
1002
}
1001
GENIUS_GENOBJ-N-REC_13
1002
{
1000
OWNER
1000
GEN
1002
}
1001
GENIUS_GENODEF_13
1002
{
1000
HIER
1070
     0
1002
}
1002
{
1000
MANEDIT
1070
     0
1002
}
1002
{
1000
NOSEL
1070
     0
1002
}
1002
{
1000
BEHIND
1070
     0
1002
}
1002
{
1000
OTHER
1070
     0
1002
}
1002
{
1000
REACTOR
1002
}
  0
LINE
  5
FF9
330
1F
100
AcDbEntity
  8
ﾋﾞｽ
100
AcDbLine
 10
623.6972951744029
 20
191.6055303306594
 30
0.0
 11
631.3972951744029
 21
191.6055303306594
 31
0.0
1001
GENIUS_GENREC_14
1002
{
1000
PYDIR
1011
623.6972951744029
1021
191.9055303306594
1031
0.0
1002
}
1002
{
1000
PXDIR
1011
631.3972951744029
1021
191.6055303306594
1031
0.0
1002
}
1002
{
1000
PORI
1011
623.6972951744029
1021
191.6055303306594
1031
0.0
1002
}
1002
{
1000
PINS
1011
627.5472951744029
1021
191.6055303306594
1031
0.0
1002
}
1002
{
1000
HVAL
1000
0.3
1002
}
1002
{
1000
H
1070
     2
1002
}
1002
{
1000
WVAL
1000
7.7
1002
}
1002
{
1000
W
1070
     2
1002
}
1002
{
1000
C
1070
     2
1002
}
1001
GENIUS_GENOBJ-N-REC_13
1002
{
1000
OWNER
1000
GEN
1002
}
1001
GENIUS_GENODEF_13
1002
{
1000
HIER
1070
     0
1002
}
1002
{
1000
MANEDIT
1070
     0
1002
}
1002
{
1000
NOSEL
1070
     0
1002
}
1002
{
1000
BEHIND
1070
     0
1002
}
1002
{
1000
OTHER
1070
     0
1002
}
1002
{
1000
REACTOR
1002
}
  0
LINE
  5
FFA
330
1F
100
AcDbEntity
  8
ﾋﾞｽ
100
AcDbLine
 10
631.3972951744029
 20
191.6055303306594
 30
0.0
 11
631.3972951744029
 21
191.9055303306594
 31
0.0
1001
GENIUS_GENREC_14
1002
{
1000
PYDIR
1011
623.6972951744029
1021
191.9055303306594
1031
0.0
1002
}
1002
{
1000
PXDIR
1011
631.3972951744029
1021
191.6055303306594
1031
0.0
1002
}
1002
{
1000
PORI
1011
623.6972951744029
1021
191.6055303306594
1031
0.0
1002
}
1002
{
1000
PINS
1011
627.5472951744029
1021
191.6055303306594
1031
0.0
1002
}
1002
{
1000
HVAL
1000
0.3
1002
}
1002
{
1000
H
1070
     2
1002
}
1002
{
1000
WVAL
1000
7.7
1002
}
1002
{
1000
W
1070
     2
1002
}
1002
{
1000
C
1070
     2
1002
}
1001
GENIUS_GENOBJ-N-REC_13
1002
{
1000
OWNER
1000
GEN
1002
}
1001
GENIUS_GENODEF_13
1002
{
1000
HIER
1070
     0
1002
}
1002
{
1000
MANEDIT
1070
     0
1002
}
1002
{
1000
NOSEL
1070
     0
1002
}
1002
{
1000
BEHIND
1070
     0
1002
}
1002
{
1000
OTHER
1070
     0
1002
}
1002
{
1000
REACTOR
1002
}
  0
LINE
  5
FFB
330
1F
100
AcDbEntity
  8
ﾋﾞｽ
100
AcDbLine
 10
631.3972951744029
 20
191.9055303306594
 30
0.0
 11
623.6972951744029
 21
191.9055303306594
 31
0.0
1001
GENIUS_GENREC_14
1002
{
1000
PYDIR
1011
623.6972951744029
1021
191.9055303306594
1031
0.0
1002
}
1002
{
1000
PXDIR
1011
631.3972951744029
1021
191.6055303306594
1031
0.0
1002
}
1002
{
1000
PORI
1011
623.6972951744029
1021
191.6055303306594
1031
0.0
1002
}
1002
{
1000
PINS
1011
627.5472951744029
1021
191.6055303306594
1031
0.0
1002
}
1002
{
1000
HVAL
1000
0.3
1002
}
1002
{
1000
H
1070
     2
1002
}
1002
{
1000
WVAL
1000
7.7
1002
}
1002
{
1000
W
1070
     2
1002
}
1002
{
1000
C
1070
     2
1002
}
1001
GENIUS_GENOBJ-N-REC_13
1002
{
1000
OWNER
1000
GEN
1002
}
1001
GENIUS_GENODEF_13
1002
{
1000
HIER
1070
     0
1002
}
1002
{
1000
MANEDIT
1070
     0
1002
}
1002
{
1000
NOSEL
1070
     0
1002
}
1002
{
1000
BEHIND
1070
     0
1002
}
1002
{
1000
OTHER
1070
     0
1002
}
1002
{
1000
REACTOR
1002
}
  0
LINE
  5
FFC
330
1F
100
AcDbEntity
  8
ﾋﾞｽ
100
AcDbLine
 10
623.6972951744029
 20
191.9055303306594
 30
0.0
 11
623.6972951744029
 21
191.6055303306594
 31
0.0
1001
GENIUS_GENREC_14
1002
{
1000
PYDIR
1011
623.6972951744029
1021
191.9055303306594
1031
0.0
1002
}
1002
{
1000
PXDIR
1011
631.3972951744029
1021
191.6055303306594
1031
0.0
1002
}
1002
{
1000
PORI
1011
623.6972951744029
1021
191.6055303306594
1031
0.0
1002
}
1002
{
1000
PINS
1011
627.5472951744029
1021
191.6055303306594
1031
0.0
1002
}
1002
{
1000
HVAL
1000
0.3
1002
}
1002
{
1000
H
1070
     2
1002
}
1002
{
1000
WVAL
1000
7.7
1002
}
1002
{
1000
W
1070
     2
1002
}
1002
{
1000
C
1070
     2
1002
}
1001
GENIUS_GENOBJ-N-REC_13
1002
{
1000
OWNER
1000
GEN
1002
}
1001
GENIUS_GENODEF_13
1002
{
1000
HIER
1070
     0
1002
}
1002
{
1000
MANEDIT
1070
     0
1002
}
1002
{
1000
NOSEL
1070
     0
1002
}
1002
{
1000
BEHIND
1070
     0
1002
}
1002
{
1000
OTHER
1070
     0
1002
}
1002
{
1000
REACTOR
1002
}
  0
LINE
  5
1226
330
1F
100
AcDbEntity
  8
AM_7
100
AcDbLine
 10
478.7937266095741
 20
396.0660043498998
 30
0.0
 11
478.7937266095741
 21
314.0660043498998
 31
0.0
1001
GENIUS_GENODEF_13
1002
{
1000
HIER
1070
     0
1002
}
1002
{
1000
MANEDIT
1070
     0
1002
}
1002
{
1000
NOSEL
1070
     0
1002
}
1002
{
1000
BEHIND
1070
     0
1002
}
1002
{
1000
OTHER
1070
     0
1002
}
1002
{
1000
REACTOR
1002
}
1001
GENIUS_GENOBJ-N-CEN_13
1002
{
1000
OWNER
1000
GEN
1002
}
  0
LINE
  5
1227
330
1F
100
AcDbEntity
  8
AM_7
100
AcDbLine
 10
266.7889525038847
 20
247.003104230141
 30
0.0
 11
266.7889525038847
 21
115.003104230141
 31
0.0
1001
GENIUS_GENOBJ-N-CEN_13
1002
{
1000
OWNER
1000
GEN
1002
}
1001
GENIUS_GENODEF_13
1002
{
1000
HIER
1070
     0
1002
}
1002
{
1000
MANEDIT
1070
     0
1002
}
1002
{
1000
NOSEL
1070
     0
1002
}
1002
{
1000
BEHIND
1070
     0
1002
}
1002
{
1000
OTHER
1070
     0
1002
}
1002
{
1000
REACTOR
1002
}
  0
LINE
  5
1228
330
1F
100
AcDbEntity
  8
AM_7
100
AcDbLine
 10
266.7889525038846
 20
396.0660043498998
 30
0.0
 11
266.7889525038846
 21
315.0660043498998
 31
0.0
1001
GENIUS_GENODEF_13
1002
{
1000
HIER
1070
     0
1002
}
1002
{
1000
MANEDIT
1070
     0
1002
}
1002
{
1000
NOSEL
1070
     0
1002
}
1002
{
1000
BEHIND
1070
     0
1002
}
1002
{
1000
OTHER
1070
     0
1002
}
1002
{
1000
REACTOR
1002
}
1001
GENIUS_GENOBJ-N-CEN_13
1002
{
1000
OWNER
1000
GEN
1002
}
  0
LINE
  5
1229
330
1F
100
AcDbEntity
  8
ｼｬｰｼ
100
AcDbLine
 10
478.7937266095741
 20
321.0660043498997
 30
0.0
 11
532.7937266095741
 21
321.0660043498997
 31
0.0
  0
LINE
  5
122A
330
1F
100
AcDbEntity
  8
ｶﾊﾞｰ
100
AcDbLine
 10
478.7937266095741
 20
389.0660043498998
 30
0.0
 11
538.7937266095741
 21
389.0660043498998
 31
0.0
  0
CIRCLE
  5
122B
330
1F
100
AcDbEntity
  8
ｼｬｰｼ0
100
AcDbCircle
 10
513.7937266095741
 20
326.0660043498997
 30
0.0
 40
1.5
  0
LINE
  5
122C
330
1F
100
AcDbEntity
  8
ｼｬｰｼ
100
AcDbLine
 10
523.7937266095741
 20
389.0660043498999
 30
0.0
 11
533.7937266095742
 21
389.0660043498999
 31
0.0
  0
LINE
  5
122D
330
1F
100
AcDbEntity
  8
ｼｬｰｼ
100
AcDbLine
 10
523.7937266095741
 20
331.0660043498998
 30
0.0
 11
533.5008333907608
 21
321.3588975687131
 31
0.0
  0
LINE
  5
122E
330
1F
100
AcDbEntity
  8
ｼｬｰｼ
100
AcDbLine
 10
533.7937266095742
 20
322.0660043498997
 30
0.0
 11
533.7937266095742
 21
389.0660043498999
 31
0.0
  0
LINE
  5
122F
330
1F
100
AcDbEntity
  8
ｼｬｰｼ0
100
AcDbLine
 10
532.7937266095741
 20
389.0660043498999
 30
0.0
 11
532.7937266095741
 21
322.0660043498998
 31
0.0
  0
LINE
  5
1230
330
1F
100
AcDbEntity
  8
ｼｬｰｼ
100
AcDbLine
 10
523.7937266095741
 20
331.0660043498998
 30
0.0
 11
523.7937266095741
 21
389.0660043498999
 31
0.0
  0
LINE
  5
1231
330
1F
100
AcDbEntity
  8
ｼｬｰｼ0
100
AcDbLine
 10
532.7937266095741
 20
322.0660043498997
 30
0.0
 11
478.7937266095741
 21
322.0660043498997
 31
0.0
  0
LINE
  5
1232
330
1F
100
AcDbEntity
  8
ｼｬｰｼ
100
AcDbLine
 10
478.7937266095741
 20
331.0660043498998
 30
0.0
 11
523.7937266095741
 21
331.0660043498998
 31
0.0
  0
ARC
  5
1233
330
1F
100
AcDbEntity
  8
ｼｬｰｼ
100
AcDbCircle
 10
532.7937266095741
 20
322.0660043498997
 30
0.0
 40
1.0
100
AcDbArc
 50
270.0
 51
0.0
1001
GENIUS_GENOBJ-N-FIL_13
1002
{
1000
OWNER
1000
GEN
1002
}
1001
GENIUS_GENODEF_13
1002
{
1000
HIER
1070
     0
1002
}
1002
{
1000
MANEDIT
1070
     0
1002
}
1002
{
1000
NOSEL
1070
     0
1002
}
1002
{
1000
BEHIND
1070
     0
1002
}
1002
{
1000
OTHER
1070
     0
1002
}
1002
{
1000
REACTOR
1002
}
  0
CIRCLE
  5
1234
330
1F
100
AcDbEntity
  8
ｼｬｰｼ
100
AcDbCircle
 10
513.7937266095741
 20
326.0660043498997
 30
0.0
 40
1.199999999999999
  0
LINE
  5
1235
330
1F
100
AcDbEntity
  8
ｼｬｰｼ0
100
AcDbLine
 10
266.7889525038844
 20
127.003104230141
 30
0.0
 11
294.7889525038842
 21
127.003104230141
 31
0.0
  0
LINE
  5
1236
330
1F
100
AcDbEntity
  8
ｼｬｰｼ
100
AcDbLine
 10
294.7889525038847
 20
236.0031042301411
 30
0.0
 11
238.7889525038847
 21
236.0031042301411
 31
0.0
  0
LINE
  5
1237
330
1F
100
AcDbEntity
  8
ｼｬｰｼ0
100
AcDbLine
 10
294.7889525038847
 20
235.003104230141
 30
0.0
 11
266.7889525038849
 21
235.0031042301412
 31
0.0
  0
LINE
  5
1238
330
1F
100
AcDbEntity
  8
ｼｬｰｼ
100
AcDbLine
 10
238.7889525038845
 20
126.003104230141
 30
0.0
 11
294.7889525038846
 21
126.003104230141
 31
0.0
  0
LINE
  5
1239
330
1F
100
AcDbEntity
  8
ｼｬｰｼ
100
AcDbLine
 10
295.7889525038846
 20
127.003104230141
 30
0.0
 11
295.7889525038847
 21
235.003104230141
 31
0.0
  0
LINE
  5
123A
330
1F
100
AcDbEntity
  8
ｼｬｰｼ
100
AcDbLine
 10
237.7889525038848
 20
235.003104230141
 30
0.0
 11
237.7889525038845
 21
127.003104230141
 31
0.0
  0
LINE
  5
123B
330
1F
100
AcDbEntity
  8
ｼｬｰｼ0
100
AcDbLine
 10
294.7889525038842
 20
127.003104230141
 30
0.0
 11
294.7889525038847
 21
235.003104230141
 31
0.0
  0
LINE
  5
123C
330
1F
100
AcDbEntity
  8
ｼｬｰｼ
100
AcDbLine
 10
295.7889525038846
 20
389.0660043498999
 30
0.0
 11
295.7889525038846
 21
322.0660043498998
 31
0.0
  0
LINE
  5
123D
330
1F
100
AcDbEntity
  8
ｼｬｰｼ0
100
AcDbLine
 10
294.7889525038846
 20
389.0660043498999
 30
0.0
 11
294.7889525038846
 21
322.0660043498998
 31
0.0
  0
LINE
  5
123E
330
1F
100
AcDbEntity
  8
ｼｬｰｼ
100
AcDbLine
 10
237.7889525038846
 20
322.0660043498998
 30
0.0
 11
237.7889525038846
 21
389.0660043498999
 31
0.0
  0
LINE
  5
123F
330
1F
100
AcDbEntity
  8
ｼｬｰｼ
100
AcDbLine
 10
237.7889525038846
 20
389.0660043498999
 30
0.0
 11
295.7889525038846
 21
389.0660043498999
 31
0.0
  0
LINE
  5
1240
330
1F
100
AcDbEntity
  8
ｼｬｰｼ
100
AcDbLine
 10
238.7889525038846
 20
321.0660043498998
 30
0.0
 11
294.7889525038846
 21
321.0660043498998
 31
0.0
  0
LINE
  5
1241
330
1F
100
AcDbEntity
  8
ｼｬｰｼ0
100
AcDbLine
 10
294.7889525038846
 20
322.0660043498998
 30
0.0
 11
266.7889525038846
 21
322.0660043498997
 31
0.0
  0
ARC
  5
1242
330
1F
100
AcDbEntity
  8
ｼｬｰｼ
100
AcDbCircle
 10
294.7889525038846
 20
322.0660043498998
 30
0.0
 40
1.0
100
AcDbArc
 50
270.0
 51
0.0
1001
GENIUS_GENODEF_13
1002
{
1000
HIER
1070
     0
1002
}
1002
{
1000
MANEDIT
1070
     0
1002
}
1002
{
1000
NOSEL
1070
     0
1002
}
1002
{
1000
BEHIND
1070
     0
1002
}
1002
{
1000
OTHER
1070
     0
1002
}
1002
{
1000
REACTOR
1002
}
1001
GENIUS_GENOBJ-N-FIL_13
1002
{
1000
OWNER
1000
GEN
1002
}
  0
ARC
  5
1243
330
1F
100
AcDbEntity
  8
ｼｬｰｼ
100
AcDbCircle
 10
238.7889525038846
 20
322.0660043498998
 30
0.0
 40
1.0
100
AcDbArc
 50
180.0
 51
270.0
1001
GENIUS_GENOBJ-N-FIL_13
1002
{
1000
OWNER
1000
GEN
1002
}
1001
GENIUS_GENODEF_13
1002
{
1000
HIER
1070
     0
1002
}
1002
{
1000
MANEDIT
1070
     0
1002
}
1002
{
1000
NOSEL
1070
     0
1002
}
1002
{
1000
BEHIND
1070
     0
1002
}
1002
{
1000
OTHER
1070
     0
1002
}
1002
{
1000
REACTOR
1002
}
  0
ARC
  5
1244
330
1F
100
AcDbEntity
  8
ｼｬｰｼ
100
AcDbCircle
 10
238.7889525038847
 20
235.003104230141
 30
0.0
 40
1.0
100
AcDbArc
 50
90.0
 51
180.0
1001
GENIUS_GENODEF_13
1002
{
1000
HIER
1070
     0
1002
}
1002
{
1000
MANEDIT
1070
     0
1002
}
1002
{
1000
NOSEL
1070
     0
1002
}
1002
{
1000
BEHIND
1070
     0
1002
}
1002
{
1000
OTHER
1070
     0
1002
}
1002
{
1000
REACTOR
1002
}
1001
GENIUS_GENOBJ-N-FIL_13
1002
{
1000
OWNER
1000
GEN
1002
}
  0
ARC
  5
1245
330
1F
100
AcDbEntity
  8
ｼｬｰｼ
100
AcDbCircle
 10
238.7889525038845
 20
127.003104230141
 30
0.0
 40
1.0
100
AcDbArc
 50
180.0
 51
270.0
1001
GENIUS_GENOBJ-N-FIL_13
1002
{
1000
OWNER
1000
GEN
1002
}
1001
GENIUS_GENODEF_13
1002
{
1000
HIER
1070
     0
1002
}
1002
{
1000
MANEDIT
1070
     0
1002
}
1002
{
1000
NOSEL
1070
     0
1002
}
1002
{
1000
BEHIND
1070
     0
1002
}
1002
{
1000
OTHER
1070
     0
1002
}
1002
{
1000
REACTOR
1002
}
  0
ARC
  5
1246
330
1F
100
AcDbEntity
  8
ｼｬｰｼ
100
AcDbCircle
 10
294.7889525038846
 20
127.003104230141
 30
0.0
 40
1.0
100
AcDbArc
 50
270.0
 51
0.0
1001
GENIUS_GENODEF_13
1002
{
1000
HIER
1070
     0
1002
}
1002
{
1000
MANEDIT
1070
     0
1002
}
1002
{
1000
NOSEL
1070
     0
1002
}
1002
{
1000
BEHIND
1070
     0
1002
}
1002
{
1000
OTHER
1070
     0
1002
}
1002
{
1000
REACTOR
1002
}
1001
GENIUS_GENOBJ-N-FIL_13
1002
{
1000
OWNER
1000
GEN
1002
}
  0
ARC
  5
1247
330
1F
100
AcDbEntity
  8
ｼｬｰｼ
100
AcDbCircle
 10
294.7889525038847
 20
235.003104230141
 30
0.0
 40
1.0
100
AcDbArc
 50
0.0
 51
90.0
1001
GENIUS_GENOBJ-N-FIL_13
1002
{
1000
OWNER
1000
GEN
1002
}
1001
GENIUS_GENODEF_13
1002
{
1000
HIER
1070
     0
1002
}
1002
{
1000
MANEDIT
1070
     0
1002
}
1002
{
1000
NOSEL
1070
     0
1002
}
1002
{
1000
BEHIND
1070
     0
1002
}
1002
{
1000
OTHER
1070
     0
1002
}
1002
{
1000
REACTOR
1002
}
  0
LINE
  5
1248
330
1F
100
AcDbEntity
  8
ｶﾊﾞｰ
100
AcDbLine
 10
421.7937266095741
 20
320.0660043498998
 30
0.0
 11
535.7937266095741
 21
320.0660043498998
 31
0.0
  0
LINE
  5
1249
330
1F
100
AcDbEntity
  8
ｶﾊﾞｰ
100
AcDbLine
 10
538.7937266095741
 20
390.0660043498998
 30
0.0
 11
418.7937266095742
 21
390.0660043498998
 31
0.0
  0
LINE
  5
124A
330
1F
100
AcDbEntity
  8
ｶﾊﾞｰ
100
AcDbLine
 10
236.7889525038848
 20
241.003104230141
 30
0.0
 11
296.7889525038847
 21
241.003104230141
 31
0.0
  0
LINE
  5
124B
330
1F
100
AcDbEntity
  8
ｶﾊﾞｰ
100
AcDbLine
 10
295.7889525038846
 20
390.0660043498998
 30
0.0
 11
237.7889525038846
 21
390.0660043498998
 31
0.0
  0
LINE
  5
124C
330
1F
100
AcDbEntity
  8
ｶﾊﾞｰ
100
AcDbLine
 10
237.7889525038846
 20
389.0660043498999
 30
0.0
 11
295.7889525038846
 21
389.0660043498998
 31
0.0
  0
LINE
  5
124D
330
1F
100
AcDbEntity
  8
ｶﾊﾞｰ
100
AcDbLine
 10
236.7889525038846
 20
389.0660043498998
 30
0.0
 11
236.7889525038846
 21
320.0660043498998
 31
0.0
  0
LINE
  5
124E
330
1F
100
AcDbEntity
  8
ｶﾊﾞｰ
100
AcDbLine
 10
237.7889525038846
 20
320.0660043498998
 30
0.0
 11
237.7889525038846
 21
389.0660043498999
 31
0.0
  0
LINE
  5
124F
330
1F
100
AcDbEntity
  8
ｶﾊﾞｰ
100
AcDbLine
 10
236.7889525038846
 20
320.0660043498998
 30
0.0
 11
237.7889525038846
 21
320.0660043498998
 31
0.0
  0
ARC
  5
1250
330
1F
100
AcDbEntity
  8
ｶﾊﾞｰ
100
AcDbCircle
 10
237.7889525038846
 20
389.0660043498998
 30
0.0
 40
1.0
100
AcDbArc
 50
90.0
 51
180.0
  0
LINE
  5
1251
330
1F
100
AcDbEntity
  8
ｶﾊﾞｰ
100
AcDbLine
 10
296.7889525038846
 20
320.0660043498998
 30
0.0
 11
296.7889525038846
 21
389.0660043498998
 31
0.0
  0
LINE
  5
1252
330
1F
100
AcDbEntity
  8
ｶﾊﾞｰ
100
AcDbLine
 10
295.7889525038846
 20
389.0660043498998
 30
0.0
 11
295.7889525038846
 21
320.0660043498998
 31
0.0
  0
LINE
  5
1253
330
1F
100
AcDbEntity
  8
ｶﾊﾞｰ
100
AcDbLine
 10
295.7889525038846
 20
320.0660043498998
 30
0.0
 11
296.7889525038846
 21
320.0660043498998
 31
0.0
  0
ARC
  5
1254
330
1F
100
AcDbEntity
  8
ｶﾊﾞｰ
100
AcDbCircle
 10
295.7889525038846
 20
389.0660043498998
 30
0.0
 40
1.0
100
AcDbArc
 50
0.0
 51
90.0
  0
LINE
  5
1255
330
1F
100
AcDbEntity
  8
ｶﾊﾞｰ
100
AcDbLine
 10
418.7937266095742
 20
390.0660043498998
 30
0.0
 11
418.7937266095742
 21
323.0660043498998
 31
0.0
  0
LINE
  5
1256
330
1F
100
AcDbEntity
  8
ｶﾊﾞｰ
100
AcDbLine
 10
538.7937266095741
 20
323.0660043498998
 30
0.0
 11
538.7937266095741
 21
390.0660043498998
 31
0.0
  0
LINE
  5
1257
330
1F
100
AcDbEntity
  8
ｶﾊﾞｰ
100
AcDbLine
 10
237.7889525038848
 20
241.003104230141
 30
0.0
 11
237.7889525038846
 21
121.003104230141
 31
0.0
  0
LINE
  5
1258
330
1F
100
AcDbEntity
  8
ｶﾊﾞｰ
100
AcDbLine
 10
295.7889525038846
 20
121.003104230141
 30
0.0
 11
295.7889525038847
 21
241.003104230141
 31
0.0
  0
LINE
  5
1259
330
1F
100
AcDbEntity
  8
ｶﾊﾞｰ
100
AcDbLine
 10
236.7889525038846
 20
121.003104230141
 30
0.0
 11
236.7889525038848
 21
241.003104230141
 31
0.0
  0
LINE
  5
125A
330
1F
100
AcDbEntity
  8
ｶﾊﾞｰ
100
AcDbLine
 10
296.7889525038847
 20
241.003104230141
 30
0.0
 11
296.7889525038846
 21
121.003104230141
 31
0.0
  0
LINE
  5
125B
330
1F
100
AcDbEntity
  8
ｶﾊﾞｰ
100
AcDbLine
 10
296.7889525038846
 20
121.003104230141
 30
0.0
 11
236.7889525038846
 21
121.003104230141
 31
0.0
  0
ARC
  5
125C
330
1F
100
AcDbEntity
  8
ｶﾊﾞｰ
100
AcDbCircle
 10
421.7937266095741
 20
323.0660043498998
 30
0.0
 40
3.0
100
AcDbArc
 50
180.0
 51
270.0
1001
GENIUS_GENODEF_13
1002
{
1000
HIER
1070
     0
1002
}
1002
{
1000
MANEDIT
1070
     0
1002
}
1002
{
1000
NOSEL
1070
     0
1002
}
1002
{
1000
BEHIND
1070
     0
1002
}
1002
{
1000
REACTOR
1002
}
1001
GENIUS_GENOBJ-N-FIL_13
1002
{
1000
OWNER
1000
GEN
1002
}
  0
ARC
  5
125D
330
1F
100
AcDbEntity
  8
ｶﾊﾞｰ
100
AcDbCircle
 10
535.7937266095741
 20
323.0660043498998
 30
0.0
 40
3.0
100
AcDbArc
 50
270.0
 51
0.0
1001
GENIUS_GENODEF_13
1002
{
1000
HIER
1070
     0
1002
}
1002
{
1000
MANEDIT
1070
     0
1002
}
1002
{
1000
NOSEL
1070
     0
1002
}
1002
{
1000
BEHIND
1070
     0
1002
}
1002
{
1000
REACTOR
1002
}
1001
GENIUS_GENOBJ-N-FIL_13
1002
{
1000
OWNER
1000
GEN
1002
}
  0
CIRCLE
  5
125F
330
1F
100
AcDbEntity
  8
ｼｬｰｼ
100
AcDbCircle
 10
249.7889525038843
 20
221.0031042301411
 30
0.0
 40
3.0
  0
CIRCLE
  5
1260
330
1F
100
AcDbEntity
  8
ｼｬｰｼ
100
AcDbCircle
 10
249.7889525038839
 20
141.003104230141
 30
0.0
 40
3.0
  0
CIRCLE
  5
12AA
330
1F
100
AcDbEntity
  8
ｶﾊﾞｰ
100
AcDbCircle
 10
443.7937266095741
 20
326.0660043498997
 30
0.0
 40
2.0
  0
CIRCLE
  5
12AB
330
1F
100
AcDbEntity
  8
ｼｬｰｼ
100
AcDbCircle
 10
443.7937266095741
 20
326.0660043498997
 30
0.0
 40
1.199999999999999
  0
CIRCLE
  5
12AC
330
1F
100
AcDbEntity
  8
ｼｬｰｼ0
100
AcDbCircle
 10
443.7937266095741
 20
326.0660043498997
 30
0.0
 40
1.5
  0
LINE
  5
12D5
330
1F
100
AcDbEntity
  8
ｺﾞﾑ足
100
AcDbLine
 10
486.2665441591922
 20
201.8320719281506
 30
0.0
 11
486.2665441591922
 21
202.8320719281505
 31
0.0
  0
LINE
  5
12D6
330
1F
100
AcDbEntity
  8
ｺﾞﾑ足
100
AcDbLine
 10
480.7665441591923
 20
201.8320719281506
 30
0.0
 11
480.7665441591923
 21
202.8320719281505
 31
0.0
  0
LINE
  5
12D7
330
1F
100
AcDbEntity
  8
ｺﾞﾑ足
100
AcDbLine
 10
478.0165441591923
 20
197.3320719281505
 30
0.0
 11
489.0165441591922
 21
197.3320719281505
 31
0.0
  0
LINE
  5
12D8
330
1F
100
AcDbEntity
  8
ｺﾞﾑ足
100
AcDbLine
 10
490.0165441591922
 20
201.8320719281506
 30
0.0
 11
477.0165441591922
 21
201.8320719281506
 31
0.0
  0
LINE
  5
12D9
330
1F
100
AcDbEntity
  8
ｺﾞﾑ足
100
AcDbLine
 10
487.0165441591923
 20
202.8320719281505
 30
0.0
 11
480.0165441591922
 21
202.8320719281505
 31
0.0
  0
LINE
  5
12DA
330
1F
100
AcDbEntity
  8
ｺﾞﾑ足
100
AcDbLine
 10
480.0165441591922
 20
202.8320719281505
 30
0.0
 11
481.2665441591922
 21
206.8320719281505
 31
0.0
  0
LINE
  5
12DB
330
1F
100
AcDbEntity
  8
ｺﾞﾑ足
100
AcDbLine
 10
481.2665441591922
 20
206.8320719281505
 30
0.0
 11
485.7665441591922
 21
206.8320719281505
 31
0.0
  0
LINE
  5
12DC
330
1F
100
AcDbEntity
  8
ｺﾞﾑ足
100
AcDbLine
 10
485.7665441591922
 20
206.8320719281505
 30
0.0
 11
487.0165441591923
 21
202.8320719281505
 31
0.0
  0
LINE
  5
12DD
330
1F
100
AcDbEntity
  8
ｺﾞﾑ足
100
AcDbLine
 10
489.0165441591922
 20
197.3320719281505
 30
0.0
 11
490.0165441591922
 21
201.8320719281506
 31
0.0
  0
LINE
  5
12DE
330
1F
100
AcDbEntity
  8
ｺﾞﾑ足
100
AcDbLine
 10
478.0165441591923
 20
197.3320719281505
 30
0.0
 11
477.0165441591922
 21
201.8320719281506
 31
0.0
  0
CIRCLE
  5
12DF
330
1F
100
AcDbEntity
  8
ｺﾞﾑ足
100
AcDbCircle
 10
483.5165441591923
 20
175.3320719281505
 30
0.0
 40
6.5
  0
CIRCLE
  5
12E0
330
1F
100
AcDbEntity
  8
ｺﾞﾑ足0
100
AcDbCircle
 10
483.5165441591923
 20
175.3320719281505
 30
0.0
 40
3.0
  0
CIRCLE
  5
12E1
330
1F
100
AcDbEntity
  8
ｺﾞﾑ足0
100
AcDbCircle
 10
483.5165441591923
 20
175.3320719281505
 30
0.0
 40
3.5
  0
CIRCLE
  5
12E2
330
1F
100
AcDbEntity
  8
ｺﾞﾑ足
100
AcDbCircle
 10
483.5165441591923
 20
175.3320719281505
 30
0.0
 40
5.499999999999985
  0
LINE
  5
12E3
330
1F
100
AcDbEntity
  8
ｺﾞﾑ足
100
AcDbLine
 10
461.5165441591922
 20
169.8320719281505
 30
0.0
 11
457.0165441591922
 21
168.8320719281505
 31
0.0
  0
LINE
  5
12E4
330
1F
100
AcDbEntity
  8
ｺﾞﾑ足
100
AcDbLine
 10
461.5165441591922
 20
180.8320719281505
 30
0.0
 11
457.0165441591922
 21
181.8320719281505
 31
0.0
  0
LINE
  5
12E5
330
1F
100
AcDbEntity
  8
ｺﾞﾑ足
100
AcDbLine
 10
452.0165441591922
 20
177.5820719281505
 30
0.0
 11
456.0165441591922
 21
178.8320719281505
 31
0.0
  0
LINE
  5
12E6
330
1F
100
AcDbEntity
  8
ｺﾞﾑ足
100
AcDbLine
 10
452.0165441591922
 20
173.0820719281505
 30
0.0
 11
452.0165441591922
 21
177.5820719281505
 31
0.0
  0
LINE
  5
12E7
330
1F
100
AcDbEntity
  8
ｺﾞﾑ足
100
AcDbLine
 10
456.0165441591922
 20
171.8320719281505
 30
0.0
 11
452.0165441591922
 21
173.0820719281505
 31
0.0
  0
LINE
  5
12E8
330
1F
100
AcDbEntity
  8
ｺﾞﾑ足
100
AcDbLine
 10
456.0165441591922
 20
178.8320719281505
 30
0.0
 11
456.0165441591922
 21
171.8320719281505
 31
0.0
  0
LINE
  5
12E9
330
1F
100
AcDbEntity
  8
ｺﾞﾑ足
100
AcDbLine
 10
457.0165441591922
 20
181.8320719281505
 30
0.0
 11
457.0165441591922
 21
168.8320719281505
 31
0.0
  0
LINE
  5
12EA
330
1F
100
AcDbEntity
  8
ｺﾞﾑ足
100
AcDbLine
 10
461.5165441591922
 20
169.8320719281505
 30
0.0
 11
461.5165441591922
 21
180.8320719281505
 31
0.0
  0
LINE
  5
12EB
330
1F
100
AcDbEntity
  8
ｺﾞﾑ足
100
AcDbLine
 10
457.0165441591922
 20
172.5820719281505
 30
0.0
 11
456.0165441591922
 21
172.5820719281505
 31
0.0
  0
LINE
  5
12EC
330
1F
100
AcDbEntity
  8
ｺﾞﾑ足
100
AcDbLine
 10
457.0165441591922
 20
178.0820719281505
 30
0.0
 11
456.0165441591922
 21
178.0820719281505
 31
0.0
  0
DIMENSION
  5
12FD
330
1F
100
AcDbEntity
  8
AM_5
100
AcDbDimension
  2
*D23
 10
236.7889525038846
 20
414.0660053598997
 30
0.0
 11
266.7889525038846
 21
420.5660053598998
 31
0.0
 70
    32
 71
     5
 42
60.0
  3
AM_ISO$0
100
AcDbAlignedDimension
 13
296.7889525038846
 23
389.0660043498998
 33
0.0
 14
236.7889525038846
 24
389.0660043498998
 34
0.0
100
AcDbRotatedDimension
1001
ACAD
1000
DSTYLE
1002
{
1070
    40
1040
2.0
1002
}
  0
DIMENSION
  5
1330
330
1F
100
AcDbEntity
  8
AM_5
100
AcDbDimension
  2
*D24
 10
212.7889525038846
 20
320.0660043498998
 30
0.0
 11
206.2889525038845
 21
355.0660043498999
 31
0.0
 70
    32
 71
     5
 42
70.0
  3
AM_ISO$0
100
AcDbAlignedDimension
 13
237.7889525038846
 23
390.0660043498998
 33
0.0
 14
236.7889525038846
 24
320.0660043498998
 34
0.0
 50
90.00000000000003
100
AcDbRotatedDimension
1001
ACAD
1000
DSTYLE
1002
{
1070
    40
1040
2.0
1002
}
  0
DIMENSION
  5
1352
330
1F
100
AcDbEntity
  8
AM_5
100
AcDbDimension
  2
*D25
 10
212.7889525038845
 20
241.003104230141
 30
0.0
 11
206.2882635275065
 21
181.0031042301411
 31
0.0
 70
    32
 71
     5
 42
119.9999999999999
  3
AM_ISO$0
100
AcDbAlignedDimension
 13
236.7889525038846
 23
121.003104230141
 33
0.0
 14
236.7889525038846
 24
241.003104230141
 34
0.0
 50
89.99999999999992
100
AcDbRotatedDimension
1001
ACAD
1000
DSTYLE
1002
{
1070
    40
1040
2.0
1002
}
  0
MTEXT
  5
1C61
330
1F
100
AcDbEntity
  8
0
100
AcDbMText
 10
598.6529917314051
 20
32.47685344769411
 30
0.0
 40
6.0
 41
16.23862881114201
 71
     1
 72
     5
  1
{\fMS Gothic|b0|i0|c128|p49;大江}
  7
takachi1
 73
     1
 44
1.0
1001
ACAD
1000
MTEXTBEGIN
1070
    73
1070
     1
1070
    44
1040
1.0
1070
    74
1070
     0
1000
MTEXTEND
1000
ACAD_MTEXT_DEFINED_HEIGHT_BEGIN
1070
    46
1040
6.719520257531889
1000
ACAD_MTEXT_DEFINED_HEIGHT_END
  0
MTEXT
  5
1C62
330
1F
100
AcDbEntity
  8
0
100
AcDbMText
 10
563.152991731405
 20
32.47685344769411
 30
0.0
 40
6.0
 41
16.23862881114201
 71
     1
 72
     5
  1
{\fMS Gothic|b0|i0|c128|p49;横田}
  7
takachi1
 73
     1
 44
1.0
1001
ACAD
1000
MTEXTBEGIN
1070
    73
1070
     1
1070
    44
1040
1.0
1070
    74
1070
     0
1000
MTEXTEND
1000
ACAD_MTEXT_DEFINED_HEIGHT_BEGIN
1070
    46
1040
6.719520257531889
1000
ACAD_MTEXT_DEFINED_HEIGHT_END
  0
MTEXT
  5
1C63
330
1F
100
AcDbEntity
  8
0
100
AcDbMText
 10
529.0383448130064
 20
35.02197603844343
 30
0.0
 40
6.0
 41
16.23862881114201
 71
     1
 72
     5
  1
{\fMS Gothic|b0|i0|c128|p49;高地\P（一）}
  7
takachi1
 73
     1
 44
1.0
1001
ACAD
1000
MTEXTBEGIN
1070
    73
1070
     1
1070
    44
1040
1.0
1070
    74
1070
     0
1000
MTEXTEND
1000
ACAD_MTEXT_DEFINED_HEIGHT_BEGIN
1070
    46
1040
6.719520257531889
1000
ACAD_MTEXT_DEFINED_HEIGHT_END
  0
VIEWPORT
  5
186
102
{ACAD_XDICTIONARY
360
1E0B
102
}
330
23
100
AcDbEntity
 67
     1
  8
0
100
AcDbViewport
 10
5.249999639556163
 20
3.999999883606677
 30
0.0
 40
14.57585398793907
 41
8.992999745766947
 68
     1
 69
     1
 12
5.249999639556163
 22
3.999999883606677
 13
0.0
 23
0.0
 14
10.0
 24
10.0
 15
10.0
 25
10.0
 16
0.0
 26
0.0
 36
1.0
 17
0.0
 27
0.0
 37
0.0
 42
50.0
 43
0.0
 44
0.0
 45
8.992999745766947
 50
0.0
 51
0.0
 72
   100
 90
    32800
  1

281
     0
 71
     1
 74
     0
110
0.0
120
0.0
130
0.0
111
1.0
121
0.0
131
0.0
112
0.0
122
1.0
132
0.0
 79
     0
146
0.0
1001
GENIUS_GENOBJ-N-SDF_13
1002
{
1000
OWNER
1000
GEN
1002
}
1001
GENIUS_GENODEF_13
1002
{
1000
HIER
1070
     0
1002
}
1002
{
1000
MANEDIT
1070
     0
1002
}
1002
{
1000
NOSEL
1070
     0
1002
}
1002
{
1000
BEHIND
1070
     0
1002
}
1002
{
1000
OTHER
1070
     0
1002
}
1002
{
1000
REACTOR
1002
}
1001
GENIUS_GENSCREG_15
1000
PF
1040
1.0
1000
DF
1040
1.0
1000
MIN
1011
-2.037927354413371
1021
-0.4964999892767957
1031
0.0
1000
MAX
1011
12.5379266335257
1021
8.496499756490152
1031
0.0
1000
FLAGS
1070
     4
  0
ENDSEC
  0
SECTION
  2
OBJECTS
  0
DICTIONARY
  5
C
330
0
100
AcDbDictionary
281
     1
  3
ACAD_2007HEADERVARS_RT
350
1DFE
  3
ACAD_COLOR
350
C9
  3
ACAD_GROUP
350
D
  3
ACAD_LAYOUT
350
1A
  3
ACAD_MATERIAL
350
C8
  3
ACAD_MLEADERSTYLE
350
13D1
  3
ACAD_MLINESTYLE
350
17
  3
ACAD_PLOTSETTINGS
350
19
  3
ACAD_PLOTSTYLENAME
350
E
  3
ACAD_SCALELIST
350
13BF
  3
ACAD_TABLESTYLE
350
13BD
  3
ACAD_VISUALSTYLE
350
13AC
  3
ACDB_RECOMPOSE_DATA
350
1ABC
  3
AcDbVariableDictionary
350
9E
  3
AcmDictionary
350
63
  3
AcmSystemVariableManager
350
1E0D
  3
AMG
350
49
  3
AMGSNAPSETTINGS
350
234
  3
DWGPROPS
350
1DFD
  0
DICTIONARY
  5
1ABD
330
8
100
AcDbDictionary
280
     1
281
     1
  0
DICTIONARY
  5
2C1
330
2
100
AcDbDictionary
280
     1
281
     1
  3
ACAD_LAYERFILTERS
360
782
  3
ACAD_LAYERSTATES
360
2C2
  0
DICTIONARY
  5
1A0B
330
10
100
AcDbDictionary
280
     1
281
     1
  3
ADSK_XREC_LAYER_RECONCILED
360
1A0C
  0
DICTIONARY
  5
1A0D
330
1F0
100
AcDbDictionary
280
     1
281
     1
  3
ADSK_XREC_LAYER_RECONCILED
360
1A0E
  0
DICTIONARY
  5
1A0F
330
23E
100
AcDbDictionary
280
     1
281
     1
  3
ADSK_XREC_LAYER_RECONCILED
360
1A10
  0
DICTIONARY
  5
1A11
330
23F
100
AcDbDictionary
280
     1
281
     1
  3
ADSK_XREC_LAYER_RECONCILED
360
1A12
  0
DICTIONARY
  5
1A13
330
C81
100
AcDbDictionary
280
     1
281
     1
  3
ADSK_XREC_LAYER_RECONCILED
360
1A14
  0
DICTIONARY
  5
1A15
330
C82
100
AcDbDictionary
280
     1
281
     1
  3
ADSK_XREC_LAYER_RECONCILED
360
1A16
  0
DICTIONARY
  5
1A17
330
C84
100
AcDbDictionary
280
     1
281
     1
  3
ADSK_XREC_LAYER_RECONCILED
360
1A18
  0
DICTIONARY
  5
1A19
330
C85
100
AcDbDictionary
280
     1
281
     1
  3
ADSK_XREC_LAYER_RECONCILED
360
1A1A
  0
DICTIONARY
  5
1A1B
330
C86
100
AcDbDictionary
280
     1
281
     1
  3
ADSK_XREC_LAYER_RECONCILED
360
1A1C
  0
DICTIONARY
  5
1A1D
330
D94
100
AcDbDictionary
280
     1
281
     1
  3
ADSK_XREC_LAYER_RECONCILED
360
1A1E
  0
DICTIONARY
  5
1A1F
330
D95
100
AcDbDictionary
280
     1
281
     1
  3
ADSK_XREC_LAYER_RECONCILED
360
1A20
  0
DICTIONARY
  5
1A21
330
DED
100
AcDbDictionary
280
     1
281
     1
  3
ADSK_XREC_LAYER_RECONCILED
360
1A22
  0
DICTIONARY
  5
1A23
330
DEE
100
AcDbDictionary
280
     1
281
     1
  3
ADSK_XREC_LAYER_RECONCILED
360
1A24
  0
DICTIONARY
  5
1A25
330
E40
100
AcDbDictionary
280
     1
281
     1
  3
ADSK_XREC_LAYER_RECONCILED
360
1A26
  0
DICTIONARY
  5
1A27
330
E41
100
AcDbDictionary
280
     1
281
     1
  3
ADSK_XREC_LAYER_RECONCILED
360
1A28
  0
DICTIONARY
  5
99
330
1F
100
AcDbDictionary
280
     1
281
     1
  0
DICTIONARY
  5
22D
330
224
100
AcDbDictionary
280
     1
281
     1
  0
DICTIONARY
  5
297
330
242
100
AcDbDictionary
280
     1
281
     1
  0
DICTIONARY
  5
A15
330
A0D
100
AcDbDictionary
280
     1
281
     1
  0
DICTIONARY
  5
A79
330
A20
100
AcDbDictionary
280
     1
281
     1
  0
DICTIONARY
  5
AA9
330
AA1
100
AcDbDictionary
280
     1
281
     1
  0
DICTIONARY
  5
AF1
330
AE9
100
AcDbDictionary
280
     1
281
     1
  0
DICTIONARY
  5
B55
330
AFC
100
AcDbDictionary
280
     1
281
     1
  0
DICTIONARY
  5
EEA
330
ED8
100
AcDbDictionary
280
     1
281
     1
  0
DICTIONARY
  5
F0D
330
EFC
100
AcDbDictionary
280
     1
281
     1
  0
DICTIONARY
  5
F31
330
F1F
100
AcDbDictionary
280
     1
281
     1
  0
DICTIONARY
  5
F48
330
F38
100
AcDbDictionary
280
     1
281
     1
  0
DICTIONARY
  5
1E09
330
182
100
AcDbDictionary
280
     1
281
     1
  3
ACAD_XREC_ROUNDTRIP
360
1E0A
  0
DICTIONARY
  5
1E0B
330
186
100
AcDbDictionary
280
     1
281
     1
  3
ACAD_XREC_ROUNDTRIP
360
1E0C
  0
DICTIONARY
  5
1DFE
102
{ACAD_REACTORS
330
C
102
}
330
C
100
AcDbDictionary
281
     1
  3
DIMARCSYM
350
1DFF
  3
DIMLTEX1
350
1E01
  3
DIMLTEX2
350
1E02
  3
DIMLTYPE
350
1E00
  0
DICTIONARY
  5
C9
102
{ACAD_REACTORS
330
C
102
}
330
C
100
AcDbDictionary
281
     1
  0
DICTIONARY
  5
D
102
{ACAD_REACTORS
330
C
102
}
330
C
100
AcDbDictionary
281
     1
  0
DICTIONARY
  5
1A
102
{ACAD_REACTORS
330
C
102
}
330
C
100
AcDbDictionary
281
     1
  3
Model
350
22
  3
レイアウト1
350
1E
  3
レイアウト2
350
26
  0
DICTIONARY
  5
C8
102
{ACAD_REACTORS
330
C
102
}
330
C
100
AcDbDictionary
281
     1
  3
ByBlock
350
13A4
  3
ByLayer
350
139C
  3
Global
350
104B
  0
DICTIONARY
  5
13D1
102
{ACAD_REACTORS
330
C
102
}
330
C
100
AcDbDictionary
281
     1
  3
Standard
350
13D2
  0
DICTIONARY
  5
17
102
{ACAD_REACTORS
330
C
102
}
330
C
100
AcDbDictionary
281
     1
  3
Standard
350
18
  0
DICTIONARY
  5
19
102
{ACAD_REACTORS
330
C
102
}
330
C
100
AcDbDictionary
281
     1
  0
ACDBDICTIONARYWDFLT
  5
E
102
{ACAD_REACTORS
330
C
102
}
330
C
100
AcDbDictionary
281
     1
  3
Normal
350
F
100
AcDbDictionaryWithDefault
340
F
  0
DICTIONARY
  5
13BF
102
{ACAD_REACTORS
330
C
102
}
330
C
100
AcDbDictionary
281
     1
  3
A0
350
13C0
  3
A1
350
13C1
  3
A2
350
13C2
  3
A3
350
13C3
  3
A4
350
13C4
  3
A5
350
13C5
  3
A6
350
13C6
  3
A7
350
13C7
  3
A8
350
13C8
  3
A9
350
13C9
  3
B0
350
13CA
  3
B1
350
13CB
  3
B2
350
13CC
  3
B3
350
13CD
  3
B4
350
13CE
  3
B5
350
13CF
  3
B6
350
13D0
  0
DICTIONARY
  5
13BD
102
{ACAD_REACTORS
330
C
102
}
330
C
100
AcDbDictionary
281
     1
  3
Standard
350
13BE
  0
DICTIONARY
  5
13AC
102
{ACAD_REACTORS
330
C
102
}
330
C
100
AcDbDictionary
281
     1
  3
2dWireframe
350
13B2
  3
3D Hidden
350
13B4
  3
3dWireframe
350
13B3
  3
Basic
350
13B1
  3
Brighten
350
13B8
  3
ColorChange
350
13BC
  3
Conceptual
350
13B5
  3
Dim
350
13B7
  3
Facepattern
350
13BB
  3
Flat
350
13AD
  3
FlatWithEdges
350
13AE
  3
Gouraud
350
13AF
  3
GouraudWithEdges
350
13B0
  3
Linepattern
350
13BA
  3
Realistic
350
13B6
  3
Thicken
350
13B9
  0
XRECORD
  5
1ABC
102
{ACAD_REACTORS
330
C
102
}
330
C
100
AcDbXrecord
280
     1
 90
        1
330
13BE
  0
DICTIONARY
  5
9E
102
{ACAD_REACTORS
330
C
102
}
330
C
100
AcDbDictionary
281
     1
  3
CANNOSCALE
350
1AD8
  3
CMLEADERSTYLE
350
1AD7
  3
CTABLESTYLE
350
1AD6
  3
DIMASSOC
350
A0
  3
INDEXCTL
350
9F
  3
SORTENTS
350
1DFB
  0
DICTIONARY
  5
63
102
{ACAD_REACTORS
330
C
102
}
330
C
100
AcDbDictionary
281
     1
  3
AcmBOM
350
9A7
  3
AcmStdDictionary
350
69
  3
AMDTSECTSYM_ARROWCOLOR
350
13FB
  0
DICTIONARY
  5
49
102
{ACAD_REACTORS
330
C
102
}
330
C
100
AcDbDictionary
281
     1
  0
DICTIONARY
  5
234
102
{ACAD_REACTORS
330
C
102
}
330
C
100
AcDbDictionary
281
     1
  0
XRECORD
  5
1DFD
102
{ACAD_REACTORS
330
C
102
}
330
C
100
AcDbXrecord
280
     1
  1
DWGPROPS COOKIE
  2

  3

  4

  6

  7

  8
Administrator
  9

300
AmdtFileType=84
301
=
302
=
303
=
304
=
305
=
306
=
307
=
308
=
309
=
 40
0.0999542592592593
 41
2454550.58119375
 42
2455491.558296621
  1

 90
        1
  0
DICTIONARY
  5
782
102
{ACAD_REACTORS
330
2C1
102
}
330
2C1
100
AcDbDictionary
281
     1
  0
DICTIONARY
  5
2C2
102
{ACAD_REACTORS
330
2C1
102
}
330
2C1
100
AcDbDictionary
281
     1
  0
XRECORD
  5
1A0C
102
{ACAD_REACTORS
330
1A0B
102
}
330
1A0B
100
AcDbXrecord
280
     1
290
     1
  0
XRECORD
  5
1A0E
102
{ACAD_REACTORS
330
1A0D
102
}
330
1A0D
100
AcDbXrecord
280
     1
290
     1
  0
XRECORD
  5
1A10
102
{ACAD_REACTORS
330
1A0F
102
}
330
1A0F
100
AcDbXrecord
280
     1
290
     1
  0
XRECORD
  5
1A12
102
{ACAD_REACTORS
330
1A11
102
}
330
1A11
100
AcDbXrecord
280
     1
290
     1
  0
XRECORD
  5
1A14
102
{ACAD_REACTORS
330
1A13
102
}
330
1A13
100
AcDbXrecord
280
     1
290
     1
  0
XRECORD
  5
1A16
102
{ACAD_REACTORS
330
1A15
102
}
330
1A15
100
AcDbXrecord
280
     1
290
     1
  0
XRECORD
  5
1A18
102
{ACAD_REACTORS
330
1A17
102
}
330
1A17
100
AcDbXrecord
280
     1
290
     1
  0
XRECORD
  5
1A1A
102
{ACAD_REACTORS
330
1A19
102
}
330
1A19
100
AcDbXrecord
280
     1
290
     1
  0
XRECORD
  5
1A1C
102
{ACAD_REACTORS
330
1A1B
102
}
330
1A1B
100
AcDbXrecord
280
     1
290
     1
  0
XRECORD
  5
1A1E
102
{ACAD_REACTORS
330
1A1D
102
}
330
1A1D
100
AcDbXrecord
280
     1
290
     1
  0
XRECORD
  5
1A20
102
{ACAD_REACTORS
330
1A1F
102
}
330
1A1F
100
AcDbXrecord
280
     1
290
     1
  0
XRECORD
  5
1A22
102
{ACAD_REACTORS
330
1A21
102
}
330
1A21
100
AcDbXrecord
280
     1
290
     1
  0
XRECORD
  5
1A24
102
{ACAD_REACTORS
330
1A23
102
}
330
1A23
100
AcDbXrecord
280
     1
290
     1
  0
XRECORD
  5
1A26
102
{ACAD_REACTORS
330
1A25
102
}
330
1A25
100
AcDbXrecord
280
     1
290
     1
  0
XRECORD
  5
1A28
102
{ACAD_REACTORS
330
1A27
102
}
330
1A27
100
AcDbXrecord
280
     1
290
     1
  0
XRECORD
  5
1E0A
102
{ACAD_REACTORS
330
1E09
102
}
330
1E09
100
AcDbXrecord
280
     1
102
SHADEPLOT
 70
     0
  0
XRECORD
  5
1E0C
102
{ACAD_REACTORS
330
1E0B
102
}
330
1E0B
100
AcDbXrecord
280
     1
102
SHADEPLOT
 70
     0
  0
XRECORD
  5
1DFF
102
{ACAD_REACTORS
330
1DFE
102
}
330
1DFE
100
AcDbXrecord
280
     1
 70
     1
  0
XRECORD
  5
1E01
102
{ACAD_REACTORS
330
1DFE
102
}
330
1DFE
100
AcDbXrecord
280
     1
340
14
  0
XRECORD
  5
1E02
102
{ACAD_REACTORS
330
1DFE
102
}
330
1DFE
100
AcDbXrecord
280
     1
340
14
  0
XRECORD
  5
1E00
102
{ACAD_REACTORS
330
1DFE
102
}
330
1DFE
100
AcDbXrecord
280
     1
340
14
  0
LAYOUT
  5
22
102
{ACAD_XDICTIONARY
360
1E05
102
}
102
{ACAD_REACTORS
330
1A
102
}
330
1A
100
AcDbPlotSettings
  1

  2
RICOH IPSiO CX7200 RPCS
  4
A3
  6
AM_VIEW1
 40
5.873749732971191
 41
5.873747825622558
 42
5.873748779296875
 43
5.873748779296875
 44
296.9259948730469
 45
419.9466552734374
 46
2.589999999999999
 47
4.099999999999999
 48
10.00000000000003
 49
0.0
140
410.0
141
280.0
142
1.0
143
1.0
 70
 11956
 72
     1
 73
     1
 74
     4
  7
takachi-2.ctb
 75
    16
147
1.0
148
-10.00000000000003
149
0.0
100
AcDbLayout
  1
Model
 70
     1
 71
     0
 10
0.0
 20
0.0
 11
12.0
 21
9.0
 12
0.0
 22
0.0
 32
0.0
 14
0.0
 24
0.0
 34
0.0
 15
0.0
 25
0.0
 35
0.0
146
0.0
 13
0.0
 23
0.0
 33
0.0
 16
1.0
 26
0.0
 36
0.0
 17
0.0
 27
1.0
 37
0.0
 76
     0
330
1F
331
139A
  0
LAYOUT
  5
1E
102
{ACAD_XDICTIONARY
360
1E03
102
}
102
{ACAD_REACTORS
330
1A
102
}
330
1A
100
AcDbPlotSettings
  1

  2
none_device
  4
Letter_(8.50_x_11.00_Inches)
  6

 40
6.349999904632568
 41
6.349999904632568
 42
6.350006103515625
 43
6.350006103515625
 44
215.8999938964844
 45
279.3999938964844
 46
0.0
 47
0.0
 48
0.0
 49
0.0
140
0.0
141
0.0
142
1.0
143
1.0
 70
   688
 72
     0
 73
     1
 74
     5
  7
takachi-2.ctb
 75
    16
147
1.0
148
0.0
149
0.0
100
AcDbLayout
  1
レイアウト1
 70
     1
 71
     1
 10
-0.2500002402958907
 20
-0.2499999962453767
 11
10.74999951940821
 21
8.249999763458731
 12
0.0
 22
0.0
 32
0.0
 14
1.000000000000000E+20
 24
1.000000000000000E+20
 34
1.000000000000000E+20
 15
-1.000000000000000E+20
 25
-1.000000000000000E+20
 35
-1.000000000000000E+20
146
0.0
 13
0.0
 23
0.0
 33
0.0
 16
1.0
 26
0.0
 36
0.0
 17
0.0
 27
1.0
 37
0.0
 76
     0
330
1B
331
182
  0
LAYOUT
  5
26
102
{ACAD_XDICTIONARY
360
1E07
102
}
102
{ACAD_REACTORS
330
1A
102
}
330
1A
100
AcDbPlotSettings
  1

  2
none_device
  4
Letter_(8.50_x_11.00_Inches)
  6

 40
6.349999904632568
 41
6.349999904632568
 42
6.350006103515625
 43
6.350006103515625
 44
215.8999938964844
 45
279.3999938964844
 46
0.0
 47
0.0
 48
0.0
 49
0.0
140
0.0
141
0.0
142
1.0
143
1.0
 70
   688
 72
     0
 73
     1
 74
     5
  7
takachi-2.ctb
 75
    16
147
1.0
148
0.0
149
0.0
100
AcDbLayout
  1
レイアウト2
 70
     1
 71
     2
 10
-0.2500002402958907
 20
-0.2499999962453767
 11
10.74999951940821
 21
8.249999763458731
 12
0.0
 22
0.0
 32
0.0
 14
1.000000000000000E+20
 24
1.000000000000000E+20
 34
1.000000000000000E+20
 15
-1.000000000000000E+20
 25
-1.000000000000000E+20
 35
-1.000000000000000E+20
146
0.0
 13
0.0
 23
0.0
 33
0.0
 16
1.0
 26
0.0
 36
0.0
 17
0.0
 27
1.0
 37
0.0
 76
     0
330
23
331
186
  0
MATERIAL
  5
13A4
102
{ACAD_XDICTIONARY
360
13A5
102
}
102
{ACAD_REACTORS
330
C8
102
}
330
C8
100
AcDbMaterial
  1
ByBlock
 72
     0
 43
0.0008202099737533
 43
0.0
 43
0.0
 43
0.0
 43
0.0
 43
0.0008202099737533
 43
0.0
 43
0.0
 43
0.0
 43
0.0
 43
1.0
 43
0.0
 43
0.0
 43
0.0
 43
0.0
 43
1.0
 77
     0
 47
0.0008202099737533
 47
0.0
 47
0.0
 47
0.0
 47
0.0
 47
0.0008202099737533
 47
0.0
 47
0.0
 47
0.0
 47
0.0
 47
1.0
 47
0.0
 47
0.0
 47
0.0
 47
0.0
 47
1.0
171
     0
 49
0.0008202099737533
 49
0.0
 49
0.0
 49
0.0
 49
0.0
 49
0.0008202099737533
 49
0.0
 49
0.0
 49
0.0
 49
0.0
 49
1.0
 49
0.0
 49
0.0
 49
0.0
 49
0.0
 49
1.0
175
     0
142
0.0008202099737533
142
0.0
142
0.0
142
0.0
142
0.0
142
0.0008202099737533
142
0.0
142
0.0
142
0.0
142
0.0
142
1.0
142
0.0
142
0.0
142
0.0
142
0.0
142
1.0
179
     0
144
0.0008202099737533
144
0.0
144
0.0
144
0.0
144
0.0
144
0.0008202099737533
144
0.0
144
0.0
144
0.0
144
0.0
144
1.0
144
0.0
144
0.0
144
0.0
144
0.0
144
1.0
147
0.0008202099737533
147
0.0
147
0.0
147
0.0
147
0.0
147
0.0008202099737533
147
0.0
147
0.0
147
0.0
147
0.0
147
1.0
147
0.0
147
0.0
147
0.0
147
0.0
147
1.0
  0
MATERIAL
  5
139C
102
{ACAD_XDICTIONARY
360
139D
102
}
102
{ACAD_REACTORS
330
C8
102
}
330
C8
100
AcDbMaterial
  1
ByLayer
 72
     0
 43
0.0008202099737533
 43
0.0
 43
0.0
 43
0.0
 43
0.0
 43
0.0008202099737533
 43
0.0
 43
0.0
 43
0.0
 43
0.0
 43
1.0
 43
0.0
 43
0.0
 43
0.0
 43
0.0
 43
1.0
 77
     0
 47
0.0008202099737533
 47
0.0
 47
0.0
 47
0.0
 47
0.0
 47
0.0008202099737533
 47
0.0
 47
0.0
 47
0.0
 47
0.0
 47
1.0
 47
0.0
 47
0.0
 47
0.0
 47
0.0
 47
1.0
171
     0
 49
0.0008202099737533
 49
0.0
 49
0.0
 49
0.0
 49
0.0
 49
0.0008202099737533
 49
0.0
 49
0.0
 49
0.0
 49
0.0
 49
1.0
 49
0.0
 49
0.0
 49
0.0
 49
0.0
 49
1.0
175
     0
142
0.0008202099737533
142
0.0
142
0.0
142
0.0
142
0.0
142
0.0008202099737533
142
0.0
142
0.0
142
0.0
142
0.0
142
1.0
142
0.0
142
0.0
142
0.0
142
0.0
142
1.0
179
     0
144
0.0008202099737533
144
0.0
144
0.0
144
0.0
144
0.0
144
0.0008202099737533
144
0.0
144
0.0
144
0.0
144
0.0
144
1.0
144
0.0
144
0.0
144
0.0
144
0.0
144
1.0
147
0.0008202099737533
147
0.0
147
0.0
147
0.0
147
0.0
147
0.0008202099737533
147
0.0
147
0.0
147
0.0
147
0.0
147
1.0
147
0.0
147
0.0
147
0.0
147
0.0
147
1.0
  0
MATERIAL
  5
104B
102
{ACAD_XDICTIONARY
360
1E0F
102
}
102
{ACAD_REACTORS
330
C8
102
}
330
C8
100
AcDbMaterial
  1
Global
 73
     1
 78
     1
172
     1
176
     1
270
     1
274
     1
  0
MLEADERSTYLE
  5
13D2
102
{ACAD_REACTORS
330
13D1
102
}
330
13D1
100
AcDbMLeaderStyle
170
     2
171
     1
172
     0
 90
        2
 40
0.0
 41
0.0
173
     1
 91
-1056964608
340
14
 92
       -2
290
     1
 42
2.0
291
     1
 43
0.36
  3
Standard
 44
4.0
300

342
11
174
     1
178
     6
175
     1
176
     0
 93
-1056964608
 45
4.0
292
     0
297
     0
 46
4.0
 94
-1056964608
 47
1.0
 49
1.0
140
1.0
293
     1
141
0.0
294
     1
177
     0
142
1.0
295
     0
296
     0
143
0.125
1001
ACAD_MLEADERVER
1070
     2
  0
MLINESTYLE
  5
18
102
{ACAD_REACTORS
330
17
102
}
330
17
100
AcDbMlineStyle
  2
STANDARD
 70
     0
  3

 62
   256
 51
90.0
 52
90.0
 71
     2
 49
0.5
 62
   256
  6
BYLAYER
 49
-0.5
 62
   256
  6
BYLAYER
  0
ACDBPLACEHOLDER
  5
F
102
{ACAD_REACTORS
330
E
102
}
330
E
  0
SCALE
  5
13C0
102
{ACAD_REACTORS
330
13BF
102
}
330
13BF
100
AcDbScale
 70
     0
300
1:1
140
1.0
141
1.0
290
     1
  0
SCALE
  5
13C1
102
{ACAD_REACTORS
330
13BF
102
}
330
13BF
100
AcDbScale
 70
     0
300
1:2
140
1.0
141
2.0
290
     0
  0
SCALE
  5
13C2
102
{ACAD_REACTORS
330
13BF
102
}
330
13BF
100
AcDbScale
 70
     0
300
1:4
140
1.0
141
4.0
290
     0
  0
SCALE
  5
13C3
102
{ACAD_REACTORS
330
13BF
102
}
330
13BF
100
AcDbScale
 70
     0
300
1:5
140
1.0
141
5.0
290
     0
  0
SCALE
  5
13C4
102
{ACAD_REACTORS
330
13BF
102
}
330
13BF
100
AcDbScale
 70
     0
300
1:8
140
1.0
141
8.0
290
     0
  0
SCALE
  5
13C5
102
{ACAD_REACTORS
330
13BF
102
}
330
13BF
100
AcDbScale
 70
     0
300
1:10
140
1.0
141
10.0
290
     0
  0
SCALE
  5
13C6
102
{ACAD_REACTORS
330
13BF
102
}
330
13BF
100
AcDbScale
 70
     0
300
1:16
140
1.0
141
16.0
290
     0
  0
SCALE
  5
13C7
102
{ACAD_REACTORS
330
13BF
102
}
330
13BF
100
AcDbScale
 70
     0
300
1:20
140
1.0
141
20.0
290
     0
  0
SCALE
  5
13C8
102
{ACAD_REACTORS
330
13BF
102
}
330
13BF
100
AcDbScale
 70
     0
300
1:30
140
1.0
141
30.0
290
     0
  0
SCALE
  5
13C9
102
{ACAD_REACTORS
330
13BF
102
}
330
13BF
100
AcDbScale
 70
     0
300
1:40
140
1.0
141
40.0
290
     0
  0
SCALE
  5
13CA
102
{ACAD_REACTORS
330
13BF
102
}
330
13BF
100
AcDbScale
 70
     0
300
1:50
140
1.0
141
50.0
290
     0
  0
SCALE
  5
13CB
102
{ACAD_REACTORS
330
13BF
102
}
330
13BF
100
AcDbScale
 70
     0
300
1:100
140
1.0
141
100.0
290
     0
  0
SCALE
  5
13CC
102
{ACAD_REACTORS
330
13BF
102
}
330
13BF
100
AcDbScale
 70
     0
300
2:1
140
2.0
141
1.0
290
     0
  0
SCALE
  5
13CD
102
{ACAD_REACTORS
330
13BF
102
}
330
13BF
100
AcDbScale
 70
     0
300
4:1
140
4.0
141
1.0
290
     0
  0
SCALE
  5
13CE
102
{ACAD_REACTORS
330
13BF
102
}
330
13BF
100
AcDbScale
 70
     0
300
8:1
140
8.0
141
1.0
290
     0
  0
SCALE
  5
13CF
102
{ACAD_REACTORS
330
13BF
102
}
330
13BF
100
AcDbScale
 70
     0
300
10:1
140
10.0
141
1.0
290
     0
  0
SCALE
  5
13D0
102
{ACAD_REACTORS
330
13BF
102
}
330
13BF
100
AcDbScale
 70
     0
300
100:1
140
100.0
141
1.0
290
     0
  0
TABLESTYLE
  5
13BE
102
{ACAD_XDICTIONARY
360
1ABA
102
}
102
{ACAD_REACTORS
330
13BD
102
}
330
13BD
100
AcDbTableStyle
  3
Standard
 70
     0
 71
     0
 40
1.5
 41
1.5
280
     0
281
     0
  7
STANDARD
140
4.5
170
     2
 62
     0
 63
     7
283
     0
274
    -2
284
     1
 64
     0
275
    -2
285
     1
 65
     0
276
    -2
286
     1
 66
     0
277
    -2
287
     1
 67
     0
278
    -2
288
     1
 68
     0
279
    -2
289
     1
 69
     0
  7
STANDARD
140
6.0
170
     5
 62
     0
 63
     7
283
     0
274
    -2
284
     1
 64
     0
275
    -2
285
     1
 65
     0
276
    -2
286
     1
 66
     0
277
    -2
287
     1
 67
     0
278
    -2
288
     1
 68
     0
279
    -2
289
     1
 69
     0
  7
STANDARD
140
4.5
170
     5
 62
     0
 63
     7
283
     0
274
    -2
284
     1
 64
     0
275
    -2
285
     1
 65
     0
276
    -2
286
     1
 66
     0
277
    -2
287
     1
 67
     0
278
    -2
288
     1
 68
     0
279
    -2
289
     1
 69
     0
  0
VISUALSTYLE
  5
13B2
102
{ACAD_REACTORS
330
13AC
102
}
330
13AC
100
AcDbVisualStyle
  2
2dWireframe
 70
     4
 71
     0
 72
     2
 73
     0
 90
        0
 40
-0.6
 41
-30.0
 62
     5
 63
     7
 74
     1
 91
        4
 64
     7
 65
   257
 75
     1
175
     1
 42
1.0
 92
        0
 66
   257
 43
1.0
 76
     1
 77
     6
 78
     2
 67
     7
 79
     5
170
     0
171
     0
290
     0
174
     0
 93
        1
 44
0.0
173
     0
291
     0
 45
0.0
1001
ACAD
1000
AcDbSavedByObjectVersion
1070
     0
  0
VISUALSTYLE
  5
13B4
102
{ACAD_REACTORS
330
13AC
102
}
330
13AC
100
AcDbVisualStyle
  2
3D Hidden
 70
     6
 71
     1
 72
     2
 73
     2
 90
        0
 40
-0.6
 41
-30.0
 62
     5
 63
     7
 74
     2
 91
        2
 64
     7
 65
   257
 75
     2
175
     1
 42
40.0
 92
        0
 66
   257
 43
1.0
 76
     1
 77
     6
 78
     2
 67
     7
 79
     3
170
     0
171
     0
290
     0
174
     0
 93
        1
 44
0.0
173
     0
291
     0
 45
0.0
1001
ACAD
1000
AcDbSavedByObjectVersion
1070
     0
  0
VISUALSTYLE
  5
13B3
102
{ACAD_REACTORS
330
13AC
102
}
330
13AC
100
AcDbVisualStyle
  2
3dWireframe
 70
     5
 71
     0
 72
     2
 73
     0
 90
        0
 40
-0.6
 41
-30.0
 62
     5
 63
     7
 74
     1
 91
        4
 64
     7
 65
   257
 75
     1
175
     1
 42
1.0
 92
        0
 66
   257
 43
1.0
 76
     1
 77
     6
 78
     2
 67
     7
 79
     5
170
     0
171
     0
290
     0
174
     0
 93
        1
 44
0.0
173
     0
291
     0
 45
0.0
1001
ACAD
1000
AcDbSavedByObjectVersion
1070
     0
  0
VISUALSTYLE
  5
13B1
102
{ACAD_REACTORS
330
13AC
102
}
330
13AC
100
AcDbVisualStyle
  2
Basic
 70
     7
 71
     1
 72
     0
 73
     1
 90
        0
 40
-0.6
 41
-30.0
 62
     5
 63
     7
 74
     0
 91
        4
 64
     7
 65
   257
 75
     1
175
     1
 42
1.0
 92
        8
 66
     7
 43
1.0
 76
     1
 77
     6
 78
     2
 67
     7
 79
     5
170
     0
171
     0
290
     0
174
     0
 93
        1
 44
0.0
173
     0
291
     1
 45
0.0
1001
ACAD
1000
AcDbSavedByObjectVersion
1070
     0
  0
VISUALSTYLE
  5
13B8
102
{ACAD_REACTORS
330
13AC
102
}
330
13AC
100
AcDbVisualStyle
  2
Brighten
 70
    12
 71
     2
 72
     2
 73
     0
 90
        0
 40
-0.6
 41
-30.0
 62
     5
 63
     7
 74
     1
 91
        4
 64
     7
 65
   257
 75
     1
175
     1
 42
1.0
 92
        8
 66
     7
 43
1.0
 76
     1
 77
     6
 78
     2
 67
     7
 79
     5
170
     0
171
     0
290
     0
174
     0
 93
        1
 44
50.0
173
     0
291
     1
 45
0.0
1001
ACAD
1000
AcDbSavedByObjectVersion
1070
     0
  0
VISUALSTYLE
  5
13BC
102
{ACAD_REACTORS
330
13AC
102
}
330
13AC
100
AcDbVisualStyle
  2
ColorChange
 70
    16
 71
     2
 72
     2
 73
     3
 90
        0
 40
-0.6
 41
-30.0
 62
     5
 63
     8
 74
     1
 91
        4
 64
     7
 65
   257
 75
     1
175
     1
 42
1.0
 92
        8
 66
     8
 43
1.0
 76
     1
 77
     6
 78
     2
 67
     7
 79
     5
170
     0
171
     0
290
     0
174
     0
 93
        1
 44
0.0
173
     0
291
     1
 45
0.0
1001
ACAD
1000
AcDbSavedByObjectVersion
1070
     0
  0
VISUALSTYLE
  5
13B5
102
{ACAD_REACTORS
330
13AC
102
}
330
13AC
100
AcDbVisualStyle
  2
Conceptual
 70
     9
 71
     3
 72
     2
 73
     0
 90
        0
 40
-0.6
 41
-30.0
 62
     5
 63
     7
 74
     2
 91
        2
 64
     7
 65
   257
 75
     1
175
     1
 42
40.0
 92
        8
 66
     7
 43
1.0
 76
     1
 77
     6
 78
     2
 67
     7
 79
     3
170
     0
171
     0
290
     0
174
     0
 93
        1
 44
0.0
173
     0
291
     0
 45
0.0
1001
ACAD
1000
AcDbSavedByObjectVersion
1070
     0
  0
VISUALSTYLE
  5
13B7
102
{ACAD_REACTORS
330
13AC
102
}
330
13AC
100
AcDbVisualStyle
  2
Dim
 70
    11
 71
     2
 72
     2
 73
     0
 90
        0
 40
-0.6
 41
-30.0
 62
     5
 63
     7
 74
     1
 91
        4
 64
     7
 65
   257
 75
     1
175
     1
 42
1.0
 92
        8
 66
     7
 43
1.0
 76
     1
 77
     6
 78
     2
 67
     7
 79
     5
170
     0
171
     0
290
     0
174
     0
 93
        1
 44
-50.0
173
     0
291
     1
 45
0.0
1001
ACAD
1000
AcDbSavedByObjectVersion
1070
     0
  0
VISUALSTYLE
  5
13BB
102
{ACAD_REACTORS
330
13AC
102
}
330
13AC
100
AcDbVisualStyle
  2
Facepattern
 70
    15
 71
     2
 72
     2
 73
     0
 90
        0
 40
-0.6
 41
-30.0
 62
     5
 63
     7
 74
     1
 91
        4
 64
     7
 65
   257
 75
     1
175
     1
 42
1.0
 92
        8
 66
     7
 43
1.0
 76
     1
 77
     6
 78
     2
 67
     7
 79
     5
170
     0
171
     0
290
     0
174
     0
 93
        1
 44
0.0
173
     0
291
     1
 45
0.0
1001
ACAD
1000
AcDbSavedByObjectVersion
1070
     0
  0
VISUALSTYLE
  5
13AD
102
{ACAD_REACTORS
330
13AC
102
}
330
13AC
100
AcDbVisualStyle
  2
Flat
 70
     0
 71
     2
 72
     1
 73
     1
 90
        2
 40
-0.6
 41
30.0
 62
     5
 63
     7
 74
     0
 91
        4
 64
     7
 65
   257
 75
     1
175
     1
 42
1.0
 92
        8
 66
     7
 43
1.0
 76
     1
 77
     6
 78
     2
 67
     7
 79
     5
170
     0
171
     0
290
     0
174
     0
 93
       13
 44
0.0
173
     0
291
     1
 45
0.0
1001
ACAD
1000
AcDbSavedByObjectVersion
1070
     0
  0
VISUALSTYLE
  5
13AE
102
{ACAD_REACTORS
330
13AC
102
}
330
13AC
100
AcDbVisualStyle
  2
FlatWithEdges
 70
     1
 71
     2
 72
     1
 73
     1
 90
        2
 40
-0.6
 41
30.0
 62
     5
 63
     7
 74
     1
 91
        4
 64
     7
 65
   257
 75
     1
175
     1
 42
1.0
 92
        0
 66
   257
 43
1.0
 76
     1
 77
     6
 78
     2
 67
     7
 79
     5
170
     0
171
     0
290
     0
174
     0
 93
       13
 44
0.0
173
     0
291
     1
 45
0.0
1001
ACAD
1000
AcDbSavedByObjectVersion
1070
     0
  0
VISUALSTYLE
  5
13AF
102
{ACAD_REACTORS
330
13AC
102
}
330
13AC
100
AcDbVisualStyle
  2
Gouraud
 70
     2
 71
     2
 72
     2
 73
     1
 90
        2
 40
-0.6
 41
30.0
 62
     5
 63
     7
 74
     0
 91
        4
 64
     7
 65
   257
 75
     1
175
     1
 42
1.0
 92
        0
 66
     7
 43
1.0
 76
     1
 77
     6
 78
     2
 67
     7
 79
     5
170
     0
171
     0
290
     0
174
     0
 93
       13
 44
0.0
173
     0
291
     1
 45
0.0
1001
ACAD
1000
AcDbSavedByObjectVersion
1070
     0
  0
VISUALSTYLE
  5
13B0
102
{ACAD_REACTORS
330
13AC
102
}
330
13AC
100
AcDbVisualStyle
  2
GouraudWithEdges
 70
     3
 71
     2
 72
     2
 73
     1
 90
        2
 40
-0.6
 41
30.0
 62
     5
 63
     7
 74
     1
 91
        4
 64
     7
 65
   257
 75
     1
175
     1
 42
1.0
 92
        0
 66
   257
 43
1.0
 76
     1
 77
     6
 78
     2
 67
     7
 79
     5
170
     0
171
     0
290
     0
174
     0
 93
       13
 44
0.0
173
     0
291
     1
 45
0.0
1001
ACAD
1000
AcDbSavedByObjectVersion
1070
     0
  0
VISUALSTYLE
  5
13BA
102
{ACAD_REACTORS
330
13AC
102
}
330
13AC
100
AcDbVisualStyle
  2
Linepattern
 70
    14
 71
     2
 72
     2
 73
     0
 90
        0
 40
-0.6
 41
-30.0
 62
     5
 63
     7
 74
     1
 91
        4
 64
     7
 65
   257
 75
     7
175
     7
 42
1.0
 92
        8
 66
     7
 43
1.0
 76
     1
 77
     6
 78
     2
 67
     7
 79
     5
170
     0
171
     0
290
     0
174
     0
 93
        1
 44
0.0
173
     0
291
     1
 45
0.0
1001
ACAD
1000
AcDbSavedByObjectVersion
1070
     0
  0
VISUALSTYLE
  5
13B6
102
{ACAD_REACTORS
330
13AC
102
}
330
13AC
100
AcDbVisualStyle
  2
Realistic
 70
     8
 71
     2
 72
     2
 73
     0
 90
        0
 40
-0.6
 41
-30.0
 62
     5
 63
     7
 74
     1
 91
        0
 64
     7
 65
   257
 75
     1
175
     1
 42
1.0
 92
        8
 66
     8
 43
1.0
 76
     1
 77
     6
 78
     2
 67
     7
 79
     5
170
     0
171
     0
290
     0
174
     0
 93
       13
 44
0.0
173
     0
291
     0
 45
0.0
1001
ACAD
1000
AcDbSavedByObjectVersion
1070
     0
  0
VISUALSTYLE
  5
13B9
102
{ACAD_REACTORS
330
13AC
102
}
330
13AC
100
AcDbVisualStyle
  2
Thicken
 70
    13
 71
     2
 72
     2
 73
     0
 90
        0
 40
-0.6
 41
-30.0
 62
     5
 63
     7
 74
     1
 91
        4
 64
     7
 65
   257
 75
     1
175
     1
 42
1.0
 92
       12
 66
     7
 43
1.0
 76
     1
 77
     6
 78
     2
 67
     7
 79
     5
170
     0
171
     0
290
     0
174
     0
 93
        1
 44
0.0
173
     0
291
     1
 45
0.0
1001
ACAD
1000
AcDbSavedByObjectVersion
1070
     0
  0
DICTIONARYVAR
  5
1AD8
102
{ACAD_REACTORS
330
9E
102
}
330
9E
100
DictionaryVariables
280
     0
  1
1:1
  0
DICTIONARYVAR
  5
1AD7
102
{ACAD_REACTORS
330
9E
102
}
330
9E
100
DictionaryVariables
280
     0
  1
STANDARD
  0
DICTIONARYVAR
  5
1AD6
102
{ACAD_REACTORS
330
9E
102
}
330
9E
100
DictionaryVariables
280
     0
  1
STANDARD
  0
DICTIONARYVAR
  5
A0
102
{ACAD_REACTORS
330
9E
102
}
330
9E
100
DictionaryVariables
280
     0
  1
1
  0
DICTIONARYVAR
  5
9F
102
{ACAD_REACTORS
330
9E
102
}
330
9E
100
DictionaryVariables
280
     0
  1
0
  0
DICTIONARYVAR
  5
1DFB
102
{ACAD_REACTORS
330
9E
102
}
330
9E
100
DictionaryVariables
280
     0
  1
127
  0
DICTIONARY
  5
9A7
102
{ACAD_REACTORS
330
63
102
}
330
63
100
AcDbDictionary
281
     1
  0
DICTIONARY
  5
69
102
{ACAD_REACTORS
330
63
102
}
330
63
100
AcDbDictionary
281
     1
  0
XRECORD
  5
13FB
102
{ACAD_REACTORS
330
63
102
}
330
63
100
AcDbXrecord
280
     1
 90
-1023410169
  0
DICTIONARY
  5
1E05
330
22
100
AcDbDictionary
280
     1
281
     1
  3
ACAD_XREC_ROUNDTRIP
360
1E06
  0
DICTIONARY
  5
1E03
330
1E
100
AcDbDictionary
280
     1
281
     1
  3
ACAD_XREC_ROUNDTRIP
360
1E04
  0
DICTIONARY
  5
1E07
330
26
100
AcDbDictionary
280
     1
281
     1
  3
ACAD_XREC_ROUNDTRIP
360
1E08
  0
DICTIONARY
  5
13A5
330
13A4
100
AcDbDictionary
280
     1
281
     1
  3
ACAD_XREC_ROUNDTRIP
360
1E12
  3
BUMPTILE
360
13A7
  3
DIFFUSETILE
360
13A6
  3
OPACITYTILE
360
13AA
  3
REFLECTIONTILE
360
13A9
  3
REFRACTIONTILE
360
13AB
  3
SPECULARTILE
360
13A8
  0
DICTIONARY
  5
139D
330
139C
100
AcDbDictionary
280
     1
281
     1
  3
ACAD_XREC_ROUNDTRIP
360
1E11
  3
BUMPTILE
360
139F
  3
DIFFUSETILE
360
139E
  3
OPACITYTILE
360
13A2
  3
REFLECTIONTILE
360
13A1
  3
REFRACTIONTILE
360
13A3
  3
SPECULARTILE
360
13A0
  0
DICTIONARY
  5
1E0F
330
104B
100
AcDbDictionary
280
     1
281
     1
  3
ACAD_XREC_ROUNDTRIP
360
1E10
  0
DICTIONARY
  5
1ABA
330
13BE
100
AcDbDictionary
280
     1
281
     1
  3
ACAD_ROUNDTRIP_2008_TABLESTYLE_CELLSTYLEMAP
360
1DFC
  3
ACAD_XREC_ROUNDTRIP
360
1E13
  0
XRECORD
  5
1E06
102
{ACAD_REACTORS
330
1E05
102
}
330
1E05
100
AcDbXrecord
280
     1
102
SHADEPLOT
 70
     0
102
SHADEPLOTRESLEVEL
 70
     2
102
SHADEPLOTCUSTOMDPI
 70
   300
  0
XRECORD
  5
1E04
102
{ACAD_REACTORS
330
1E03
102
}
330
1E03
100
AcDbXrecord
280
     1
102
SHADEPLOT
 70
     1
102
SHADEPLOTRESLEVEL
 70
     2
102
SHADEPLOTCUSTOMDPI
 70
   300
  0
XRECORD
  5
1E08
102
{ACAD_REACTORS
330
1E07
102
}
330
1E07
100
AcDbXrecord
280
     1
102
SHADEPLOT
 70
     1
102
SHADEPLOTRESLEVEL
 70
     2
102
SHADEPLOTCUSTOMDPI
 70
   300
  0
XRECORD
  5
1E12
102
{ACAD_REACTORS
330
13A5
102
}
330
13A5
100
AcDbXrecord
280
     1
102
MATERIAL
148
0.0
149
0.0
149
0.0
 93
        0
 94
      127
282
     0
 72
     0
 77
     0
171
     0
175
     0
179
     0
273
     0
  0
XRECORD
  5
13A7
102
{ACAD_REACTORS
330
13A5
102
}
330
13A5
100
AcDbXrecord
280
     1
270
     1
271
     1
  0
XRECORD
  5
13A6
102
{ACAD_REACTORS
330
13A5
102
}
330
13A5
100
AcDbXrecord
280
     1
270
     1
271
     1
  0
XRECORD
  5
13AA
102
{ACAD_REACTORS
330
13A5
102
}
330
13A5
100
AcDbXrecord
280
     1
270
     1
271
     1
  0
XRECORD
  5
13A9
102
{ACAD_REACTORS
330
13A5
102
}
330
13A5
100
AcDbXrecord
280
     1
270
     1
271
     1
  0
XRECORD
  5
13AB
102
{ACAD_REACTORS
330
13A5
102
}
330
13A5
100
AcDbXrecord
280
     1
270
     1
271
     1
  0
XRECORD
  5
13A8
102
{ACAD_REACTORS
330
13A5
102
}
330
13A5
100
AcDbXrecord
280
     1
270
     1
271
     1
  0
XRECORD
  5
1E11
102
{ACAD_REACTORS
330
139D
102
}
330
139D
100
AcDbXrecord
280
     1
102
MATERIAL
148
0.0
149
0.0
149
0.0
 93
        0
 94
      127
282
     0
 72
     0
 77
     0
171
     0
175
     0
179
     0
273
     0
  0
XRECORD
  5
139F
102
{ACAD_REACTORS
330
139D
102
}
330
139D
100
AcDbXrecord
280
     1
270
     1
271
     1
  0
XRECORD
  5
139E
102
{ACAD_REACTORS
330
139D
102
}
330
139D
100
AcDbXrecord
280
     1
270
     1
271
     1
  0
XRECORD
  5
13A2
102
{ACAD_REACTORS
330
139D
102
}
330
139D
100
AcDbXrecord
280
     1
270
     1
271
     1
  0
XRECORD
  5
13A1
102
{ACAD_REACTORS
330
139D
102
}
330
139D
100
AcDbXrecord
280
     1
270
     1
271
     1
  0
XRECORD
  5
13A3
102
{ACAD_REACTORS
330
139D
102
}
330
139D
100
AcDbXrecord
280
     1
270
     1
271
     1
  0
XRECORD
  5
13A0
102
{ACAD_REACTORS
330
139D
102
}
330
139D
100
AcDbXrecord
280
     1
270
     1
271
     1
  0
XRECORD
  5
1E10
102
{ACAD_REACTORS
330
1E0F
102
}
330
1E0F
100
AcDbXrecord
280
     1
102
MATERIAL
148
0.0
149
0.0
149
0.0
 93
        0
 94
       63
282
     0
 72
     1
 77
     1
171
     1
175
     1
179
     1
273
     0
  0
CELLSTYLEMAP
  5
1DFC
102
{ACAD_REACTORS
330
1ABA
102
}
330
1ABA
100
AcDbCellStyleMap
 90
        3
300
CELLSTYLE
  1
TABLEFORMAT_BEGIN
 90
        5
170
     1
 91
        0
 92
    32768
 62
   257
 93
        1
300
CONTENTFORMAT
  1
CONTENTFORMAT_BEGIN
 90
        0
 91
        0
 92
      512
 93
        0
300

 40
0.0
140
1.0
 94
        5
 62
     0
340
11
144
6.0
309
CONTENTFORMAT_END
171
     1
301
MARGIN
  1
CELLMARGIN_BEGIN
 40
1.5
 40
1.5
 40
1.5
 40
1.5
 40
4.5
 40
4.5
309
CELLMARGIN_END
 94
        6
 95
        1
302
GRIDFORMAT
  1
GRIDFORMAT_BEGIN
 90
        0
 91
        1
 62
     0
 92
       -2
340
0
 93
        0
 40
1.125
309
GRIDFORMAT_END
 95
        2
302
GRIDFORMAT
  1
GRIDFORMAT_BEGIN
 90
        0
 91
        1
 62
     0
 92
       -2
340
0
 93
        0
 40
1.125
309
GRIDFORMAT_END
 95
        4
302
GRIDFORMAT
  1
GRIDFORMAT_BEGIN
 90
        0
 91
        1
 62
     0
 92
       -2
340
0
 93
        0
 40
1.125
309
GRIDFORMAT_END
 95
        8
302
GRIDFORMAT
  1
GRIDFORMAT_BEGIN
 90
        0
 91
        1
 62
     0
 92
       -2
340
0
 93
        0
 40
1.125
309
GRIDFORMAT_END
 95
       16
302
GRIDFORMAT
  1
GRIDFORMAT_BEGIN
 90
        0
 91
        1
 62
     0
 92
       -2
340
0
 93
        0
 40
1.125
309
GRIDFORMAT_END
 95
       32
302
GRIDFORMAT
  1
GRIDFORMAT_BEGIN
 90
        0
 91
        1
 62
     0
 92
       -2
340
0
 93
        0
 40
1.125
309
GRIDFORMAT_END
309
TABLEFORMAT_END
  1
CELLSTYLE_BEGIN
 90
        1
 91
        1
300
_TITLE
309
CELLSTYLE_END
300
CELLSTYLE
  1
TABLEFORMAT_BEGIN
 90
        5
170
     1
 91
        0
 92
        0
 62
   257
 93
        1
300
CONTENTFORMAT
  1
CONTENTFORMAT_BEGIN
 90
        0
 91
        0
 92
      512
 93
        0
300

 40
0.0
140
1.0
 94
        5
 62
     0
340
11
144
4.5
309
CONTENTFORMAT_END
171
     1
301
MARGIN
  1
CELLMARGIN_BEGIN
 40
1.5
 40
1.5
 40
1.5
 40
1.5
 40
4.5
 40
4.5
309
CELLMARGIN_END
 94
        6
 95
        1
302
GRIDFORMAT
  1
GRIDFORMAT_BEGIN
 90
        0
 91
        1
 62
     0
 92
       -2
340
0
 93
        0
 40
1.125
309
GRIDFORMAT_END
 95
        2
302
GRIDFORMAT
  1
GRIDFORMAT_BEGIN
 90
        0
 91
        1
 62
     0
 92
       -2
340
0
 93
        0
 40
1.125
309
GRIDFORMAT_END
 95
        4
302
GRIDFORMAT
  1
GRIDFORMAT_BEGIN
 90
        0
 91
        1
 62
     0
 92
       -2
340
0
 93
        0
 40
1.125
309
GRIDFORMAT_END
 95
        8
302
GRIDFORMAT
  1
GRIDFORMAT_BEGIN
 90
        0
 91
        1
 62
     0
 92
       -2
340
0
 93
        0
 40
1.125
309
GRIDFORMAT_END
 95
       16
302
GRIDFORMAT
  1
GRIDFORMAT_BEGIN
 90
        0
 91
        1
 62
     0
 92
       -2
340
0
 93
        0
 40
1.125
309
GRIDFORMAT_END
 95
       32
302
GRIDFORMAT
  1
GRIDFORMAT_BEGIN
 90
        0
 91
        1
 62
     0
 92
       -2
340
0
 93
        0
 40
1.125
309
GRIDFORMAT_END
309
TABLEFORMAT_END
  1
CELLSTYLE_BEGIN
 90
        2
 91
        1
300
_HEADER
309
CELLSTYLE_END
300
CELLSTYLE
  1
TABLEFORMAT_BEGIN
 90
        5
170
     1
 91
        0
 92
        0
 62
   257
 93
        1
300
CONTENTFORMAT
  1
CONTENTFORMAT_BEGIN
 90
        0
 91
        0
 92
      512
 93
        0
300

 40
0.0
140
1.0
 94
        2
 62
     0
340
11
144
4.5
309
CONTENTFORMAT_END
171
     1
301
MARGIN
  1
CELLMARGIN_BEGIN
 40
1.5
 40
1.5
 40
1.5
 40
1.5
 40
4.5
 40
4.5
309
CELLMARGIN_END
 94
        6
 95
        1
302
GRIDFORMAT
  1
GRIDFORMAT_BEGIN
 90
        0
 91
        1
 62
     0
 92
       -2
340
0
 93
        0
 40
1.125
309
GRIDFORMAT_END
 95
        2
302
GRIDFORMAT
  1
GRIDFORMAT_BEGIN
 90
        0
 91
        1
 62
     0
 92
       -2
340
0
 93
        0
 40
1.125
309
GRIDFORMAT_END
 95
        4
302
GRIDFORMAT
  1
GRIDFORMAT_BEGIN
 90
        0
 91
        1
 62
     0
 92
       -2
340
0
 93
        0
 40
1.125
309
GRIDFORMAT_END
 95
        8
302
GRIDFORMAT
  1
GRIDFORMAT_BEGIN
 90
        0
 91
        1
 62
     0
 92
       -2
340
0
 93
        0
 40
1.125
309
GRIDFORMAT_END
 95
       16
302
GRIDFORMAT
  1
GRIDFORMAT_BEGIN
 90
        0
 91
        1
 62
     0
 92
       -2
340
0
 93
        0
 40
1.125
309
GRIDFORMAT_END
 95
       32
302
GRIDFORMAT
  1
GRIDFORMAT_BEGIN
 90
        0
 91
        1
 62
     0
 92
       -2
340
0
 93
        0
 40
1.125
309
GRIDFORMAT_END
309
TABLEFORMAT_END
  1
CELLSTYLE_BEGIN
 90
        3
 91
        2
300
_DATA
309
CELLSTYLE_END
  0
XRECORD
  5
1E13
102
{ACAD_REACTORS
330
1ABA
102
}
330
1ABA
100
AcDbXrecord
280
     1
102
ACAD_ROUNDTRIP_PRE2007_TABLESTYLE
 90
      512
 91
        0
  1

 92
      512
 93
        0
  2

 94
      512
 95
        0
  3

  0
ENDSEC
  0
EOF
