  0
SECTION
  2
HEADER
  9
$ACADVER
  1
AC1009
  9
$INSBASE
 10
0.0
 20
0.0
 30
0.0
  9
$EXTMIN
 10
-0.0128164049386896
 20
-0.0090630292066862
 30
-0.0015258207003583
  9
$EXTMAX
 10
193.0169684870832
 20
280.0145880740771
 30
0.0000000349246037
  9
$LIMMIN
 10
0.0
 20
0.0
  9
$LIMMAX
 10
193.0
 20
280.00000000000011
  9
$ORTHOMODE
 70
     0
  9
$REGENMODE
 70
     1
  9
$FILLMODE
 70
     1
  9
$QTEXTMODE
 70
     0
  9
$MIRRTEXT
 70
     1
  9
$DRAGMODE
 70
     2
  9
$LTSCALE
 40
1.0
  9
$OSMODE
 70
    39
  9
$ATTMODE
 70
     1
  9
$TEXTSIZE
 40
1.0
  9
$TRACEWID
 40
1.0
  9
$TEXTSTYLE
  7
ACISOTS
  9
$CLAYER
  8
0
  9
$CELTYPE
  6
BYLAYER
  9
$CECOLOR
 62
   256
  9
$DIMSCALE
 40
1.0
  9
$DIMASZ
 40
2.5
  9
$DIMEXO
 40
1.0
  9
$DIMDLI
 40
10.0
  9
$DIMRND
 40
0.0
  9
$DIMDLE
 40
0.0
  9
$DIMEXE
 40
1.0
  9
$DIMTP
 40
0.1
  9
$DIMTM
 40
0.1
  9
$DIMTXT
 40
3.5
  9
$DIMCEN
 40
0.0
  9
$DIMTSZ
 40
0.0
  9
$DIMTOL
 70
     0
  9
$DIMLIM
 70
     0
  9
$DIMTIH
 70
     0
  9
$DIMTOH
 70
     0
  9
$DIMSE1
 70
     0
  9
$DIMSE2
 70
     0
  9
$DIMTAD
 70
     1
  9
$DIMZIN
 70
     8
  9
$DIMBLK
  1

  9
$DIMASO
 70
     1
  9
$DIMSHO
 70
     1
  9
$DIMPOST
  1

  9
$DIMAPOST
  1
"
  9
$DIMALT
 70
     0
  9
$DIMALTD
 70
     2
  9
$DIMALTF
 40
0.0393701
  9
$DIMLFAC
 40
1.0
  9
$DIMTOFL
 70
     1
  9
$DIMTVP
 40
0.0
  9
$DIMTIX
 70
     0
  9
$DIMSOXD
 70
     0
  9
$DIMSAH
 70
     0
  9
$DIMBLK1
  1

  9
$DIMBLK2
  1

  9
$DIMSTYLE
  2
AM_ISO
  9
$DIMCLRD
 70
   256
  9
$DIMCLRE
 70
   256
  9
$DIMCLRT
 70
     2
  9
$DIMTFAC
 40
0.71
  9
$DIMGAP
 40
1.5
  9
$LUNITS
 70
     2
  9
$LUPREC
 70
     2
  9
$SKETCHINC
 40
1.0
  9
$FILLETRAD
 40
2.5
  9
$AUNITS
 70
     0
  9
$AUPREC
 70
     0
  9
$MENU
  1
.
  9
$ELEVATION
 40
0.0
  9
$PELEVATION
 40
0.0
  9
$THICKNESS
 40
0.0
  9
$LIMCHECK
 70
     0
  9
$BLIPMODE
 70
     0
  9
$CHAMFERA
 40
2.5
  9
$CHAMFERB
 40
2.5
  9
$SKPOLY
 70
     0
  9
$TDCREATE
 40
2455882.7193970601
  9
$TDUPDATE
 40
2455882.725940926
  9
$TDINDWG
 40
0.0065458565
  9
$TDUSRTIMER
 40
0.0065458565
  9
$USRTIMER
 70
     1
  9
$ANGBASE
 50
0.0
  9
$ANGDIR
 70
     0
  9
$PDMODE
 70
     0
  9
$PDSIZE
 40
0.0
  9
$PLINEWID
 40
0.0
  9
$COORDS
 70
     0
  9
$SPLFRAME
 70
     0
  9
$SPLINETYPE
 70
     6
  9
$SPLINESEGS
 70
     8
  9
$ATTDIA
 70
     1
  9
$ATTREQ
 70
     1
  9
$HANDLING
 70
     1
  9
$HANDSEED
  5
D3B
  9
$SURFTAB1
 70
     6
  9
$SURFTAB2
 70
     6
  9
$SURFTYPE
 70
     6
  9
$SURFU
 70
     6
  9
$SURFV
 70
     6
  9
$UCSNAME
  2

  9
$UCSORG
 10
0.0
 20
0.0
 30
0.0
  9
$UCSXDIR
 10
1.0
 20
0.0
 30
0.0
  9
$UCSYDIR
 10
0.0
 20
1.0
 30
0.0
  9
$PUCSNAME
  2

  9
$PUCSORG
 10
0.0
 20
0.0
 30
0.0
  9
$PUCSXDIR
 10
1.0
 20
0.0
 30
0.0
  9
$PUCSYDIR
 10
0.0
 20
1.0
 30
0.0
  9
$USERI1
 70
     0
  9
$USERI2
 70
     0
  9
$USERI3
 70
     0
  9
$USERI4
 70
     0
  9
$USERI5
 70
     0
  9
$USERR1
 40
0.0
  9
$USERR2
 40
0.0
  9
$USERR3
 40
0.0
  9
$USERR4
 40
0.0
  9
$USERR5
 40
0.0
  9
$WORLDVIEW
 70
     1
  9
$SHADEDGE
 70
     3
  9
$SHADEDIF
 70
    70
  9
$TILEMODE
 70
     1
  9
$MAXACTVP
 70
    64
  9
$PLIMCHECK
 70
     0
  9
$PEXTMIN
 10
1.0000000000000000E+020
 20
1.0000000000000000E+020
 30
1.0000000000000000E+020
  9
$PEXTMAX
 10
-1.0000000000000000E+020
 20
-1.0000000000000000E+020
 30
-1.0000000000000000E+020
  9
$PLIMMIN
 10
-6.350006103515625
 20
-6.3499999046325684
  9
$PLIMMAX
 10
273.04998779296881
 20
209.54999399185181
  9
$UNITMODE
 70
     0
  9
$VISRETAIN
 70
     1
  9
$PLINEGEN
 70
     0
  9
$PSLTSCALE
 70
     1
  0
ENDSEC
  0
SECTION
  2
TABLES
  0
TABLE
  2
VPORT
 70
   252
  0
VPORT
  2
*ACTIVE
 70
     0
 10
0.0
 20
0.0
 11
1.0
 21
1.0
 12
96.502076041072257
 22
140.00276252243521
 13
0.0
 23
0.0
 14
2.5
 24
2.5
 15
10.0
 25
10.0
 16
0.0
 26
0.0
 36
1.0
 17
0.0
 27
0.0
 37
0.0
 40
282.58094472066529
 41
2.3658536585365848
 42
50.0
 43
0.0
 44
0.0
 50
0.0
 51
0.0
 71
    16
 72
   100
 73
     1
 74
     3
 75
     0
 76
     0
 77
     0
 78
     0
  0
ENDTAB
  0
TABLE
  2
LTYPE
 70
    17
  0
LTYPE
  2
CONTINUOUS
 70
     0
  3
Solid line
 72
    65
 73
     0
 40
0.0
  0
LTYPE
  2
AM_ISO02W050
 70
     0
  3
__ __ __ __ __ __ __ __ __ __ __ __ __ __ __
 72
    65
 73
     2
 40
7.5
 49
6.0
 49
-1.5
  0
LTYPE
  2
AM_ISO08W050
 70
     0
  3
____ . ____ . ____ . ____ . ____ . ____ . ____
 72
    65
 73
     4
 40
18.0
 49
12.0
 49
-1.5
 49
3.0
 49
-1.5
  0
LTYPE
  2
AM_ISO09W050
 70
     0
  3
_____ . . _____ . . _____ . . ____ .. ____
 72
    65
 73
     6
 40
22.5
 49
12.0
 49
-1.5
 49
3.0
 49
-1.5
 49
3.0
 49
-1.5
  0
LTYPE
  2
AMCONSTR
 70
     0
  3
_______________________
 72
    65
 73
     2
 40
9999.0
 49
9999.0
 49
0.0
  0
LTYPE
  2
AM_ISO08W050X2
 70
     0
  3
__ . __ . __ . __ . __ . __
 72
    65
 73
     4
 40
9.0
 49
6.0
 49
-0.75
 49
1.5
 49
-0.75
  0
LTYPE
  2
AM_ISO02W050X2
 70
     0
  3
 _ _ _ _ _ _ _ _ _ _ _ _
 72
    65
 73
     2
 40
3.75
 49
3.0
 49
-0.75
  0
LTYPE
  2
AMZIGZAG
 70
     0
  3
/\/-/\/-/\/-/\/-/\/-/\/
 72
    65
 73
     2
 40
11.0001
 49
0.0001
 49
-11.0
  0
LTYPE
  2
ACISOWELD
 70
     0
  3
_ _ _ _ _
 72
    65
 73
     2
 40
2.0
 49
2.0
 49
-1.0
  0
LTYPE
  2
ACISOTGB
 70
     0
  3
__ . . __ . .
 72
    65
 73
     6
 40
9.0
 49
4.0
 49
-1.0
 49
1.0
 49
-1.0
 49
1.0
 49
-1.0
  0
LTYPE
  2
ACISOTGL
 70
     0
  3
_ _ _ _ _
 72
    65
 73
     2
 40
3.0
 49
2.0
 49
-1.0
  0
LTYPE
  2
CENTER
 70
     0
  3
__ . __
 72
    65
 73
     4
 40
7.0
 49
4.0
 49
-1.0
 49
1.0
 49
-1.0
  0
LTYPE
  2
HIDDEN
 70
     0
  3
Hidden __ __ __ __ __ __ __ __ __ __ __ __ __ _
 72
    65
 73
     2
 40
9.5249999999999986
 49
6.3499999999999988
 49
-3.1749999999999989
  0
LTYPE
  2
PHANTOM2
 70
     0
  3
Phantom (.5x) ___ _ _ ___ _ _ ___ _ _ ___ _ _
 72
    65
 73
     6
 40
31.75
 49
15.875
 49
-3.1749999999999989
 49
3.1749999999999989
 49
-3.1749999999999989
 49
3.1749999999999989
 49
-3.1749999999999989
  0
LTYPE
  2
GEN7A
 70
     0
  3
__ . __ . __
 72
    65
 73
     4
 40
6.875
 49
4.75
 49
-0.875
 49
0.375
 49
-0.875
  0
LTYPE
  2
ACANSTGB
 70
     0
  3
__ . . __ . .
 72
    65
 73
     6
 40
0.35433070866
 49
0.15748031496
 49
-0.03937007874
 49
0.03937007874
 49
-0.03937007874
 49
0.03937007874
 49
-0.03937007874
  0
LTYPE
  2
ACANSTGL
 70
     0
  3
_ _ _ _ _
 72
    65
 73
     2
 40
0.11811023622
 49
0.07874015748
 49
-0.03937007874
  0
ENDTAB
  0
TABLE
  2
LAYER
 70
    13
  0
LAYER
  2
0
 70
     0
 62
     7
  6
CONTINUOUS
  0
LAYER
  2
プレ_ト
 70
     0
 62
     2
  6
CONTINUOUS
  0
LAYER
  2
DEFPOINTS
 70
     0
 62
     7
  6
CONTINUOUS
  0
LAYER
  2
ハンドル
 70
     0
 62
     7
  6
CONTINUOUS
  0
LAYER
  2
ハンドル0
 70
     0
 62
     7
  6
AM_ISO02W050X2
  0
LAYER
  2
7A
 70
     0
 62
     4
  6
GEN7A
  0
LAYER
  2
RAHM2
 70
     0
 62
     1
  6
CONTINUOUS
  0
LAYER
  2
AM_5
 70
     0
 62
     3
  6
CONTINUOUS
  0
LAYER
  2
AM_12
 70
     0
 62
     7
  6
CONTINUOUS
  0
LAYER
  2
ﾋ_ｽ
 70
     0
 62
     8
  6
CONTINUOUS
  0
LAYER
  2
ﾋ_ｽ0
 70
     0
 62
     8
  6
AM_ISO02W050X2
  0
LAYER
  2
AM_7
 70
     0
 62
     4
  6
AM_ISO08W050
  0
LAYER
  2
AM_CL
 70
     0
 62
     1
  6
AMCONSTR
  0
ENDTAB
  0
TABLE
  2
STYLE
 70
     9
  0
STYLE
  2
STANDARD
 70
     0
 40
0.0
 41
1.0
 50
0.0
 71
     0
 42
1.0
  3
ISOCP.SHX
  4
EXTFONT.SHX
  0
STYLE
  2

 70
     1
 40
0.0
 41
1.0
 50
0.0
 71
     0
 42
2.5
  3
ltypeshp.shx
  4

  0
STYLE
  2
ACISOTS
 70
     0
 40
1.0
 41
1.0
 50
0.0
 71
     0
 42
1.0
  3
isocp.shx
  4
bigfont.shx
  0
STYLE
  2
ACISOGDT
 70
     0
 40
0.0
 41
1.0
 50
0.0
 71
     0
 42
2.5
  3
amgdt.shx
  4

  0
STYLE
  2
USER1
 70
     0
 40
0.0
 41
1.0
 50
0.0
 71
     0
 42
2.5
  3
TXT.SHX
  4

  0
STYLE
  2
USER2
 70
     0
 40
0.0
 41
1.0
 50
0.0
 71
     0
 42
2.5
  3
SIMPLEX.SHX
  4

  0
STYLE
  2
USER3
 70
     0
 40
0.0
 41
1.0
 50
0.0
 71
     0
 42
2.5
  3
ITALIC.SHX
  4

  0
STYLE
  2
ACANSTS
 70
     0
 40
1.0
 41
1.0
 50
0.0
 71
     0
 42
3.2000000000000002
  3
romans.shx
  4
extfont.shx
  0
STYLE
  2
ACANSGDT
 70
     0
 40
0.0
 41
1.0
 50
0.0
 71
     0
 42
3.2000000000000002
  3
amgdtans.shx
  4

  0
ENDTAB
  0
TABLE
  2
VIEW
 70
     6
  0
VIEW
  2
AM_VIEW1
 70
     0
 40
140.0
 10
165.46423135464229
 20
210.0
 41
330.9284627092847
 11
0.0
 21
0.0
 31
1.0
 12
0.0
 22
0.0
 32
0.0
 42
50.0
 43
0.0
 44
0.0
 50
0.0
 71
    16
  0
VIEW
  2
AM_VIEW2
 70
     0
 40
140.0
 10
27.535768645357649
 20
210.0
 41
330.9284627092847
 11
0.0
 21
0.0
 31
1.0
 12
0.0
 22
0.0
 32
0.0
 42
50.0
 43
0.0
 44
0.0
 50
0.0
 71
    16
  0
VIEW
  2
AM_VIEW3
 70
     0
 40
140.0
 10
165.46423135464229
 20
70.000000000000014
 41
330.9284627092847
 11
0.0
 21
0.0
 31
1.0
 12
0.0
 22
0.0
 32
0.0
 42
50.0
 43
0.0
 44
0.0
 50
0.0
 71
    16
  0
VIEW
  2
AM_VIEW4
 70
     0
 40
140.0
 10
27.535768645357649
 20
70.000000000000014
 41
330.9284627092847
 11
0.0
 21
0.0
 31
1.0
 12
0.0
 22
0.0
 32
0.0
 42
50.0
 43
0.0
 44
0.0
 50
0.0
 71
    16
  0
VIEW
  2
AM_VIEW5
 70
     0
 40
140.0
 10
96.500000000000014
 20
140.0
 41
330.92846270928482
 11
0.0
 21
0.0
 31
1.0
 12
0.0
 22
0.0
 32
0.0
 42
50.0
 43
0.0
 44
0.0
 50
0.0
 71
    16
  0
VIEW
  2
AM_VIEW6
 70
     0
 40
279.99720000000008
 10
96.5
 20
140.0
 41
661.85030684931519
 11
0.0
 21
0.0
 31
1.0
 12
0.0
 22
0.0
 32
0.0
 42
50.0
 43
0.0
 44
0.0
 50
0.0
 71
    16
  0
ENDTAB
  0
TABLE
  2
UCS
 70
     0
  0
ENDTAB
  0
TABLE
  2
APPID
 70
    23
  0
APPID
  2
ACAD
 70
     0
  0
APPID
  2
MCAD_NO_VIS
 70
     0
  0
APPID
  2
ACAD_TEMP_GRAPHIC
 70
     0
  0
APPID
  2
ACATTRIBSERVICES
 70
     0
  0
APPID
  2
AD_DRAW
 70
     0
  0
APPID
  2
DESIGNERASSEMBLIES
 70
     0
  0
APPID
  2
ACADM_DIM_EDIT
 70
     0
  0
APPID
  2
AMDT_DM_ADJ
 70
     0
  0
APPID
  2
GENIUS_GENREC_14
 70
     0
  0
APPID
  2
GENIUS_GENODEF_13
 70
     0
  0
APPID
  2
GENIUS_GENOBJ-N-REC_13
 70
     0
  0
APPID
  2
GENIUS_GENOENT_13
 70
     0
  0
APPID
  2
GENIUS_GENOBJ-N-CRS_13
 70
     0
  0
APPID
  2
GENIUS_GENOREF_13
 70
     0
  0
APPID
  2
GENIUS_GENOLIS_13
 70
     0
  0
APPID
  2
GENIUS_GENOBJ-N-FIL_13
 70
     0
  0
APPID
  2
GENIUS_GENDIMSH_14
 70
     0
  0
APPID
  2
GENIUS_GENOBJ-N-TIT_13
 70
     0
  0
APPID
  2
GENIUS_GENTITLE_13
 70
     0
  0
APPID
  2
GENIUS_GENSCREG_15
 70
     0
  0
APPID
  2
GENIUS_GENOBJ-N-SDF_13
 70
     0
  0
APPID
  2
GENIUS_GENOBJ-N-CEN_13
 70
     0
  0
APPID
  2
GENIUS_GENSCREG_13
 70
     0
  0
ENDTAB
  0
TABLE
  2
DIMSTYLE
 70
    15
  0
DIMSTYLE
  2
ISO-25
 70
     0
  3

  4

  5

  6

  7

 40
1.0
 41
2.5
 42
0.625
 43
3.75
 44
1.25
 45
0.0
 46
0.0
 47
0.0
 48
0.0
140
2.5
141
2.5
142
0.0
143
0.03937007874016
144
1.0
145
0.0
146
1.0
147
0.625
 71
     0
 72
     0
 73
     0
 74
     0
 75
     0
 76
     0
 77
     1
 78
     8
170
     0
171
     3
172
     1
173
     0
174
     0
175
     0
176
     0
177
     0
178
     0
  0
DIMSTYLE
  2
AM_ISO
 70
     0
  3

  4
"
  5

  6

  7

 40
1.0
 41
2.5
 42
1.0
 43
10.0
 44
1.0
 45
0.0
 46
0.0
 47
0.1
 48
0.1
140
3.5
141
0.0
142
0.0
143
0.0393701
144
1.0
145
0.0
146
0.71
147
1.5
 71
     0
 72
     0
 73
     0
 74
     0
 75
     0
 76
     0
 77
     1
 78
     8
170
     0
171
     2
172
     1
173
     0
174
     0
175
     0
176
   256
177
   256
178
     2
  0
DIMSTYLE
  2
AM_ISO$3
 70
     0
  3

  4
"
  5

  6

  7

 40
1.0
 41
2.5
 42
1.0
 43
10.0
 44
1.0
 45
0.0
 46
0.0
 47
0.1
 48
0.1
140
3.5
141
0.0
142
0.0
143
0.0393701
144
1.0
145
0.0
146
0.71
147
1.5
 71
     0
 72
     0
 73
     0
 74
     1
 75
     0
 76
     0
 77
     1
 78
     8
170
     0
171
     2
172
     0
173
     0
174
     0
175
     0
176
   256
177
   256
178
     2
  0
DIMSTYLE
  2
AM_ISO$4
 70
     0
  3

  4
"
  5

  6

  7

 40
1.0
 41
2.5
 42
1.0
 43
10.0
 44
1.0
 45
0.0
 46
0.0
 47
0.1
 48
0.1
140
3.5
141
0.0
142
0.0
143
0.0393701
144
1.0
145
0.0
146
0.71
147
1.5
 71
     0
 72
     0
 73
     0
 74
     1
 75
     0
 76
     0
 77
     1
 78
     8
170
     0
171
     2
172
     0
173
     0
174
     0
175
     0
176
   256
177
   256
178
     2
  0
DIMSTYLE
  2
AM_ISO$6
 70
     0
  3

  4
"
  5

  6

  7

 40
1.0
 41
2.5
 42
1.0
 43
10.0
 44
1.0
 45
0.0
 46
0.0
 47
0.1
 48
0.1
140
3.5
141
0.0
142
0.0
143
0.0393701
144
1.0
145
0.0
146
0.71
147
1.5
 71
     0
 72
     0
 73
     0
 74
     0
 75
     0
 76
     0
 77
     0
 78
     8
170
     0
171
     2
172
     1
173
     0
174
     0
175
     0
176
   256
177
   256
178
     2
  0
DIMSTYLE
  2
AM_ISO$7
 70
     0
  3

  4
"
  5

  6

  7

 40
1.0
 41
2.5
 42
1.0
 43
10.0
 44
1.0
 45
0.0
 46
0.0
 47
0.1
 48
0.1
140
5.0
141
0.0
142
0.0
143
0.0393701
144
1.0
145
0.0
146
0.71
147
1.5
 71
     0
 72
     0
 73
     0
 74
     0
 75
     0
 76
     0
 77
     1
 78
     8
170
     0
171
     2
172
     1
173
     0
174
     0
175
     0
176
   256
177
   256
178
     2
  0
DIMSTYLE
  2
AM_ISO$SF
 70
     0
  3

  4
"
  5

  6

  7

 40
1.0
 41
2.5
 42
1.0
 43
10.0
 44
1.0
 45
0.0
 46
0.0
 47
0.1
 48
0.1
140
3.5
141
0.0
142
0.0
143
0.0393701
144
1.0
145
0.0
146
0.71
147
1.5
 71
     0
 72
     0
 73
     0
 74
     0
 75
     1
 76
     1
 77
     1
 78
     8
170
     0
171
     2
172
     1
173
     0
174
     0
175
     0
176
   256
177
   256
178
     2
  0
DIMSTYLE
  2
AM_ISO$SH
 70
     0
  3

  4
"
  5

  6
GENAXEH
  7

 40
1.0
 41
2.5
 42
1.0
 43
10.0
 44
1.0
 45
0.0
 46
0.0
 47
0.1
 48
0.1
140
3.5
141
0.0
142
0.0
143
0.0393701
144
2.0
145
0.0
146
0.71
147
1.5
 71
     0
 72
     0
 73
     0
 74
     0
 75
     1
 76
     1
 77
     1
 78
     8
170
     0
171
     2
172
     1
173
     1
174
     0
175
     0
176
   256
177
   256
178
     2
  0
DIMSTYLE
  2
AM_ANSI
 70
     0
  3

  4
mm
  5

  6

  7

 40
1.0
 41
0.1
 42
0.05
 43
0.5
 44
0.1
 45
0.0
 46
0.0
 47
0.1
 48
0.1
140
0.12
141
0.0
142
0.0
143
25.399999999999999
144
1.0
145
0.0
146
0.71
147
0.06
 71
     0
 72
     0
 73
     1
 74
     1
 75
     0
 76
     0
 77
     0
 78
     7
170
     0
171
     2
172
     0
173
     0
174
     0
175
     0
176
   256
177
   256
178
     2
  0
DIMSTYLE
  2
AM_ANSI$3
 70
     0
  3

  4
mm
  5

  6

  7

 40
1.0
 41
0.1
 42
0.05
 43
0.5
 44
0.1
 45
0.0
 46
0.0
 47
0.1
 48
0.1
140
0.12
141
0.0
142
0.0
143
25.399999999999999
144
1.0
145
0.0
146
0.71
147
0.06
 71
     0
 72
     0
 73
     1
 74
     1
 75
     0
 76
     0
 77
     0
 78
     7
170
     0
171
     2
172
     0
173
     0
174
     0
175
     0
176
   256
177
   256
178
     2
  0
DIMSTYLE
  2
AM_ANSI$4
 70
     0
  3

  4
mm
  5

  6

  7

 40
1.0
 41
0.1
 42
0.05
 43
0.5
 44
0.1
 45
0.0
 46
0.0
 47
0.1
 48
0.1
140
0.12
141
0.0
142
0.0
143
25.399999999999999
144
1.0
145
0.0
146
0.71
147
0.06
 71
     0
 72
     0
 73
     1
 74
     1
 75
     0
 76
     0
 77
     0
 78
     7
170
     0
171
     2
172
     0
173
     0
174
     0
175
     0
176
   256
177
   256
178
     2
  0
DIMSTYLE
  2
AM_ANSI$7
 70
     0
  3

  4
mm
  5

  6

  7

 40
1.0
 41
0.1
 42
0.05
 43
0.5
 44
0.1
 45
0.0
 46
0.0
 47
0.1
 48
0.1
140
0.24
141
0.0
142
0.0
143
25.399999999999999
144
1.0
145
0.0
146
0.71
147
0.06
 71
     0
 72
     0
 73
     1
 74
     1
 75
     0
 76
     0
 77
     0
 78
     7
170
     0
171
     2
172
     0
173
     0
174
     0
175
     0
176
   256
177
   256
178
     2
  0
DIMSTYLE
  2
AM_ANSI$SF
 70
     0
  3

  4
mm
  5

  6

  7

 40
1.0
 41
0.1
 42
0.05
 43
0.5
 44
0.1
 45
0.0
 46
0.0
 47
0.1
 48
0.1
140
0.12
141
0.0
142
0.0
143
25.399999999999999
144
1.0
145
0.0
146
0.71
147
0.06
 71
     0
 72
     0
 73
     1
 74
     1
 75
     1
 76
     1
 77
     0
 78
     7
170
     0
171
     2
172
     0
173
     0
174
     0
175
     0
176
   256
177
   256
178
     2
  0
DIMSTYLE
  2
AM_ANSI$SH
 70
     0
  3

  4
mm
  5

  6

  7

 40
1.0
 41
0.1
 42
0.05
 43
0.5
 44
0.1
 45
0.0
 46
0.0
 47
0.1
 48
0.1
140
0.12
141
0.0
142
0.0
143
25.399999999999999
144
1.0
145
0.0
146
0.71
147
0.06
 71
     0
 72
     0
 73
     1
 74
     1
 75
     1
 76
     1
 77
     0
 78
     7
170
     0
171
     2
172
     0
173
     1
174
     0
175
     0
176
   256
177
   256
178
     2
  0
DIMSTYLE
  2
AM_ISO$0
 70
     0
  3

  4
"
  5
OPEN30
  6

  7

 40
1.0
 41
2.5
 42
1.0
 43
10.0
 44
1.0
 45
0.0
 46
0.0
 47
0.1
 48
0.1
140
3.5
141
0.0
142
0.0
143
0.0393701
144
1.0
145
0.0
146
0.71
147
1.5
 71
     0
 72
     0
 73
     0
 74
     0
 75
     0
 76
     0
 77
     1
 78
     8
170
     0
171
     2
172
     1
173
     0
174
     0
175
     0
176
     3
177
     3
178
     2
  0
ENDTAB
  0
ENDSEC
  0
SECTION
  2
BLOCKS
  0
BLOCK
  8
0
  2
$MODEL_SPACE
 70
     0
 10
0.0
 20
0.0
 30
0.0
  3
$MODEL_SPACE
  1

  0
ENDBLK
  5
21
  8
0
  0
BLOCK
 67
     1
  8
0
  2
$PAPER_SPACE
 70
     0
 10
0.0
 20
0.0
 30
0.0
  3
$PAPER_SPACE
  1

  0
ENDBLK
  5
1D
 67
     1
  8
0
  0
BLOCK
  8
0
  2
GENAXEH
 70
     0
 10
0.0
 20
0.0
 30
0.0
  3
GENAXEH
  1

  0
LINE
  5
88
  8
0
 10
-1.0
 20
0.0
 30
0.0
 11
1.0
 21
0.0
 31
0.0
  0
ENDBLK
  5
8A
  8
0
  0
BLOCK
  8
0
  2
_OPEN30
 70
     0
 10
0.0
 20
0.0
 30
0.0
  3
_OPEN30
  1

  0
LINE
  5
2E0
  8
0
  6
BYBLOCK
 62
     0
 10
-1.0
 20
0.26794919
 30
0.0
 11
0.0
 21
0.0
 31
0.0
  0
LINE
  5
2E1
  8
0
  6
BYBLOCK
 62
     0
 10
0.0
 20
0.0
 30
0.0
 11
-1.0
 21
-0.26794919
 31
0.0
  0
LINE
  5
2E2
  8
0
  6
BYBLOCK
 62
     0
 10
0.0
 20
0.0
 30
0.0
 11
-1.0
 21
0.0
 31
0.0
  0
ENDBLK
  5
2E3
  8
0
  0
BLOCK
  8
0
  2
*D4
 70
     1
 10
0.0
 20
0.0
 30
0.0
  3
*D4
  1

  0
LINE
  5
2E6
  8
AM_5
 10
80.126417696888964
 20
231.9846274249428
 30
0.0
 11
80.126417696888964
 21
243.98462742494269
 31
0.0
  0
LINE
  5
2E7
  8
AM_5
 10
69.966417696888954
 20
231.9846274249428
 30
0.0
 11
69.966417696888954
 21
243.98462742494269
 31
0.0
  0
LINE
  5
2E8
  8
AM_5
 10
77.62641769688895
 20
242.98462742494269
 30
0.0
 11
72.466417696888939
 21
242.98462742494269
 31
0.0
  0
LINE
  5
2E9
  8
AM_5
 10
69.966417696888954
 20
242.98462742494269
 30
0.0
 11
55.89279564964486
 21
242.98462742494269
 31
0.0
  0
INSERT
  5
2EA
  8
AM_5
  2
_OPEN30
 10
80.126417696888964
 20
242.98462742494269
 30
0.0
 41
2.5
 42
2.5
 43
2.5
  0
INSERT
  5
2EB
  8
AM_5
  2
_OPEN30
 10
69.966417696888954
 20
242.98462742494269
 30
0.0
 41
2.5
 42
2.5
 43
2.5
 50
180.0
  0
INSERT
  5
2EC
  8
プレ_ト
  2
*U5
 10
0.0
 20
0.0
 30
0.0
  0
POINT
  5
2ED
  8
DEFPOINTS
 62
     0
 10
80.126417696888964
 20
230.9846274249428
 30
0.0
  0
POINT
  5
2EE
  8
DEFPOINTS
 62
     0
 10
69.966417696888954
 20
230.9846274249428
 30
0.0
  0
POINT
  5
2EF
  8
DEFPOINTS
 62
     0
 10
69.966417696888954
 20
242.98462742494269
 30
0.0
  0
ENDBLK
  5
2F0
  8
0
  0
BLOCK
  8
0
  2
*U5
 70
     1
 10
0.0
 20
0.0
 30
0.0
  3
*U5
  1

  0
TEXT
  5
2F3
  8
AM_5
 62
     2
 10
56.867795649644847
 20
244.48462742494269
 30
0.0
 40
3.5
  1
10.16
  0
ENDBLK
  5
2F4
  8
0
  0
BLOCK
  8
0
  2
*D6
 70
     1
 10
0.0
 20
0.0
 30
0.0
  3
*D6
  1

  0
LINE
  5
2F7
  8
AM_5
 10
62.996417696888948
 20
115.2182461101152
 30
0.0
 11
62.996417696888948
 21
103.2182461101152
 31
0.0
  0
LINE
  5
2F8
  8
AM_5
 10
81.996417696888926
 20
115.2182461101152
 30
0.0
 11
81.996417696888926
 21
103.2182461101152
 31
0.0
  0
LINE
  5
2F9
  8
AM_5
 10
65.496417696888955
 20
104.2182461101152
 30
0.0
 11
79.496417696888926
 21
104.2182461101152
 31
0.0
  0
INSERT
  5
2FA
  8
AM_5
  2
_OPEN30
 10
62.996417696888948
 20
104.2182461101152
 30
0.0
 41
2.5
 42
2.5
 43
2.5
 50
180.0
  0
INSERT
  5
2FB
  8
AM_5
  2
_OPEN30
 10
81.996417696888926
 20
104.2182461101152
 30
0.0
 41
2.5
 42
2.5
 43
2.5
  0
INSERT
  5
2FC
  8
プレ_ト
  2
*U7
 10
0.0
 20
0.0
 30
0.0
  0
POINT
  5
2FD
  8
DEFPOINTS
 62
     0
 10
62.996417696888948
 20
116.2182461101152
 30
0.0
  0
POINT
  5
2FE
  8
DEFPOINTS
 62
     0
 10
81.996417696888926
 20
116.2182461101152
 30
0.0
  0
POINT
  5
2FF
  8
DEFPOINTS
 62
     0
 10
81.996417696888926
 20
104.2182461101152
 30
0.0
  0
ENDBLK
  5
300
  8
0
  0
BLOCK
  8
0
  2
*U7
 70
     1
 10
0.0
 20
0.0
 30
0.0
  3
*U7
  1

  0
TEXT
  5
303
  8
AM_5
 62
     2
 10
70.27112910863589
 20
105.7182461101152
 30
0.0
 40
3.5
  1
19
  0
ENDBLK
  5
304
  8
0
  0
BLOCK
  8
0
  2
*D8
 70
     1
 10
0.0
 20
0.0
 30
0.0
  3
*D8
  1

  0
LINE
  5
307
  8
AM_5
 10
105.3498415836694
 20
129.61824611011519
 30
0.0
 11
117.3498425836694
 21
129.61824611011519
 31
0.0
  0
LINE
  5
308
  8
AM_5
 10
105.3498415836694
 20
116.2182461101152
 30
0.0
 11
117.3498425836694
 21
116.2182461101152
 31
0.0
  0
LINE
  5
309
  8
AM_5
 10
116.3498425836694
 20
127.11824611011519
 30
0.0
 11
116.3498425836694
 21
118.7182461101152
 31
0.0
  0
INSERT
  5
30A
  8
AM_5
  2
_OPEN30
 10
116.3498425836694
 20
129.61824611011519
 30
0.0
 41
2.5
 42
2.5
 43
2.5
 50
90.0
  0
INSERT
  5
30B
  8
AM_5
  2
_OPEN30
 10
116.3498425836694
 20
116.2182461101152
 30
0.0
 41
2.5
 42
2.5
 43
2.5
 50
270.0
  0
INSERT
  5
30C
  8
プレ_ト
  2
*U9
 10
0.0
 20
0.0
 30
0.0
  0
POINT
  5
30D
  8
DEFPOINTS
 62
     0
 10
104.3498415836694
 20
129.61824611011519
 30
0.0
  0
POINT
  5
30E
  8
DEFPOINTS
 62
     0
 10
104.3498415836694
 20
116.2182461101152
 30
0.0
  0
POINT
  5
30F
  8
DEFPOINTS
 62
     0
 10
116.3498425836694
 20
116.2182461101152
 30
0.0
  0
ENDBLK
  5
310
  8
0
  0
BLOCK
  8
0
  2
*U9
 70
     1
 10
0.0
 20
0.0
 30
0.0
  3
*U9
  1

  0
TEXT
  5
313
  8
AM_5
 62
     2
 10
114.8498425836694
 20
118.8932461101152
 30
0.0
 40
3.5
  1
13.4
 50
90.0
  0
ENDBLK
  5
314
  8
0
  0
BLOCK
  8
0
  2
*D10
 70
     1
 10
0.0
 20
0.0
 30
0.0
  3
*D10
  1

  0
LINE
  5
317
  8
AM_5
 10
62.996417696888948
 20
179.3962375092654
 30
0.0
 11
62.996417696888948
 21
167.3962375092654
 31
0.0
  0
LINE
  5
318
  8
AM_5
 10
81.996417696888926
 20
179.3962375092654
 30
0.0
 11
81.996417696888926
 21
167.3962375092654
 31
0.0
  0
LINE
  5
319
  8
AM_5
 10
65.496417696888955
 20
168.3962375092654
 30
0.0
 11
79.496417696888926
 21
168.3962375092654
 31
0.0
  0
INSERT
  5
31A
  8
AM_5
  2
_OPEN30
 10
62.996417696888948
 20
168.3962375092654
 30
0.0
 41
2.5
 42
2.5
 43
2.5
 50
180.0
  0
INSERT
  5
31B
  8
AM_5
  2
_OPEN30
 10
81.996417696888926
 20
168.3962375092654
 30
0.0
 41
2.5
 42
2.5
 43
2.5
  0
INSERT
  5
31C
  8
プレ_ト
  2
*U11
 10
0.0
 20
0.0
 30
0.0
  0
POINT
  5
31D
  8
DEFPOINTS
 62
     0
 10
62.996417696888948
 20
180.3962375092654
 30
0.0
  0
POINT
  5
31E
  8
DEFPOINTS
 62
     0
 10
81.996417696888926
 20
180.3962375092654
 30
0.0
  0
POINT
  5
31F
  8
DEFPOINTS
 62
     0
 10
81.996417696888926
 20
168.3962375092654
 30
0.0
  0
ENDBLK
  5
320
  8
0
  0
BLOCK
  8
0
  2
*U11
 70
     1
 10
0.0
 20
0.0
 30
0.0
  3
*U11
  1

  0
TEXT
  5
323
  8
AM_5
 62
     2
 10
70.27112910863589
 20
169.8962375092654
 30
0.0
 40
3.5
  1
19
  0
ENDBLK
  5
324
  8
0
  0
BLOCK
  8
0
  2
*D12
 70
     1
 10
0.0
 20
0.0
 30
0.0
  3
*D12
  1

  0
LINE
  5
327
  8
AM_5
 10
61.996417696888948
 20
195.3962375092654
 30
0.0
 11
55.674647531356101
 21
195.3962375092654
 31
0.0
  0
LINE
  5
328
  8
AM_5
 10
61.996417696888948
 20
180.3962375092654
 30
0.0
 11
55.674647531356101
 21
180.3962375092654
 31
0.0
  0
LINE
  5
329
  8
AM_5
 10
56.674647531356108
 20
192.8962375092654
 30
0.0
 11
56.674647531356108
 21
182.8962375092654
 31
0.0
  0
INSERT
  5
32A
  8
AM_5
  2
_OPEN30
 10
56.674647531356108
 20
195.3962375092654
 30
0.0
 41
2.5
 42
2.5
 43
2.5
 50
90.0
  0
INSERT
  5
32B
  8
AM_5
  2
_OPEN30
 10
56.674647531356108
 20
180.3962375092654
 30
0.0
 41
2.5
 42
2.5
 43
2.5
 50
270.0
  0
INSERT
  5
32C
  8
プレ_ト
  2
*U13
 10
0.0
 20
0.0
 30
0.0
  0
POINT
  5
32D
  8
DEFPOINTS
 62
     0
 10
62.996417696888948
 20
195.3962375092654
 30
0.0
  0
POINT
  5
32E
  8
DEFPOINTS
 62
     0
 10
62.996417696888948
 20
180.3962375092654
 30
0.0
  0
POINT
  5
32F
  8
DEFPOINTS
 62
     0
 10
56.674647531356108
 20
180.3962375092654
 30
0.0
  0
ENDBLK
  5
330
  8
0
  0
BLOCK
  8
0
  2
*U13
 70
     1
 10
0.0
 20
0.0
 30
0.0
  3
*U13
  1

  0
TEXT
  5
333
  8
AM_5
 62
     2
 10
55.174647531356058
 20
186.59775754369269
 30
0.0
 40
3.5
  1
15
 50
90.0
  0
ENDBLK
  5
334
  8
0
  0
BLOCK
  8
0
  2
*D14
 70
     1
 10
0.0
 20
0.0
 30
0.0
  3
*D14
  1

  0
LINE
  5
337
  8
AM_5
 10
80.126417696888964
 20
231.9846274249428
 30
0.0
 11
80.126417696888964
 21
243.9846274249428
 31
0.0
  0
LINE
  5
338
  8
AM_5
 10
81.996417696888898
 20
229.6846274249427
 30
0.0
 11
81.996417696888898
 21
243.9846274249428
 31
0.0
  0
LINE
  5
339
  8
AM_5
 10
77.62641769688895
 20
242.9846274249428
 30
0.0
 11
75.12641769688895
 21
242.9846274249428
 31
0.0
  0
LINE
  5
33A
  8
AM_5
 10
84.496417696888898
 20
242.9846274249428
 30
0.0
 11
96.646417696888903
 21
242.9846274249428
 31
0.0
  0
LINE
  5
33B
  8
AM_5
 10
80.126417696888964
 20
242.9846274249428
 30
0.0
 11
81.996417696888898
 21
242.9846274249428
 31
0.0
  0
INSERT
  5
33C
  8
AM_5
  2
_OPEN30
 10
80.126417696888964
 20
242.9846274249428
 30
0.0
 41
2.5
 42
2.5
 43
2.5
  0
INSERT
  5
33D
  8
AM_5
  2
_OPEN30
 10
81.996417696888898
 20
242.9846274249428
 30
0.0
 41
2.5
 42
2.5
 43
2.5
 50
180.0
  0
INSERT
  5
33E
  8
プレ_ト
  2
*U15
 10
0.0
 20
0.0
 30
0.0
  0
POINT
  5
33F
  8
DEFPOINTS
 62
     0
 10
80.126417696888964
 20
230.9846274249428
 30
0.0
  0
POINT
  5
340
  8
DEFPOINTS
 62
     0
 10
81.996417696888898
 20
228.6846274249427
 30
0.0
  0
POINT
  5
341
  8
DEFPOINTS
 62
     0
 10
81.996417696888898
 20
242.9846274249428
 30
0.0
  0
ENDBLK
  5
342
  8
0
  0
BLOCK
  8
0
  2
*U15
 70
     1
 10
0.0
 20
0.0
 30
0.0
  3
*U15
  1

  0
TEXT
  5
345
  8
AM_5
 62
     2
 10
87.971417696888906
 20
244.4846274249428
 30
0.0
 40
3.5
  1
1.87
  0
ENDBLK
  5
346
  8
0
  0
BLOCK
  8
0
  2
*D16
 70
     1
 10
0.0
 20
0.0
 30
0.0
  3
*D16
  1

  0
LINE
  5
349
  8
AM_5
 10
102.8498415836694
 20
195.3962375092654
 30
0.0
 11
102.8498415836694
 21
205.23172662828961
 31
0.0
  0
LINE
  5
34A
  8
AM_5
 10
104.3498415836694
 20
195.3962375092654
 30
0.0
 11
104.3498415836694
 21
205.23172662828961
 31
0.0
  0
LINE
  5
34B
  8
AM_5
 10
100.3498415836694
 20
204.23172662828961
 30
0.0
 11
97.849841583669445
 21
204.23172662828961
 31
0.0
  0
LINE
  5
34C
  8
AM_5
 10
106.8498415836694
 20
204.23172662828961
 30
0.0
 11
116.6948163305
 21
204.23172662828961
 31
0.0
  0
LINE
  5
34D
  8
AM_5
 10
102.8498415836694
 20
204.23172662828961
 30
0.0
 11
104.3498415836694
 21
204.23172662828961
 31
0.0
  0
INSERT
  5
34E
  8
AM_5
  2
_OPEN30
 10
102.8498415836694
 20
204.23172662828961
 30
0.0
 41
2.5
 42
2.5
 43
2.5
  0
INSERT
  5
34F
  8
AM_5
  2
_OPEN30
 10
104.3498415836694
 20
204.23172662828961
 30
0.0
 41
2.5
 42
2.5
 43
2.5
 50
180.0
  0
INSERT
  5
350
  8
プレ_ト
  2
*U17
 10
0.0
 20
0.0
 30
0.0
  0
POINT
  5
351
  8
DEFPOINTS
 62
     0
 10
102.8498415836694
 20
194.3962375092654
 30
0.0
  0
POINT
  5
352
  8
DEFPOINTS
 62
     0
 10
104.3498415836694
 20
194.3962375092654
 30
0.0
  0
POINT
  5
353
  8
DEFPOINTS
 62
     0
 10
104.3498415836694
 20
204.23172662828961
 30
0.0
  0
ENDBLK
  5
354
  8
0
  0
BLOCK
  8
0
  2
*U17
 70
     1
 10
0.0
 20
0.0
 30
0.0
  3
*U17
  1

  0
TEXT
  5
357
  8
AM_5
 62
     2
 10
110.3248415836694
 20
205.73172662828961
 30
0.0
 40
3.5
  1
1.5
  0
ENDBLK
  5
358
  8
0
  0
BLOCK
  8
0
  2
*D18
 70
     1
 10
0.0
 20
0.0
 30
0.0
  3
*D18
  1

  0
LINE
  5
35B
  8
AM_5
 10
75.046417696888952
 20
188.8962375092654
 30
0.0
 11
75.046417696888952
 21
205.0853252099439
 31
0.0
  0
LINE
  5
35C
  8
AM_5
 10
81.996417696888983
 20
196.3962375092654
 30
0.0
 11
81.996417696888983
 21
205.0853252099439
 31
0.0
  0
LINE
  5
35D
  8
AM_5
 10
72.546417696888952
 20
204.0853252099439
 30
0.0
 11
70.046417696888966
 21
204.0853252099439
 31
0.0
  0
LINE
  5
35E
  8
AM_5
 10
84.496417696888983
 20
204.0853252099439
 30
0.0
 11
86.996417696888983
 21
204.0853252099439
 31
0.0
  0
LINE
  5
35F
  8
AM_5
 10
75.046417696888952
 20
204.0853252099439
 30
0.0
 11
81.996417696888983
 21
204.0853252099439
 31
0.0
  0
INSERT
  5
360
  8
AM_5
  2
_OPEN30
 10
75.046417696888952
 20
204.0853252099439
 30
0.0
 41
2.5
 42
2.5
 43
2.5
  0
INSERT
  5
361
  8
AM_5
  2
_OPEN30
 10
81.996417696888983
 20
204.0853252099439
 30
0.0
 41
2.5
 42
2.5
 43
2.5
 50
180.0
  0
INSERT
  5
362
  8
プレ_ト
  2
*U19
 10
0.0
 20
0.0
 30
0.0
  0
POINT
  5
363
  8
DEFPOINTS
 62
     0
 10
75.046417696888952
 20
187.8962375092654
 30
0.0
  0
POINT
  5
364
  8
DEFPOINTS
 62
     0
 10
81.996417696888983
 20
195.3962375092654
 30
0.0
  0
POINT
  5
365
  8
DEFPOINTS
 62
     0
 10
81.996417696888983
 20
204.0853252099439
 30
0.0
  0
ENDBLK
  5
366
  8
0
  0
BLOCK
  8
0
  2
*U19
 70
     1
 10
0.0
 20
0.0
 30
0.0
  3
*U19
  1

  0
TEXT
  5
369
  8
AM_5
 62
     2
 10
74.347539654557508
 20
205.5853252099439
 30
0.0
 40
3.5
  1
6.95
  0
ENDBLK
  5
36A
  8
0
  0
BLOCK
  8
0
  2
*D20
 70
     1
 10
0.0
 20
0.0
 30
0.0
  3
*D20
  1

  0
LINE
  5
36D
  8
AM_5
 10
119.4498415836694
 20
189.04623750926541
 30
0.0
 11
129.15370518198739
 21
189.04623750926541
 31
0.0
  0
LINE
  5
36E
  8
AM_5
 10
119.4498415836694
 20
186.7462375092654
 30
0.0
 11
129.15370518198739
 21
186.7462375092654
 31
0.0
  0
LINE
  5
36F
  8
AM_5
 10
128.15370518198739
 20
184.2462375092654
 30
0.0
 11
128.15370518198739
 21
181.7462375092654
 31
0.0
  0
LINE
  5
370
  8
AM_5
 10
128.15370518198739
 20
191.5462375092653
 30
0.0
 11
128.1537051819875
 21
202.18009020885191
 31
0.0
  0
LINE
  5
371
  8
AM_5
 10
128.15370518198739
 20
186.7462375092654
 30
0.0
 11
128.15370518198739
 21
189.04623750926541
 31
0.0
  0
INSERT
  5
372
  8
AM_5
  2
_OPEN30
 10
128.15370518198739
 20
186.7462375092654
 30
0.0
 41
2.5
 42
2.5
 43
2.5
 50
90.0
  0
INSERT
  5
373
  8
AM_5
  2
_OPEN30
 10
128.15370518198739
 20
189.04623750926541
 30
0.0
 41
2.5
 42
2.5
 43
2.5
 50
270.0
  0
INSERT
  5
374
  8
プレ_ト
  2
*U21
 10
0.0
 20
0.0
 30
0.0
  0
POINT
  5
375
  8
DEFPOINTS
 62
     0
 10
118.4498415836694
 20
189.04623750926541
 30
0.0
  0
POINT
  5
376
  8
DEFPOINTS
 62
     0
 10
118.4498415836694
 20
186.7462375092654
 30
0.0
  0
POINT
  5
377
  8
DEFPOINTS
 62
     0
 10
128.15370518198739
 20
186.7462375092654
 30
0.0
  0
ENDBLK
  5
378
  8
0
  0
BLOCK
  8
0
  2
*U21
 70
     1
 10
0.0
 20
0.0
 30
0.0
  3
*U21
  1

  0
TEXT
  5
37B
  8
AM_5
 62
     2
 10
126.65370518198741
 20
195.1101154620213
 30
0.0
 40
3.5
  1
2.3
 50
90.0
  0
ENDBLK
  5
37C
  8
0
  0
BLOCK
  8
0
  2
*D22
 70
     1
 10
0.0
 20
0.0
 30
0.0
  3
*D22
  1

  0
LINE
  5
37F
  8
AM_5
 10
102.8498415836694
 20
179.3962375092654
 30
0.0
 11
102.8498415836694
 21
167.3962375092654
 31
0.0
  0
LINE
  5
380
  8
AM_5
 10
116.8498415836694
 20
182.8962375092654
 30
0.0
 11
116.8498415836694
 21
167.3962375092654
 31
0.0
  0
LINE
  5
381
  8
AM_5
 10
105.3498415836694
 20
168.3962375092654
 30
0.0
 11
114.3498415836694
 21
168.3962375092654
 31
0.0
  0
INSERT
  5
382
  8
AM_5
  2
_OPEN30
 10
102.8498415836694
 20
168.3962375092654
 30
0.0
 41
2.5
 42
2.5
 43
2.5
 50
180.0
  0
INSERT
  5
383
  8
AM_5
  2
_OPEN30
 10
116.8498415836694
 20
168.3962375092654
 30
0.0
 41
2.5
 42
2.5
 43
2.5
  0
INSERT
  5
384
  8
プレ_ト
  2
*U23
 10
0.0
 20
0.0
 30
0.0
  0
POINT
  5
385
  8
DEFPOINTS
 62
     0
 10
102.8498415836694
 20
180.3962375092654
 30
0.0
  0
POINT
  5
386
  8
DEFPOINTS
 62
     0
 10
116.8498415836694
 20
183.8962375092654
 30
0.0
  0
POINT
  5
387
  8
DEFPOINTS
 62
     0
 10
116.8498415836694
 20
168.3962375092654
 30
0.0
  0
ENDBLK
  5
388
  8
0
  0
BLOCK
  8
0
  2
*U23
 70
     1
 10
0.0
 20
0.0
 30
0.0
  3
*U23
  1

  0
TEXT
  5
38B
  8
AM_5
 62
     2
 10
107.5748415836694
 20
169.8962375092654
 30
0.0
 40
3.5
  1
14
  0
ENDBLK
  5
38C
  8
0
  0
BLOCK
  8
0
  2
*D24
 70
     1
 10
0.0
 20
0.0
 30
0.0
  3
*D24
  1

  0
LINE
  5
38F
  8
AM_5
 10
108.8498415836694
 20
182.8962375092654
 30
0.0
 11
108.8498415836694
 21
174.63036883820999
 31
0.0
  0
LINE
  5
390
  8
AM_5
 10
116.8498415836694
 20
182.8962375092654
 30
0.0
 11
116.8498415836694
 21
174.63036883820999
 31
0.0
  0
LINE
  5
391
  8
AM_5
 10
106.3498415836694
 20
175.63036883820999
 30
0.0
 11
103.8498415836694
 21
175.63036883820999
 31
0.0
  0
LINE
  5
392
  8
AM_5
 10
119.3498415836694
 20
175.63036883820999
 30
0.0
 11
121.8498415836694
 21
175.63036883820999
 31
0.0
  0
LINE
  5
393
  8
AM_5
 10
108.8498415836694
 20
175.63036883820999
 30
0.0
 11
116.8498415836694
 21
175.63036883820999
 31
0.0
  0
INSERT
  5
394
  8
AM_5
  2
_OPEN30
 10
108.8498415836694
 20
175.63036883820999
 30
0.0
 41
2.5
 42
2.5
 43
2.5
  0
INSERT
  5
395
  8
AM_5
  2
_OPEN30
 10
116.8498415836694
 20
175.63036883820999
 30
0.0
 41
2.5
 42
2.5
 43
2.5
 50
180.0
  0
INSERT
  5
396
  8
プレ_ト
  2
*U25
 10
0.0
 20
0.0
 30
0.0
  0
POINT
  5
397
  8
DEFPOINTS
 62
     0
 10
108.8498415836694
 20
183.8962375092654
 30
0.0
  0
POINT
  5
398
  8
DEFPOINTS
 62
     0
 10
116.8498415836694
 20
183.8962375092654
 30
0.0
  0
POINT
  5
399
  8
DEFPOINTS
 62
     0
 10
116.8498415836694
 20
175.63036883820999
 30
0.0
  0
ENDBLK
  5
39A
  8
0
  0
BLOCK
  8
0
  2
*U25
 70
     1
 10
0.0
 20
0.0
 30
0.0
  3
*U25
  1

  0
TEXT
  5
39D
  8
AM_5
 62
     2
 10
111.62484158366939
 20
177.13036883820999
 30
0.0
 40
3.5
  1
8
  0
ENDBLK
  5
39E
  8
0
  0
BLOCK
  8
0
  2
*D26
 70
     1
 10
0.0
 20
0.0
 30
0.0
  3
*D26
  1

  0
LINE
  5
3A1
  8
AM_5
 10
116.8498415836694
 20
182.8962375092654
 30
0.0
 11
116.8498415836694
 21
167.3962375092654
 31
0.0
  0
LINE
  5
3A2
  8
AM_5
 10
119.1498415836694
 20
186.1462375092654
 30
0.0
 11
119.1498415836694
 21
167.3962375092654
 31
0.0
  0
LINE
  5
3A3
  8
AM_5
 10
114.3498415836694
 20
168.3962375092654
 30
0.0
 11
111.8498415836694
 21
168.3962375092654
 31
0.0
  0
LINE
  5
3A4
  8
AM_5
 10
121.6498415836694
 20
168.3962375092654
 30
0.0
 11
132.2836942832559
 21
168.3962375092654
 31
0.0
  0
LINE
  5
3A5
  8
AM_5
 10
116.8498415836694
 20
168.3962375092654
 30
0.0
 11
119.1498415836694
 21
168.3962375092654
 31
0.0
  0
INSERT
  5
3A6
  8
AM_5
  2
_OPEN30
 10
116.8498415836694
 20
168.3962375092654
 30
0.0
 41
2.5
 42
2.5
 43
2.5
  0
INSERT
  5
3A7
  8
AM_5
  2
_OPEN30
 10
119.1498415836694
 20
168.3962375092654
 30
0.0
 41
2.5
 42
2.5
 43
2.5
 50
180.0
  0
INSERT
  5
3A8
  8
プレ_ト
  2
*U27
 10
0.0
 20
0.0
 30
0.0
  0
POINT
  5
3A9
  8
DEFPOINTS
 62
     0
 10
116.8498415836694
 20
183.8962375092654
 30
0.0
  0
POINT
  5
3AA
  8
DEFPOINTS
 62
     0
 10
119.1498415836694
 20
187.1462375092654
 30
0.0
  0
POINT
  5
3AB
  8
DEFPOINTS
 62
     0
 10
119.1498415836694
 20
168.3962375092654
 30
0.0
  0
ENDBLK
  5
3AC
  8
0
  0
BLOCK
  8
0
  2
*U27
 70
     1
 10
0.0
 20
0.0
 30
0.0
  3
*U27
  1

  0
TEXT
  5
3AF
  8
AM_5
 62
     2
 10
125.2137195364253
 20
169.8962375092654
 30
0.0
 40
3.5
  1
2.3
  0
ENDBLK
  5
3B0
  8
0
  0
BLOCK
  8
0
  2
*D28
 70
     1
 10
0.0
 20
0.0
 30
0.0
  3
*D28
  1

  0
LINE
  5
3B3
  8
AM_5
 10
72.628835155448698
 20
184.8999406856307
 30
0.0
 11
60.873500579206279
 21
170.3306463398111
 31
0.0
  0
LINE
  5
3B4
  8
AM_5
 10
60.873500579206279
 20
170.3306463398111
 30
0.0
 11
51.323500579206247
 21
170.3306463398111
 31
0.0
  0
INSERT
  5
3B5
  8
AM_5
  2
_OPEN30
 10
74.198693948591696
 20
186.84558797370511
 30
0.0
 41
2.5
 42
2.5
 43
2.5
 50
51.101438587233169
  0
INSERT
  5
3B6
  8
プレ_ト
  2
*U29
 10
0.0
 20
0.0
 30
0.0
  0
POINT
  5
3B7
  8
DEFPOINTS
 62
     0
 10
74.198693948591696
 20
186.84558797370511
 30
0.0
  0
POINT
  5
3B8
  8
DEFPOINTS
 62
     0
 10
75.894141445186222
 20
188.94688704482559
 30
0.0
  0
ENDBLK
  5
3B9
  8
0
  0
BLOCK
  8
0
  2
*U29
 70
     1
 10
0.0
 20
0.0
 30
0.0
  3
*U29
  1

  0
TEXT
  5
3BC
  8
AM_5
 62
     2
 10
50.798500579206369
 20
171.83064633981101
 30
0.0
 40
3.5
  1
\U+22052.7
  0
ENDBLK
  5
3BD
  8
0
  0
BLOCK
  8
0
  2
*D30
 70
     1
 10
0.0
 20
0.0
 30
0.0
  3
*D30
  1

  0
LINE
  5
3C0
  8
AM_5
 10
117.8498415836694
 20
191.8962375092654
 30
0.0
 11
137.0550477770615
 21
191.8962375092654
 31
0.0
  0
LINE
  5
3C1
  8
AM_5
 10
117.8498415836694
 20
183.8962375092654
 30
0.0
 11
137.0550477770615
 21
183.8962375092654
 31
0.0
  0
LINE
  5
3C2
  8
AM_5
 10
136.0550477770615
 20
194.3962375092654
 30
0.0
 11
136.0550477770615
 21
196.8962375092654
 31
0.0
  0
LINE
  5
3C3
  8
AM_5
 10
136.0550477770615
 20
181.3962375092654
 30
0.0
 11
136.0550477770615
 21
178.8962375092654
 31
0.0
  0
LINE
  5
3C4
  8
AM_5
 10
136.0550477770615
 20
191.8962375092654
 30
0.0
 11
136.0550477770615
 21
183.8962375092654
 31
0.0
  0
INSERT
  5
3C5
  8
AM_5
  2
_OPEN30
 10
136.0550477770615
 20
191.8962375092654
 30
0.0
 41
2.5
 42
2.5
 43
2.5
 50
270.0
  0
INSERT
  5
3C6
  8
AM_5
  2
_OPEN30
 10
136.0550477770615
 20
183.8962375092654
 30
0.0
 41
2.5
 42
2.5
 43
2.5
 50
90.0
  0
INSERT
  5
3C7
  8
プレ_ト
  2
*U31
 10
0.0
 20
0.0
 30
0.0
  0
POINT
  5
3C8
  8
DEFPOINTS
 62
     0
 10
116.8498415836694
 20
191.8962375092654
 30
0.0
  0
POINT
  5
3C9
  8
DEFPOINTS
 62
     0
 10
116.8498415836694
 20
183.8962375092654
 30
0.0
  0
POINT
  5
3CA
  8
DEFPOINTS
 62
     0
 10
136.0550477770615
 20
183.8962375092654
 30
0.0
  0
ENDBLK
  5
3CB
  8
0
  0
BLOCK
  8
0
  2
*U31
 70
     1
 10
0.0
 20
0.0
 30
0.0
  3
*U31
  1

  0
TEXT
  5
3CE
  8
AM_5
 62
     2
 10
134.5550477770615
 20
186.67123750926541
 30
0.0
 40
3.5
  1
8
 50
90.0
  0
ENDBLK
  5
3CF
  8
0
  0
BLOCK
  8
0
  2
TK-TITLE
 70
     2
 10
0.0
 20
0.0
 30
0.0
  3
TK-TITLE
  1

  0
ATTDEF
  5
3D2
  8
0
 10
-8.0023091895458265
 20
1.7051894343950349
 30
0.0
 40
2.5
  1

  3
Rev.
  2
GEN-TITLE-NR2
 70
     0
  0
ATTDEF
  5
3D3
  8
0
 10
-84.142519015853296
 20
12.82790432564377
 30
0.0
 40
3.5
  1

  3
品名
  2
GEN-TITLE-DES1
 70
     0
  0
LINE
  5
3D4
  8
0
 10
0.0
 20
0.0
 30
0.0
 11
0.0
 21
50.0
 31
0.0
1001
GENIUS_GENREC_14
1002
{
1000
PYDIR
1011
-414.0
1021
0.0
1031
0.0
1021
291.0
1031
0.0
1002
}
1002
{
1000
PXDIR
1011
6.0
1021
0.0
1031
0.0
1021
-6.0
1031
0.0
1002
}
1002
{
1000
PORI
1011
-414.0
1021
0.0
1031
0.0
1021
-6.0
1031
0.0
1002
}
1002
{
1000
PINS
1011
-414.0
1021
0.0
1031
0.0
1021
-6.0
1031
0.0
1002
}
1002
{
1000
HVAL
1000
297
1002
}
1002
{
1000
H
1070
     2
1002
}
1002
{
1000
WVAL
1000
420
1002
}
1002
{
1000
W
1070
     2
1002
}
1002
{
1000
C
1070
     1
1002
}
1001
GENIUS_GENODEF_13
1002
{
1000
HIER
1070
     0
1002
}
1002
{
1000
MANEDIT
1070
     0
1002
}
1002
{
1000
NOSEL
1070
     0
1002
}
1002
{
1000
BEHIND
1070
     0
1002
}
1002
{
1000
OTHER
1070
     0
1002
}
1002
{
1000
REACTOR
1002
}
1001
GENIUS_GENOBJ-N-REC_13
1002
{
1000
OWNER
1000
GEN
1002
}
  0
ATTDEF
  5
3D5
  8
0
 10
-84.0
 20
9.1499999999999488
 30
0.0
 40
2.5
  1

  3
サブタイトル
  2
GEN-TITLE-DES2
 70
     0
  0
ATTDEF
  5
3D6
  8
0
 10
-84.0
 20
1.999999999999956
 30
0.0
 40
3.0
  1

  3
図番
  2
GEN-TITLE-NR1
 70
     0
  0
LINE
  5
3D7
  8
0
 10
-96.0
 20
50.0
 30
0.0
 11
-96.0
 21
-0.0000000000000142
 31
0.0
1001
GENIUS_GENREC_14
1002
{
1000
PYDIR
1011
-96.0
1021
0.0
1031
0.0
1021
50.0
1031
0.0
1002
}
1002
{
1000
PXDIR
1011
88.0
1021
0.0
1031
0.0
1021
-0.0000000000000142
1031
0.0
1002
}
1002
{
1000
PORI
1011
-96.0
1021
0.0
1031
0.0
1021
-0.0000000000000142
1031
0.0
1002
}
1002
{
1000
PINS
1011
-12.5
1021
0.0
1031
0.0
1021
24.999999999999989
1031
0.0
1002
}
1002
{
1000
HVAL
1000
50
1002
}
1002
{
1000
H
1070
     2
1002
}
1002
{
1000
WVAL
1000
167
1002
}
1002
{
1000
W
1070
     2
1002
}
1002
{
1000
C
1070
     4
1002
}
1001
GENIUS_GENODEF_13
1002
{
1000
HIER
1070
     0
1002
}
1002
{
1000
MANEDIT
1070
     0
1002
}
1002
{
1000
NOSEL
1070
     0
1002
}
1002
{
1000
BEHIND
1070
     0
1002
}
1002
{
1000
REACTOR
1002
}
1001
GENIUS_GENOBJ-N-REC_13
1002
{
1000
OWNER
1000
GEN
1002
}
  0
LINE
  5
3D8
  8
0
 10
0.0
 20
50.0
 30
0.0
 11
-193.00000000000011
 21
50.000000000000021
 31
0.0
1001
GENIUS_GENREC_14
1002
{
1000
PYDIR
1011
-184.0
1021
0.0
1031
0.0
1021
50.0
1031
0.0
1002
}
1002
{
1000
PXDIR
1011
0.0
1021
0.0
1031
0.0
1021
0.0
1031
0.0
1002
}
1002
{
1000
PORI
1011
-184.0
1021
0.0
1031
0.0
1021
0.0
1031
0.0
1002
}
1002
{
1000
PINS
1011
-100.5
1021
0.0
1031
0.0
1021
25.0
1031
0.0
1002
}
1002
{
1000
HVAL
1000
50
1002
}
1002
{
1000
H
1070
     2
1002
}
1002
{
1000
WVAL
1000
167
1002
}
1002
{
1000
W
1070
     2
1002
}
1002
{
1000
C
1070
     4
1002
}
1001
GENIUS_GENODEF_13
1002
{
1000
HIER
1070
     0
1002
}
1002
{
1000
MANEDIT
1070
     0
1002
}
1002
{
1000
NOSEL
1070
     0
1002
}
1002
{
1000
BEHIND
1070
     0
1002
}
1002
{
1000
REACTOR
1002
}
1001
GENIUS_GENOBJ-N-REC_13
1002
{
1000
OWNER
1000
GEN
1002
}
  0
LINE
  5
3D9
  8
0
 10
-193.00000000000011
 20
0.0
 30
0.0
 11
0.0
 21
0.0
 31
0.0
1001
GENIUS_GENREC_14
1002
{
1000
PYDIR
1011
-184.0
1021
0.0
1031
0.0
1021
50.0
1031
0.0
1002
}
1002
{
1000
PXDIR
1011
0.0
1021
0.0
1031
0.0
1021
0.0
1031
0.0
1002
}
1002
{
1000
PORI
1011
-184.0
1021
0.0
1031
0.0
1021
0.0
1031
0.0
1002
}
1002
{
1000
PINS
1011
-100.5
1021
0.0
1031
0.0
1021
25.0
1031
0.0
1002
}
1002
{
1000
HVAL
1000
50
1002
}
1002
{
1000
H
1070
     2
1002
}
1002
{
1000
WVAL
1000
167
1002
}
1002
{
1000
W
1070
     2
1002
}
1002
{
1000
C
1070
     4
1002
}
1001
GENIUS_GENODEF_13
1002
{
1000
HIER
1070
     0
1002
}
1002
{
1000
MANEDIT
1070
     0
1002
}
1002
{
1000
NOSEL
1070
     0
1002
}
1002
{
1000
BEHIND
1070
     0
1002
}
1002
{
1000
REACTOR
1002
}
1001
GENIUS_GENOBJ-N-REC_13
1002
{
1000
OWNER
1000
GEN
1002
}
  0
TEXT
  5
3DA
  8
RAHM2
 10
-91.926776695296624
 20
45.65000000000002
 30
0.0
 40
2.5
  1
5
 72
     1
 11
-91.0
 21
45.65000000000002
 31
0.0
 73
     1
  0
TEXT
  5
3DB
  8
RAHM2
 10
-92.0
 20
40.650000000000027
 30
0.0
 40
2.5
  1
4
 72
     1
 11
-91.0
 21
40.650000000000027
 31
0.0
 73
     1
  0
TEXT
  5
3DC
  8
RAHM2
 10
-91.926776695296624
 20
35.649999999999991
 30
0.0
 40
2.5
  1
3
 72
     1
 11
-91.0
 21
35.649999999999991
 31
0.0
 73
     1
  0
TEXT
  5
3DD
  8
RAHM2
 10
-91.918331692913384
 20
30.65000000000002
 30
0.0
 40
2.5
  1
2
 72
     1
 11
-91.0
 21
30.65000000000002
 31
0.0
 73
     1
  0
TEXT
  5
3DE
  8
RAHM2
 10
-91.815586356580184
 20
25.65000000000002
 30
0.0
 40
2.5
  1
1
 72
     1
 11
-91.190586356580184
 21
25.65000000000002
 31
0.0
 73
     1
  0
INSERT
  5
3DF
  8
プレ_ト
  2
*U33
 10
0.0
 20
0.0
 30
0.0
  0
LINE
  5
3E0
  8
RAHM2
 10
-96.0
 20
25.0
 30
0.0
 11
0.0000000000001137
 21
25.000000000000028
 31
0.0
  0
LINE
  5
3E1
  8
RAHM2
 10
-93.424871130596443
 20
25.40000000000002
 30
0.0
 11
-88.575128869403557
 21
25.40000000000002
 31
0.0
  0
LINE
  5
3E2
  8
RAHM2
 10
-88.575128869403557
 20
25.40000000000002
 30
0.0
 11
-91.0
 21
29.600000000000009
 31
0.0
  0
LINE
  5
3E3
  8
RAHM2
 10
-91.0
 20
29.600000000000009
 30
0.0
 11
-93.424871130596443
 21
25.40000000000002
 31
0.0
  0
INSERT
  5
3E4
  8
プレ_ト
  2
*U34
 10
0.0
 20
0.0
 30
0.0
  0
INSERT
  5
3E5
  8
プレ_ト
  2
*U35
 10
0.0
 20
0.0
 30
0.0
  0
INSERT
  5
3E6
  8
プレ_ト
  2
*U36
 10
0.0
 20
0.0
 30
0.0
  0
INSERT
  5
3E7
  8
プレ_ト
  2
*U37
 10
0.0
 20
0.0
 30
0.0
  0
INSERT
  5
3E8
  8
プレ_ト
  2
*U38
 10
0.0
 20
0.0
 30
0.0
  0
INSERT
  5
3E9
  8
プレ_ト
  2
*U39
 10
0.0
 20
0.0
 30
0.0
  0
LINE
  5
3EA
  8
RAHM2
 10
-11.82081941068907
 20
50.000000000000021
 30
0.0
 11
-11.82081941068907
 21
19.99999999999994
 31
0.0
  0
INSERT
  5
3EB
  8
プレ_ト
  2
*U40
 10
0.0
 20
0.0
 30
0.0
  0
LINE
  5
3EC
  8
RAHM2
 10
-31.820819410689069
 20
50.000000000000021
 30
0.0
 11
-31.820819410689179
 21
19.99999999999994
 31
0.0
  0
LINE
  5
3ED
  8
RAHM2
 10
-91.0
 20
49.600000000000001
 30
0.0
 11
-93.424871130596443
 21
45.400000000000013
 31
0.0
  0
LINE
  5
3EE
  8
RAHM2
 10
-91.0
 20
44.599999999999987
 30
0.0
 11
-93.424871130596443
 21
40.400000000000013
 31
0.0
  0
LINE
  5
3EF
  8
RAHM2
 10
-91.0
 20
39.600000000000009
 30
0.0
 11
-93.424871130596443
 21
35.400000000000027
 31
0.0
  0
LINE
  5
3F0
  8
RAHM2
 10
-88.575128869403557
 20
35.400000000000027
 30
0.0
 11
-91.0
 21
39.600000000000009
 31
0.0
  0
LINE
  5
3F1
  8
RAHM2
 10
-93.424871130596443
 20
35.400000000000027
 30
0.0
 11
-88.575128869403557
 21
35.400000000000027
 31
0.0
  0
LINE
  5
3F2
  8
RAHM2
 10
-88.575128869403557
 20
40.400000000000013
 30
0.0
 11
-91.0
 21
44.599999999999987
 31
0.0
  0
LINE
  5
3F3
  8
RAHM2
 10
-93.424871130596443
 20
40.400000000000013
 30
0.0
 11
-88.575128869403557
 21
40.400000000000013
 31
0.0
  0
LINE
  5
3F4
  8
RAHM2
 10
-88.575128869403557
 20
45.400000000000013
 30
0.0
 11
-91.0
 21
49.600000000000001
 31
0.0
  0
LINE
  5
3F5
  8
RAHM2
 10
-93.424871130596443
 20
45.400000000000013
 30
0.0
 11
-88.575128869403557
 21
45.400000000000013
 31
0.0
  0
INSERT
  5
3F6
  8
プレ_ト
  2
*U41
 10
0.0
 20
0.0
 30
0.0
  0
INSERT
  5
3F7
  8
プレ_ト
  2
*U42
 10
0.0
 20
0.0
 30
0.0
  0
LINE
  5
3F8
  8
RAHM2
 10
-93.424871130596443
 20
30.40000000000002
 30
0.0
 11
-88.575128869403557
 21
30.40000000000002
 31
0.0
  0
LINE
  5
3F9
  8
RAHM2
 10
-86.0
 20
50.0
 30
0.0
 11
-86.0
 21
19.999999999999918
 31
0.0
  0
LINE
  5
3FA
  8
RAHM2
 10
-91.0
 20
34.600000000000009
 30
0.0
 11
-93.424871130596443
 21
30.40000000000002
 31
0.0
  0
LINE
  5
3FB
  8
RAHM2
 10
-88.575128869403557
 20
30.40000000000002
 30
0.0
 11
-91.0
 21
34.600000000000009
 31
0.0
  0
INSERT
  5
3FC
  8
プレ_ト
  2
*U43
 10
0.0
 20
0.0
 30
0.0
  0
LINE
  5
3FD
  8
0
 10
-96.0
 20
19.999999999999972
 30
0.0
 11
0.0000000000001137
 21
19.999999999999972
 31
0.0
  0
LINE
  5
3FE
  8
0
 10
-96.0
 20
7.0
 30
0.0
 11
0.0000000000001137
 21
7.0
 31
0.0
  0
LINE
  5
3FF
  8
RAHM2
 10
-96.0
 20
45.000000000000021
 30
0.0
 11
0.0000000000001137
 21
45.000000000000021
 31
0.0
  0
LINE
  5
400
  8
RAHM2
 10
-96.0
 20
39.999999999999929
 30
0.0
 11
0.0000000000001137
 21
40.000000000000007
 31
0.0
  0
LINE
  5
401
  8
RAHM2
 10
-96.0
 20
35.000000000000028
 30
0.0
 11
0.0000000000001137
 21
35.000000000000028
 31
0.0
  0
LINE
  5
402
  8
RAHM2
 10
-96.0
 20
29.999999999999929
 30
0.0
 11
0.0000000000001137
 21
30.000000000000028
 31
0.0
  0
LINE
  5
403
  8
0
 10
-21.175419266257109
 20
0.0
 30
0.0
 11
-21.17541926625734
 21
7.0
 31
0.0
  0
INSERT
  5
404
  8
プレ_ト
  2
*U44
 10
0.0
 20
0.0
 30
0.0
  0
INSERT
  5
405
  8
プレ_ト
  2
*U45
 10
0.0
 20
0.0
 30
0.0
  0
LINE
  5
406
  8
0
 10
-167.0
 20
19.999999999999918
 30
0.0
 11
-96.0
 21
19.999999999999918
 31
0.0
  0
LINE
  5
407
  8
0
 10
-113.75
 20
19.999999999999918
 30
0.0
 11
-113.75
 21
-0.0000000000000533
 31
0.0
  0
LINE
  5
408
  8
0
 10
-131.50000000000011
 20
19.999999999999918
 30
0.0
 11
-131.50000000000011
 21
-0.0000000000000533
 31
0.0
  0
INSERT
  5
409
  8
プレ_ト
  2
*U46
 10
0.0
 20
0.0
 30
0.0
  0
LINE
  5
40A
  8
0
 10
-167.0
 20
49.99999999999995
 30
0.0
 11
-167.0
 21
-0.0000000000000497
 31
0.0
  0
LINE
  5
40B
  8
0
 10
-149.25000000000011
 20
19.999999999999918
 30
0.0
 11
-149.25000000000011
 21
-0.0000000000000462
 31
0.0
  0
INSERT
  5
40C
  8
プレ_ト
  2
*U47
 10
0.0
 20
0.0
 30
0.0
  0
INSERT
  5
40D
  8
プレ_ト
  2
*U48
 10
0.0
 20
0.0
 30
0.0
  0
LINE
  5
40E
  8
0
 10
-167.0
 20
29.999999999999929
 30
0.0
 11
-96.0
 21
29.999999999999929
 31
0.0
  0
INSERT
  5
40F
  8
プレ_ト
  2
*U49
 10
0.0
 20
0.0
 30
0.0
  0
ATTDEF
  5
410
  8
0
 10
-148.96186758352911
 20
43.299999999999898
 30
0.0
 40
3.0
  1

  3
材質
  2
GEN-TITLE-MAT1
 70
     0
  0
ATTDEF
  5
411
  8
0
 10
-148.96186758352911
 20
33.299999999999912
 30
0.0
 40
3.0
  1

  3
表面処理
  2
GEN-TITLE-MAT2
 70
     0
  0
INSERT
  5
412
  8
プレ_ト
  2
*U50
 10
0.0
 20
0.0
 30
0.0
  0
INSERT
  5
413
  8
プレ_ト
  2
*U51
 10
0.0
 20
0.0
 30
0.0
  0
LINE
  5
414
  8
0
 10
-167.0
 20
39.999999999999908
 30
0.0
 11
-96.0
 21
39.999999999999922
 31
0.0
  0
LINE
  5
415
  8
0
 10
-167.0
 20
24.999999999999972
 30
0.0
 11
-193.00000000000011
 21
24.999999999999972
 31
0.0
  0
LINE
  5
416
  8
0
 10
-171.71674187457961
 20
46.74999999999995
 30
0.0
 11
-171.71674187457961
 21
40.749999999999929
 31
0.0
  0
LINE
  5
417
  8
7A
 10
-184.71674187457961
 20
43.74999999999995
 30
0.0
 11
-184.71674187457961
 21
40.039917242284723
 31
0.0
1001
GENIUS_GENOREF_13
1005
429
  0
LINE
  5
418
  8
7A
 10
-184.71674187457961
 20
43.74999999999995
 30
0.0
 11
-188.43977924583069
 21
43.74999999999995
 31
0.0
1001
GENIUS_GENOREF_13
1005
429
  0
LINE
  5
419
  8
0
 10
-179.71674187457961
 20
41.74999999999995
 30
0.0
 11
-179.71674187457961
 21
45.749999999999929
 31
0.0
  0
CIRCLE
  5
41A
  8
0
 10
-184.71674187457961
 20
43.74999999999995
 30
0.0
 40
3.0
  0
CIRCLE
  5
41B
  8
0
 10
-184.71674187457961
 20
43.74999999999995
 30
0.0
 40
2.0
  0
LINE
  5
41C
  8
7A
 10
-184.71674187457961
 20
43.74999999999995
 30
0.0
 11
-184.71674187457961
 21
47.324786644731432
 31
0.0
1001
GENIUS_GENOREF_13
1005
429
  0
LINE
  5
41D
  8
0
 10
-171.71674187457961
 20
40.749999999999929
 30
0.0
 11
-179.71674187457961
 21
41.74999999999995
 31
0.0
  0
LINE
  5
41E
  8
0
 10
-179.71674187457961
 20
45.749999999999929
 30
0.0
 11
-171.71674187457961
 21
46.74999999999995
 31
0.0
  0
LINE
  5
41F
  8
7A
 10
-184.71674187457961
 20
43.74999999999995
 30
0.0
 11
-170.93543347429431
 21
43.74999999999995
 31
0.0
1001
GENIUS_GENOREF_13
1005
429
  0
LINE
  5
420
  8
0
 10
-193.00000000000011
 20
50.0
 30
0.0
 11
-193.00000000000011
 21
-0.0000000000000142
 31
0.0
  0
ATTDEF
  5
421
  8
0
 10
-175.61274091260941
 20
15.79999999999994
 30
0.0
 40
3.0
  1

 72
     2
 11
-175.61274091260941
 21
15.79999999999994
 31
0.0
  3
数量
  2
GEN-TITLE-QTY
 70
     0
 74
     1
  0
INSERT
  5
422
  8
プレ_ト
  2
*U52
 10
0.0
 20
0.0
 30
0.0
  0
INSERT
  5
423
  8
プレ_ト
  2
*U53
 10
0.0
 20
0.0
 30
0.0
  0
ATTDEF
  5
424
  8
0
 10
-177.824739614424
 20
28.299999999999979
 30
0.0
 40
3.0
  1

 72
     2
 11
-177.824739614424
 21
28.299999999999979
 31
0.0
  3
尺度
  2
GEN-TITLE-SCA
 70
     0
 74
     1
  0
INSERT
  5
425
  8
プレ_ト
  2
*U54
 10
0.0
 20
0.0
 30
0.0
  0
ATTDEF
  5
426
  8
0
 10
-180.2171951662138
 20
3.588342537610663
 30
0.0
 40
3.0
  1

 72
     1
 11
-180.2171951662138
 21
3.588342537610663
 31
0.0
  3
日付
  2
GEN-TITLE-DAT
 70
     0
 74
     1
  0
LINE
  5
427
  8
0
 10
-167.0
 20
37.499999999999979
 30
0.0
 11
-193.00000000000011
 21
37.499999999999979
 31
0.0
  0
LINE
  5
428
  8
0
 10
-167.0
 20
12.499999999999959
 30
0.0
 11
-193.00000000000011
 21
12.499999999999959
 31
0.0
  0
POINT
  5
429
  8
0
 10
-418.53555798196749
 20
-138.11048412682541
 30
0.0
1001
GENIUS_GENODEF_13
1002
{
1000
HIER
1070
    10
1002
}
1002
{
1000
MANEDIT
1070
     0
1002
}
1002
{
1000
NOSEL
1070
     0
1002
}
1002
{
1000
BEHIND
1070
     0
1002
}
1002
{
1000
REACTOR
1002
}
1001
GENIUS_GENOBJ-N-CRS_13
1002
{
1000
OWNER
1000
GEN
1002
}
1001
GENIUS_GENOENT_13
1002
{
1000
MYREF
1005
429
1002
}
1002
{
1000
GRP
1005
0
1002
}
1001
GENIUS_GENOLIS_13
1002
{
1000
ENT
1005
417
1005
418
1005
41C
1005
41F
1002
}
  0
ENDBLK
  5
42A
  8
0
  0
BLOCK
  8
0
  2
*U33
 70
     1
 10
0.0
 20
0.0
 30
0.0
  3
*U33
  1

  0
TEXT
  5
42D
  8
RAHM2
 10
-26.1749422164166
 20
26.250000000000028
 30
0.0
 40
2.5
  1
・  ・   
  0
ENDBLK
  5
42E
  8
0
  0
BLOCK
  8
0
  2
*U34
 70
     1
 10
0.0
 20
0.0
 30
0.0
  3
*U34
  1

  0
TEXT
  5
431
  8
RAHM2
 10
-26.1749422164166
 20
46.250000000000021
 30
0.0
 40
2.5
  1
・  ・   
  0
ENDBLK
  5
432
  8
0
  0
BLOCK
  8
0
  2
*U35
 70
     1
 10
0.0
 20
0.0
 30
0.0
  3
*U35
  1

  0
TEXT
  5
435
  8
RAHM2
 10
-26.1749422164166
 20
36.250000000000021
 30
0.0
 40
2.5
  1
・  ・   
  0
ENDBLK
  5
436
  8
0
  0
BLOCK
  8
0
  2
*U36
 70
     1
 10
0.0
 20
0.0
 30
0.0
  3
*U36
  1

  0
TEXT
  5
439
  8
RAHM2
 10
-26.1749422164166
 20
41.250000000000007
 30
0.0
 40
2.5
  1
・  ・   
  0
ENDBLK
  5
43A
  8
0
  0
BLOCK
  8
0
  2
*U37
 70
     1
 10
0.0
 20
0.0
 30
0.0
  3
*U37
  1

  0
TEXT
  5
43D
  8
RAHM2
 10
-8.9104097053444775
 20
21.249999999999972
 30
0.0
 40
2.5
  1
担当
  0
ENDBLK
  5
43E
  8
0
  0
BLOCK
  8
0
  2
*U38
 70
     1
 10
0.0
 20
0.0
 30
0.0
  3
*U38
  1

  0
TEXT
  5
441
  8
RAHM2
 10
-29.058939215691112
 20
21.249999999999972
 30
0.0
 40
2.5
  1
年・月・日
  0
ENDBLK
  5
442
  8
0
  0
BLOCK
  8
0
  2
*U39
 70
     1
 10
0.0
 20
0.0
 30
0.0
  3
*U39
  1

  0
TEXT
  5
445
  8
RAHM2
 10
-26.1749422164166
 20
31.250000000000028
 30
0.0
 40
2.5
  1
・  ・   
  0
ENDBLK
  5
446
  8
0
  0
BLOCK
  8
0
  2
*U40
 70
     1
 10
0.0
 20
0.0
 30
0.0
  3
*U40
  1

  0
TEXT
  5
449
  8
RAHM2
 10
-65.0
 20
21.249999999999961
 30
0.0
 40
2.5
  1
変更記事
  0
ENDBLK
  5
44A
  8
0
  0
BLOCK
  8
0
  2
*U41
 70
     1
 10
0.0
 20
0.0
 30
0.0
  3
*U41
  1

  0
TEXT
  5
44D
  8
RAHM2
 10
-94.800255137131444
 20
16.301035407279599
 30
0.0
 40
2.5
  1
品名
  0
ENDBLK
  5
44E
  8
0
  0
BLOCK
  8
0
  2
*U42
 70
     1
 10
0.0
 20
0.0
 30
0.0
  3
*U42
  1

  0
TEXT
  5
451
  8
RAHM2
 10
-94.0
 20
21.249999999999961
 30
0.0
 40
2.5
  1
符号
  0
ENDBLK
  5
452
  8
0
  0
BLOCK
  8
0
  2
*U43
 70
     1
 10
0.0
 20
0.0
 30
0.0
  3
*U43
  1

  0
TEXT
  5
455
  8
RAHM2
 10
-94.800255137131444
 20
3.3010354072796271
 30
0.0
 40
2.5
  1
図番
  0
ENDBLK
  5
456
  8
0
  0
BLOCK
  8
0
  2
*U44
 70
     1
 10
0.0
 20
0.0
 30
0.0
  3
*U44
  1

  0
TEXT
  5
459
  8
RAHM2
 10
-19.982425929334902
 20
2.1847624665659842
 30
0.0
 40
2.5
  1
Rev.
  0
ENDBLK
  5
45A
  8
0
  0
BLOCK
  8
0
  2
*U45
 70
     1
 10
0.0
 20
0.0
 30
0.0
  3
*U45
  1

  0
TEXT
  5
45D
  8
RAHM2
 10
-107.6875
 20
16.301035407279571
 30
0.0
 40
2.5
  1
製図
  0
ENDBLK
  5
45E
  8
0
  0
BLOCK
  8
0
  2
*U46
 70
     1
 10
0.0
 20
0.0
 30
0.0
  3
*U46
  1

  0
TEXT
  5
461
  8
RAHM2
 10
-125.4375000000001
 20
16.301035407279581
 30
0.0
 40
2.5
  1
検図
  0
ENDBLK
  5
462
  8
0
  0
BLOCK
  8
0
  2
*U47
 70
     1
 10
0.0
 20
0.0
 30
0.0
  3
*U47
  1

  0
TEXT
  5
465
  8
RAHM2
 10
-143.18750000000011
 20
16.301035407279581
 30
0.0
 40
2.5
  1
承認
  0
ENDBLK
  5
466
  8
0
  0
BLOCK
  8
0
  2
*U48
 70
     1
 10
0.0
 20
0.0
 30
0.0
  3
*U48
  1

  0
TEXT
  5
469
  8
RAHM2
 10
-160.93750000000011
 20
16.30103540727956
 30
0.0
 40
2.5
  1
承認
  0
ENDBLK
  5
46A
  8
0
  0
BLOCK
  8
0
  2
*U49
 70
     1
 10
0.0
 20
0.0
 30
0.0
  3
*U49
  1

  0
TEXT
  5
46D
  8
0
 10
-156.35532994923869
 20
23.418781725888241
 30
0.0
 40
3.5
  1
株式会社タカチ電機工業
  0
ENDBLK
  5
46E
  8
0
  0
BLOCK
  8
0
  2
*U50
 70
     1
 10
0.0
 20
0.0
 30
0.0
  3
*U50
  1

  0
TEXT
  5
471
  8
RAHM2
 10
-165.80025513713139
 20
46.301035407279542
 30
0.0
 40
2.5
  1
材質
  0
ENDBLK
  5
472
  8
0
  0
BLOCK
  8
0
  2
*U51
 70
     1
 10
0.0
 20
0.0
 30
0.0
  3
*U51
  1

  0
TEXT
  5
475
  8
RAHM2
 10
-165.80025513713139
 20
36.301035407279571
 30
0.0
 40
2.5
  1
表面処理
  0
ENDBLK
  5
476
  8
0
  0
BLOCK
  8
0
  2
*U52
 70
     1
 10
0.0
 20
0.0
 30
0.0
  3
*U52
  1

  0
TEXT
  5
479
  8
RAHM2
 10
-191.8002551371315
 20
21.301035407279631
 30
0.0
 40
2.5
  1
数量
  0
ENDBLK
  5
47A
  8
0
  0
BLOCK
  8
0
  2
*U53
 70
     1
 10
0.0
 20
0.0
 30
0.0
  3
*U53
  1

  0
TEXT
  5
47D
  8
RAHM2
 10
-191.8002551371315
 20
33.801035407279663
 30
0.0
 40
2.5
  1
尺度
  0
ENDBLK
  5
47E
  8
0
  0
BLOCK
  8
0
  2
*U54
 70
     1
 10
0.0
 20
0.0
 30
0.0
  3
*U54
  1

  0
TEXT
  5
481
  8
RAHM2
 10
-191.8002551371315
 20
8.8010354072796062
 30
0.0
 40
2.5
  1
日付
  0
ENDBLK
  5
482
  8
0
  0
BLOCK
  8
0
  2
A$C35C16C4D
 70
     0
 10
0.0
 20
0.0
 30
0.0
  3
A$C35C16C4D
  1

  0
CIRCLE
  5
485
  8
ﾋ_ｽ
 10
0.0
 20
0.0
 30
0.0
 40
2.6500000000005151
  0
LINE
  5
486
  8
ﾋ_ｽ
 10
0.2840909090908781
 20
-1.2500000000000551
 30
0.0
 11
-0.2840909090908781
 21
-1.2500000000000551
 31
0.0
  0
LINE
  5
487
  8
ﾋ_ｽ
 10
-0.2840909090909349
 20
1.249999999999942
 30
0.0
 11
0.2840909090908781
 21
1.249999999999942
 31
0.0
  0
LINE
  5
488
  8
ﾋ_ｽ
 10
-1.25
 20
0.2840909090908781
 30
0.0
 11
-1.0795454545454941
 21
0.2840909090908781
 31
0.0
  0
LINE
  5
489
  8
ﾋ_ｽ
 10
-0.2840909090909349
 20
1.079545454545382
 30
0.0
 11
-0.2840909090909349
 21
1.249999999999942
 31
0.0
  0
ARC
  5
48A
  8
ﾋ_ｽ
 10
-1.0795454545454941
 20
1.079545454545382
 30
0.0
 40
0.7954545454545431
 50
270.0
 51
0.0
  0
ARC
  5
48B
  8
ﾋ_ｽ
 10
-1.079545454545439
 20
-1.079545454545439
 30
0.0
 40
0.7954545454545431
 50
0.0
 51
90.0
  0
LINE
  5
48C
  8
ﾋ_ｽ
 10
-1.25
 20
-0.2840909090909349
 30
0.0
 11
-1.25
 21
0.2840909090908781
 31
0.0
  0
LINE
  5
48D
  8
ﾋ_ｽ
 10
-1.079545454545439
 20
-0.2840909090909349
 30
0.0
 11
-1.25
 21
-0.2840909090909349
 31
0.0
  0
LINE
  5
48E
  8
ﾋ_ｽ
 10
-0.2840909090908781
 20
-1.249999999999942
 30
0.0
 11
-0.2840909090908781
 21
-1.079545454545439
 31
0.0
  0
ARC
  5
48F
  8
ﾋ_ｽ
 10
1.0795454545454941
 20
-1.079545454545439
 30
0.0
 40
0.7954545454545431
 50
90.0
 51
180.0
  0
LINE
  5
490
  8
ﾋ_ｽ
 10
0.2840909090908781
 20
-1.079545454545439
 30
0.0
 11
0.2840909090908781
 21
-1.2500000000000551
 31
0.0
  0
LINE
  5
491
  8
ﾋ_ｽ
 10
1.25
 20
-0.2840909090909349
 30
0.0
 11
1.0795454545454941
 21
-0.2840909090909349
 31
0.0
  0
LINE
  5
492
  8
ﾋ_ｽ
 10
1.25
 20
0.2840909090908781
 30
0.0
 11
1.25
 21
-0.2840909090909349
 31
0.0
  0
ARC
  5
493
  8
ﾋ_ｽ
 10
1.079545454545439
 20
1.079545454545382
 30
0.0
 40
0.7954545454545431
 50
180.0
 51
270.0
  0
LINE
  5
494
  8
ﾋ_ｽ
 10
1.079545454545439
 20
0.2840909090908781
 30
0.0
 11
1.25
 21
0.2840909090908781
 31
0.0
  0
LINE
  5
495
  8
ﾋ_ｽ
 10
0.2840909090908781
 20
1.249999999999942
 30
0.0
 11
0.2840909090908781
 21
1.079545454545439
 31
0.0
  0
ENDBLK
  5
496
  8
0
  0
BLOCK
  8
0
  2
A$C47270E8E
 70
     0
 10
0.0
 20
0.0
 30
0.0
  3
A$C47270E8E
  1

  0
LINE
  5
499
  8
ﾋ_ｽ
 10
-7.9999999999999423
 20
-2.6499999999999759
 30
0.0
 11
-7.9999999999999423
 21
2.6500000000000341
 31
0.0
  0
ARC
  5
49A
  8
ﾋ_ｽ
 10
-7.8999999999999204
 20
1.125277401569859
 30
0.0
 40
0.1
 50
180.0
 51
282.80426606528391
1001
GENIUS_GENOBJ-N-FIL_13
1002
{
1000
OWNER
1000
GEN
1002
}
1001
GENIUS_GENODEF_13
1002
{
1000
HIER
1070
     0
1002
}
1002
{
1000
MANEDIT
1070
     0
1002
}
1002
{
1000
NOSEL
1070
     0
1002
}
1002
{
1000
BEHIND
1070
     0
1002
}
1002
{
1000
OTHER
1070
     0
1002
}
1002
{
1000
REACTOR
1002
}
  0
ARC
  5
49B
  8
ﾋ_ｽ
 10
-7.8999999999999773
 20
-1.125277401569859
 30
0.0
 40
0.1
 50
77.195733934712948
 51
180.0
1001
GENIUS_GENOBJ-N-FIL_13
1002
{
1000
OWNER
1000
GEN
1002
}
1001
GENIUS_GENODEF_13
1002
{
1000
HIER
1070
     0
1002
}
1002
{
1000
MANEDIT
1070
     0
1002
}
1002
{
1000
NOSEL
1070
     0
1002
}
1002
{
1000
BEHIND
1070
     0
1002
}
1002
{
1000
OTHER
1070
     0
1002
}
1002
{
1000
REACTOR
1002
}
  0
LINE
  5
49C
  8
ﾋ_ｽ
 10
0.0
 20
-1.25
 30
0.0
 11
0.0
 21
1.25
 31
0.0
  0
LINE
  5
49D
  8
ﾋ_ｽ
 10
-7.8778378896410572
 20
1.0277641159906921
 30
0.0
 11
-6.8999999999999204
 21
1.25
 31
0.0
  0
LINE
  5
49E
  8
ﾋ_ｽ
 10
-7.8778378896411132
 20
-1.0277641159906921
 30
0.0
 11
-6.9000000000000332
 21
-1.25
 31
0.0
  0
LINE
  5
49F
  8
ﾋ_ｽ
 10
-6.9000000000000332
 20
-1.25
 30
0.0
 11
-6.8999999999999204
 21
1.25
 31
0.0
  0
LINE
  5
4A0
  8
ﾋ_ｽ
 10
-6.9000000000000332
 20
-1.25
 30
0.0
 11
0.0
 21
-1.25
 31
0.0
  0
LINE
  5
4A1
  8
ﾋ_ｽ
 10
0.0
 20
1.25
 30
0.0
 11
-6.8999999999999204
 21
1.2500000000000551
 31
0.0
  0
LINE
  5
4A2
  8
ﾋ_ｽ0
 10
-8.0
 20
-1.0
 30
0.0
 11
0.0
 21
-1.0
 31
0.0
  0
LINE
  5
4A3
  8
ﾋ_ｽ0
 10
-7.9999999999999423
 20
1.0000000000000551
 30
0.0
 11
0.0
 21
1.0
 31
0.0
  0
LINE
  5
4A4
  8
ﾋ_ｽ
 10
-7.9999999999999423
 20
2.6500000000000341
 30
0.0
 11
-8.9999999999999432
 21
2.5625113364741301
 31
0.0
  0
LINE
  5
4A5
  8
ﾋ_ｽ
 10
-7.9999999999999423
 20
-2.6499999999999759
 30
0.0
 11
-8.9999999999999432
 21
-2.5625113364740741
 31
0.0
  0
LINE
  5
4A6
  8
ﾋ_ｽ
 10
-8.9999999999999432
 20
2.5625113364741301
 30
0.0
 11
-8.9999999999999432
 21
-2.5625113364740741
 31
0.0
  0
ARC
  5
4A7
  8
ﾋ_ｽ
 10
-2.6835356504416832
 20
0.0
 30
0.0
 40
6.8164643495582711
 50
157.918214928471
 51
202.081785071529
  0
ENDBLK
  5
4A8
  8
0
  0
BLOCK
  8
0
  2
A$C762874DC
 70
     0
 10
0.0
 20
0.0
 30
0.0
  3
A$C762874DC
  1

  0
CIRCLE
  5
4AB
  8
ﾋ_ｽ
 10
0.0
 20
0.0
 30
0.0
 40
2.049999999999998
  0
CIRCLE
  5
4AC
  8
ﾋ_ｽ
 10
0.0
 20
0.0
 30
0.0
 40
1.0064303551856451
  0
LINE
  5
4AD
  8
ﾋ_ｽ
 10
-2.5
 20
-1.4433756729740701
 30
0.0
 11
0.0000000000001137
 21
-2.8867513459481682
 31
0.0
  0
LINE
  5
4AE
  8
ﾋ_ｽ
 10
0.0000000000001137
 20
-2.8867513459481682
 30
0.0
 11
2.5
 21
-1.4433756729739851
 31
0.0
  0
LINE
  5
4AF
  8
ﾋ_ｽ
 10
2.5
 20
-1.4433756729739851
 30
0.0
 11
2.5
 21
1.4433756729740701
 31
0.0
  0
LINE
  5
4B0
  8
ﾋ_ｽ
 10
2.5
 20
1.4433756729740701
 30
0.0
 11
0.0
 21
2.8867513459481118
 31
0.0
  0
LINE
  5
4B1
  8
ﾋ_ｽ
 10
0.0
 20
2.8867513459481118
 30
0.0
 11
-2.5
 21
1.4433756729738989
 31
0.0
  0
LINE
  5
4B2
  8
ﾋ_ｽ
 10
-2.5
 20
1.4433756729738989
 30
0.0
 11
-2.5
 21
-1.4433756729740701
 31
0.0
  0
CIRCLE
  5
4B3
  8
ﾋ_ｽ0
 10
0.0
 20
0.0
 30
0.0
 40
1.2499999999999949
  0
ENDBLK
  5
4B4
  8
0
  0
BLOCK
  8
0
  2
A$C4B68363E
 70
     0
 10
0.0
 20
0.0
 30
0.0
  3
A$C4B68363E
  1

  0
ARC
  5
4B7
  8
ﾋ_ｽ
 10
-1.536285706842818
 20
2.1656250000000039
 30
0.0
 40
1.276478085707444
 50
325.56153059526821
 51
25.561530595268358
  0
ARC
  5
4B8
  8
ﾋ_ｽ
 10
-0.4637142931572386
 20
2.1656250000000039
 30
0.0
 40
1.276478085707444
 50
154.43846940473159
 51
214.43846940473171
  0
LINE
  5
4B9
  8
ﾋ_ｽ
 10
0.0
 20
2.05000000000001
 30
0.0
 11
0.0
 21
-2.05000000000001
 31
0.0
  0
LINE
  5
4BA
  8
ﾋ_ｽ
 10
-2.0
 20
2.05000000000001
 30
0.0
 11
-2.0
 21
-2.05000000000001
 31
0.0
  0
ARC
  5
4BB
  8
ﾋ_ｽ
 10
-1.536285706842818
 20
-2.1656250000000039
 30
0.0
 40
1.276478085707442
 50
334.43846940473162
 51
34.438469404731812
  0
ARC
  5
4BC
  8
ﾋ_ｽ
 10
-5.0301351199986462
 20
0.0
 30
0.0
 40
4.7703274988633284
 50
342.38303115961401
 51
17.616968840386011
  0
ARC
  5
4BD
  8
ﾋ_ｽ
 10
3.030135119998647
 20
0.0
 30
0.0
 40
4.7703274988633169
 50
162.38303115961401
 51
197.61696884038599
  0
ARC
  5
4BE
  8
ﾋ_ｽ
 10
-0.4637142931572386
 20
-2.1656250000000039
 30
0.0
 40
1.276478085707444
 50
145.5615305952681
 51
205.5615305952669
  0
LINE
  5
4BF
  8
ﾋ_ｽ
 10
-0.4835308504463002
 20
-2.8874999999999882
 30
0.0
 11
0.0
 21
-2.05000000000001
 31
0.0
  0
LINE
  5
4C0
  8
ﾋ_ｽ
 10
-1.5164691495536979
 20
1.4437499999999941
 30
0.0
 11
-0.4835308504463002
 21
1.4437499999999941
 31
0.0
  0
LINE
  5
4C1
  8
ﾋ_ｽ
 10
-1.5164691495536979
 20
-2.8874999999999882
 30
0.0
 11
-2.0
 21
-2.05000000000001
 31
0.0
  0
LINE
  5
4C2
  8
ﾋ_ｽ
 10
-1.5164691495536979
 20
-2.8874999999999882
 30
0.0
 11
-0.4835308504463002
 21
-2.8874999999999882
 31
0.0
  0
LINE
  5
4C3
  8
ﾋ_ｽ
 10
-1.5164691495536979
 20
-1.4437500000000221
 30
0.0
 11
-0.4835308504463002
 21
-1.4437500000000221
 31
0.0
  0
LINE
  5
4C4
  8
ﾋ_ｽ
 10
-0.4835308504463002
 20
2.8874999999999882
 30
0.0
 11
0.0
 21
2.05000000000001
 31
0.0
  0
LINE
  5
4C5
  8
ﾋ_ｽ
 10
-1.5164691495536979
 20
2.8874999999999882
 30
0.0
 11
-2.0
 21
2.05000000000001
 31
0.0
  0
LINE
  5
4C6
  8
ﾋ_ｽ
 10
-1.5164691495536979
 20
2.8874999999999882
 30
0.0
 11
-0.4835308504463002
 21
2.8874999999999882
 31
0.0
  0
ENDBLK
  5
4C7
  8
0
  0
BLOCK
  8
0
  2
*U59
 70
     1
 10
0.0
 20
0.0
 30
0.0
  3
*U59
  1

  0
CIRCLE
  5
4CA
  8
AM_12
 62
     4
 10
70.753555122073863
 20
223.51738184458949
 30
0.0
 40
1.75
  0
LINE
  5
4CB
  8
AM_12
 62
     4
 10
69.003555122073863
 20
221.76738184458949
 30
0.0
 11
72.503555122073863
 21
225.26738184458949
 31
0.0
  0
LINE
  5
4CC
  8
AM_12
 62
     4
 10
69.003555122073863
 20
225.26738184458949
 30
0.0
 11
72.503555122073863
 21
221.76738184458949
 31
0.0
  0
ENDBLK
  5
4CD
  8
0
  0
BLOCK
  8
0
  2
*U60
 70
     1
 10
0.0
 20
0.0
 30
0.0
  3
*U60
  1

  0
CIRCLE
  5
4D0
  8
AM_12
 62
     4
 10
72.992856235418571
 20
124.4670034613717
 30
0.0
 40
1.75
  0
LINE
  5
4D1
  8
AM_12
 62
     4
 10
71.242856235418543
 20
122.7170034613717
 30
0.0
 11
74.742856235418571
 21
126.2170034613717
 31
0.0
  0
LINE
  5
4D2
  8
AM_12
 62
     4
 10
71.242856235418543
 20
126.2170034613717
 30
0.0
 11
74.742856235418571
 21
122.7170034613717
 31
0.0
  0
ENDBLK
  5
4D3
  8
0
  0
BLOCK
  8
0
  2
*U61
 70
     1
 10
0.0
 20
0.0
 30
0.0
  3
*U61
  1

  0
CIRCLE
  5
4D6
  8
AM_12
 62
     4
 10
145.86456446747809
 20
254.1246384338726
 30
0.0
 40
1.75
  0
LINE
  5
4D7
  8
AM_12
 62
     4
 10
144.11456446747809
 20
252.3746384338726
 30
0.0
 11
147.61456446747809
 21
255.8746384338726
 31
0.0
  0
LINE
  5
4D8
  8
AM_12
 62
     4
 10
144.11456446747809
 20
255.8746384338726
 30
0.0
 11
147.61456446747809
 21
252.3746384338726
 31
0.0
  0
ENDBLK
  5
4D9
  8
0
  0
BLOCK
  8
0
  2
*U62
 70
     1
 10
0.0
 20
0.0
 30
0.0
  3
*U62
  1

  0
LINE
  5
4DC
  8
AM_5
 10
135.13370159184171
 20
259.95186326770749
 30
0.0
 11
142.7888057420289
 21
255.7948804111991
 31
0.0
  0
TRACE
  5
4DD
  8
AM_5
 10
142.56891421511969
 20
255.38994909482409
 30
0.0
 11
143.00869726893811
 21
256.199811727574
 31
0.0
 12
145.86456446747809
 22
254.1246384338726
 32
0.0
 13
145.86456446747809
 23
254.1246384338726
 33
0.0
  0
INSERT
  5
4DE
  8
プレ_ト
  2
*U63
 10
0.0
 20
0.0
 30
0.0
  0
CIRCLE
  5
4DF
  8
AM_5
 62
     3
 10
129.7511238223056
 20
262.87478672802882
 30
0.0
 40
6.125
  0
ENDBLK
  5
4E0
  8
0
  0
BLOCK
  8
0
  2
*U63
 70
     1
 10
0.0
 20
0.0
 30
0.0
  3
*U63
  1

  0
TEXT
  5
4E3
  8
AM_5
 62
     7
 10
128.45363644889031
 20
261.12478672802882
 30
0.0
 40
3.5
  1
3
  7
ACISOTS
  0
ENDBLK
  5
4E4
  8
0
  0
BLOCK
  8
0
  2
*U64
 70
     1
 10
0.0
 20
0.0
 30
0.0
  3
*U64
  1

  0
CIRCLE
  5
4E7
  8
AM_12
 62
     4
 10
146.84787569854041
 20
235.1394081624496
 30
0.0
 40
1.75
  0
LINE
  5
4E8
  8
AM_12
 62
     4
 10
145.09787569854041
 20
233.3894081624496
 30
0.0
 11
148.59787569854041
 21
236.8894081624496
 31
0.0
  0
LINE
  5
4E9
  8
AM_12
 62
     4
 10
145.09787569854041
 20
236.8894081624496
 30
0.0
 11
148.59787569854041
 21
233.3894081624496
 31
0.0
  0
ENDBLK
  5
4EA
  8
0
  0
BLOCK
  8
0
  2
*U65
 70
     1
 10
0.0
 20
0.0
 30
0.0
  3
*U65
  1

  0
LINE
  5
4ED
  8
AM_5
 10
133.23276979619081
 20
239.13108220705129
 30
0.0
 11
143.48924502081471
 21
236.12409083754849
 31
0.0
  0
TRACE
  5
4EE
  8
AM_5
 10
143.3596090878853
 20
235.68191872232509
 30
0.0
 11
143.61888095374411
 21
236.56626295277189
 31
0.0
 12
146.84787569854041
 22
235.1394081624496
 32
0.0
 13
146.84787569854041
 23
235.1394081624496
 33
0.0
  0
INSERT
  5
4EF
  8
プレ_ト
  2
*U66
 10
0.0
 20
0.0
 30
0.0
  0
CIRCLE
  5
4F0
  8
AM_5
 62
     3
 10
127.3551661101709
 20
240.8542768884744
 30
0.0
 40
6.125
  0
ENDBLK
  5
4F1
  8
0
  0
BLOCK
  8
0
  2
*U66
 70
     1
 10
0.0
 20
0.0
 30
0.0
  3
*U66
  1

  0
TEXT
  5
4F4
  8
AM_5
 62
     7
 10
125.95516611017089
 20
239.1042768884744
 30
0.0
 40
3.5
  1
4
  7
ACISOTS
  0
ENDBLK
  5
4F5
  8
0
  0
BLOCK
  8
0
  2
*U67
 70
     1
 10
0.0
 20
0.0
 30
0.0
  3
*U67
  1

  0
LINE
  5
4F8
  8
AM_5
 10
51.710213233375072
 20
231.4298222526389
 30
0.0
 11
67.696541132194966
 21
225.2530931593021
 31
0.0
  0
TRACE
  5
4F9
  8
AM_5
 10
67.530470482172788
 20
224.8232766940651
 30
0.0
 11
67.86261178221713
 21
225.68290962453909
 31
0.0
 12
70.961321330302326
 22
223.9916613307652
 32
0.0
 13
70.961321330302326
 23
223.9916613307652
 33
0.0
  0
INSERT
  5
4FA
  8
プレ_ト
  2
*U68
 10
0.0
 20
0.0
 30
0.0
  0
CIRCLE
  5
4FB
  8
AM_5
 62
     3
 10
45.996847886687178
 20
233.63732795257849
 30
0.0
 40
6.125
  0
ENDBLK
  5
4FC
  8
0
  0
BLOCK
  8
0
  2
*U68
 70
     1
 10
0.0
 20
0.0
 30
0.0
  3
*U68
  1

  0
TEXT
  5
4FF
  8
AM_5
 62
     7
 10
45.121847886687178
 20
231.88732795257849
 30
0.0
 40
3.5
  1
1
  7
ACISOTS
  0
ENDBLK
  5
500
  8
0
  0
BLOCK
  8
0
  2
*U69
 70
     1
 10
0.0
 20
0.0
 30
0.0
  3
*U69
  1

  0
LINE
  5
503
  8
AM_5
 10
56.306933391306131
 20
137.86730868129979
 30
0.0
 11
71.938428032836484
 21
126.14080028628101
 31
0.0
  0
TRACE
  5
504
  8
AM_5
 10
71.661914216094729
 20
125.7722059784865
 30
0.0
 11
72.214941849578267
 21
126.5093945940755
 31
0.0
 12
74.73817977468525
 22
124.0404693161682
 32
0.0
 13
74.73817977468525
 23
124.0404693161682
 33
0.0
  0
INSERT
  5
505
  8
プレ_ト
  2
*U70
 10
0.0
 20
0.0
 30
0.0
  0
CIRCLE
  5
506
  8
AM_5
 62
     3
 10
51.407367843070801
 20
141.54288787899711
 30
0.0
 40
6.125
  0
ENDBLK
  5
507
  8
0
  0
BLOCK
  8
0
  2
*U70
 70
     1
 10
0.0
 20
0.0
 30
0.0
  3
*U70
  1

  0
TEXT
  5
50A
  8
AM_5
 62
     7
 10
50.12170347299206
 20
139.79254339080811
 30
0.0
 40
3.5
  1
2
  7
ACISOTS
  0
ENDBLK
  5
50B
  8
0
  0
BLOCK
  8
0
  2
*U71
 70
     1
 10
0.0
 20
0.0
 30
0.0
  3
*U71
  1

  0
LINE
  5
50E
  8
プレ_ト
 62
     1
 10
0.0
 20
68.525000000000006
 30
0.0
 11
193.0
 21
68.525000000000006
 31
0.0
  0
LINE
  5
50F
  8
プレ_ト
 62
     1
 10
0.0
 20
62.350000000000001
 30
0.0
 11
193.0
 21
62.350000000000001
 31
0.0
  0
LINE
  5
510
  8
プレ_ト
 62
     1
 10
0.0
 20
56.17499999999999
 30
0.0
 11
193.0
 21
56.17499999999999
 31
0.0
  0
INSERT
  5
511
  8
プレ_ト
  2
*U72
 10
0.0
 20
0.0
 30
0.0
  0
LINE
  5
512
  8
プレ_ト
 62
     1
 10
15.0
 20
74.700000000000003
 30
0.0
 11
15.0
 21
68.525000000000006
 31
0.0
  0
INSERT
  5
513
  8
プレ_ト
  2
*U73
 10
0.0
 20
0.0
 30
0.0
  0
LINE
  5
514
  8
プレ_ト
 62
     1
 10
65.0
 20
74.700000000000003
 30
0.0
 11
65.0
 21
68.525000000000006
 31
0.0
  0
INSERT
  5
515
  8
プレ_ト
  2
*U74
 10
0.0
 20
0.0
 30
0.0
  0
LINE
  5
516
  8
プレ_ト
 62
     1
 10
80.0
 20
74.700000000000003
 30
0.0
 11
80.0
 21
68.525000000000006
 31
0.0
  0
INSERT
  5
517
  8
プレ_ト
  2
*U75
 10
0.0
 20
0.0
 30
0.0
  0
LINE
  5
518
  8
プレ_ト
 62
     1
 10
135.0
 20
74.700000000000003
 30
0.0
 11
135.0
 21
68.525000000000006
 31
0.0
  0
INSERT
  5
519
  8
プレ_ト
  2
*U76
 10
0.0
 20
0.0
 30
0.0
  0
INSERT
  5
51A
  8
プレ_ト
  2
*U77
 10
0.0
 20
0.0
 30
0.0
  0
LINE
  5
51B
  8
プレ_ト
 62
     1
 10
15.0
 20
68.525000000000006
 30
0.0
 11
15.0
 21
62.350000000000001
 31
0.0
  0
INSERT
  5
51C
  8
プレ_ト
  2
*U78
 10
0.0
 20
0.0
 30
0.0
  0
LINE
  5
51D
  8
プレ_ト
 62
     1
 10
65.0
 20
68.525000000000006
 30
0.0
 11
65.0
 21
62.350000000000001
 31
0.0
  0
INSERT
  5
51E
  8
プレ_ト
  2
*U79
 10
0.0
 20
0.0
 30
0.0
  0
LINE
  5
51F
  8
プレ_ト
 62
     1
 10
80.0
 20
68.525000000000006
 30
0.0
 11
80.0
 21
62.350000000000001
 31
0.0
  0
INSERT
  5
520
  8
プレ_ト
  2
*U80
 10
0.0
 20
0.0
 30
0.0
  0
LINE
  5
521
  8
プレ_ト
 62
     1
 10
135.0
 20
68.525000000000006
 30
0.0
 11
135.0
 21
62.350000000000001
 31
0.0
  0
INSERT
  5
522
  8
プレ_ト
  2
*U81
 10
0.0
 20
0.0
 30
0.0
  0
INSERT
  5
523
  8
プレ_ト
  2
*U82
 10
0.0
 20
0.0
 30
0.0
  0
LINE
  5
524
  8
プレ_ト
 62
     1
 10
15.0
 20
62.350000000000001
 30
0.0
 11
15.0
 21
56.17499999999999
 31
0.0
  0
INSERT
  5
525
  8
プレ_ト
  2
*U83
 10
0.0
 20
0.0
 30
0.0
  0
LINE
  5
526
  8
プレ_ト
 62
     1
 10
65.0
 20
62.350000000000001
 30
0.0
 11
65.0
 21
56.17499999999999
 31
0.0
  0
INSERT
  5
527
  8
プレ_ト
  2
*U84
 10
0.0
 20
0.0
 30
0.0
  0
LINE
  5
528
  8
プレ_ト
 62
     1
 10
80.0
 20
62.350000000000001
 30
0.0
 11
80.0
 21
56.17499999999999
 31
0.0
  0
INSERT
  5
529
  8
プレ_ト
  2
*U85
 10
0.0
 20
0.0
 30
0.0
  0
LINE
  5
52A
  8
プレ_ト
 62
     1
 10
135.0
 20
62.350000000000001
 30
0.0
 11
135.0
 21
56.17499999999999
 31
0.0
  0
INSERT
  5
52B
  8
プレ_ト
  2
*U86
 10
0.0
 20
0.0
 30
0.0
  0
INSERT
  5
52C
  8
プレ_ト
  2
*U87
 10
0.0
 20
0.0
 30
0.0
  0
LINE
  5
52D
  8
プレ_ト
 62
     1
 10
15.0
 20
56.17499999999999
 30
0.0
 11
15.0
 21
50.0
 31
0.0
  0
INSERT
  5
52E
  8
プレ_ト
  2
*U88
 10
0.0
 20
0.0
 30
0.0
  0
LINE
  5
52F
  8
プレ_ト
 62
     1
 10
65.0
 20
56.17499999999999
 30
0.0
 11
65.0
 21
50.0
 31
0.0
  0
INSERT
  5
530
  8
プレ_ト
  2
*U89
 10
0.0
 20
0.0
 30
0.0
  0
LINE
  5
531
  8
プレ_ト
 62
     1
 10
80.0
 20
56.17499999999999
 30
0.0
 11
80.0
 21
50.0
 31
0.0
  0
INSERT
  5
532
  8
プレ_ト
  2
*U90
 10
0.0
 20
0.0
 30
0.0
  0
LINE
  5
533
  8
プレ_ト
 62
     1
 10
135.0
 20
56.17499999999999
 30
0.0
 11
135.0
 21
50.0
 31
0.0
  0
INSERT
  5
534
  8
プレ_ト
  2
*U91
 10
0.0
 20
0.0
 30
0.0
  0
LINE
  5
535
  8
プレ_ト
 62
     1
 10
0.0
 20
74.700000000000003
 30
0.0
 11
193.0
 21
74.700000000000003
 31
0.0
  0
INSERT
  5
536
  8
プレ_ト
  2
*U92
 10
0.0
 20
0.0
 30
0.0
  0
LINE
  5
537
  8
プレ_ト
 62
     1
 10
15.0
 20
80.875
 30
0.0
 11
15.0
 21
74.700000000000003
 31
0.0
  0
INSERT
  5
538
  8
プレ_ト
  2
*U93
 10
0.0
 20
0.0
 30
0.0
  0
LINE
  5
539
  8
プレ_ト
 62
     1
 10
65.0
 20
80.875
 30
0.0
 11
65.0
 21
74.700000000000003
 31
0.0
  0
INSERT
  5
53A
  8
プレ_ト
  2
*U94
 10
0.0
 20
0.0
 30
0.0
  0
LINE
  5
53B
  8
プレ_ト
 62
     1
 10
80.0
 20
80.875
 30
0.0
 11
80.0
 21
74.700000000000003
 31
0.0
  0
INSERT
  5
53C
  8
プレ_ト
  2
*U95
 10
0.0
 20
0.0
 30
0.0
  0
LINE
  5
53D
  8
プレ_ト
 62
     1
 10
135.0
 20
80.875
 30
0.0
 11
135.0
 21
74.700000000000003
 31
0.0
  0
INSERT
  5
53E
  8
プレ_ト
  2
*U96
 10
0.0
 20
0.0
 30
0.0
  0
LINE
  5
53F
  8
プレ_ト
 62
     7
 10
0.0
 20
80.875
 30
0.0
 11
193.0
 21
80.875
 31
0.0
  0
LINE
  5
540
  8
プレ_ト
 62
     7
 10
193.0
 20
80.875
 30
0.0
 11
193.0
 21
50.0
 31
0.0
  0
LINE
  5
541
  8
プレ_ト
 62
     7
 10
193.0
 20
50.0
 30
0.0
 11
0.0
 21
50.0
 31
0.0
  0
LINE
  5
542
  8
プレ_ト
 62
     7
 10
0.0
 20
50.0
 30
0.0
 11
0.0
 21
80.875
 31
0.0
  0
ENDBLK
  5
543
  8
0
  0
BLOCK
  8
0
  2
*U72
 70
     1
 10
0.0
 20
0.0
 30
0.0
  3
*U72
  1

  0
TEXT
  5
546
  8
プレ_ト
 62
     2
 10
6.625
 20
69.849999999999994
 30
0.0
 40
3.5
  1
1
  7
ACISOTS
  0
ENDBLK
  5
547
  8
0
  0
BLOCK
  8
0
  2
*U73
 70
     1
 10
0.0
 20
0.0
 30
0.0
  3
*U73
  1

  0
TEXT
  5
54A
  8
プレ_ト
 62
     2
 10
15.9
 20
69.849999999999994
 30
0.0
 40
3.5
  1
ハンドル
  7
ACISOTS
  0
ENDBLK
  5
54B
  8
0
  0
BLOCK
  8
0
  2
*U74
 70
     1
 10
0.0
 20
0.0
 30
0.0
  3
*U74
  1

  0
TEXT
  5
54E
  8
プレ_ト
 62
     2
 10
65.375
 20
69.849999999999994
 30
0.0
 40
3.5
  1
1
  7
ACISOTS
  0
ENDBLK
  5
54F
  8
0
  0
BLOCK
  8
0
  2
*U75
 70
     1
 10
0.0
 20
0.0
 30
0.0
  3
*U75
  1

  0
TEXT
  5
552
  8
プレ_ト
 62
     2
 10
80.900000000000006
 20
69.67330824343108
 30
0.0
 40
3.5
  1
ノリル(UL94V-1)
  7
ACISOTS
  0
ENDBLK
  5
553
  8
0
  0
BLOCK
  8
0
  2
*U76
 70
     1
 10
0.0
 20
0.0
 30
0.0
  3
*U76
  1

  0
TEXT
  5
556
  8
プレ_ト
 62
     2
 10
135.90000000000001
 20
69.849999999999994
 30
0.0
 40
3.5
  1
グレー/ブラック
  7
ACISOTS
  0
ENDBLK
  5
557
  8
0
  0
BLOCK
  8
0
  2
*U77
 70
     1
 10
0.0
 20
0.0
 30
0.0
  3
*U77
  1

  0
TEXT
  5
55A
  8
プレ_ト
 62
     2
 10
6.2143356299212593
 20
63.674311023622032
 30
0.0
 40
3.5
  1
2
  7
ACISOTS
  0
ENDBLK
  5
55B
  8
0
  0
BLOCK
  8
0
  2
*U78
 70
     1
 10
0.0
 20
0.0
 30
0.0
  3
*U78
  1

  0
TEXT
  5
55E
  8
プレ_ト
 62
     2
 10
15.9
 20
63.67499999999999
 30
0.0
 40
3.5
  1
プレート
  7
ACISOTS
  0
ENDBLK
  5
55F
  8
0
  0
BLOCK
  8
0
  2
*U79
 70
     1
 10
0.0
 20
0.0
 30
0.0
  3
*U79
  1

  0
TEXT
  5
562
  8
プレ_ト
 62
     2
 10
65.375
 20
63.67499999999999
 30
0.0
 40
3.5
  1
1
  7
ACISOTS
  0
ENDBLK
  5
563
  8
0
  0
BLOCK
  8
0
  2
*U80
 70
     1
 10
0.0
 20
0.0
 30
0.0
  3
*U80
  1

  0
TEXT
  5
566
  8
プレ_ト
 62
     2
 10
80.900000000000006
 20
63.67499999999999
 30
0.0
 40
3.5
  1
アルミ　ｔ1.5
  7
ACISOTS
  0
ENDBLK
  5
567
  8
0
  0
BLOCK
  8
0
  2
*U81
 70
     1
 10
0.0
 20
0.0
 30
0.0
  3
*U81
  1

  0
TEXT
  5
56A
  8
プレ_ト
 62
     2
 10
135.90000000000001
 20
63.67499999999999
 30
0.0
 40
3.5
  1
シルバーアルマイト
  7
ACISOTS
  0
ENDBLK
  5
56B
  8
0
  0
BLOCK
  8
0
  2
*U82
 70
     1
 10
0.0
 20
0.0
 30
0.0
  3
*U82
  1

  0
TEXT
  5
56E
  8
プレ_ト
 62
     2
 10
6.2025126265847081
 20
57.5
 30
0.0
 40
3.5
  1
3
  7
ACISOTS
  0
ENDBLK
  5
56F
  8
0
  0
BLOCK
  8
0
  2
*U83
 70
     1
 10
0.0
 20
0.0
 30
0.0
  3
*U83
  1

  0
TEXT
  5
572
  8
プレ_ト
 62
     2
 10
15.9
 20
57.5
 30
0.0
 40
3.5
  1
取付ビス
  7
ACISOTS
  0
ENDBLK
  5
573
  8
0
  0
BLOCK
  8
0
  2
*U84
 70
     1
 10
0.0
 20
0.0
 30
0.0
  3
*U84
  1

  0
TEXT
  5
576
  8
プレ_ト
 62
     2
 10
65.463877952755908
 20
57.499311023622049
 30
0.0
 40
3.5
  1
2
  7
ACISOTS
  0
ENDBLK
  5
577
  8
0
  0
BLOCK
  8
0
  2
*U85
 70
     1
 10
0.0
 20
0.0
 30
0.0
  3
*U85
  1

  0
TEXT
  5
57A
  8
プレ_ト
 62
     2
 10
80.900000000000006
 20
57.499311023622049
 30
0.0
 40
3.5
  1
バインドM2.5X8
  7
ACISOTS
  0
ENDBLK
  5
57B
  8
0
  0
BLOCK
  8
0
  2
*U86
 70
     1
 10
0.0
 20
0.0
 30
0.0
  3
*U86
  1

  0
TEXT
  5
57E
  8
プレ_ト
 62
     2
 10
135.90000000000001
 20
57.5
 30
0.0
 40
3.5
  1
ニッケルメッキ
  7
ACISOTS
  0
ENDBLK
  5
57F
  8
0
  0
BLOCK
  8
0
  2
*U87
 70
     1
 10
0.0
 20
0.0
 30
0.0
  3
*U87
  1

  0
TEXT
  5
582
  8
プレ_ト
 62
     2
 10
6.0999999999999979
 20
51.325000000000003
 30
0.0
 40
3.5
  1
4
  7
ACISOTS
  0
ENDBLK
  5
583
  8
0
  0
BLOCK
  8
0
  2
*U88
 70
     1
 10
0.0
 20
0.0
 30
0.0
  3
*U88
  1

  0
TEXT
  5
586
  8
プレ_ト
 62
     2
 10
15.9
 20
51.325000000000003
 30
0.0
 40
3.5
  1
取付ナット
  7
ACISOTS
  0
ENDBLK
  5
587
  8
0
  0
BLOCK
  8
0
  2
*U89
 70
     1
 10
0.0
 20
0.0
 30
0.0
  3
*U89
  1

  0
TEXT
  5
58A
  8
プレ_ト
 62
     2
 10
65.463877952755908
 20
51.324311023622037
 30
0.0
 40
3.5
  1
2
  7
ACISOTS
  0
ENDBLK
  5
58B
  8
0
  0
BLOCK
  8
0
  2
*U90
 70
     1
 10
0.0
 20
0.0
 30
0.0
  3
*U90
  1

  0
TEXT
  5
58E
  8
プレ_ト
 62
     2
 10
80.900000000000006
 20
51.324311023622037
 30
0.0
 40
3.5
  1
ナットＭ2.5
  7
ACISOTS
  0
ENDBLK
  5
58F
  8
0
  0
BLOCK
  8
0
  2
*U91
 70
     1
 10
0.0
 20
0.0
 30
0.0
  3
*U91
  1

  0
TEXT
  5
592
  8
プレ_ト
 62
     2
 10
135.90000000000001
 20
51.325000000000003
 30
0.0
 40
3.5
  1
ニッケルメッキ
  7
ACISOTS
  0
ENDBLK
  5
593
  8
0
  0
BLOCK
  8
0
  2
*U92
 70
     1
 10
0.0
 20
0.0
 30
0.0
  3
*U92
  1

  0
TEXT
  5
596
  8
プレ_ト
 62
     2
 10
3.649999999999999
 20
76.025000000000006
 30
0.0
 40
3.5
  1
照番
  7
ACISOTS
  0
ENDBLK
  5
597
  8
0
  0
BLOCK
  8
0
  2
*U93
 70
     1
 10
0.0
 20
0.0
 30
0.0
  3
*U93
  1

  0
TEXT
  5
59A
  8
プレ_ト
 62
     2
 10
36.149999999999999
 20
76.025000000000006
 30
0.0
 40
3.5
  1
名称
  7
ACISOTS
  0
ENDBLK
  5
59B
  8
0
  0
BLOCK
  8
0
  2
*U94
 70
     1
 10
0.0
 20
0.0
 30
0.0
  3
*U94
  1

  0
TEXT
  5
59E
  8
プレ_ト
 62
     2
 10
68.299999999999997
 20
76.025000000000006
 30
0.0
 40
3.5
  1
個数
  7
ACISOTS
  0
ENDBLK
  5
59F
  8
0
  0
BLOCK
  8
0
  2
*U95
 70
     1
 10
0.0
 20
0.0
 30
0.0
  3
*U95
  1

  0
TEXT
  5
5A2
  8
プレ_ト
 62
     2
 10
103.65000000000001
 20
76.025000000000006
 30
0.0
 40
3.5
  1
材質
  7
ACISOTS
  0
ENDBLK
  5
5A3
  8
0
  0
BLOCK
  8
0
  2
*U96
 70
     1
 10
0.0
 20
0.0
 30
0.0
  3
*U96
  1

  0
TEXT
  5
5A6
  8
プレ_ト
 62
     2
 10
151.40000000000001
 20
76.025000000000006
 30
0.0
 40
3.5
  1
色・表面処理
  7
ACISOTS
  0
ENDBLK
  5
5A7
  8
0
  0
BLOCK
  8
0
  2
*D98
 70
     1
 10
0.0
 20
0.0
 30
0.0
  3
*D98
  1

  0
LINE
  5
8C9
  8
AM_5
 10
117.8498415836694
 20
176.8962375092654
 30
0.0
 11
137.0550477770615
 21
176.8962375092654
 31
0.0
  0
LINE
  5
8CA
  8
AM_5
 10
117.8498415836694
 20
168.8962375092654
 30
0.0
 11
137.0550477770615
 21
168.8962375092654
 31
0.0
  0
LINE
  5
8CB
  8
AM_5
 10
136.0550477770615
 20
179.3962375092654
 30
0.0
 11
136.0550477770615
 21
181.8962375092654
 31
0.0
  0
LINE
  5
8CC
  8
AM_5
 10
136.0550477770615
 20
166.3962375092654
 30
0.0
 11
136.0550477770615
 21
163.8962375092654
 31
0.0
  0
LINE
  5
8CD
  8
AM_5
 10
136.0550477770615
 20
176.8962375092654
 30
0.0
 11
136.0550477770615
 21
168.8962375092654
 31
0.0
  0
SOLID
  5
8CE
  8
AM_5
 10
135.6383811103949
 20
179.3962375092654
 30
0.0
 11
136.47171444372819
 21
179.3962375092654
 31
0.0
 12
136.0550477770615
 22
176.8962375092654
 32
0.0
 13
136.0550477770615
 23
176.8962375092654
 33
0.0
  0
SOLID
  5
8CF
  8
AM_5
 10
135.6383811103949
 20
166.3962375092654
 30
0.0
 11
136.47171444372819
 21
166.3962375092654
 31
0.0
 12
136.0550477770615
 22
168.8962375092654
 32
0.0
 13
136.0550477770615
 23
168.8962375092654
 33
0.0
  0
INSERT
  5
8D0
  8
0
  2
*U144
 10
0.0
 20
0.0
 30
0.0
  0
POINT
  5
8D1
  8
DEFPOINTS
 62
     0
 10
116.8498415836694
 20
176.8962375092654
 30
0.0
  0
POINT
  5
8D2
  8
DEFPOINTS
 62
     0
 10
116.8498415836694
 20
168.8962375092654
 30
0.0
  0
POINT
  5
8D3
  8
DEFPOINTS
 62
     0
 10
136.0550477770615
 20
168.8962375092654
 30
0.0
  0
ENDBLK
  5
6AC
  8
0
  0
BLOCK
  8
0
  2
*D99
 70
     1
 10
0.0
 20
0.0
 30
0.0
  3
*D99
  1

  0
LINE
  5
8C1
  8
AM_5
 10
55.225532985079148
 20
148.33068374403831
 30
0.0
 11
72.628835155448741
 21
169.8999406856307
 31
0.0
  0
LINE
  5
8C2
  8
AM_5
 10
77.464000238329305
 20
175.89253433290011
 30
0.0
 11
79.033859031472332
 21
177.83818162097461
 31
0.0
  0
INSERT
  5
8C3
  8
0
  2
*U143
 10
0.0
 20
0.0
 30
0.0
  0
LINE
  5
8C4
  8
AM_5
 10
75.894141445186264
 20
173.9468870448257
 30
0.0
 11
74.198693948591753
 21
171.84558797370519
 31
0.0
  0
SOLID
  5
8C5
  8
AM_5
 10
77.13972569031688
 20
176.15417746509061
 30
0.0
 11
77.788274786341702
 21
175.63089120070961
 31
0.0
 12
75.894141445186264
 22
173.9468870448257
 32
0.0
 13
75.894141445186264
 23
173.9468870448257
 33
0.0
  0
SOLID
  5
8C6
  8
AM_5
 10
72.304560607436343
 20
170.1615838178212
 30
0.0
 11
72.953109703461166
 21
169.6382975534402
 31
0.0
 12
74.198693948591753
 22
171.84558797370519
 32
0.0
 13
74.198693948591753
 23
171.84558797370519
 33
0.0
  0
POINT
  5
8C7
  8
DEFPOINTS
 62
     0
 10
74.198693948591753
 20
171.84558797370519
 30
0.0
  0
POINT
  5
8C8
  8
DEFPOINTS
 62
     0
 10
75.894141445186264
 20
173.9468870448257
 30
0.0
  0
ENDBLK
  5
6B7
  8
0
  0
BLOCK
  8
0
  2
*D100
 70
     1
 10
0.0
 20
0.0
 30
0.0
  3
*D100
  1

  0
LINE
  5
BB3
  8
AM_5
 10
116.8498415836694
 20
167.8962375092654
 30
0.0
 11
116.8498415836694
 21
144.78926310810229
 31
0.0
  0
LINE
  5
BB4
  8
AM_5
 10
119.1498415836694
 20
171.1462375092654
 30
0.0
 11
119.1498415836694
 21
144.78926310810229
 31
0.0
  0
LINE
  5
BB5
  8
AM_5
 10
114.3498415836694
 20
145.78926310810229
 30
0.0
 11
111.8498415836694
 21
145.78926310810229
 31
0.0
  0
LINE
  5
BB6
  8
AM_5
 10
121.6498415836694
 20
145.78926310810229
 30
0.0
 11
132.2836942832559
 21
145.78926310810229
 31
0.0
  0
LINE
  5
BB7
  8
AM_5
 10
116.8498415836694
 20
145.78926310810229
 30
0.0
 11
119.1498415836694
 21
145.78926310810229
 31
0.0
  0
SOLID
  5
BB8
  8
AM_5
 10
114.3498415836694
 20
146.205929774769
 30
0.0
 11
114.3498415836694
 21
145.3725964414356
 31
0.0
 12
116.8498415836694
 22
145.78926310810229
 32
0.0
 13
116.8498415836694
 23
145.78926310810229
 33
0.0
  0
SOLID
  5
BB9
  8
AM_5
 10
121.6498415836694
 20
146.205929774769
 30
0.0
 11
121.6498415836694
 21
145.3725964414356
 31
0.0
 12
119.1498415836694
 22
145.78926310810229
 32
0.0
 13
119.1498415836694
 23
145.78926310810229
 33
0.0
  0
INSERT
  5
BBA
  8
0
  2
*U149
 10
0.0
 20
0.0
 30
0.0
  0
POINT
  5
BBB
  8
DEFPOINTS
 62
     0
 10
116.8498415836694
 20
168.8962375092654
 30
0.0
  0
POINT
  5
BBC
  8
DEFPOINTS
 62
     0
 10
119.1498415836694
 20
172.1462375092654
 30
0.0
  0
POINT
  5
BBD
  8
DEFPOINTS
 62
     0
 10
119.1498415836694
 20
145.78926310810229
 30
0.0
  0
ENDBLK
  5
6C5
  8
0
  0
BLOCK
  8
0
  2
*D101
 70
     1
 10
0.0
 20
0.0
 30
0.0
  3
*D101
  1

  0
LINE
  5
BC7
  8
AM_5
 10
108.8498415836694
 20
167.8962375092654
 30
0.0
 11
108.8498415836694
 21
154.37155450711759
 31
0.0
  0
LINE
  5
BC8
  8
AM_5
 10
116.8498415836694
 20
167.8962375092654
 30
0.0
 11
116.8498415836694
 21
154.37155450711759
 31
0.0
  0
LINE
  5
BC9
  8
AM_5
 10
106.3498415836694
 20
155.37155450711759
 30
0.0
 11
103.8498415836694
 21
155.37155450711759
 31
0.0
  0
LINE
  5
BCA
  8
AM_5
 10
119.3498415836694
 20
155.37155450711759
 30
0.0
 11
121.8498415836694
 21
155.37155450711759
 31
0.0
  0
LINE
  5
BCB
  8
AM_5
 10
108.8498415836694
 20
155.37155450711759
 30
0.0
 11
116.8498415836694
 21
155.37155450711759
 31
0.0
  0
SOLID
  5
BCC
  8
AM_5
 10
106.3498415836694
 20
155.78822117378419
 30
0.0
 11
106.3498415836694
 21
154.95488784045091
 31
0.0
 12
108.8498415836694
 22
155.37155450711759
 32
0.0
 13
108.8498415836694
 23
155.37155450711759
 33
0.0
  0
SOLID
  5
BCD
  8
AM_5
 10
119.3498415836694
 20
155.78822117378419
 30
0.0
 11
119.3498415836694
 21
154.95488784045091
 31
0.0
 12
116.8498415836694
 22
155.37155450711759
 32
0.0
 13
116.8498415836694
 23
155.37155450711759
 33
0.0
  0
INSERT
  5
BCE
  8
0
  2
*U151
 10
0.0
 20
0.0
 30
0.0
  0
POINT
  5
BCF
  8
DEFPOINTS
 62
     0
 10
108.8498415836694
 20
168.8962375092654
 30
0.0
  0
POINT
  5
BD0
  8
DEFPOINTS
 62
     0
 10
116.8498415836694
 20
168.8962375092654
 30
0.0
  0
POINT
  5
BD1
  8
DEFPOINTS
 62
     0
 10
116.8498415836694
 20
155.37155450711759
 30
0.0
  0
ENDBLK
  5
6D3
  8
0
  0
BLOCK
  8
0
  2
*D102
 70
     1
 10
0.0
 20
0.0
 30
0.0
  3
*D102
  1

  0
LINE
  5
BBE
  8
AM_5
 10
102.8498415836694
 20
164.3962375092654
 30
0.0
 11
102.8498415836694
 21
144.78926310810229
 31
0.0
  0
LINE
  5
BBF
  8
AM_5
 10
116.8498415836694
 20
167.8962375092654
 30
0.0
 11
116.8498415836694
 21
144.78926310810229
 31
0.0
  0
LINE
  5
BC0
  8
AM_5
 10
105.3498415836694
 20
145.78926310810229
 30
0.0
 11
114.3498415836694
 21
145.78926310810229
 31
0.0
  0
SOLID
  5
BC1
  8
AM_5
 10
105.3498415836694
 20
146.205929774769
 30
0.0
 11
105.3498415836694
 21
145.3725964414356
 31
0.0
 12
102.8498415836694
 22
145.78926310810229
 32
0.0
 13
102.8498415836694
 23
145.78926310810229
 33
0.0
  0
SOLID
  5
BC2
  8
AM_5
 10
114.3498415836694
 20
146.205929774769
 30
0.0
 11
114.3498415836694
 21
145.3725964414356
 31
0.0
 12
116.8498415836694
 22
145.78926310810229
 32
0.0
 13
116.8498415836694
 23
145.78926310810229
 33
0.0
  0
INSERT
  5
BC3
  8
0
  2
*U150
 10
0.0
 20
0.0
 30
0.0
  0
POINT
  5
BC4
  8
DEFPOINTS
 62
     0
 10
102.8498415836694
 20
165.3962375092654
 30
0.0
  0
POINT
  5
BC5
  8
DEFPOINTS
 62
     0
 10
116.8498415836694
 20
168.8962375092654
 30
0.0
  0
POINT
  5
BC6
  8
DEFPOINTS
 62
     0
 10
116.8498415836694
 20
145.78926310810229
 30
0.0
  0
ENDBLK
  5
6DF
  8
0
  0
BLOCK
  8
0
  2
*D103
 70
     1
 10
0.0
 20
0.0
 30
0.0
  3
*D103
  1

  0
LINE
  5
897
  8
AM_5
 10
119.4498415836694
 20
174.04623750926541
 30
0.0
 11
129.15370518198739
 21
174.04623750926541
 31
0.0
  0
LINE
  5
898
  8
AM_5
 10
119.4498415836694
 20
171.74623750926531
 30
0.0
 11
129.15370518198739
 21
171.74623750926531
 31
0.0
  0
LINE
  5
899
  8
AM_5
 10
128.15370518198739
 20
169.24623750926531
 30
0.0
 11
128.15370518198739
 21
166.7462375092654
 31
0.0
  0
LINE
  5
89A
  8
AM_5
 10
128.15370518198739
 20
176.54623750926541
 30
0.0
 11
128.15370518198739
 21
187.18009020885191
 31
0.0
  0
LINE
  5
89B
  8
AM_5
 10
128.15370518198739
 20
171.74623750926531
 30
0.0
 11
128.15370518198739
 21
174.04623750926541
 31
0.0
  0
SOLID
  5
89C
  8
AM_5
 10
127.73703851532071
 20
169.24623750926531
 30
0.0
 11
128.57037184865399
 21
169.24623750926531
 31
0.0
 12
128.15370518198739
 22
171.74623750926531
 32
0.0
 13
128.15370518198739
 23
171.74623750926531
 33
0.0
  0
SOLID
  5
89D
  8
AM_5
 10
127.73703851532071
 20
176.54623750926541
 30
0.0
 11
128.57037184865399
 21
176.54623750926541
 31
0.0
 12
128.15370518198739
 22
174.04623750926541
 32
0.0
 13
128.15370518198739
 23
174.04623750926541
 33
0.0
  0
INSERT
  5
89E
  8
0
  2
*U142
 10
0.0
 20
0.0
 30
0.0
  0
POINT
  5
89F
  8
DEFPOINTS
 62
     0
 10
118.4498415836694
 20
174.04623750926541
 30
0.0
  0
POINT
  5
8A0
  8
DEFPOINTS
 62
     0
 10
118.4498415836694
 20
171.74623750926531
 30
0.0
  0
POINT
  5
8A1
  8
DEFPOINTS
 62
     0
 10
128.15370518198739
 20
171.74623750926531
 30
0.0
  0
ENDBLK
  5
6ED
  8
0
  0
BLOCK
  8
0
  2
*D104
 70
     1
 10
0.0
 20
0.0
 30
0.0
  3
*D104
  1

  0
LINE
  5
88C
  8
AM_5
 10
75.046417696888966
 20
173.8962375092654
 30
0.0
 11
75.046417696888966
 21
190.0853252099439
 31
0.0
  0
LINE
  5
88D
  8
AM_5
 10
81.996417696888997
 20
181.3962375092654
 30
0.0
 11
81.996417696888997
 21
190.0853252099439
 31
0.0
  0
LINE
  5
88E
  8
AM_5
 10
72.546417696888966
 20
189.0853252099439
 30
0.0
 11
70.046417696888966
 21
189.0853252099439
 31
0.0
  0
LINE
  5
88F
  8
AM_5
 10
84.496417696888997
 20
189.0853252099439
 30
0.0
 11
86.996417696888997
 21
189.0853252099439
 31
0.0
  0
LINE
  5
890
  8
AM_5
 10
75.046417696888966
 20
189.0853252099439
 30
0.0
 11
81.996417696888997
 21
189.0853252099439
 31
0.0
  0
SOLID
  5
891
  8
AM_5
 10
72.546417696888966
 20
189.5019918766105
 30
0.0
 11
72.546417696888966
 21
188.66865854327719
 31
0.0
 12
75.046417696888966
 22
189.0853252099439
 32
0.0
 13
75.046417696888966
 23
189.0853252099439
 33
0.0
  0
SOLID
  5
892
  8
AM_5
 10
84.496417696888997
 20
189.5019918766105
 30
0.0
 11
84.496417696888997
 21
188.66865854327719
 31
0.0
 12
81.996417696888997
 22
189.0853252099439
 32
0.0
 13
81.996417696888997
 23
189.0853252099439
 33
0.0
  0
INSERT
  5
893
  8
0
  2
*U141
 10
0.0
 20
0.0
 30
0.0
  0
POINT
  5
894
  8
DEFPOINTS
 62
     0
 10
75.046417696888966
 20
172.8962375092654
 30
0.0
  0
POINT
  5
895
  8
DEFPOINTS
 62
     0
 10
81.996417696888997
 20
180.3962375092654
 30
0.0
  0
POINT
  5
896
  8
DEFPOINTS
 62
     0
 10
81.996417696888997
 20
189.0853252099439
 30
0.0
  0
ENDBLK
  5
6FB
  8
0
  0
BLOCK
  8
0
  2
*D105
 70
     1
 10
0.0
 20
0.0
 30
0.0
  3
*D105
  1

  0
LINE
  5
881
  8
AM_5
 10
102.8498415836694
 20
180.3962375092654
 30
0.0
 11
102.8498415836694
 21
190.23172662828961
 31
0.0
  0
LINE
  5
882
  8
AM_5
 10
104.3498415836694
 20
180.3962375092654
 30
0.0
 11
104.3498415836694
 21
190.23172662828961
 31
0.0
  0
LINE
  5
883
  8
AM_5
 10
100.3498415836694
 20
189.23172662828961
 30
0.0
 11
97.849841583669445
 21
189.23172662828961
 31
0.0
  0
LINE
  5
884
  8
AM_5
 10
106.8498415836694
 20
189.23172662828961
 30
0.0
 11
116.6948163305
 21
189.23172662828961
 31
0.0
  0
LINE
  5
885
  8
AM_5
 10
102.8498415836694
 20
189.23172662828961
 30
0.0
 11
104.3498415836694
 21
189.23172662828961
 31
0.0
  0
SOLID
  5
886
  8
AM_5
 10
100.3498415836694
 20
189.64839329495621
 30
0.0
 11
100.3498415836694
 21
188.81505996162289
 31
0.0
 12
102.8498415836694
 22
189.23172662828961
 32
0.0
 13
102.8498415836694
 23
189.23172662828961
 33
0.0
  0
SOLID
  5
887
  8
AM_5
 10
106.8498415836694
 20
189.64839329495621
 30
0.0
 11
106.8498415836694
 21
188.81505996162289
 31
0.0
 12
104.3498415836694
 22
189.23172662828961
 32
0.0
 13
104.3498415836694
 23
189.23172662828961
 33
0.0
  0
INSERT
  5
888
  8
0
  2
*U140
 10
0.0
 20
0.0
 30
0.0
  0
POINT
  5
889
  8
DEFPOINTS
 62
     0
 10
102.8498415836694
 20
179.3962375092654
 30
0.0
  0
POINT
  5
88A
  8
DEFPOINTS
 62
     0
 10
104.3498415836694
 20
179.3962375092654
 30
0.0
  0
POINT
  5
88B
  8
DEFPOINTS
 62
     0
 10
104.3498415836694
 20
189.23172662828961
 30
0.0
  0
ENDBLK
  5
709
  8
0
  0
BLOCK
  8
0
  2
*D106
 70
     1
 10
0.0
 20
0.0
 30
0.0
  3
*D106
  1

  0
LINE
  5
877
  8
AM_5
 10
80.126417696888964
 20
216.9846274249428
 30
0.0
 11
80.126417696888964
 21
228.98462742494269
 31
0.0
  0
LINE
  5
878
  8
AM_5
 10
69.966417696888982
 20
216.9846274249428
 30
0.0
 11
69.966417696888982
 21
228.98462742494269
 31
0.0
  0
LINE
  5
879
  8
AM_5
 10
77.62641769688895
 20
227.98462742494269
 30
0.0
 11
72.466417696888982
 21
227.98462742494269
 31
0.0
  0
LINE
  5
87A
  8
AM_5
 10
69.966417696888982
 20
227.98462742494269
 30
0.0
 11
55.892795649644881
 21
227.98462742494269
 31
0.0
  0
SOLID
  5
87B
  8
AM_5
 10
77.62641769688895
 20
228.4012940916094
 30
0.0
 11
77.62641769688895
 21
227.567960758276
 31
0.0
 12
80.126417696888964
 22
227.98462742494269
 32
0.0
 13
80.126417696888964
 23
227.98462742494269
 33
0.0
  0
SOLID
  5
87C
  8
AM_5
 10
72.466417696888982
 20
228.4012940916094
 30
0.0
 11
72.466417696888982
 21
227.567960758276
 31
0.0
 12
69.966417696888982
 22
227.98462742494269
 32
0.0
 13
69.966417696888982
 23
227.98462742494269
 33
0.0
  0
INSERT
  5
87D
  8
0
  2
*U139
 10
0.0
 20
0.0
 30
0.0
  0
POINT
  5
87E
  8
DEFPOINTS
 62
     0
 10
80.126417696888964
 20
215.9846274249428
 30
0.0
  0
POINT
  5
87F
  8
DEFPOINTS
 62
     0
 10
69.966417696888982
 20
215.9846274249428
 30
0.0
  0
POINT
  5
880
  8
DEFPOINTS
 62
     0
 10
69.966417696888982
 20
227.98462742494269
 30
0.0
  0
ENDBLK
  5
716
  8
0
  0
BLOCK
  8
0
  2
*D107
 70
     1
 10
0.0
 20
0.0
 30
0.0
  3
*D107
  1

  0
LINE
  5
86C
  8
AM_5
 10
80.126417696888964
 20
216.9846274249428
 30
0.0
 11
80.126417696888964
 21
228.9846274249428
 31
0.0
  0
LINE
  5
86D
  8
AM_5
 10
81.996417696888898
 20
214.6846274249427
 30
0.0
 11
81.996417696888898
 21
228.9846274249428
 31
0.0
  0
LINE
  5
86E
  8
AM_5
 10
77.62641769688895
 20
227.9846274249428
 30
0.0
 11
75.12641769688895
 21
227.9846274249428
 31
0.0
  0
LINE
  5
86F
  8
AM_5
 10
84.496417696888898
 20
227.9846274249428
 30
0.0
 11
96.646417696888903
 21
227.9846274249428
 31
0.0
  0
LINE
  5
870
  8
AM_5
 10
80.126417696888964
 20
227.9846274249428
 30
0.0
 11
81.996417696888898
 21
227.9846274249428
 31
0.0
  0
SOLID
  5
871
  8
AM_5
 10
77.62641769688895
 20
228.4012940916094
 30
0.0
 11
77.62641769688895
 21
227.5679607582762
 31
0.0
 12
80.126417696888964
 22
227.9846274249428
 32
0.0
 13
80.126417696888964
 23
227.9846274249428
 33
0.0
  0
SOLID
  5
872
  8
AM_5
 10
84.496417696888898
 20
228.4012940916094
 30
0.0
 11
84.496417696888898
 21
227.5679607582762
 31
0.0
 12
81.996417696888898
 22
227.9846274249428
 32
0.0
 13
81.996417696888898
 23
227.9846274249428
 33
0.0
  0
INSERT
  5
873
  8
0
  2
*U138
 10
0.0
 20
0.0
 30
0.0
  0
POINT
  5
874
  8
DEFPOINTS
 62
     0
 10
80.126417696888964
 20
215.9846274249428
 30
0.0
  0
POINT
  5
875
  8
DEFPOINTS
 62
     0
 10
81.996417696888898
 20
213.6846274249427
 30
0.0
  0
POINT
  5
876
  8
DEFPOINTS
 62
     0
 10
81.996417696888898
 20
227.9846274249428
 30
0.0
  0
ENDBLK
  5
724
  8
0
  0
BLOCK
  8
0
  2
*D108
 70
     1
 10
0.0
 20
0.0
 30
0.0
  3
*D108
  1

  0
LINE
  5
863
  8
AM_5
 10
61.996417696888948
 20
180.3962375092654
 30
0.0
 11
55.674647531356101
 21
180.3962375092654
 31
0.0
  0
LINE
  5
864
  8
AM_5
 10
61.996417696888948
 20
165.3962375092654
 30
0.0
 11
55.674647531356101
 21
165.3962375092654
 31
0.0
  0
LINE
  5
865
  8
AM_5
 10
56.674647531356108
 20
177.8962375092654
 30
0.0
 11
56.674647531356101
 21
167.8962375092654
 31
0.0
  0
SOLID
  5
866
  8
AM_5
 10
56.257980864689443
 20
177.8962375092654
 30
0.0
 11
57.091314198022772
 21
177.8962375092654
 31
0.0
 12
56.674647531356108
 22
180.3962375092654
 32
0.0
 13
56.674647531356108
 23
180.3962375092654
 33
0.0
  0
SOLID
  5
867
  8
AM_5
 10
56.257980864689429
 20
167.8962375092654
 30
0.0
 11
57.091314198022758
 21
167.8962375092654
 31
0.0
 12
56.674647531356101
 22
165.3962375092654
 32
0.0
 13
56.674647531356101
 23
165.3962375092654
 33
0.0
  0
INSERT
  5
868
  8
0
  2
*U137
 10
0.0
 20
0.0
 30
0.0
  0
POINT
  5
869
  8
DEFPOINTS
 62
     0
 10
62.996417696888948
 20
180.3962375092654
 30
0.0
  0
POINT
  5
86A
  8
DEFPOINTS
 62
     0
 10
62.996417696888948
 20
165.3962375092654
 30
0.0
  0
POINT
  5
86B
  8
DEFPOINTS
 62
     0
 10
56.674647531356101
 20
165.3962375092654
 30
0.0
  0
ENDBLK
  5
730
  8
0
  0
BLOCK
  8
0
  2
*D109
 70
     1
 10
0.0
 20
0.0
 30
0.0
  3
*D109
  1

  0
LINE
  5
85A
  8
AM_5
 10
62.996417696888948
 20
164.3962375092654
 30
0.0
 11
62.996417696888948
 21
152.3962375092654
 31
0.0
  0
LINE
  5
85B
  8
AM_5
 10
81.996417696888898
 20
164.3962375092654
 30
0.0
 11
81.996417696888898
 21
152.3962375092654
 31
0.0
  0
LINE
  5
85C
  8
AM_5
 10
65.496417696888955
 20
153.3962375092654
 30
0.0
 11
79.496417696888898
 21
153.3962375092654
 31
0.0
  0
SOLID
  5
85D
  8
AM_5
 10
65.496417696888955
 20
153.812904175932
 30
0.0
 11
65.496417696888955
 21
152.97957084259869
 31
0.0
 12
62.996417696888948
 22
153.3962375092654
 32
0.0
 13
62.996417696888948
 23
153.3962375092654
 33
0.0
  0
SOLID
  5
85E
  8
AM_5
 10
79.496417696888898
 20
153.812904175932
 30
0.0
 11
79.496417696888898
 21
152.97957084259869
 31
0.0
 12
81.996417696888898
 22
153.3962375092654
 32
0.0
 13
81.996417696888898
 23
153.3962375092654
 33
0.0
  0
INSERT
  5
85F
  8
0
  2
*U136
 10
0.0
 20
0.0
 30
0.0
  0
POINT
  5
860
  8
DEFPOINTS
 62
     0
 10
62.996417696888948
 20
165.3962375092654
 30
0.0
  0
POINT
  5
861
  8
DEFPOINTS
 62
     0
 10
81.996417696888898
 20
165.3962375092654
 30
0.0
  0
POINT
  5
862
  8
DEFPOINTS
 62
     0
 10
81.996417696888898
 20
153.3962375092654
 30
0.0
  0
ENDBLK
  5
73C
  8
0
  0
BLOCK
  8
0
  2
*D110
 70
     1
 10
0.0
 20
0.0
 30
0.0
  3
*D110
  1

  0
LINE
  5
851
  8
AM_5
 10
105.3498415836694
 20
114.61824611011519
 30
0.0
 11
117.3498425836694
 21
114.61824611011519
 31
0.0
  0
LINE
  5
852
  8
AM_5
 10
105.3498415836694
 20
101.2182461101152
 30
0.0
 11
117.3498425836694
 21
101.2182461101152
 31
0.0
  0
LINE
  5
853
  8
AM_5
 10
116.3498425836694
 20
112.11824611011519
 30
0.0
 11
116.3498425836694
 21
103.7182461101152
 31
0.0
  0
SOLID
  5
854
  8
AM_5
 10
115.9331759170028
 20
112.11824611011519
 30
0.0
 11
116.7665092503361
 21
112.11824611011519
 31
0.0
 12
116.3498425836694
 22
114.61824611011519
 32
0.0
 13
116.3498425836694
 23
114.61824611011519
 33
0.0
  0
SOLID
  5
855
  8
AM_5
 10
115.9331759170028
 20
103.7182461101152
 30
0.0
 11
116.7665092503361
 21
103.7182461101152
 31
0.0
 12
116.3498425836694
 22
101.2182461101152
 32
0.0
 13
116.3498425836694
 23
101.2182461101152
 33
0.0
  0
INSERT
  5
856
  8
0
  2
*U135
 10
0.0
 20
0.0
 30
0.0
  0
POINT
  5
857
  8
DEFPOINTS
 62
     0
 10
104.3498415836694
 20
114.61824611011519
 30
0.0
  0
POINT
  5
858
  8
DEFPOINTS
 62
     0
 10
104.3498415836694
 20
101.2182461101152
 30
0.0
  0
POINT
  5
859
  8
DEFPOINTS
 62
     0
 10
116.3498425836694
 20
101.2182461101152
 30
0.0
  0
ENDBLK
  5
748
  8
0
  0
BLOCK
  8
0
  2
*D111
 70
     1
 10
0.0
 20
0.0
 30
0.0
  3
*D111
  1

  0
LINE
  5
848
  8
AM_5
 10
62.996417696888948
 20
100.2182461101152
 30
0.0
 11
62.996417696888948
 21
88.218246110115203
 31
0.0
  0
LINE
  5
849
  8
AM_5
 10
81.996417696888898
 20
100.2182461101152
 30
0.0
 11
81.996417696888898
 21
88.218246110115203
 31
0.0
  0
LINE
  5
84A
  8
AM_5
 10
65.496417696888955
 20
89.218246110115203
 30
0.0
 11
79.496417696888898
 21
89.218246110115203
 31
0.0
  0
SOLID
  5
84B
  8
AM_5
 10
65.496417696888955
 20
89.634912776781889
 30
0.0
 11
65.496417696888955
 21
88.801579443448546
 31
0.0
 12
62.996417696888948
 22
89.218246110115203
 32
0.0
 13
62.996417696888948
 23
89.218246110115203
 33
0.0
  0
SOLID
  5
84C
  8
AM_5
 10
79.496417696888898
 20
89.634912776781889
 30
0.0
 11
79.496417696888898
 21
88.801579443448546
 31
0.0
 12
81.996417696888898
 22
89.218246110115203
 32
0.0
 13
81.996417696888898
 23
89.218246110115203
 33
0.0
  0
INSERT
  5
84D
  8
0
  2
*U134
 10
0.0
 20
0.0
 30
0.0
  0
POINT
  5
84E
  8
DEFPOINTS
 62
     0
 10
62.996417696888948
 20
101.2182461101152
 30
0.0
  0
POINT
  5
84F
  8
DEFPOINTS
 62
     0
 10
81.996417696888898
 20
101.2182461101152
 30
0.0
  0
POINT
  5
850
  8
DEFPOINTS
 62
     0
 10
81.996417696888898
 20
89.218246110115203
 30
0.0
  0
ENDBLK
  5
754
  8
0
  0
BLOCK
  8
0
  2
*U112
 70
     1
 10
0.0
 20
0.0
 30
0.0
  3
*U112
  1

  0
ENDBLK
  5
7E7
  8
0
  0
BLOCK
  8
0
  2
TK-A4
 70
     0
 10
0.0
 20
0.0
 30
0.0
  3
TK-A4
  1

  0
TEXT
  5
7EB
  8
0
 10
0.0
 20
0.0
 30
0.0
 40
2.5
  1
!GENTITLE-LL
  0
TEXT
  5
7EC
  8
0
 10
193.0
 20
280.0
 30
0.0
 40
2.5
  1
!GENTITLE-MAX
  0
TEXT
  5
7ED
  8
0
 10
193.0
 20
0.0
 30
0.0
 40
2.5
  1
!GENTITLE-INSERT
  0
POLYLINE
  5
7EE
  8
0
 66
     1
 10
0.0
 20
0.0
 30
0.0
 70
     1
1001
GENIUS_GENREC_14
1002
{
1000
PYDIR
1011
-8.5
1021
0.0
1031
0.0
1021
288.5
1031
0.0
1002
}
1002
{
1000
PXDIR
1011
201.5
1021
0.0
1031
0.0
1021
-8.5
1031
0.0
1002
}
1002
{
1000
PORI
1011
-8.5
1021
0.0
1031
0.0
1021
-8.5
1031
0.0
1002
}
1002
{
1000
PINS
1011
-8.5
1021
0.0
1031
0.0
1021
-8.5
1031
0.0
1002
}
1002
{
1000
HVAL
1000
297
1002
}
1002
{
1000
H
1070
     2
1002
}
1002
{
1000
WVAL
1000
210
1002
}
1002
{
1000
W
1070
     2
1002
}
1002
{
1000
C
1070
     1
1002
}
1001
GENIUS_GENOBJ-N-REC_13
1002
{
1000
OWNER
1000
GEN
1002
}
1001
GENIUS_GENODEF_13
1002
{
1000
HIER
1070
     0
1002
}
1002
{
1000
MANEDIT
1070
     0
1002
}
1002
{
1000
NOSEL
1070
     0
1002
}
1002
{
1000
BEHIND
1070
     0
1002
}
1002
{
1000
OTHER
1070
     0
1002
}
1002
{
1000
REACTOR
1002
}
  0
VERTEX
  5
CBA
  8
0
 10
0.0
 20
0.0
 30
0.0
  0
VERTEX
  5
CBB
  8
0
 10
193.0
 20
0.0
 30
0.0
  0
VERTEX
  5
CBC
  8
0
 10
193.0
 20
280.0
 30
0.0
  0
VERTEX
  5
CBD
  8
0
 10
0.0
 20
280.0
 30
0.0
  0
SEQEND
  5
CBE
  8
0
  0
LINE
  5
7EF
  8
0
 10
149.0
 20
280.00000000000011
 30
0.0
 11
149.0
 21
275.0
 31
0.0
  0
INSERT
  5
7F0
  8
0
  2
*U124
 10
0.0
 20
0.0
 30
0.0
  0
LINE
  5
7F1
  8
0
 10
149.0
 20
275.0
 30
0.0
 11
193.0
 21
275.0
 31
0.0
  0
ENDBLK
  5
7F4
  8
0
  0
BLOCK
  8
0
  2
*U114
 70
     1
 10
0.0
 20
0.0
 30
0.0
  3
*U114
  1

  0
ENDBLK
  5
7FF
  8
0
  0
BLOCK
  8
0
  2
TK-仕様書
 70
     2
 10
0.0
 20
0.0
 30
0.0
  3
TK-仕様書
  1

  0
LINE
  5
805
  8
0
 10
0.0
 20
0.0
 30
0.0
 11
-193.0
 21
0.0
 31
0.0
  0
INSERT
  5
806
  8
0
  2
*U125
 10
0.0
 20
0.0
 30
0.0
  0
LINE
  5
807
  8
0
 10
-158.0
 20
19.99999999999994
 30
0.0
 11
-0.0000000000001137
 21
19.99999999999994
 31
0.0
  0
INSERT
  5
808
  8
0
  2
*U126
 10
0.0
 20
0.0
 30
0.0
  0
INSERT
  5
809
  8
0
  2
*U127
 10
0.0
 20
0.0
 30
0.0
  0
LINE
  5
80A
  8
0
 10
0.0
 20
35.0
 30
0.0
 11
0.0
 21
0.0
 31
0.0
  0
LINE
  5
80B
  8
0
 10
0.0
 20
35.0
 30
0.0
 11
-193.0
 21
35.0
 31
0.0
  0
INSERT
  5
80C
  8
0
  2
*U128
 10
0.0
 20
0.0
 30
0.0
  0
LINE
  5
80D
  8
0
 10
-158.0
 20
35.0
 30
0.0
 11
-158.0
 21
0.0
 31
0.0
  0
LINE
  5
80E
  8
0
 10
-75.000000000000114
 20
7.0
 30
0.0
 11
-158.0
 21
7.0
 31
0.0
  0
INSERT
  5
80F
  8
0
  2
*U129
 10
0.0
 20
0.0
 30
0.0
  0
INSERT
  5
810
  8
0
  2
*U130
 10
0.0
 20
0.0
 30
0.0
  0
INSERT
  5
811
  8
0
  2
*U131
 10
0.0
 20
0.0
 30
0.0
  0
LINE
  5
812
  8
0
 10
-193.0
 20
35.0
 30
0.0
 11
-193.0
 21
0.0
 31
0.0
  0
LINE
  5
813
  8
0
 10
-193.0
 20
12.0
 30
0.0
 11
-158.0
 21
12.0
 31
0.0
  0
LINE
  5
814
  8
0
 10
-193.0
 20
23.0
 30
0.0
 11
-158.0
 21
23.0
 31
0.0
  0
LINE
  5
815
  8
0
 10
-168.48711003708431
 20
31.958850220257212
 30
0.0
 11
-168.48711003708431
 21
25.958850220257212
 31
0.0
  0
LINE
  5
816
  8
7A
 10
-181.48711003708431
 20
28.958850220257212
 30
0.0
 11
-181.48711003708431
 21
25.248767462541998
 31
0.0
1001
GENIUS_GENOREF_13
1005
81F
  0
LINE
  5
817
  8
7A
 10
-181.48711003708431
 20
28.958850220257212
 30
0.0
 11
-185.2101474083355
 21
28.958850220257212
 31
0.0
1001
GENIUS_GENOREF_13
1005
81F
  0
LINE
  5
818
  8
0
 10
-176.48711003708431
 20
26.958850220257212
 30
0.0
 11
-176.48711003708431
 21
30.958850220257212
 31
0.0
  0
CIRCLE
  5
819
  8
0
 10
-181.48711003708431
 20
28.958850220257212
 30
0.0
 40
3.0
  0
CIRCLE
  5
81A
  8
0
 10
-181.48711003708431
 20
28.958850220257212
 30
0.0
 40
2.0
  0
LINE
  5
81B
  8
7A
 10
-181.48711003708431
 20
28.958850220257212
 30
0.0
 11
-181.48711003708431
 21
32.533636864988701
 31
0.0
1001
GENIUS_GENOREF_13
1005
81F
  0
LINE
  5
81C
  8
0
 10
-168.48711003708431
 20
25.958850220257212
 30
0.0
 11
-176.48711003708431
 21
26.958850220257212
 31
0.0
  0
LINE
  5
81D
  8
0
 10
-176.48711003708431
 20
30.958850220257212
 30
0.0
 11
-168.48711003708431
 21
31.958850220257212
 31
0.0
  0
LINE
  5
81E
  8
7A
 10
-181.48711003708431
 20
28.958850220257212
 30
0.0
 11
-167.70580163679901
 21
28.958850220257212
 31
0.0
1001
GENIUS_GENOREF_13
1005
81F
  0
POINT
  5
81F
  8
0
 10
-374.82212771758378
 20
-247.1434073158938
 30
0.0
1001
GENIUS_GENODEF_13
1002
{
1000
HIER
1070
    10
1002
}
1002
{
1000
MANEDIT
1070
     0
1002
}
1002
{
1000
NOSEL
1070
     0
1002
}
1002
{
1000
BEHIND
1070
     0
1002
}
1002
{
1000
REACTOR
1002
}
1001
GENIUS_GENOBJ-N-CRS_13
1002
{
1000
OWNER
1000
GEN
1002
}
1001
GENIUS_GENOENT_13
1002
{
1000
MYREF
1005
81F
1002
}
1002
{
1000
GRP
1005
0
1002
}
1001
GENIUS_GENOLIS_13
1002
{
1000
ENT
1005
816
1005
817
1005
81B
1005
81E
1002
}
  0
INSERT
  5
820
  8
0
  2
*U132
 10
0.0
 20
0.0
 30
0.0
  0
INSERT
  5
821
  8
0
  2
*U133
 10
0.0
 20
0.0
 30
0.0
  0
LINE
  5
822
  8
0
 10
-75.0
 20
35.0
 30
0.0
 11
-75.0
 21
0.0
 31
0.0
  0
LINE
  5
823
  8
0
 10
-50.000000000000107
 20
19.999999999999929
 30
0.0
 11
-50.0
 21
0.0
 31
0.0
  0
LINE
  5
824
  8
0
 10
-25.00000000000011
 20
19.999999999999929
 30
0.0
 11
-25.0
 21
0.0
 31
0.0
  0
ATTDEF
  5
825
  8
0
 10
-181.2742124931365
 20
2.7458346315812601
 30
0.0
 40
3.0
  1

  3
作成日
  2
GEN-TITLE-DAT
 70
     0
  0
ATTDEF
  5
826
  8
0
 10
-146.15614939308921
 20
24.947275552748689
 30
0.0
 40
3.5
  1

  3
品名
  2
品名
 70
     0
  0
ATTDEF
  5
827
  8
0
 10
-146.13916824856091
 20
11.537712363207049
 30
0.0
 40
3.5
  1

  3
型番
  2
型番
 70
     0
  0
ATTDEF
  5
828
  8
0
 10
-146.4521600020492
 20
2.0564206936789442
 30
0.0
 40
3.0
  1

  3
図番
  2
図番
 70
     0
  0
ATTDEF
  5
829
  8
0
 10
-62.500000000000107
 20
7.7290766682399399
 30
0.0
 40
3.5
  1

 72
     4
 11
-62.500000000000107
 21
7.7290766682399399
 31
0.0
  3
承認
  2
承認
 70
     0
  0
ATTDEF
  5
82A
  8
0
 10
-37.500000000000107
 20
7.7290766682399399
 30
0.0
 40
3.5
  1

 72
     4
 11
-37.500000000000107
 21
7.7290766682399399
 31
0.0
  3
検図
  2
検図
 70
     0
  0
ATTDEF
  5
82B
  8
0
 10
-12.50000000000011
 20
7.7290766682399399
 30
0.0
 40
3.5
  1

 72
     4
 11
-12.50000000000011
 21
7.7290766682399399
 31
0.0
  3
製図
  2
製図
 70
     0
  0
ATTDEF
  5
82C
  8
0
 10
-171.46182253019211
 20
15.792663173453491
 30
0.0
 40
3.0
  1

 72
     4
 11
-171.46182253019211
 21
15.792663173453491
 31
0.0
  3
尺度
  2
GEN-TITLE-SCA
 70
     0
  0
ENDBLK
  5
830
  8
0
  0
BLOCK
  8
0
  2
*D116
 70
     1
 10
0.0
 20
0.0
 30
0.0
  3
*D116
  1

  0
LINE
  5
933
  8
AM_5
 62
     3
 10
59.866417696888838
 20
216.9846274249428
 30
0.0
 11
59.866417696888838
 21
228.9846274249428
 31
0.0
  0
LINE
  5
934
  8
AM_5
 62
     3
 10
57.996417696888891
 20
214.6846274249427
 30
0.0
 11
57.996417696888891
 21
228.9846274249428
 31
0.0
  0
LINE
  5
935
  8
AM_5
 62
     3
 10
62.366417696888838
 20
227.9846274249428
 30
0.0
 11
64.866417696888846
 21
227.9846274249428
 31
0.0
  0
LINE
  5
936
  8
AM_5
 62
     3
 10
55.496417696888891
 20
227.9846274249428
 30
0.0
 11
43.346417696888892
 21
227.9846274249428
 31
0.0
  0
LINE
  5
937
  8
AM_5
 62
     3
 10
59.866417696888838
 20
227.9846274249428
 30
0.0
 11
57.996417696888891
 21
227.9846274249428
 31
0.0
  0
INSERT
  5
938
  8
AM_5
 62
     3
  2
_OPEN30
 10
59.866417696888838
 20
227.9846274249428
 30
0.0
 41
2.5
 42
2.5
 43
2.5
 50
180.0
  0
INSERT
  5
939
  8
AM_5
 62
     3
  2
_OPEN30
 10
57.996417696888891
 20
227.9846274249428
 30
0.0
 41
2.5
 42
2.5
 43
2.5
  0
INSERT
  5
93A
  8
0
  2
*U145
 10
0.0
 20
0.0
 30
0.0
  0
POINT
  5
93B
  8
DEFPOINTS
 62
     0
 10
59.866417696888838
 20
215.9846274249428
 30
0.0
  0
POINT
  5
93C
  8
DEFPOINTS
 62
     0
 10
57.996417696888891
 20
213.6846274249427
 30
0.0
  0
POINT
  5
93D
  8
DEFPOINTS
 62
     0
 10
57.996417696888891
 20
227.9846274249428
 30
0.0
  0
ENDBLK
  5
90F
  8
0
  0
BLOCK
  8
0
  2
*D118
 70
     1
 10
0.0
 20
0.0
 30
0.0
  3
*D118
  1

  0
LINE
  5
9CC
  8
AM_5
 62
     3
 10
75.046417696888966
 20
173.8962375092654
 30
0.0
 11
75.046417696888966
 21
193.3962385092654
 31
0.0
  0
LINE
  5
9CD
  8
AM_5
 62
     3
 10
81.996417696888997
 20
181.3962375092654
 30
0.0
 11
81.996417696888997
 21
193.3962385092654
 31
0.0
  0
LINE
  5
9CE
  8
AM_5
 62
     3
 10
72.546417696888966
 20
192.3962385092654
 30
0.0
 11
70.046417696888966
 21
192.3962385092654
 31
0.0
  0
LINE
  5
9CF
  8
AM_5
 62
     3
 10
84.496417696888997
 20
192.3962385092654
 30
0.0
 11
97.713071419347202
 21
192.3962385092654
 31
0.0
  0
LINE
  5
9D0
  8
AM_5
 62
     3
 10
75.046417696888966
 20
192.3962385092654
 30
0.0
 11
81.996417696888997
 21
192.3962385092654
 31
0.0
  0
INSERT
  5
9D1
  8
AM_5
 62
     3
  2
_OPEN30
 10
75.046417696888966
 20
192.3962385092654
 30
0.0
 41
2.5
 42
2.5
 43
2.5
  0
INSERT
  5
9D2
  8
AM_5
 62
     3
  2
_OPEN30
 10
81.996417696888997
 20
192.3962385092654
 30
0.0
 41
2.5
 42
2.5
 43
2.5
 50
180.0
  0
INSERT
  5
9D3
  8
0
  2
*U146
 10
0.0
 20
0.0
 30
0.0
  0
POINT
  5
9D4
  8
DEFPOINTS
 62
     0
 10
75.046417696888966
 20
172.8962375092654
 30
0.0
  0
POINT
  5
9D5
  8
DEFPOINTS
 62
     0
 10
81.996417696888997
 20
180.3962375092654
 30
0.0
  0
POINT
  5
9D6
  8
DEFPOINTS
 62
     0
 10
81.996417696888997
 20
192.3962385092654
 30
0.0
  0
ENDBLK
  5
9A8
  8
0
  0
BLOCK
  8
0
  2
*D119
 70
     1
 10
0.0
 20
0.0
 30
0.0
  3
*D119
  1

  0
LINE
  5
A2A
  8
AM_5
 62
     3
 10
75.046417696888966
 20
173.8962375092654
 30
0.0
 11
75.046417696888966
 21
190.25652836184011
 31
0.0
  0
LINE
  5
A2B
  8
AM_5
 62
     3
 10
81.996417696888898
 20
181.3962375092654
 30
0.0
 11
81.996417696888898
 21
190.25652836184011
 31
0.0
  0
LINE
  5
A2C
  8
AM_5
 62
     3
 10
72.546417696888966
 20
189.25652836184011
 30
0.0
 11
70.046417696888966
 21
189.25652836184011
 31
0.0
  0
LINE
  5
A2D
  8
AM_5
 62
     3
 10
84.496417696888898
 20
189.25652836184011
 30
0.0
 11
86.996417696888898
 21
189.25652836184011
 31
0.0
  0
LINE
  5
A2E
  8
AM_5
 62
     3
 10
75.046417696888966
 20
189.25652836184011
 30
0.0
 11
81.996417696888898
 21
189.25652836184011
 31
0.0
  0
INSERT
  5
A2F
  8
AM_5
 62
     3
  2
_OPEN30
 10
75.046417696888966
 20
189.25652836184011
 30
0.0
 41
2.5
 42
2.5
 43
2.5
  0
INSERT
  5
A30
  8
AM_5
 62
     3
  2
_OPEN30
 10
81.996417696888898
 20
189.25652836184011
 30
0.0
 41
2.5
 42
2.5
 43
2.5
 50
180.0
  0
INSERT
  5
A31
  8
0
  2
*U147
 10
0.0
 20
0.0
 30
0.0
  0
POINT
  5
A32
  8
DEFPOINTS
 62
     0
 10
75.046417696888966
 20
172.8962375092654
 30
0.0
  0
POINT
  5
A33
  8
DEFPOINTS
 62
     0
 10
81.996417696888898
 20
180.3962375092654
 30
0.0
  0
POINT
  5
A34
  8
DEFPOINTS
 62
     0
 10
81.996417696888898
 20
189.25652836184011
 30
0.0
  0
ENDBLK
  5
9F8
  8
0
  0
BLOCK
  8
0
  2
*D120
 70
     1
 10
0.0
 20
0.0
 30
0.0
  3
*D120
  1

  0
LINE
  5
B3E
  8
AM_5
 62
     3
 10
64.946417696888815
 20
173.8962375092654
 30
0.0
 11
64.946417696888815
 21
190.25646864555981
 31
0.0
  0
LINE
  5
B3F
  8
AM_5
 62
     3
 10
57.996417696888791
 20
181.3962375092654
 30
0.0
 11
57.996417696888791
 21
190.25646864555981
 31
0.0
  0
LINE
  5
B40
  8
AM_5
 62
     3
 10
67.446417696888815
 20
189.25646864555981
 30
0.0
 11
69.946417696888815
 21
189.25646864555981
 31
0.0
  0
LINE
  5
B41
  8
AM_5
 62
     3
 10
55.496417696888791
 20
189.25646864555981
 30
0.0
 11
52.996417696888791
 21
189.25646864555981
 31
0.0
  0
LINE
  5
B42
  8
AM_5
 62
     3
 10
64.946417696888815
 20
189.25646864555981
 30
0.0
 11
57.996417696888791
 21
189.25646864555981
 31
0.0
  0
INSERT
  5
B43
  8
AM_5
 62
     3
  2
_OPEN30
 10
64.946417696888815
 20
189.25646864555981
 30
0.0
 41
2.5
 42
2.5
 43
2.5
 50
180.0
  0
INSERT
  5
B44
  8
AM_5
 62
     3
  2
_OPEN30
 10
57.996417696888791
 20
189.25646864555981
 30
0.0
 41
2.5
 42
2.5
 43
2.5
  0
INSERT
  5
B45
  8
0
  2
*U148
 10
0.0
 20
0.0
 30
0.0
  0
POINT
  5
B46
  8
DEFPOINTS
 62
     0
 10
64.946417696888815
 20
172.8962375092654
 30
0.0
  0
POINT
  5
B47
  8
DEFPOINTS
 62
     0
 10
57.996417696888791
 20
180.3962375092654
 30
0.0
  0
POINT
  5
B48
  8
DEFPOINTS
 62
     0
 10
57.996417696888791
 20
189.25646864555981
 30
0.0
  0
ENDBLK
  5
B01
  8
0
  0
BLOCK
  8
0
  2
*D121
 70
     1
 10
0.0
 20
0.0
 30
0.0
  3
*D121
  1

  0
LINE
  5
BD2
  8
AM_5
 62
     3
 10
57.996417696888891
 20
164.3962375092654
 30
0.0
 11
57.996417696888891
 21
144.86184113771179
 31
0.0
  0
LINE
  5
BD3
  8
AM_5
 62
     3
 10
81.996417696888898
 20
164.3962375092654
 30
0.0
 11
81.996417696888898
 21
144.86184113771179
 31
0.0
  0
LINE
  5
BD4
  8
AM_5
 62
     3
 10
60.496417696888891
 20
145.86184113771179
 30
0.0
 11
79.496417696888898
 21
145.86184113771179
 31
0.0
  0
INSERT
  5
BD5
  8
AM_5
 62
     3
  2
_OPEN30
 10
57.996417696888891
 20
145.86184113771179
 30
0.0
 41
2.5
 42
2.5
 43
2.5
 50
180.0
  0
INSERT
  5
BD6
  8
AM_5
 62
     3
  2
_OPEN30
 10
81.996417696888898
 20
145.86184113771179
 30
0.0
 41
2.5
 42
2.5
 43
2.5
  0
INSERT
  5
BD7
  8
0
  2
*U152
 10
0.0
 20
0.0
 30
0.0
  0
POINT
  5
BD8
  8
DEFPOINTS
 62
     0
 10
57.996417696888891
 20
165.3962375092654
 30
0.0
  0
POINT
  5
BD9
  8
DEFPOINTS
 62
     0
 10
81.996417696888898
 20
165.3962375092654
 30
0.0
  0
POINT
  5
BDA
  8
DEFPOINTS
 62
     0
 10
81.996417696888898
 20
145.86184113771179
 30
0.0
  0
ENDBLK
  5
B85
  8
0
  0
BLOCK
  8
0
  2
*D122
 70
     1
 10
0.0
 20
0.0
 30
0.0
  3
*D122
  1

  0
LINE
  5
C3B
  8
AM_5
 10
75.042955043864623
 20
169.0462390664041
 30
0.0
 11
75.032013297024704
 21
156.8805071840531
 31
0.0
  0
LINE
  5
C3C
  8
AM_5
 10
75.032013297024704
 20
156.8805071840531
 30
0.0
 11
60.582013297024709
 21
156.8805071840531
 31
0.0
  0
SOLID
  5
C3D
  8
AM_5
 10
74.626288545719447
 20
169.0466138124024
 30
0.0
 11
75.459621542009771
 21
169.0458643204058
 31
0.0
 12
75.045203519854454
 22
171.5462380552751
 32
0.0
 13
75.045203519854454
 23
171.5462380552751
 33
0.0
  0
INSERT
  5
C3E
  8
0
  2
*U153
 10
0.0
 20
0.0
 30
0.0
  0
POINT
  5
C3F
  8
DEFPOINTS
 62
     0
 10
75.045203519854454
 20
171.5462380552751
 30
0.0
  0
POINT
  5
C40
  8
DEFPOINTS
 62
     0
 10
75.047631873923493
 20
174.2462369632558
 30
0.0
  0
ENDBLK
  5
BEE
  8
0
  0
BLOCK
  8
0
  2
*D123
 70
     1
 10
0.0
 20
0.0
 30
0.0
  3
*D123
  1

  0
LINE
  5
C8B
  8
AM_5
 62
     3
 10
57.996417696888891
 20
100.2182461101152
 30
0.0
 11
57.996417696888891
 21
88.218245110115205
 31
0.0
  0
LINE
  5
C8C
  8
AM_5
 62
     3
 10
81.996417696888898
 20
100.2182461101152
 30
0.0
 11
81.996417696888898
 21
88.218245110115205
 31
0.0
  0
LINE
  5
C8D
  8
AM_5
 62
     3
 10
60.496417696888891
 20
89.218245110115205
 30
0.0
 11
79.496417696888898
 21
89.218245110115205
 31
0.0
  0
INSERT
  5
C8E
  8
AM_5
 62
     3
  2
_OPEN30
 10
57.996417696888891
 20
89.218245110115205
 30
0.0
 41
2.5
 42
2.5
 43
2.5
 50
180.0
  0
INSERT
  5
C8F
  8
AM_5
 62
     3
  2
_OPEN30
 10
81.996417696888898
 20
89.218245110115205
 30
0.0
 41
2.5
 42
2.5
 43
2.5
  0
INSERT
  5
C90
  8
0
  2
*U154
 10
0.0
 20
0.0
 30
0.0
  0
POINT
  5
C91
  8
DEFPOINTS
 62
     0
 10
57.996417696888891
 20
101.2182461101152
 30
0.0
  0
POINT
  5
C92
  8
DEFPOINTS
 62
     0
 10
81.996417696888898
 20
101.2182461101152
 30
0.0
  0
POINT
  5
C93
  8
DEFPOINTS
 62
     0
 10
81.996417696888898
 20
89.218245110115205
 30
0.0
  0
ENDBLK
  5
C6D
  8
0
  0
BLOCK
  8
0
  2
*U124
 70
     1
 10
0.0
 20
0.0
 30
0.0
  3
*U124
  1

  0
TEXT
  5
CC0
  8
0
 10
150.48429538273481
 20
276.233542987227
 30
0.0
 40
2.5
  1
(文書番号：TY-34)2008.02.08
  0
ENDBLK
  5
CC2
  8
0
  0
BLOCK
  8
0
  2
*U125
 70
     1
 10
0.0
 20
0.0
 30
0.0
  3
*U125
  1

  0
TEXT
  5
CC4
  8
RAHM2
 10
-16.307978796175121
 20
16.458005618597319
 30
0.0
 40
2.5
  1
製図
  0
ENDBLK
  5
CC6
  8
0
  0
BLOCK
  8
0
  2
*U126
 70
     1
 10
0.0
 20
0.0
 30
0.0
  3
*U126
  1

  0
TEXT
  5
CC8
  8
RAHM2
 10
-39.980372555962163
 20
16.42584712714763
 30
0.0
 40
2.5
  1
検図
  0
ENDBLK
  5
CCA
  8
0
  0
BLOCK
  8
0
  2
*U127
 70
     1
 10
0.0
 20
0.0
 30
0.0
  3
*U127
  1

  0
TEXT
  5
CCC
  8
RAHM2
 10
-65.241402200578591
 20
16.301035407279599
 30
0.0
 40
2.5
  1
承認
  0
ENDBLK
  5
CCE
  8
0
  0
BLOCK
  8
0
  2
*U128
 70
     1
 10
0.0
 20
0.0
 30
0.0
  3
*U128
  1

  0
TEXT
  5
CD0
  8
0
 10
-63.984552361475721
 20
25.058937204965961
 30
0.0
 40
3.5
  1
株式会社タカチ電機工業
  0
ENDBLK
  5
CD2
  8
0
  0
BLOCK
  8
0
  2
*U129
 70
     1
 10
0.0
 20
0.0
 30
0.0
  3
*U129
  1

  0
TEXT
  5
CD4
  8
RAHM2
 10
-156.80025513713139
 20
31.30103540727967
 30
0.0
 40
2.5
  1
品名
  0
ENDBLK
  5
CD6
  8
0
  0
BLOCK
  8
0
  2
*U130
 70
     1
 10
0.0
 20
0.0
 30
0.0
  3
*U130
  1

  0
TEXT
  5
CD8
  8
RAHM2
 10
-156.80025513713139
 20
16.30103540727961
 30
0.0
 40
2.5
  1
型番
  0
ENDBLK
  5
CDA
  8
0
  0
BLOCK
  8
0
  2
*U131
 70
     1
 10
0.0
 20
0.0
 30
0.0
  3
*U131
  1

  0
TEXT
  5
CDC
  8
RAHM2
 10
-156.80025513713139
 20
3.3010354072796271
 30
0.0
 40
2.5
  1
図番
  0
ENDBLK
  5
CDE
  8
0
  0
BLOCK
  8
0
  2
*U132
 70
     1
 10
0.0
 20
0.0
 30
0.0
  3
*U132
  1

  0
TEXT
  5
CE0
  8
RAHM2
 10
-191.80025513713139
 20
19.30103540727967
 30
0.0
 40
2.5
  1
尺度
  0
ENDBLK
  5
CE2
  8
0
  0
BLOCK
  8
0
  2
*U133
 70
     1
 10
0.0
 20
0.0
 30
0.0
  3
*U133
  1

  0
TEXT
  5
CE4
  8
RAHM2
 10
-191.80025513713139
 20
8.3010354072796417
 30
0.0
 40
2.5
  1
作成日
  0
ENDBLK
  5
CE6
  8
0
  0
BLOCK
  8
0
  2
*U134
 70
     1
 10
0.0
 20
0.0
 30
0.0
  3
*U134
  1

  0
TEXT
  5
CE8
  8
AM_5
 62
     2
 10
70.271129108635847
 20
90.718246110115203
 30
0.0
 40
3.5
  1
19
  0
ENDBLK
  5
CEA
  8
0
  0
BLOCK
  8
0
  2
*U135
 70
     1
 10
0.0
 20
0.0
 30
0.0
  3
*U135
  1

  0
TEXT
  5
CEC
  8
AM_5
 62
     2
 10
114.8498425836694
 20
103.8932461101152
 30
0.0
 40
3.5
  1
13.4
 50
90.0
  0
ENDBLK
  5
CEE
  8
0
  0
BLOCK
  8
0
  2
*U136
 70
     1
 10
0.0
 20
0.0
 30
0.0
  3
*U136
  1

  0
TEXT
  5
CF0
  8
AM_5
 62
     2
 10
70.271129108635847
 20
154.8962375092654
 30
0.0
 40
3.5
  1
19
  0
ENDBLK
  5
CF2
  8
0
  0
BLOCK
  8
0
  2
*U137
 70
     1
 10
0.0
 20
0.0
 30
0.0
  3
*U137
  1

  0
TEXT
  5
CF4
  8
AM_5
 62
     2
 10
55.174647531356072
 20
171.59775754369269
 30
0.0
 40
3.5
  1
15
 50
90.0
  0
ENDBLK
  5
CF6
  8
0
  0
BLOCK
  8
0
  2
*U138
 70
     1
 10
0.0
 20
0.0
 30
0.0
  3
*U138
  1

  0
TEXT
  5
CF8
  8
AM_5
 62
     2
 10
87.971417696888906
 20
229.4846274249428
 30
0.0
 40
3.5
  1
1.87
  0
ENDBLK
  5
CFA
  8
0
  0
BLOCK
  8
0
  2
*U139
 70
     1
 10
0.0
 20
0.0
 30
0.0
  3
*U139
  1

  0
TEXT
  5
CFC
  8
AM_5
 62
     2
 10
56.867795649644883
 20
229.48462742494269
 30
0.0
 40
3.5
  1
10.16
  0
ENDBLK
  5
CFE
  8
0
  0
BLOCK
  8
0
  2
*U140
 70
     1
 10
0.0
 20
0.0
 30
0.0
  3
*U140
  1

  0
TEXT
  5
D00
  8
AM_5
 62
     2
 10
110.3248415836694
 20
190.73172662828961
 30
0.0
 40
3.5
  1
1.5
  0
ENDBLK
  5
D02
  8
0
  0
BLOCK
  8
0
  2
*U141
 70
     1
 10
0.0
 20
0.0
 30
0.0
  3
*U141
  1

  0
TEXT
  5
D04
  8
AM_5
 62
     2
 10
74.347539654557536
 20
190.5853252099439
 30
0.0
 40
3.5
  1
6.95
  0
ENDBLK
  5
D06
  8
0
  0
BLOCK
  8
0
  2
*U142
 70
     1
 10
0.0
 20
0.0
 30
0.0
  3
*U142
  1

  0
TEXT
  5
D08
  8
AM_5
 62
     2
 10
126.65370518198741
 20
180.11011546202141
 30
0.0
 40
3.5
  1
2.3
 50
90.0
  0
ENDBLK
  5
D0A
  8
0
  0
BLOCK
  8
0
  2
*U143
 70
     1
 10
0.0
 20
0.0
 30
0.0
  3
*U143
  1

  0
TEXT
  5
D0C
  8
AM_5
 62
     2
 10
54.670389541560247
 20
150.0314014622731
 30
0.0
 40
3.5
  1
\U+22052.7
 50
51.101438587233488
  0
ENDBLK
  5
D0E
  8
0
  0
BLOCK
  8
0
  2
*U144
 70
     1
 10
0.0
 20
0.0
 30
0.0
  3
*U144
  1

  0
TEXT
  5
D10
  8
AM_5
 62
     2
 10
134.5550477770615
 20
171.67123750926541
 30
0.0
 40
3.5
  1
8
 50
90.0
  0
ENDBLK
  5
D12
  8
0
  0
BLOCK
  8
0
  2
*U145
 70
     1
 10
0.0
 20
0.0
 30
0.0
  3
*U145
  1

  0
TEXT
  5
D14
  8
AM_5
 62
     2
 10
44.321417696888894
 20
229.4846274249428
 30
0.0
 40
3.5
  1
1.87
  0
ENDBLK
  5
D16
  8
0
  0
BLOCK
  8
0
  2
*U146
 70
     1
 10
0.0
 20
0.0
 30
0.0
  3
*U146
  1

  0
TEXT
  5
D18
  8
AM_5
 62
     2
 10
88.180866515786647
 20
193.8962385092654
 30
0.0
 40
3.5
  1
6.95
  0
ENDBLK
  5
D1A
  8
0
  0
BLOCK
  8
0
  2
*U147
 70
     1
 10
0.0
 20
0.0
 30
0.0
  3
*U147
  1

  0
TEXT
  5
D1C
  8
AM_5
 62
     2
 10
74.347539654557465
 20
190.75652836184011
 30
0.0
 40
3.5
  1
6.95
  0
ENDBLK
  5
D1E
  8
0
  0
BLOCK
  8
0
  2
*U148
 70
     1
 10
0.0
 20
0.0
 30
0.0
  3
*U148
  1

  0
TEXT
  5
D20
  8
AM_5
 62
     2
 10
57.297539654557347
 20
190.75646864555981
 30
0.0
 40
3.5
  1
6.95
  0
ENDBLK
  5
D22
  8
0
  0
BLOCK
  8
0
  2
*U149
 70
     1
 10
0.0
 20
0.0
 30
0.0
  3
*U149
  1

  0
TEXT
  5
D24
  8
AM_5
 62
     2
 10
125.2137195364253
 20
147.28926310810229
 30
0.0
 40
3.5
  1
2.3
  0
ENDBLK
  5
D26
  8
0
  0
BLOCK
  8
0
  2
*U150
 70
     1
 10
0.0
 20
0.0
 30
0.0
  3
*U150
  1

  0
TEXT
  5
D28
  8
AM_5
 62
     2
 10
107.5748415836694
 20
147.28926310810229
 30
0.0
 40
3.5
  1
14
  0
ENDBLK
  5
D2A
  8
0
  0
BLOCK
  8
0
  2
*U151
 70
     1
 10
0.0
 20
0.0
 30
0.0
  3
*U151
  1

  0
TEXT
  5
D2C
  8
AM_5
 62
     2
 10
111.62484158366939
 20
156.87155450711759
 30
0.0
 40
3.5
  1
8
  0
ENDBLK
  5
D2E
  8
0
  0
BLOCK
  8
0
  2
*U152
 70
     1
 10
0.0
 20
0.0
 30
0.0
  3
*U152
  1

  0
TEXT
  5
D30
  8
AM_5
 62
     2
 10
67.415856673266845
 20
147.36184113771179
 30
0.0
 40
3.5
  1
24
  0
ENDBLK
  5
D32
  8
0
  0
BLOCK
  8
0
  2
*U153
 70
     1
 10
0.0
 20
0.0
 30
0.0
  3
*U153
  1

  0
TEXT
  5
D34
  8
AM_5
 62
     2
 10
60.057013297024682
 20
158.3805071840531
 30
0.0
 40
3.5
  1
3-\U+22052.7
  0
ENDBLK
  5
D36
  8
0
  0
BLOCK
  8
0
  2
*U154
 70
     1
 10
0.0
 20
0.0
 30
0.0
  3
*U154
  1

  0
TEXT
  5
D38
  8
AM_5
 62
     2
 10
67.415856673266845
 20
90.718245110115205
 30
0.0
 40
3.5
  1
24
  0
ENDBLK
  5
D3A
  8
0
  0
ENDSEC
  0
SECTION
  2
ENTITIES
  0
INSERT
  5
63F
  8
0
  2
A$C4B68363E
 10
147.57334217258571
 20
219.3338500294123
 30
0.0
  0
INSERT
  5
640
  8
0
  2
A$C762874DC
 10
164.09488197500281
 20
219.33459868346409
 30
0.0
  0
INSERT
  5
641
  8
0
  2
A$C47270E8E
 10
168.27413606674409
 20
238.59812816488301
 30
0.0
  0
INSERT
  5
642
  8
0
  2
A$C35C16C4D
 10
146.36057551595229
 20
238.59812816488309
 30
0.0
  0
INSERT
  5
643
  8
プレ_ト
  2
*U71
 10
0.0
 20
-15.0
 30
0.0
  0
INSERT
  5
64F
  8
AM_5
  2
*U69
 10
0.0
 20
-15.0
 30
0.0
  0
INSERT
  5
650
  8
AM_5
  2
*U67
 10
-10.491670100648999
 20
-14.589211977783689
 30
0.0
  0
INSERT
  5
651
  8
AM_5
  2
*U65
 10
0.0
 20
-15.0
 30
0.0
  0
INSERT
  5
652
  8
AM_12
  2
*U64
 10
0.0
 20
-15.0
 30
0.0
  0
INSERT
  5
653
  8
AM_5
  2
*U62
 10
0.0
 20
-15.0
 30
0.0
  0
INSERT
  5
654
  8
AM_12
  2
*U61
 10
0.0
 20
-15.0
 30
0.0
  0
DIMENSION
  5
655
  8
AM_5
  2
*D98
 10
136.0550477770615
 20
168.8962375092654
 30
0.0
 11
132.8050477770615
 21
172.8962375092654
 31
0.0
 70
     0
 13
116.8498415836694
 23
176.8962375092654
 33
0.0
 14
116.8498415836694
 24
168.8962375092654
 34
0.0
 50
90.0
1001
ACAD
1000
DSTYLE
1002
{
1070
    40
1040
1.0
1070
   144
1040
1.0
1002
}
  0
DIMENSION
  5
657
  8
AM_5
  2
*D100
 10
119.1498415836694
 20
145.78926310810229
 30
0.0
 11
128.21676793346259
 21
149.03960759629129
 31
0.0
 70
     0
 13
116.8498415836694
 23
168.8962375092654
 33
0.0
 14
119.1498415836694
 24
172.1462375092654
 34
0.0
1001
ACAD
1000
DSTYLE
1002
{
1070
    40
1040
1.0
1070
   144
1040
1.0
1002
}
  0
DIMENSION
  5
658
  8
AM_5
  2
*D101
 10
116.8498415836694
 20
155.37155450711759
 30
0.0
 11
112.8498415836694
 21
158.62155450711759
 31
0.0
 70
     0
 13
108.8498415836694
 23
168.8962375092654
 33
0.0
 14
116.8498415836694
 24
168.8962375092654
 34
0.0
1001
ACAD
1000
DSTYLE
1002
{
1070
    40
1040
1.0
1070
   144
1040
1.0
1002
}
  0
DIMENSION
  5
659
  8
AM_5
  2
*D102
 10
116.8498415836694
 20
145.78926310810229
 30
0.0
 11
109.8498415836694
 21
149.03926310810229
 31
0.0
 70
     0
 13
102.8498415836694
 23
165.3962375092654
 33
0.0
 14
116.8498415836694
 24
168.8962375092654
 34
0.0
1001
ACAD
1000
DSTYLE
1002
{
1070
    40
1040
1.0
1070
   144
1040
1.0
1002
}
  0
INSERT
  5
65A
  8
AM_12
  2
*U60
 10
0.0
 20
-15.0
 30
0.0
  0
INSERT
  5
65B
  8
AM_12
  2
*U59
 10
-10.491670100648999
 20
-14.589211977783689
 30
0.0
  0
DIMENSION
  5
65C
  8
AM_5
  2
*D103
 10
128.15370518198739
 20
171.74623750926531
 30
0.0
 11
128.15370518198739
 21
183.11316385905869
 31
0.0
 70
   128
 13
118.4498415836694
 23
174.04623750926541
 33
0.0
 14
118.4498415836694
 24
171.74623750926531
 34
0.0
 50
90.0
1001
ACAD
1000
DSTYLE
1002
{
1070
    40
1040
1.0
1070
   144
1040
1.0
1002
}
  0
DIMENSION
  5
65E
  8
AM_5
  2
*D105
 10
104.3498415836694
 20
189.23172662828961
 30
0.0
 11
113.0223289570847
 21
189.23172662828961
 31
0.0
 70
   128
 13
102.8498415836694
 23
179.3962375092654
 33
0.0
 14
104.3498415836694
 24
179.3962375092654
 34
0.0
1001
ACAD
1000
DSTYLE
1002
{
1070
    40
1040
1.0
1070
   144
1040
1.0
1002
}
  0
DIMENSION
  5
660
  8
AM_5
  2
*D107
 10
81.996417696888898
 20
227.9846274249428
 30
0.0
 11
91.821417696888901
 21
231.2346274249428
 31
0.0
 70
     0
 13
80.126417696888964
 23
215.9846274249428
 33
0.0
 14
81.996417696888898
 24
213.6846274249427
 34
0.0
1001
ACAD
1000
DSTYLE
1002
{
1070
    40
1040
1.0
1070
   144
1040
1.0
1002
}
  0
DIMENSION
  5
663
  8
AM_5
  2
*D110
 10
116.3498425836694
 20
101.2182461101152
 30
0.0
 11
113.0998425836694
 21
107.91824611011521
 31
0.0
 70
     0
 13
104.3498415836694
 23
114.61824611011519
 33
0.0
 14
104.3498415836694
 24
101.2182461101152
 34
0.0
 50
90.0
1001
ACAD
1000
DSTYLE
1002
{
1070
    40
1040
1.0
1070
   144
1040
1.0
1002
}
  0
LINE
  5
665
  8
プレ_ト
 10
104.3498415836694
 20
101.2182461101152
 30
0.0
 11
104.3498415836694
 21
114.61824611011519
 31
0.0
  0
LINE
  5
666
  8
プレ_ト
 10
102.8498415836694
 20
101.2182461101152
 30
0.0
 11
104.3498415836694
 21
101.2182461101152
 31
0.0
  0
LINE
  5
667
  8
プレ_ト
 10
102.8498415836694
 20
114.61824611011519
 30
0.0
 11
102.8498415836694
 21
101.2182461101152
 31
0.0
  0
LINE
  5
668
  8
プレ_ト
 10
104.3498415836694
 20
114.61824611011519
 30
0.0
 11
102.8498415836694
 21
114.61824611011519
 31
0.0
  0
LINE
  5
669
  8
プレ_ト
 10
57.996417696888891
 20
101.2182461101152
 30
0.0
 11
57.996417696888891
 21
114.61824611011519
 31
0.0
  0
LINE
  5
66A
  8
プレ_ト
 10
81.996417696888898
 20
101.2182461101152
 30
0.0
 11
57.996417696888891
 21
101.2182461101152
 31
0.0
  0
LINE
  5
66B
  8
プレ_ト
 10
81.996417696888898
 20
114.61824611011519
 30
0.0
 11
81.996417696888898
 21
101.2182461101152
 31
0.0
  0
LINE
  5
66C
  8
プレ_ト
 10
57.996417696888891
 20
114.61824611011519
 30
0.0
 11
81.996417696888898
 21
114.61824611011519
 31
0.0
  0
LINE
  5
66D
  8
ハンドル
 10
78.976417696888973
 20
215.2846274249427
 30
0.0
 11
81.276417696888913
 21
215.2846274249427
 31
0.0
  0
LINE
  5
66E
  8
ハンドル
 10
81.276417696888913
 20
215.2846274249427
 30
0.0
 11
80.87641769688895
 21
215.98462742494269
 31
0.0
  0
LINE
  5
66F
  8
ハンドル
 10
78.976417696888973
 20
215.2846274249427
 30
0.0
 11
79.37641769688895
 21
215.9846274249428
 31
0.0
  0
LINE
  5
670
  8
ハンドル
 10
79.37641769688895
 20
215.9846274249428
 30
0.0
 11
80.87641769688895
 21
215.9846274249428
 31
0.0
  0
LINE
  5
671
  8
ハンドル
 10
81.276417696888913
 20
215.2846274249427
 30
0.0
 11
81.276417696888913
 21
213.6846274249427
 31
0.0
  0
LINE
  5
672
  8
ハンドル
 10
78.976417696888916
 20
213.6846274249427
 30
0.0
 11
78.976417696888973
 21
215.2846274249427
 31
0.0
  0
LINE
  5
679
  8
ハンドル
 10
79.996417696888884
 20
179.3962375092654
 30
0.0
 11
79.996417696888884
 21
166.3962375092654
 31
0.0
  0
CIRCLE
  5
67B
  8
ハンドル
 10
75.046417696888966
 20
172.8962375092654
 30
0.0
 40
1.3500000000000001
  0
LINE
  5
67C
  8
ハンドル
 10
69.996417696888884
 20
170.3962375092654
 30
0.0
 11
79.996417696888884
 21
170.3962375092654
 31
0.0
  0
LINE
  5
67D
  8
ハンドル
 10
69.996417696888884
 20
175.3962375092654
 30
0.0
 11
79.996417696888884
 21
175.3962375092654
 31
0.0
  0
LINE
  5
67E
  8
ハンドル
 10
118.4498415836694
 20
174.04623750926541
 30
0.0
 11
118.4498415836694
 21
171.74623750926531
 31
0.0
  0
LINE
  5
67F
  8
ハンドル
 10
118.4498415836694
 20
171.74623750926531
 30
0.0
 11
119.1498415836693
 21
172.1462375092654
 31
0.0
  0
LINE
  5
680
  8
ハンドル
 10
118.4498415836694
 20
174.04623750926541
 30
0.0
 11
119.1498415836694
 21
173.6462375092654
 31
0.0
  0
LINE
  5
681
  8
ハンドル
 10
119.1498415836694
 20
173.6462375092654
 30
0.0
 11
119.1498415836694
 21
172.1462375092654
 31
0.0
  0
LINE
  5
684
  8
ハンドル
 10
118.4498415836694
 20
171.74623750926531
 30
0.0
 11
116.8498415836694
 21
171.74623750926531
 31
0.0
  0
LINE
  5
685
  8
ハンドル
 10
116.8498415836694
 20
174.04623750926541
 30
0.0
 11
118.4498415836694
 21
174.04623750926541
 31
0.0
  0
LINE
  5
686
  8
ハンドル
 62
     0
 10
81.996417696888997
 20
179.3962375092654
 30
0.0
 11
69.996417696888884
 21
179.3962375092654
 31
0.0
  0
LINE
  5
687
  8
ハンドル
 62
     0
 10
81.996417696888997
 20
166.3962375092654
 30
0.0
 11
69.996417696888884
 21
166.3962375092654
 31
0.0
  0
LINE
  5
688
  8
ハンドル
 62
     0
 10
81.996417696888898
 20
180.3962375092654
 30
0.0
 11
81.996417696888898
 21
165.3962375092654
 31
0.0
  0
LINE
  5
689
  8
ハンドル
 62
     0
 10
69.996417696888884
 20
180.3962375092654
 30
0.0
 11
81.996417696888997
 21
180.3962375092654
 31
0.0
  0
LINE
  5
68A
  8
ハンドル
 62
     0
 10
81.996417696888997
 20
165.3962375092654
 30
0.0
 11
69.996417696888884
 21
165.3962375092654
 31
0.0
  0
LINE
  5
68B
  8
ハンドル0
 10
69.996417696888884
 20
201.1846274249427
 30
0.0
 11
81.996417696888898
 21
201.1846274249427
 31
0.0
  0
LINE
  5
68C
  8
ハンドル
 10
69.996417696888884
 20
205.6846274249427
 30
0.0
 11
81.996417696888898
 21
205.6846274249427
 31
0.0
  0
LINE
  5
68D
  8
ハンドル
 10
81.996417696888898
 20
199.6846274249427
 30
0.0
 11
69.996417696888884
 21
199.6846274249427
 31
0.0
  0
LINE
  5
68E
  8
ハンドル
 10
81.996417696888898
 20
213.6846274249427
 30
0.0
 11
81.996417696888898
 21
199.6846274249427
 31
0.0
  0
LINE
  5
68F
  8
ハンドル
 10
69.996417696888884
 20
213.6846274249427
 30
0.0
 11
81.996417696888898
 21
213.6846274249427
 31
0.0
  0
LINE
  5
690
  8
ハンドル
 62
     0
 10
102.8498415836694
 20
166.29623750926541
 30
0.0
 11
102.8498415836694
 21
166.3962375092654
 31
0.0
  0
LINE
  5
691
  8
ハンドル
 62
     0
 10
102.8498415836694
 20
166.3962375092654
 30
0.0
 11
104.3498415836694
 21
166.3962375092654
 31
0.0
  0
LINE
  5
692
  8
ハンドル
 62
     0
 10
102.8498415836694
 20
165.3962375092654
 30
0.0
 11
102.8498415836694
 21
166.29623750926541
 31
0.0
  0
LINE
  5
693
  8
ハンドル
 62
     0
 10
108.8498415836694
 20
168.8962375092654
 30
0.0
 11
116.8498415836694
 21
168.8962375092654
 31
0.0
  0
LINE
  5
694
  8
ハンドル
 62
     0
 10
104.3498415836694
 20
165.3962375092654
 30
0.0
 11
108.8498415836694
 21
168.8962375092654
 31
0.0
  0
LINE
  5
695
  8
ハンドル
 62
     0
 10
102.8498415836694
 20
165.3962375092654
 30
0.0
 11
104.3498415836694
 21
165.3962375092654
 31
0.0
  0
LINE
  5
696
  8
ハンドル
 10
116.8498415836694
 20
168.8962375092654
 30
0.0
 11
116.8498415836694
 21
172.8962375092654
 31
0.0
  0
LINE
  5
697
  8
ハンドル
 10
104.3498415836694
 20
166.3962375092654
 30
0.0
 11
104.3498415836694
 21
179.3962375092654
 31
0.0
  0
LINE
  5
698
  8
ハンドル
 10
116.8498415836694
 20
176.8962375092654
 30
0.0
 11
116.8498415836694
 21
172.8962375092654
 31
0.0
  0
LINE
  5
699
  8
ハンドル
 62
     0
 10
102.8498415836694
 20
180.3962375092654
 30
0.0
 11
104.3498415836694
 21
180.3962375092654
 31
0.0
  0
LINE
  5
69A
  8
ハンドル
 62
     0
 10
104.3498415836694
 20
180.3962375092654
 30
0.0
 11
108.8498415836694
 21
176.8962375092654
 31
0.0
  0
LINE
  5
69B
  8
ハンドル
 62
     0
 10
108.8498415836694
 20
176.8962375092654
 30
0.0
 11
116.8498415836694
 21
176.8962375092654
 31
0.0
  0
LINE
  5
69C
  8
ハンドル
 62
     0
 10
102.8498415836694
 20
180.3962375092654
 30
0.0
 11
102.8498415836694
 21
179.49623750926531
 31
0.0
  0
LINE
  5
69D
  8
ハンドル
 62
     0
 10
102.8498415836694
 20
179.3962375092654
 30
0.0
 11
104.3498415836694
 21
179.3962375092654
 31
0.0
  0
LINE
  5
69E
  8
ハンドル
 62
     0
 10
102.8498415836694
 20
179.49623750926531
 30
0.0
 11
102.8498415836694
 21
179.3962375092654
 31
0.0
  0
INSERT
  5
7FB
  8
0
  2
TK-A4
 10
0.0
 20
0.0
 30
0.0
1001
GENIUS_GENOREF_13
1005
83C
1001
GENIUS_GENODEF_13
1002
{
1000
HIER
1070
     0
1002
}
1002
{
1000
MANEDIT
1070
     0
1002
}
1002
{
1000
NOSEL
1070
     0
1002
}
1002
{
1000
BEHIND
1070
     0
1002
}
1002
{
1000
OTHER
1070
     0
1002
}
1002
{
1000
REACTOR
1002
}
1001
GENIUS_GENOBJ-N-SDF_13
1002
{
1000
OWNER
1000
GEN
1002
}
1001
GENIUS_GENSCREG_13
1040
1.0
1040
1.0
1011
0.0
1021
0.0
1031
0.0
1021
0.0
1031
0.0
1011
193.0
1021
0.0
1031
0.0
1021
280.00000000000011
1031
0.0
1070
     3
  0
INSERT
  5
832
  8
0
 66
     1
  2
TK-仕様書
 10
193.0
 20
0.0
 30
0.0
1001
GENIUS_GENOREF_13
1005
83C
  0
ATTRIB
  5
834
  8
0
 10
11.72578750686352
 20
2.7458346315812601
 30
0.0
 40
3.0
  1
2011/11/16
  2
GEN-TITLE-DAT
 70
     0
  0
ATTRIB
  5
835
  8
0
 10
46.843850606910792
 20
24.947275552748689
 30
0.0
 40
3.5
  1
HN型ハンドル
  2
品名
 70
     0
  0
ATTRIB
  5
836
  8
0
 10
46.860831751439029
 20
11.537712363207049
 30
0.0
 40
3.5
  1
HN-25□
  2
型番
 70
     0
  0
ATTRIB
  5
837
  8
0
 10
46.547839997950739
 20
2.0564206936789442
 30
0.0
 40
3.0
  1

  2
図番
 70
     0
  0
ATTRIB
  5
838
  8
0
 10
130.49999999999989
 20
7.7290766682399399
 30
0.0
 40
3.5
  1

 72
     4
 11
130.49999999999989
 21
7.7290766682399399
 31
0.0
  2
承認
 70
     0
  0
ATTRIB
  5
839
  8
0
 10
155.49999999999989
 20
7.7290766682399399
 30
0.0
 40
3.5
  1

 72
     4
 11
155.49999999999989
 21
7.7290766682399399
 31
0.0
  2
検図
 70
     0
  0
ATTRIB
  5
83A
  8
0
 10
180.49999999999989
 20
7.7290766682399399
 30
0.0
 40
3.5
  1

 72
     4
 11
180.49999999999989
 21
7.7290766682399399
 31
0.0
  2
製図
 70
     0
  0
ATTRIB
  5
83B
  8
0
 10
19.588177469807921
 20
14.292663173453491
 30
0.0
 40
3.0
  1
1:1
 72
     4
 11
21.53817746980792
 21
15.792663173453491
 31
0.0
  2
GEN-TITLE-SCA
 70
     0
  0
SEQEND
  5
833
  8
0
  0
POINT
  5
83C
  8
0
 10
0.0
 20
0.0
 30
0.0
1001
GENIUS_GENOENT_13
1002
{
1000
MYREF
1005
83C
1002
}
1002
{
1000
GRP
1005
0
1002
}
1001
GENIUS_GENOBJ-N-TIT_13
1002
{
1000
OWNER
1000
GEN
1002
}
1001
GENIUS_GENODEF_13
1002
{
1000
HIER
1070
     1
1002
}
1002
{
1000
MANEDIT
1070
     0
1002
}
1002
{
1000
NOSEL
1070
     0
1002
}
1002
{
1000
BEHIND
1070
     0
1002
}
1002
{
1000
OTHER
1070
     0
1002
}
1002
{
1000
REACTOR
1002
}
1001
GENIUS_GENOLIS_13
1002
{
1000
ENT
1005
832
1005
7FB
1002
}
1001
GENIUS_GENTITLE_13
1002
{
1000
BORDER
1000
TK-A4
1002
}
1002
{
1000
TITLE
1000
TK-仕様書
1002
}
1002
{
1000
SCALE
1000
1:1
1002
}
1002
{
1000
TITLESTD
1000
ISO
1002
}
1002
{
1000
HRA
1005
7FB
1002
}
1002
{
1000
HTIT
1005
832
1002
}
1002
{
1000
UNCHG
1002
{
1000
GEN-TITLE-SIZ
1000
GEN-TITLE-SCA
1002
}
1002
}
1002
{
1000
GENIUSID
1005
83C
1002
}
  0
LINE
  5
8E6
  8
ハンドル
 10
69.996417696888884
 20
213.6846274249427
 30
0.0
 11
57.996417696888891
 21
213.6846274249427
 31
0.0
  0
LINE
  5
8E7
  8
ハンドル
 10
57.996417696888891
 20
213.6846274249427
 30
0.0
 11
57.996417696888891
 21
199.6846274249427
 31
0.0
  0
LINE
  5
8E8
  8
ハンドル
 10
57.996417696888891
 20
199.6846274249427
 30
0.0
 11
69.996417696888884
 21
199.6846274249427
 31
0.0
  0
LINE
  5
8E9
  8
ハンドル
 10
69.996417696888884
 20
205.6846274249427
 30
0.0
 11
57.996417696888891
 21
205.6846274249427
 31
0.0
  0
LINE
  5
8EA
  8
ハンドル0
 10
69.996417696888884
 20
201.1846274249427
 30
0.0
 11
57.996417696888891
 21
201.1846274249427
 31
0.0
  0
LINE
  5
8EB
  8
ハンドル
 10
61.01641769688888
 20
213.6846274249427
 30
0.0
 11
61.016417696888823
 21
215.2846274249427
 31
0.0
  0
LINE
  5
8EC
  8
ハンドル
 10
58.716417696888868
 20
215.2846274249427
 30
0.0
 11
58.716417696888868
 21
213.6846274249427
 31
0.0
  0
LINE
  5
8ED
  8
ハンドル
 10
60.616417696888838
 20
215.9846274249428
 30
0.0
 11
59.116417696888838
 21
215.9846274249428
 31
0.0
  0
LINE
  5
8EE
  8
ハンドル
 10
61.016417696888823
 20
215.2846274249427
 30
0.0
 11
60.616417696888838
 21
215.9846274249428
 31
0.0
  0
LINE
  5
8EF
  8
ハンドル
 10
58.716417696888868
 20
215.2846274249427
 30
0.0
 11
59.116417696888838
 21
215.98462742494269
 31
0.0
  0
LINE
  5
8F0
  8
ハンドル
 10
61.016417696888823
 20
215.2846274249427
 30
0.0
 11
58.716417696888868
 21
215.2846274249427
 31
0.0
  0
DIMENSION
  5
901
  8
AM_5
  2
*D116
 10
57.996417696888891
 20
227.9846274249428
 30
0.0
 11
48.171417696888888
 21
231.2346274249428
 31
0.0
 70
     0
 13
59.866417696888838
 23
215.9846274249428
 33
0.0
 14
57.996417696888891
 24
213.6846274249427
 34
0.0
  0
LINE
  5
94E
  8
ハンドル
 62
     0
 10
57.996417696888791
 20
165.3962375092654
 30
0.0
 11
69.996417696888884
 21
165.3962375092654
 31
0.0
  0
LINE
  5
94F
  8
ハンドル
 62
     0
 10
69.996417696888884
 20
180.3962375092654
 30
0.0
 11
57.996417696888791
 21
180.3962375092654
 31
0.0
  0
LINE
  5
950
  8
ハンドル
 62
     0
 10
57.996417696888891
 20
180.3962375092654
 30
0.0
 11
57.996417696888891
 21
165.3962375092654
 31
0.0
  0
LINE
  5
951
  8
ハンドル
 62
     0
 10
57.996417696888791
 20
166.3962375092654
 30
0.0
 11
69.996417696888884
 21
166.3962375092654
 31
0.0
  0
LINE
  5
952
  8
ハンドル
 62
     0
 10
57.996417696888791
 20
179.3962375092654
 30
0.0
 11
69.996417696888884
 21
179.3962375092654
 31
0.0
  0
LINE
  5
953
  8
ハンドル
 10
69.996417696888884
 20
175.3962375092654
 30
0.0
 11
59.996417696888891
 21
175.3962375092654
 31
0.0
  0
LINE
  5
954
  8
ハンドル
 10
69.996417696888884
 20
170.3962375092654
 30
0.0
 11
59.996417696888891
 21
170.3962375092654
 31
0.0
  0
CIRCLE
  5
955
  8
ハンドル
 10
64.946417696888815
 20
172.8962375092654
 30
0.0
 40
1.3500000000000001
  0
LINE
  5
956
  8
ハンドル
 10
59.996417696888891
 20
179.3962375092654
 30
0.0
 11
59.996417696888891
 21
166.3962375092654
 31
0.0
  0
CIRCLE
  5
96A
  8
ハンドル
 10
69.996417696888884
 20
172.8962375092654
 30
0.0
 40
1.3500000000000001
  0
DIMENSION
  5
9EA
  8
AM_5
  2
*D119
 10
81.996417696888898
 20
189.25652836184011
 30
0.0
 11
78.521417696888932
 21
189.25652836184011
 31
0.0
 70
   128
 13
75.046417696888966
 23
172.8962375092654
 33
0.0
 14
81.996417696888898
 24
180.3962375092654
 34
0.0
 50
0.0000000000000114
  0
DIMENSION
  5
AF3
  8
AM_5
  2
*D120
 10
57.996417696888791
 20
189.25646864555981
 30
0.0
 11
61.471417696888807
 21
189.25646864555981
 31
0.0
 70
   128
 13
64.946417696888815
 23
172.8962375092654
 33
0.0
 14
57.996417696888791
 24
180.3962375092654
 34
0.0
  0
DIMENSION
  5
B79
  8
AM_5
  2
*D121
 10
81.996417696888898
 20
145.86184113771179
 30
0.0
 11
69.996417696888884
 21
149.11218562590079
 31
0.0
 70
     0
 13
57.996417696888891
 23
165.3962375092654
 33
0.0
 14
81.996417696888898
 24
165.3962375092654
 34
0.0
 50
0.0000000000001132
  0
DIMENSION
  5
BE3
  8
AM_5
  2
*D122
 10
75.047631873923493
 20
174.2462369632558
 30
0.0
 11
67.057013297024682
 21
156.8805071840531
 31
0.0
 70
   131
  1
3-<>
 15
75.045203519854454
 25
171.5462380552751
 35
0.0
 40
0.0
  0
DIMENSION
  5
C61
  8
AM_5
  2
*D123
 10
81.996417696888898
 20
89.218245110115205
 30
0.0
 11
69.996417696888884
 21
92.468589598304163
 31
0.0
 70
     0
 13
57.996417696888891
 23
101.2182461101152
 33
0.0
 14
81.996417696888898
 24
101.2182461101152
 34
0.0
 50
0.0000000000001132
  0
VIEWPORT
  5
178
 67
     1
  8
0
 10
133.34999084472659
 20
123.6089706563676
 30
0.0
 40
370.22669129365238
 41
272.44014076799652
 68
     1
 69
     1
1001
ACAD
1000
MVIEW
1002
{
1070
    16
1010
0.0
1020
0.0
1030
0.0
1010
0.0
1020
0.0
1030
1.0
1040
0.0
1040
272.44014076799652
1040
133.34999084472659
1040
123.6089706563676
1040
50.0
1040
0.0
1040
0.0
1070
     0
1070
   100
1070
     1
1070
     1
1070
     0
1070
     0
1070
     0
1070
     0
1040
0.0
1040
0.0
1040
0.0
1040
10.0
1040
10.0
1040
10.0
1040
10.0
1070
     0
1002
{
1002
}
1002
}
1001
GENIUS_GENSCREG_15
1000
PF
1040
1.0
1000
DF
1040
1.0
1000
MIN
1011
-51.763354802099627
1021
0.0
1031
0.0
1021
-12.611099727630631
1031
0.0
1000
MAX
1011
318.46333649155281
1021
0.0
1031
0.0
1021
259.82904104036589
1031
0.0
1000
FLAGS
1070
     4
1001
GENIUS_GENODEF_13
1002
{
1000
HIER
1070
     0
1002
}
1002
{
1000
MANEDIT
1070
     0
1002
}
1002
{
1000
NOSEL
1070
     0
1002
}
1002
{
1000
BEHIND
1070
     0
1002
}
1002
{
1000
OTHER
1070
     0
1002
}
1002
{
1000
REACTOR
1002
}
1001
GENIUS_GENOBJ-N-SDF_13
1002
{
1000
OWNER
1000
GEN
1002
}
  0
ENDSEC
  0
EOF
