  0
SECTION
  2
HEADER
  9
$ACADVER
  1
AC1015
  9
$ACADMAINTVER
 70
    20
  9
$DWGCODEPAGE
  3
ANSI_932
  9
$INSBASE
 10
0.0
 20
0.0
 30
0.0
  9
$EXTMIN
 10
0.0
 20
-0.0000000000001066
 30
0.0
  9
$EXTMAX
 10
806.0000000000002
 20
560.0000000000001
 30
0.0
  9
$LIMMIN
 10
0.0
 20
0.0
  9
$LIMMAX
 10
806.0
 20
560.0000000000001
  9
$ORTHOMODE
 70
     0
  9
$REGENMODE
 70
     1
  9
$FILLMODE
 70
     1
  9
$QTEXTMODE
 70
     0
  9
$MIRRTEXT
 70
     1
  9
$LTSCALE
 40
2.0
  9
$ATTMODE
 70
     1
  9
$TEXTSIZE
 40
1.0
  9
$TRACEWID
 40
1.0
  9
$TEXTSTYLE
  7
ACISOTS
  9
$CLAYER
  8
0
  9
$CELTYPE
  6
ByLayer
  9
$CECOLOR
 62
   256
  9
$CELTSCALE
 40
1.0
  9
$DISPSILH
 70
     0
  9
$DIMSCALE
 40
1.0
  9
$DIMASZ
 40
2.5
  9
$DIMEXO
 40
1.0
  9
$DIMDLI
 40
10.0
  9
$DIMRND
 40
0.0
  9
$DIMDLE
 40
0.0
  9
$DIMEXE
 40
1.0
  9
$DIMTP
 40
0.1
  9
$DIMTM
 40
0.1
  9
$DIMTXT
 40
3.5
  9
$DIMCEN
 40
0.0
  9
$DIMTSZ
 40
0.0
  9
$DIMTOL
 70
     0
  9
$DIMLIM
 70
     0
  9
$DIMTIH
 70
     0
  9
$DIMTOH
 70
     0
  9
$DIMSE1
 70
     0
  9
$DIMSE2
 70
     0
  9
$DIMTAD
 70
     1
  9
$DIMZIN
 70
     8
  9
$DIMBLK
  1

  9
$DIMASO
 70
     1
  9
$DIMSHO
 70
     1
  9
$DIMPOST
  1

  9
$DIMAPOST
  1
"
  9
$DIMALT
 70
     0
  9
$DIMALTD
 70
     2
  9
$DIMALTF
 40
0.0393701
  9
$DIMLFAC
 40
1.0
  9
$DIMTOFL
 70
     1
  9
$DIMTVP
 40
0.0
  9
$DIMTIX
 70
     0
  9
$DIMSOXD
 70
     0
  9
$DIMSAH
 70
     0
  9
$DIMBLK1
  1

  9
$DIMBLK2
  1

  9
$DIMSTYLE
  2
AM_ISO
  9
$DIMCLRD
 70
   256
  9
$DIMCLRE
 70
   256
  9
$DIMCLRT
 70
     2
  9
$DIMTFAC
 40
0.71
  9
$DIMGAP
 40
1.5
  9
$DIMJUST
 70
     0
  9
$DIMSD1
 70
     0
  9
$DIMSD2
 70
     0
  9
$DIMTOLJ
 70
     0
  9
$DIMTZIN
 70
     8
  9
$DIMALTZ
 70
     0
  9
$DIMALTTZ
 70
     0
  9
$DIMUPT
 70
     0
  9
$DIMDEC
 70
     2
  9
$DIMTDEC
 70
     3
  9
$DIMALTU
 70
     2
  9
$DIMALTTD
 70
     4
  9
$DIMTXSTY
  7
STANDARD
  9
$DIMAUNIT
 70
     0
  9
$DIMADEC
 70
     0
  9
$DIMALTRND
 40
0.0
  9
$DIMAZIN
 70
     2
  9
$DIMDSEP
 70
    46
  9
$DIMATFIT
 70
     3
  9
$DIMFRAC
 70
     0
  9
$DIMLDRBLK
  1

  9
$DIMLUNIT
 70
     2
  9
$DIMLWD
 70
    -1
  9
$DIMLWE
 70
    -1
  9
$DIMTMOVE
 70
     0
  9
$LUNITS
 70
     2
  9
$LUPREC
 70
     2
  9
$SKETCHINC
 40
1.0
  9
$FILLETRAD
 40
5.0
  9
$AUNITS
 70
     0
  9
$AUPREC
 70
     0
  9
$MENU
  1
.
  9
$ELEVATION
 40
0.0
  9
$PELEVATION
 40
0.0
  9
$THICKNESS
 40
0.0
  9
$LIMCHECK
 70
     0
  9
$CHAMFERA
 40
5.0
  9
$CHAMFERB
 40
5.0
  9
$CHAMFERC
 40
20.0
  9
$CHAMFERD
 40
0.0
  9
$SKPOLY
 70
     0
  9
$TDCREATE
 40
2453825.766918936
  9
$TDUCREATE
 40
2453825.391918936
  9
$TDUPDATE
 40
2456939.579173530
  9
$TDUUPDATE
 40
2456939.204173530
  9
$TDINDWG
 40
0.0999733333
  9
$TDUSRTIMER
 40
0.0999733333
  9
$USRTIMER
 70
     1
  9
$ANGBASE
 50
0.0
  9
$ANGDIR
 70
     0
  9
$PDMODE
 70
     0
  9
$PDSIZE
 40
0.0
  9
$PLINEWID
 40
0.0
  9
$SPLFRAME
 70
     0
  9
$SPLINETYPE
 70
     6
  9
$SPLINESEGS
 70
     8
  9
$HANDSEED
  5
24C3
  9
$SURFTAB1
 70
     6
  9
$SURFTAB2
 70
     6
  9
$SURFTYPE
 70
     6
  9
$SURFU
 70
     6
  9
$SURFV
 70
     6
  9
$UCSBASE
  2

  9
$UCSNAME
  2

  9
$UCSORG
 10
0.0
 20
0.0
 30
0.0
  9
$UCSXDIR
 10
1.0
 20
0.0
 30
0.0
  9
$UCSYDIR
 10
0.0
 20
1.0
 30
0.0
  9
$UCSORTHOREF
  2

  9
$UCSORTHOVIEW
 70
     0
  9
$UCSORGTOP
 10
0.0
 20
0.0
 30
0.0
  9
$UCSORGBOTTOM
 10
0.0
 20
0.0
 30
0.0
  9
$UCSORGLEFT
 10
0.0
 20
0.0
 30
0.0
  9
$UCSORGRIGHT
 10
0.0
 20
0.0
 30
0.0
  9
$UCSORGFRONT
 10
0.0
 20
0.0
 30
0.0
  9
$UCSORGBACK
 10
0.0
 20
0.0
 30
0.0
  9
$PUCSBASE
  2

  9
$PUCSNAME
  2

  9
$PUCSORG
 10
0.0
 20
0.0
 30
0.0
  9
$PUCSXDIR
 10
1.0
 20
0.0
 30
0.0
  9
$PUCSYDIR
 10
0.0
 20
1.0
 30
0.0
  9
$PUCSORTHOREF
  2

  9
$PUCSORTHOVIEW
 70
     0
  9
$PUCSORGTOP
 10
0.0
 20
0.0
 30
0.0
  9
$PUCSORGBOTTOM
 10
0.0
 20
0.0
 30
0.0
  9
$PUCSORGLEFT
 10
0.0
 20
0.0
 30
0.0
  9
$PUCSORGRIGHT
 10
0.0
 20
0.0
 30
0.0
  9
$PUCSORGFRONT
 10
0.0
 20
0.0
 30
0.0
  9
$PUCSORGBACK
 10
0.0
 20
0.0
 30
0.0
  9
$USERI1
 70
     0
  9
$USERI2
 70
     0
  9
$USERI3
 70
     0
  9
$USERI4
 70
     0
  9
$USERI5
 70
     0
  9
$USERR1
 40
0.0
  9
$USERR2
 40
0.0
  9
$USERR3
 40
0.0
  9
$USERR4
 40
0.0
  9
$USERR5
 40
0.0
  9
$WORLDVIEW
 70
     1
  9
$SHADEDGE
 70
     3
  9
$SHADEDIF
 70
    70
  9
$TILEMODE
 70
     1
  9
$MAXACTVP
 70
    64
  9
$PINSBASE
 10
0.0
 20
0.0
 30
0.0
  9
$PLIMCHECK
 70
     0
  9
$PEXTMIN
 10
1.000000000000000E+20
 20
1.000000000000000E+20
 30
1.000000000000000E+20
  9
$PEXTMAX
 10
-1.000000000000000E+20
 20
-1.000000000000000E+20
 30
-1.000000000000000E+20
  9
$PLIMMIN
 10
-6.350006103515625
 20
-6.349999904632568
  9
$PLIMMAX
 10
273.0499877929688
 20
209.5499939918518
  9
$UNITMODE
 70
     0
  9
$VISRETAIN
 70
     1
  9
$PLINEGEN
 70
     0
  9
$PSLTSCALE
 70
     1
  9
$TREEDEPTH
 70
  3020
  9
$CMLSTYLE
  2
Standard
  9
$CMLJUST
 70
     0
  9
$CMLSCALE
 40
20.0
  9
$PROXYGRAPHICS
 70
     1
  9
$MEASUREMENT
 70
     1
  9
$CELWEIGHT
370
    -1
  9
$ENDCAPS
280
     0
  9
$JOINSTYLE
280
     0
  9
$LWDISPLAY
290
     0
  9
$INSUNITS
 70
     4
  9
$HYPERLINKBASE
  1

  9
$STYLESHEET
  1

  9
$XEDIT
290
     1
  9
$CEPSNTYPE
380
     0
  9
$PSTYLEMODE
290
     1
  9
$FINGERPRINTGUID
  2
{FDEAD578-A652-11D2-9A35-0060089B3A3F}
  9
$VERSIONGUID
  2
{74A6949D-878B-4386-ABBE-EEC6E0B8A7AD}
  9
$EXTNAMES
290
     1
  9
$PSVPSCALE
 40
0.0
  9
$OLESTARTUP
290
     0
  0
ENDSEC
  0
SECTION
  2
CLASSES
  0
CLASS
  1
ACDBDICTIONARYWDFLT
  2
AcDbDictionaryWithDefault
  3
ObjectDBX Classes
 90
        0
280
     0
281
     0
  0
CLASS
  1
ACDBPLACEHOLDER
  2
AcDbPlaceHolder
  3
ObjectDBX Classes
 90
        0
280
     0
281
     0
  0
CLASS
  1
LAYOUT
  2
AcDbLayout
  3
ObjectDBX Classes
 90
        0
280
     0
281
     0
  0
CLASS
  1
ACME_DOCUMENT
  2
AcMeDbDoc
  3
AcMeServices
 90
     1024
280
     0
281
     0
  0
CLASS
  1
AMGSETTINGSOBJ
  2
AmgSettingsObj
  3
"AcadM|Product Description: AutoCAD Mechanical|Company: Autodesk, Inc."
 90
     1024
280
     0
281
     0
  0
CLASS
  1
ACMESCOPE
  2
AcMeScope
  3
AcMeServices
 90
     1024
280
     0
281
     0
  0
CLASS
  1
ACMECOMMANDHISTORY
  2
AcMeCommandHistory
  3
AcMeServices
 90
     1024
280
     0
281
     0
  0
CLASS
  1
ACIMSYSVARMAN
  2
AcImSysVarManager
  3
AcMeServices
 90
     1024
280
     0
281
     0
  0
CLASS
  1
ACIMREALSYSVAR
  2
AcImRealSysVar
  3
AcMeServices
 90
     1024
280
     0
281
     0
  0
CLASS
  1
ACIMINTSYSVAR
  2
AcImIntSysVar
  3
AcMeServices
 90
     1024
280
     0
281
     0
  0
CLASS
  1
ACMEDRAWINGMAN
  2
AcMeDrawingMan
  3
AcMeServices
 90
     1024
280
     0
281
     0
  0
CLASS
  1
ACMEVIEW
  2
AcMeView
  3
AcMeServices
 90
     1024
280
     0
281
     0
  0
CLASS
  1
ACDBENTITYCACHE
  2
AcMeEntityCache
  3
AcMeServices
 90
     1024
280
     0
281
     0
  0
CLASS
  1
GSMANAGER
  2
AcMeGSManager
  3
AcMeServices
 90
    32768
280
     0
281
     0
  0
CLASS
  1
AMDTINTERNALREACTOR
  2
AmdtInternalReactor
  3
AcMeServices
 90
     1024
280
     0
281
     0
  0
CLASS
  1
ACMESTATEMGR
  2
AcMeStateMgr
  3
AcMeServices
 90
     1024
280
     0
281
     0
  0
CLASS
  1
ACGREFMASTER
  2
AcGrefMaster
  3
AcAttribServices
 90
     1024
280
     0
281
     0
  0
CLASS
  1
ACME_DATABASE
  2
AcMeDbDatabase
  3
AcMeServices
 90
     1024
280
     0
281
     0
  0
CLASS
  1
ACRFINSADJUSTERMGR
  2
AcRfInsAdjusterMgr
  3
AcMeServices
 90
     1024
280
     0
281
     0
  0
CLASS
  1
ACGREFACADMASTER
  2
AcGrefacadMaster
  3
AcGrefServices
 90
     1024
280
     0
281
     0
  0
CLASS
  1
AMIMASTER
  2
AmiMaster
  3
AmiServices
 90
     1024
280
     0
281
     0
  0
CLASS
  1
ACMDATADICTIONARY
  2
AcmDataDictionary
  3
"AcmSymBB|Product Description: AutoCAD Mechanical|Company: Autodesk, Inc."
 90
     1024
280
     0
281
     0
  0
CLASS
  1
ACMDATAENTRYBLOCK
  2
AcmDataEntryBlock
  3
AcmSymBB|Product Description: AutoCAD Mechanical|Company: Autodesk, Inc.
 90
     1024
280
     0
281
     0
  0
CLASS
  1
ACIMSTRSYSVAR
  2
AcImStrSysVar
  3
AcMeServices
 90
     1024
280
     0
281
     0
  0
CLASS
  1
ACMSTANDARDISO
  2
AcmStandardISO
  3
"Amdt_StdImp|Product Description: AutoCAD Mechanical|Company: Autodesk, Inc."
 90
     1024
280
     0
281
     0
  0
CLASS
  1
AMGOBJPROPCFG
  2
AmgObjPropCfg
  3
"AmgLay|Product Description: AutoCAD Mechanical|Company: Autodesk, Inc."
 90
     1025
280
     0
281
     0
  0
CLASS
  1
AMDTEDGESTANDARDISO
  2
AmdtEdgeStdISO
  3
"Amdt_StdImp|Product Description: AutoCAD Mechanical|Company: Autodesk, Inc."
 90
     1024
280
     0
281
     0
  0
CLASS
  1
ACMSURFSTANDARDISO
  2
AcmSurfTextStdISO
  3
"Amdt_StdImp|Product Description: AutoCAD Mechanical|Company: Autodesk, Inc."
 90
     1024
280
     0
281
     0
  0
CLASS
  1
ACMFCFSTANDARDISO
  2
AcmFCFStdISO
  3
"Amdt_StdImp|Product Description: AutoCAD Mechanical|Company: Autodesk, Inc."
 90
     1024
280
     0
281
     0
  0
CLASS
  1
ACMWELDSTANDARDISO
  2
AcmWeldingStdISO
  3
"Amdt_StdImp|Product Description: AutoCAD Mechanical|Company: Autodesk, Inc."
 90
     1024
280
     0
281
     0
  0
CLASS
  1
ACMIDSTANDARDISO
  2
AcmIdStdISO
  3
"Amdt_StdImp|Product Description: AutoCAD Mechanical|Company: Autodesk, Inc."
 90
     1024
280
     0
281
     0
  0
CLASS
  1
ACMDATUMSTANDARDISO
  2
AcmDatumStdISO
  3
"Amdt_StdImp|Product Description: AutoCAD Mechanical|Company: Autodesk, Inc."
 90
     1024
280
     0
281
     0
  0
CLASS
  1
ACMBOMSTANDARDISO
  2
AcmBOMStdISO
  3
"Amdt_StdImp|Product Description: AutoCAD Mechanical|Company: Autodesk, Inc."
 90
     1024
280
     0
281
     0
  0
CLASS
  1
ACMDETAILSTANDARDISO
  2
AmdtDetailSymStdISO
  3
"Amdt_StdImp|Product Description: AutoCAD Mechanical|Company: Autodesk, Inc."
 90
     1024
280
     0
281
     0
  0
CLASS
  1
ACMSECTIONSTANDARDISO
  2
AmdtSectionSymStdISO
  3
"Amdt_StdImp|Product Description: AutoCAD Mechanical|Company: Autodesk, Inc."
 90
     1024
280
     0
281
     0
  0
CLASS
  1
ACMCENTERLINESTANDARDISO
  2
AmdtCenterLineStdISO
  3
"Amdt_StdImp|Product Description: AutoCAD Mechanical|Company: Autodesk, Inc."
 90
     1024
280
     0
281
     0
  0
CLASS
  1
ACMNOTESTANDARDISO
  2
AmdtNoteStdISO
  3
"Amdt_StdImp|Product Description: AutoCAD Mechanical|Company: Autodesk, Inc."
 90
     1024
280
     0
281
     0
  0
CLASS
  1
ACAMGLAYSTD
  2
AcAmgLayStd
  3
"AmgLay|Product Description: AutoCAD Mechanical|Company: Autodesk, Inc."
 90
     1024
280
     0
281
     0
  0
CLASS
  1
ACAMGDIMSTD
  2
AcAmgDimStd
  3
"AmgDim|Product Description: AutoCAD Mechanical|Company: Autodesk, Inc."
 90
     1024
280
     0
281
     0
  0
CLASS
  1
ACAMGHOLECHARTSTDISO
  2
AcAmgHoleChartStdISO
  3
AmgDim|Product Description: AutoCAD Mechanical|Company: Autodesk, Inc.
 90
     1024
280
     0
281
     0
  0
CLASS
  1
ACAMGTITLESTD
  2
AcAmgTitleStd
  3
"AmgTitle|Product Description: AutoCAD Mechanical|Company: Autodesk, Inc."
 90
     4095
280
     0
281
     0
  0
CLASS
  1
LAYER_INDEX
  2
AcDbLayerIndex
  3
ObjectDBX Classes
 90
    32768
280
     0
281
     0
  0
CLASS
  1
IDBUFFER
  2
AcDbIdBuffer
  3
ObjectDBX Classes
 90
    32768
280
     0
281
     0
  0
CLASS
  1
DICTIONARYVAR
  2
AcDbDictionaryVar
  3
ObjectDBX Classes
 90
        0
280
     0
281
     0
  0
CLASS
  1
AM_DRAWING_MGR
  2
AcDmDwgMgr
  3
AcMechDwgViewMgmt
 90
     1024
280
     0
281
     0
  0
CLASS
  1
AM_DWG_DOCUMENT
  2
AcDmDwgDocument
  3
AcMechDwgViewMgmt
 90
     1024
280
     0
281
     0
  0
CLASS
  1
AM_DWG_SHEET
  2
AcDmSheet
  3
AcMechDwgViewMgmt
 90
     1024
280
     0
281
     0
  0
CLASS
  1
AM_VIEWDIMPARMAP
  2
AcDmViewDimParMap
  3
AcMechDwgViewMgmt
 90
     1024
280
     0
281
     0
  0
CLASS
  1
AM_DWGMGR_NAME
  2
AcDmDwgMgrName
  3
AcMechDwgViewMgmt
 90
     1024
280
     0
281
     0
  0
CLASS
  1
AMDTMENUSTATEMGR
  2
AmdtMenuStateMgr
  3
McadcomServices
 90
     1024
280
     0
281
     0
  0
CLASS
  1
AMDTMCOMMENUSTATE
  2
AmdtMcomMenuState
  3
McadcomServices
 90
     1024
280
     0
281
     0
  0
CLASS
  1
MAPIAMMOUDLE
  2
MApiAmModule
  3
MApiAmServices
 90
     1024
280
     0
281
     0
  0
CLASS
  1
AMDTADMENUSTATE
  2
AmdtAdMenuState
  3
DesignerServices
 90
    32768
280
     0
281
     0
  0
CLASS
  1
ADAPPL
  2
AcAdAppl
  3
DesignerAssemblies
 90
     1024
280
     0
281
     0
  0
CLASS
  1
DEPMGR
  2
AcAdDepMgr
  3
DesignerAssemblies
 90
     1024
280
     0
281
     0
  0
CLASS
  1
PARAMMGR
  2
AcAdParamMgr
  3
DesignerAssemblies
 90
     1024
280
     0
281
     0
  0
CLASS
  1
PARAMSCOPE
  2
AcAdParamScope
  3
DesignerAssemblies
 90
     1024
280
     0
281
     0
  0
CLASS
  1
NAMEDAPPL
  2
AcAdNamedAppl
  3
DesignerAssemblies
 90
     1024
280
     0
281
     0
  0
CLASS
  1
AMDTDMMENUSTATE
  2
AmdtDmMenuState
  3
AcMechDwgViewMgmt
 90
    32768
280
     0
281
     0
  0
CLASS
  1
AMDTAMMENUSTATE
  2
AmdtAmMenuState
  3
DesignerAssemblies
 90
     1024
280
     0
281
     0
  0
CLASS
  1
ACAMPROJECT
  2
AcAmProject
  3
DesignerAssemblies
 90
     1024
280
     0
281
     0
  0
CLASS
  1
ACAMGRCOMPDEF
  2
AcAmGrCompDef
  3
DesignerAssemblies
 90
     1024
280
     0
281
     0
  0
CLASS
  1
ACCMCONTEXT
  2
AcCmContext
  3
DesignerAssemblies
 90
     1024
280
     0
281
     0
  0
CLASS
  1
ACAMCOMPDEF
  2
AcAmCompDef
  3
DesignerAssemblies
 90
     1024
280
     0
281
     0
  0
CLASS
  1
ACAMCOMPDEFMGR
  2
AcAmCompDefMgr
  3
DesignerAssemblies
 90
     1024
280
     0
281
     0
  0
CLASS
  1
AMCONTEXTMGR
  2
AcAmContextMgr
  3
DesignerAssemblies
 90
     1024
280
     0
281
     0
  0
CLASS
  1
ACAMCONTEXTMODELER
  2
AcAmContextModeler
  3
DesignerAssemblies
 90
     1024
280
     0
281
     0
  0
CLASS
  1
ACMTHREADLINESTANDARDISO
  2
AmdtThreadLineStdISO
  3
"Amdt_StdImp|Product Description: AutoCAD Mechanical|Company: Autodesk, Inc."
 90
     1024
280
     0
281
     0
  0
CLASS
  1
CATALOGSTATE
  2
AcAmCatalogState
  3
DesignerAssemblies
 90
     1024
280
     0
281
     0
  0
CLASS
  1
ACAMGRCOMPDEFSET
  2
AcAmGrCompDefSet
  3
DesignerAssemblies
 90
     1024
280
     0
281
     0
  0
CLASS
  1
AMDTBROWSERDBTAB
  2
AmdtBrowserDbTab
  3
McadcomServices
 90
     1024
280
     0
281
     0
  0
CLASS
  1
CBROWSERAPPOBJECT
  2
CBrowserAppObject
  3
McadcomServices
 90
     1024
280
     0
281
     0
  0
CLASS
  1
DM_PLACEHOLDER
  2
AcDmSelsetPlaceholder
  3
McadcomServices
 90
     1024
280
     0
281
     0
  0
CLASS
  1
AMDTNOTETEMPLATEDB
  2
AmdtNoteTemplateDB
  3
AcmSymBB|Product Description: AutoCAD Mechanical|Company: Autodesk, Inc.
 90
     1024
280
     0
281
     0
  0
CLASS
  1
ACMBOM
  2
AcmBom
  3
"AcmSymBB|Product Description: AutoCAD Mechanical|Company: Autodesk, Inc."
 90
     1024
280
     0
281
     0
  0
CLASS
  1
AMDTFORMULAUPDATEDISPATCHER
  2
AmdtFormulaUpdateDispatcher
  3
AcMeServices
 90
     1024
280
     0
281
     0
  0
CLASS
  1
ACAMGFILTERDAT
  2
AcAmgFilterDat
  3
"AcadM|Product Description: AutoCAD Mechanical|Company: Autodesk, Inc."
 90
     1024
280
     0
281
     0
  0
CLASS
  1
ACMDATAENTRYPART
  2
AcmDataEntryPart
  3
AcmSymBB|Product Description: AutoCAD Mechanical|Company: Autodesk, Inc.
 90
     1024
280
     0
281
     0
  0
CLASS
  1
ACMPARTREF
  2
AcmPartRef
  3
"AcmSymBB|Product Description: AutoCAD Mechanical|Company: Autodesk, Inc."
 90
     4095
280
     0
281
     1
  0
CLASS
  1
ACMBOMROW
  2
AcmBomRow
  3
"AcmSymBB|Product Description: AutoCAD Mechanical|Company: Autodesk, Inc."
 90
     1024
280
     0
281
     0
  0
CLASS
  1
ACMDATAENTRY
  2
AcmDataEntry
  3
AcmSymBB|Product Description: AutoCAD Mechanical|Company: Autodesk, Inc.
 90
     1024
280
     0
281
     0
  0
CLASS
  1
ACMBALLOON
  2
AcmBalloon
  3
"AcmSymBB|Product Description: AutoCAD Mechanical|Company: Autodesk, Inc."
 90
     4095
280
     0
281
     1
  0
CLASS
  1
ACMPARTLIST
  2
AcmPartList
  3
"AcmSymBB|Product Description: AutoCAD Mechanical|Company: Autodesk, Inc."
 90
     4095
280
     0
281
     1
  0
CLASS
  1
ACDBLINERES
  2
AcDbLineRes
  3
AcGrefServices
 90
     1024
280
     0
281
     0
  0
CLASS
  1
ACRFINSADJ
  2
AcRfInsAdjuster
  3
AcMeServices
 90
     1024
280
     0
281
     0
  0
CLASS
  1
DIMASSOC
  2
AcDbDimAssoc
  3
"AcDbDimAssoc|Product Desc:     AcDim ARX App For Dimension|Company:          Autodesk, Inc.|WEB Address:      www.autodesk.com"
 90
        0
280
     0
281
     0
  0
CLASS
  1
AMDTACMWBLOCKBOMENTITY
  2
AmdtAcmWblockBomEntity
  3
"AcmSymBB|Product Description: AutoCAD Mechanical|Company: Autodesk, Inc."
 90
     4095
280
     0
281
     1
  0
CLASS
  1
SORTENTSTABLE
  2
AcDbSortentsTable
  3
ObjectDBX Classes
 90
        0
280
     0
281
     0
  0
CLASS
  1
ACMPICKOBJ
  2
AcmPickEnt
  3
"AcmSymBB|Product Description: AutoCAD Mechanical|Company: Autodesk, Inc."
 90
    33792
280
     0
281
     1
  0
CLASS
  1
ACDBOPPOLYLINERES
  2
AcDbOpPolylineRes
  3
AcGrefServices
 90
     1024
280
     0
281
     0
  0
CLASS
  1
ACRFATTGENMGR
  2
AcRfAttGeneralMgr
  3
AcAttribServices
 90
     1024
280
     0
281
     0
  0
CLASS
  1
TABLESTYLE
  2
AcDbTableStyle
  3
ObjectDBX Classes
 90
     4095
280
     0
281
     0
  0
CLASS
  1
VAACXREFPANELOBJECT
  2
VaAcXREFPanelObject
  3
VAAC_ADDIN
 90
    32768
280
     0
281
     0
  0
CLASS
  1
VAACIMAGEINVENTORY
  2
VaAcImageInventory
  3
VAAC_ADDIN
 90
    32768
280
     0
281
     0
  0
CLASS
  1
MATERIAL
  2
AcDbMaterial
  3
ObjectDBX Classes
 90
     1153
280
     0
281
     0
  0
CLASS
  1
VISUALSTYLE
  2
AcDbVisualStyle
  3
ObjectDBX Classes
 90
     4095
280
     0
281
     0
  0
CLASS
  1
SCALE
  2
AcDbScale
  3
ObjectDBX Classes
 90
     1153
280
     0
281
     0
  0
CLASS
  1
MLEADERSTYLE
  2
AcDbMLeaderStyle
  3
ACDB_MLEADERSTYLE_CLASS
 90
     4095
280
     0
281
     0
  0
CLASS
  1
ACRFOBJATTMGR
  2
AcRfObjAttGroupMgr
  3
AcAttribServices
 90
     1024
280
     0
281
     0
  0
CLASS
  1
ACRFMCADAPIATTHOLDER
  2
AcRfMCADAPIAttHolder
  3
AcAttribServices
 90
     1024
280
     0
281
     0
  0
CLASS
  1
AMDTSYSATTR
  2
AmdtSystemAttribute
  3
AcAttribServices
 90
     1024
280
     0
281
     0
  0
CLASS
  1
ACMTAPERSTANDARDISO
  2
AcmTaperStdISO
  3
"Amdt_StdImp|Product Description: AutoCAD Mechanical|Company: Autodesk, Inc."
 90
     1024
280
     0
281
     0
  0
CLASS
  1
ACMANOOTATIONVIEWSTANDARDISO
  2
AmdtAnViewStdISO
  3
"Amdt_StdImp|Product Description: AutoCAD Mechanical|Company: Autodesk, Inc."
 90
     1024
280
     0
281
     0
  0
CLASS
  1
EXACXREFPANELOBJECT
  2
ExAcXREFPanelObject
  3
EXAC_ESW
 90
     1025
280
     0
281
     0
  0
CLASS
  1
NPOCOLLECTION
  2
AcDbImpNonPersistentObjectsCollection
  3
ObjectDBX Classes
 90
     1153
280
     0
281
     0
  0
CLASS
  1
CELLSTYLEMAP
  2
AcDbCellStyleMap
  3
ObjectDBX Classes
 90
     1152
280
     0
281
     0
  0
ENDSEC
  0
SECTION
  2
TABLES
  0
TABLE
  2
VPORT
  5
8
330
0
100
AcDbSymbolTable
 70
     1
  0
VPORT
  5
225C
330
8
100
AcDbSymbolTableRecord
100
AcDbViewportTableRecord
  2
*Active
 70
     0
 10
0.0
 20
0.0
 11
1.0
 21
1.0
 12
403.0000056301888
 22
280.0000039117934
 13
0.0
 23
0.0
 14
5.0
 24
5.0
 15
20.0
 25
20.0
 16
0.0
 26
0.0
 36
1.0
 17
0.0
 27
0.0
 37
0.0
 40
564.3636251918303
 41
2.219454329774614
 42
50.0
 43
0.0
 44
0.0
 50
0.0
 51
0.0
 71
    16
 72
   100
 73
     1
 74
     3
 75
     0
 76
     0
 77
     0
 78
     0
281
     0
 65
     1
110
0.0
120
0.0
130
0.0
111
1.0
121
0.0
131
0.0
112
0.0
122
1.0
132
0.0
 79
     0
146
0.0
1001
ACAD_NAV_VCDISPLAY
1070
     3
  0
ENDTAB
  0
TABLE
  2
LTYPE
  5
5
330
0
100
AcDbSymbolTable
 70
    23
  0
LTYPE
  5
14
330
5
100
AcDbSymbolTableRecord
100
AcDbLinetypeTableRecord
  2
ByBlock
 70
     0
  3

 72
    65
 73
     0
 40
0.0
  0
LTYPE
  5
15
330
5
100
AcDbSymbolTableRecord
100
AcDbLinetypeTableRecord
  2
ByLayer
 70
     0
  3

 72
    65
 73
     0
 40
0.0
  0
LTYPE
  5
16
330
5
100
AcDbSymbolTableRecord
100
AcDbLinetypeTableRecord
  2
Continuous
 70
     0
  3
Solid line
 72
    65
 73
     0
 40
0.0
  0
LTYPE
  5
64
330
5
100
AcDbSymbolTableRecord
100
AcDbLinetypeTableRecord
  2
AM_ISO02W050
 70
     0
  3
__ __ __ __ __ __ __ __ __ __ __ __ __ __ __
 72
    65
 73
     2
 40
7.5
 49
6.0
 74
     0
 49
-1.5
 74
     0
  0
LTYPE
  5
65
330
5
100
AcDbSymbolTableRecord
100
AcDbLinetypeTableRecord
  2
AM_ISO08W050
 70
     0
  3
____ . ____ . ____ . ____ . ____ . ____ . ____
 72
    65
 73
     4
 40
18.0
 49
12.0
 74
     0
 49
-1.5
 74
     0
 49
3.0
 74
     0
 49
-1.5
 74
     0
  0
LTYPE
  5
66
330
5
100
AcDbSymbolTableRecord
100
AcDbLinetypeTableRecord
  2
AM_ISO09W050
 70
     0
  3
_____ . . _____ . . _____ . . ____ .. ____
 72
    65
 73
     6
 40
22.5
 49
12.0
 74
     0
 49
-1.5
 74
     0
 49
3.0
 74
     0
 49
-1.5
 74
     0
 49
3.0
 74
     0
 49
-1.5
 74
     0
  0
LTYPE
  5
67
330
5
100
AcDbSymbolTableRecord
100
AcDbLinetypeTableRecord
  2
Amconstr
 70
     0
  3
_______________________
 72
    65
 73
     2
 40
9999.0
 49
9999.0
 74
     0
 49
0.0
 74
     0
  0
LTYPE
  5
68
330
5
100
AcDbSymbolTableRecord
100
AcDbLinetypeTableRecord
  2
AM_ISO08W050x2
 70
     0
  3
__ . __ . __ . __ . __ . __
 72
    65
 73
     4
 40
9.0
 49
6.0
 74
     0
 49
-0.75
 74
     0
 49
1.5
 74
     0
 49
-0.75
 74
     0
  0
LTYPE
  5
69
330
5
100
AcDbSymbolTableRecord
100
AcDbLinetypeTableRecord
  2
AM_ISO02W050x2
 70
     0
  3
 _ _ _ _ _ _ _ _ _ _ _ _
 72
    65
 73
     2
 40
3.75
 49
3.0
 74
     0
 49
-0.75
 74
     0
  0
LTYPE
  5
6C
330
5
100
AcDbSymbolTableRecord
100
AcDbLinetypeTableRecord
  2
Amzigzag
 70
     0
  3
/\/-/\/-/\/-/\/-/\/-/\/
 72
    65
 73
     2
 40
11.0001
 49
0.0001
 74
     4
 75
   135
340
6B
 46
0.04
 50
0.0
 44
0.0
 45
0.0
 49
-11.0
 74
     0
  0
LTYPE
  5
7A
330
5
100
AcDbSymbolTableRecord
100
AcDbLinetypeTableRecord
  2
ACISOWELD
 70
     0
  3
_ _ _ _ _
 72
    65
 73
     2
 40
2.0
 49
2.0
 74
     0
 49
-1.0
 74
     0
  0
LTYPE
  5
7B
330
5
100
AcDbSymbolTableRecord
100
AcDbLinetypeTableRecord
  2
ACISOTGB
 70
     0
  3
__ . . __ . .
 72
    65
 73
     6
 40
9.0
 49
4.0
 74
     0
 49
-1.0
 74
     0
 49
1.0
 74
     0
 49
-1.0
 74
     0
 49
1.0
 74
     0
 49
-1.0
 74
     0
  0
LTYPE
  5
7C
330
5
100
AcDbSymbolTableRecord
100
AcDbLinetypeTableRecord
  2
ACISOTGL
 70
     0
  3
_ _ _ _ _
 72
    65
 73
     2
 40
3.0
 49
2.0
 74
     0
 49
-1.0
 74
     0
  0
LTYPE
  5
7E
330
5
100
AcDbSymbolTableRecord
100
AcDbLinetypeTableRecord
  2
CENTER
 70
     0
  3
__ . __
 72
    65
 73
     4
 40
7.0
 49
4.0
 74
     0
 49
-1.0
 74
     0
 49
1.0
 74
     0
 49
-1.0
 74
     0
  0
LTYPE
  5
D8
330
5
100
AcDbSymbolTableRecord
100
AcDbLinetypeTableRecord
  2
HIDDEN
 70
     0
  3
Hidden __ __ __ __ __ __ __ __ __ __ __ __ __ _
 72
    65
 73
     2
 40
9.524999999999998
 49
6.349999999999999
 74
     0
 49
-3.174999999999999
 74
     0
  0
LTYPE
  5
D9
330
5
100
AcDbSymbolTableRecord
100
AcDbLinetypeTableRecord
  2
PHANTOM2
 70
     0
  3
Phantom (.5x) ___ _ _ ___ _ _ ___ _ _ ___ _ _
 72
    65
 73
     6
 40
31.75
 49
15.875
 74
     0
 49
-3.174999999999999
 74
     0
 49
3.174999999999999
 74
     0
 49
-3.174999999999999
 74
     0
 49
3.174999999999999
 74
     0
 49
-3.174999999999999
 74
     0
  0
LTYPE
  5
301
330
5
100
AcDbSymbolTableRecord
100
AcDbLinetypeTableRecord
  2
gen3
 70
     0
  3
-- -- -- -- -- -- -- -- -- -- -- -- -- -- --
 72
    65
 73
     2
 40
6.25
 49
4.75
 74
     0
 49
-1.5
 74
     0
  0
LTYPE
  5
302
330
5
100
AcDbSymbolTableRecord
100
AcDbLinetypeTableRecord
  2
gen7
 70
     0
  3
____ . ____ . ____ . ____ . ____ . ____ . ____
 72
    65
 73
     4
 40
13.75
 49
9.75
 74
     0
 49
-1.5
 74
     0
 49
1.0
 74
     0
 49
-1.5
 74
     0
  0
LTYPE
  5
303
330
5
100
AcDbSymbolTableRecord
100
AcDbLinetypeTableRecord
  2
gen3a
 70
     0
  3
 - - - - -
 72
    65
 73
     2
 40
3.125
 49
2.25
 74
     0
 49
-0.875
 74
     0
  0
LTYPE
  5
304
330
5
100
AcDbSymbolTableRecord
100
AcDbLinetypeTableRecord
  2
gen7a
 70
     0
  3
__ . __ . __
 72
    65
 73
     4
 40
6.875
 49
4.75
 74
     0
 49
-0.875
 74
     0
 49
0.375
 74
     0
 49
-0.875
 74
     0
  0
LTYPE
  5
305
330
5
100
AcDbSymbolTableRecord
100
AcDbLinetypeTableRecord
  2
gen4a
 70
     0
  3
_____ . . _____ . . _____ . . ____ .. ____
 72
    65
 73
     6
 40
16.25
 49
9.75
 74
     0
 49
-1.5
 74
     0
 49
1.0
 74
     0
 49
-1.5
 74
     0
 49
1.0
 74
     0
 49
-1.5
 74
     0
  0
LTYPE
  5
306
330
5
100
AcDbSymbolTableRecord
100
AcDbLinetypeTableRecord
  2
genzigzag
 70
     0
  3
/\/-/\/-/\/-/\/-/\/-/\/
 72
    65
 73
     2
 40
12.0001
 49
0.0001
 74
     4
 75
   135
340
6B
 46
2.0
 50
0.0
 44
0.0
 45
0.0
 49
-12.0
 74
     0
  0
LTYPE
  5
4D4
330
5
100
AcDbSymbolTableRecord
100
AcDbLinetypeTableRecord
  2
TRATTOPUNTO
 70
     0
  3
Tratto punto__ . __ . __ . __ . __ . __ . __ . 
 72
    65
 73
     4
 40
25.4
 49
12.7
 74
     0
 49
-6.349999999999998
 74
     0
 49
0.0
 74
     0
 49
-6.349999999999998
 74
     0
  0
LTYPE
  5
22CA
330
5
100
AcDbSymbolTableRecord
100
AcDbLinetypeTableRecord
  2
DASHED
 70
     0
  3
Dashed __ __ __ __ __ __ __ __ __ __ __ __ __ _
 72
    65
 73
     2
 40
0.75
 49
0.5
 74
     0
 49
-0.25
 74
     0
  0
LTYPE
  5
22CB
330
5
100
AcDbSymbolTableRecord
100
AcDbLinetypeTableRecord
  2
DOT
 70
     0
  3
Dot . . . . . . . . . . . . . . . . . . . . . .
 72
    65
 73
     2
 40
0.25
 49
0.0
 74
     0
 49
-0.25
 74
     0
  0
ENDTAB
  0
TABLE
  2
LAYER
  5
2
102
{ACAD_XDICTIONARY
360
2EE
102
}
330
0
100
AcDbSymbolTable
 70
    14
  0
LAYER
  5
10
102
{ACAD_XDICTIONARY
360
2460
102
}
330
2
100
AcDbSymbolTableRecord
100
AcDbLayerTableRecord
  2
0
 70
     0
 62
     7
  6
Continuous
370
    -3
390
F
  0
LAYER
  5
2F0
102
{ACAD_XDICTIONARY
360
2462
102
}
330
2
100
AcDbSymbolTableRecord
100
AcDbLayerTableRecord
  2
AM_5
 70
     0
 62
     3
  6
Continuous
370
    13
390
F
  0
LAYER
  5
2F1
102
{ACAD_XDICTIONARY
360
2464
102
}
330
2
100
AcDbSymbolTableRecord
100
AcDbLayerTableRecord
  2
AM_7
 70
     0
 62
     4
  6
AM_ISO08W050
370
    13
390
F
  0
LAYER
  5
307
330
2
100
AcDbSymbolTableRecord
100
AcDbLayerTableRecord
  2
Defpoints
 70
     0
 62
     7
  6
Continuous
290
     0
370
    -3
390
F
  0
LAYER
  5
33C
102
{ACAD_XDICTIONARY
360
2466
102
}
330
2
100
AcDbSymbolTableRecord
100
AcDbLayerTableRecord
  2
7A
 70
     0
 62
     4
  6
gen7a
370
    -3
390
F
  0
LAYER
  5
33D
102
{ACAD_XDICTIONARY
360
2468
102
}
330
2
100
AcDbSymbolTableRecord
100
AcDbLayerTableRecord
  2
RAHM2
 70
     0
 62
     1
  6
Continuous
370
    -3
390
F
  0
LAYER
  5
45E
102
{ACAD_XDICTIONARY
360
246A
102
}
330
2
100
AcDbSymbolTableRecord
100
AcDbLayerTableRecord
  2
AM_12
 70
     0
 62
     7
  6
Continuous
290
     0
370
    50
390
F
  0
LAYER
  5
45F
102
{ACAD_XDICTIONARY
360
246C
102
}
330
2
100
AcDbSymbolTableRecord
100
AcDbLayerTableRecord
  2
AM_PAREF
 70
     0
 62
     4
  6
Continuous
290
     0
370
    25
390
F
  0
LAYER
  5
4D5
102
{ACAD_XDICTIONARY
360
246E
102
}
330
2
100
AcDbSymbolTableRecord
100
AcDbLayerTableRecord
  2
AM_8
 70
     0
 62
     1
  6
Continuous
370
    25
390
F
  0
LAYER
  5
1751
102
{ACAD_XDICTIONARY
360
2470
102
}
330
2
100
AcDbSymbolTableRecord
100
AcDbLayerTableRecord
  2
ﾎﾞﾃﾞｨｰ
 70
     0
 62
     7
  6
Continuous
370
    25
390
F
  0
LAYER
  5
1752
102
{ACAD_XDICTIONARY
360
2472
102
}
330
2
100
AcDbSymbolTableRecord
100
AcDbLayerTableRecord
  2
ﾍﾞｰｽ
 70
     0
 62
     2
  6
Continuous
370
    25
390
F
  0
LAYER
  5
1753
102
{ACAD_XDICTIONARY
360
2474
102
}
330
2
100
AcDbSymbolTableRecord
100
AcDbLayerTableRecord
  2
ﾀｰﾐﾅﾙｶﾊﾞｰ
 70
     0
 62
     5
  6
Continuous
370
    25
390
F
  0
LAYER
  5
1754
102
{ACAD_XDICTIONARY
360
2476
102
}
330
2
100
AcDbSymbolTableRecord
100
AcDbLayerTableRecord
  2
前面ﾊﾟﾈﾙ
 70
     0
 62
     3
  6
Continuous
370
    25
390
F
  0
LAYER
  5
1755
102
{ACAD_XDICTIONARY
360
2478
102
}
330
2
100
AcDbSymbolTableRecord
100
AcDbLayerTableRecord
  2
ﾎｯｸ
 70
     0
 62
     4
  6
Continuous
370
    25
390
F
  0
ENDTAB
  0
TABLE
  2
STYLE
  5
3
330
0
100
AcDbSymbolTable
 70
     8
  0
STYLE
  5
11
330
3
100
AcDbSymbolTableRecord
100
AcDbTextStyleTableRecord
  2
STANDARD
 70
     0
 40
0.0
 41
1.0
 50
0.0
 71
     0
 42
1.0
  3
ISOCP.SHX
  4
EXTFONT.SHX
  0
STYLE
  5
6B
330
3
100
AcDbSymbolTableRecord
100
AcDbTextStyleTableRecord
  2

 70
     1
 40
0.0
 41
1.0
 50
0.0
 71
     0
 42
2.5
  3
ltypeshp.shx
  4

  0
STYLE
  5
6D
330
3
100
AcDbSymbolTableRecord
100
AcDbTextStyleTableRecord
  2
ACISOTS
 70
     0
 40
1.0
 41
1.0
 50
0.0
 71
     0
 42
1.0
  3
isocp.shx
  4
bigfont.shx
  0
STYLE
  5
79
330
3
100
AcDbSymbolTableRecord
100
AcDbTextStyleTableRecord
  2
ACISOGDT
 70
     0
 40
0.0
 41
1.0
 50
0.0
 71
     0
 42
2.5
  3
amgdt.shx
  4

  0
STYLE
  5
133
330
3
100
AcDbSymbolTableRecord
100
AcDbTextStyleTableRecord
  2
USER1
 70
     0
 40
0.0
 41
1.0
 50
0.0
 71
     0
 42
2.5
  3
TXT.SHX
  4

  0
STYLE
  5
134
330
3
100
AcDbSymbolTableRecord
100
AcDbTextStyleTableRecord
  2
USER2
 70
     0
 40
0.0
 41
1.0
 50
0.0
 71
     0
 42
2.5
  3
SIMPLEX.SHX
  4

  0
STYLE
  5
135
330
3
100
AcDbSymbolTableRecord
100
AcDbTextStyleTableRecord
  2
USER3
 70
     0
 40
0.0
 41
1.0
 50
0.0
 71
     0
 42
2.5
  3
ITALIC.SHX
  4

  0
STYLE
  5
33F
330
3
100
AcDbSymbolTableRecord
100
AcDbTextStyleTableRecord
  2

 70
     1
 40
0.0
 41
1.0
 50
0.0
 71
     0
 42
3.0
  3
genltshp.shx
  4

  0
ENDTAB
  0
TABLE
  2
VIEW
  5
6
330
0
100
AcDbSymbolTable
 70
     6
  0
VIEW
  5
3A4
330
6
100
AcDbSymbolTableRecord
100
AcDbViewTableRecord
  2
AM_VIEW1
 70
     0
 40
280.0000000000001
 10
204.3288996372431
 20
420.0000000000001
 41
408.6577992744861
 11
0.0
 21
0.0
 31
1.0
 12
0.0
 22
0.0
 32
0.0
 42
50.0
 43
0.0
 44
0.0
 50
0.0
 71
    16
281
     0
 72
     0
  0
VIEW
  5
3A5
330
6
100
AcDbSymbolTableRecord
100
AcDbViewTableRecord
  2
AM_VIEW2
 70
     0
 40
280.0000000000001
 10
601.671100362757
 20
420.0000000000001
 41
408.6577992744861
 11
0.0
 21
0.0
 31
1.0
 12
0.0
 22
0.0
 32
0.0
 42
50.0
 43
0.0
 44
0.0
 50
0.0
 71
    16
281
     0
 72
     0
  0
VIEW
  5
3A6
330
6
100
AcDbSymbolTableRecord
100
AcDbViewTableRecord
  2
AM_VIEW3
 70
     0
 40
280.0000000000001
 10
204.3288996372431
 20
140.0
 41
408.6577992744861
 11
0.0
 21
0.0
 31
1.0
 12
0.0
 22
0.0
 32
0.0
 42
50.0
 43
0.0
 44
0.0
 50
0.0
 71
    16
281
     0
 72
     0
  0
VIEW
  5
3A7
330
6
100
AcDbSymbolTableRecord
100
AcDbViewTableRecord
  2
AM_VIEW4
 70
     0
 40
280.0000000000001
 10
601.671100362757
 20
140.0
 41
408.6577992744861
 11
0.0
 21
0.0
 31
1.0
 12
0.0
 22
0.0
 32
0.0
 42
50.0
 43
0.0
 44
0.0
 50
0.0
 71
    16
281
     0
 72
     0
  0
VIEW
  5
3A8
330
6
100
AcDbSymbolTableRecord
100
AcDbViewTableRecord
  2
AM_VIEW5
 70
     0
 40
280.0000000000001
 10
403.0
 20
280.0000000000001
 41
408.657799274486
 11
0.0
 21
0.0
 31
1.0
 12
0.0
 22
0.0
 32
0.0
 42
50.0
 43
0.0
 44
0.0
 50
0.0
 71
    16
281
     0
 72
     0
  0
VIEW
  5
3A9
330
6
100
AcDbSymbolTableRecord
100
AcDbViewTableRecord
  2
AM_VIEW6
 70
     0
 40
559.9944000000001
 10
403.0
 20
280.0000000000001
 41
817.3074253929867
 11
0.0
 21
0.0
 31
1.0
 12
0.0
 22
0.0
 32
0.0
 42
50.0
 43
0.0
 44
0.0
 50
0.0
 71
    16
281
     0
 72
     0
  0
ENDTAB
  0
TABLE
  2
UCS
  5
7
330
0
100
AcDbSymbolTable
 70
     0
  0
ENDTAB
  0
TABLE
  2
APPID
  5
9
330
0
100
AcDbSymbolTable
 70
    37
  0
APPID
  5
12
330
9
100
AcDbSymbolTableRecord
100
AcDbRegAppTableRecord
  2
ACAD
 70
     0
  0
APPID
  5
46
330
9
100
AcDbSymbolTableRecord
100
AcDbRegAppTableRecord
  2
MCAD_NO_VIS
 70
     0
  0
APPID
  5
47
330
9
100
AcDbSymbolTableRecord
100
AcDbRegAppTableRecord
  2
ACAD_TEMP_GRAPHIC
 70
     0
  0
APPID
  5
58
330
9
100
AcDbSymbolTableRecord
100
AcDbRegAppTableRecord
  2
ACATTRIBSERVICES
 70
     0
  0
APPID
  5
EE
330
9
100
AcDbSymbolTableRecord
100
AcDbRegAppTableRecord
  2
AD_DRAW
 70
     0
  0
APPID
  5
10C
330
9
100
AcDbSymbolTableRecord
100
AcDbRegAppTableRecord
  2
DESIGNERASSEMBLIES
 70
     0
  0
APPID
  5
111
330
9
100
AcDbSymbolTableRecord
100
AcDbRegAppTableRecord
  2
ACADM_DIM_EDIT
 70
     0
  0
APPID
  5
112
330
9
100
AcDbSymbolTableRecord
100
AcDbRegAppTableRecord
  2
AMDT_DM_ADJ
 70
     0
  0
APPID
  5
30F
330
9
100
AcDbSymbolTableRecord
100
AcDbRegAppTableRecord
  2
GENIUS_GENREC_14
 70
     0
  0
APPID
  5
310
330
9
100
AcDbSymbolTableRecord
100
AcDbRegAppTableRecord
  2
GENIUS_GENODEF_13
 70
     0
  0
APPID
  5
311
330
9
100
AcDbSymbolTableRecord
100
AcDbRegAppTableRecord
  2
GENIUS_GENOBJ-N-REC_13
 70
     0
  0
APPID
  5
312
330
9
100
AcDbSymbolTableRecord
100
AcDbRegAppTableRecord
  2
GENIUS_GENCFG_13
 70
     0
  0
APPID
  5
313
330
9
100
AcDbSymbolTableRecord
100
AcDbRegAppTableRecord
  2
GENIUS_GENCFG0_13
 70
     0
  0
APPID
  5
314
330
9
100
AcDbSymbolTableRecord
100
AcDbRegAppTableRecord
  2
GENIUS_GENCFG1_13
 70
     0
  0
APPID
  5
315
330
9
100
AcDbSymbolTableRecord
100
AcDbRegAppTableRecord
  2
GENIUS_GENCFG2_13
 70
     0
  0
APPID
  5
316
330
9
100
AcDbSymbolTableRecord
100
AcDbRegAppTableRecord
  2
GENIUS_GENCFG3_13
 70
     0
  0
APPID
  5
317
330
9
100
AcDbSymbolTableRecord
100
AcDbRegAppTableRecord
  2
GENIUS_GENCFG4_13
 70
     0
  0
APPID
  5
318
330
9
100
AcDbSymbolTableRecord
100
AcDbRegAppTableRecord
  2
GENIUS_GEVCFG0_13
 70
     0
  0
APPID
  5
319
330
9
100
AcDbSymbolTableRecord
100
AcDbRegAppTableRecord
  2
GENIUS_GENOENT_13
 70
     0
  0
APPID
  5
31A
330
9
100
AcDbSymbolTableRecord
100
AcDbRegAppTableRecord
  2
GENIUS_GENDIMSH_14
 70
     0
  0
APPID
  5
31B
330
9
100
AcDbSymbolTableRecord
100
AcDbRegAppTableRecord
  2
GENIUS_GENOBJ-N-CRS_13
 70
     0
  0
APPID
  5
31C
330
9
100
AcDbSymbolTableRecord
100
AcDbRegAppTableRecord
  2
GENIUS_GENOREF_13
 70
     0
  0
APPID
  5
31D
330
9
100
AcDbSymbolTableRecord
100
AcDbRegAppTableRecord
  2
GENIUS_GENOLIS_13
 70
     0
  0
APPID
  5
31E
330
9
100
AcDbSymbolTableRecord
100
AcDbRegAppTableRecord
  2
GENIUS_GENOBJ-N-TIT_13
 70
     0
  0
APPID
  5
31F
330
9
100
AcDbSymbolTableRecord
100
AcDbRegAppTableRecord
  2
GENIUS_GENTITLE_13
 70
     0
  0
APPID
  5
320
330
9
100
AcDbSymbolTableRecord
100
AcDbRegAppTableRecord
  2
GENIUS_GENSCREG_15
 70
     0
  0
APPID
  5
321
330
9
100
AcDbSymbolTableRecord
100
AcDbRegAppTableRecord
  2
GENIUS_GENOBJ-N-SDF_13
 70
     0
  0
APPID
  5
322
330
9
100
AcDbSymbolTableRecord
100
AcDbRegAppTableRecord
  2
GENIUS_GENOBJ-N-CEN_13
 70
     0
  0
APPID
  5
323
330
9
100
AcDbSymbolTableRecord
100
AcDbRegAppTableRecord
  2
GENIUS_GENOBJ-N-HTC_13
 70
     0
  0
APPID
  5
324
330
9
100
AcDbSymbolTableRecord
100
AcDbRegAppTableRecord
  2
GENIUS_GENHATCH_13
 70
     0
  0
APPID
  5
325
330
9
100
AcDbSymbolTableRecord
100
AcDbRegAppTableRecord
  2
GENIUS_GENOBJ-N-ZOO_13
 70
     0
  0
APPID
  5
326
330
9
100
AcDbSymbolTableRecord
100
AcDbRegAppTableRecord
  2
GENIUS_GENZOO_17
 70
     0
  0
APPID
  5
A49
330
9
100
AcDbSymbolTableRecord
100
AcDbRegAppTableRecord
  2
GENIUS_GENOBJ-N-FIL_13
 70
     0
  0
APPID
  5
A4A
330
9
100
AcDbSymbolTableRecord
100
AcDbRegAppTableRecord
  2
ACAD_PSEXT
 70
     0
  0
APPID
  5
1BB4
330
9
100
AcDbSymbolTableRecord
100
AcDbRegAppTableRecord
  2
GENIUS_GENCEN_19
 70
     0
  0
APPID
  5
22CC
330
9
100
AcDbSymbolTableRecord
100
AcDbRegAppTableRecord
  2
ACAD_NAV_VCDISPLAY
 70
     0
  0
APPID
  5
24C2
330
9
100
AcDbSymbolTableRecord
100
AcDbRegAppTableRecord
  2
ACAD_MLEADERVER
 70
     0
  0
ENDTAB
  0
TABLE
  2
DIMSTYLE
  5
A
330
0
100
AcDbSymbolTable
 70
    16
100
AcDbDimStyleTable
 71
     1
340
81
  0
DIMSTYLE
105
27
330
A
100
AcDbSymbolTableRecord
100
AcDbDimStyleTableRecord
  2
ISO-25
 70
     0
 41
2.5
 42
0.625
 43
3.75
 44
1.25
 73
     0
 74
     0
 77
     1
 78
     8
140
2.5
141
2.5
143
0.03937007874016
147
0.625
171
     3
172
     1
271
     2
272
     2
274
     3
278
    44
283
     0
284
     8
340
11
  0
DIMSTYLE
105
81
102
{ACAD_REACTORS
330
18DF
330
18E2
330
1A5F
102
}
330
A
100
AcDbSymbolTableRecord
100
AcDbDimStyleTableRecord
  2
AM_ISO
 70
     0
  4
"
 41
2.5
 42
1.0
 43
10.0
 44
1.0
 47
0.1
 48
0.1
 73
     0
 74
     0
 77
     1
 78
     8
 79
     2
140
3.5
141
0.0
143
0.0393701
146
0.71
147
1.5
172
     1
176
   256
177
   256
178
     2
271
     2
272
     3
274
     4
283
     0
284
     8
340
11
371
    -1
372
    -1
  0
DIMSTYLE
105
82
330
A
100
AcDbSymbolTableRecord
100
AcDbDimStyleTableRecord
  2
AM_ISO$3
 70
     0
  4
"
 41
2.5
 42
1.0
 43
10.0
 44
1.0
 47
0.1
 48
0.1
 73
     0
 77
     1
 78
     8
 79
     2
140
3.5
141
0.0
143
0.0393701
146
0.71
147
1.5
176
   256
177
   256
178
     2
271
     2
272
     3
274
     4
283
     0
284
     8
288
     1
289
     0
340
11
371
    -1
372
    -1
  0
DIMSTYLE
105
83
330
A
100
AcDbSymbolTableRecord
100
AcDbDimStyleTableRecord
  2
AM_ISO$4
 70
     0
  4
"
 41
2.5
 42
1.0
 43
10.0
 44
1.0
 47
0.1
 48
0.1
 73
     0
 77
     1
 78
     8
 79
     2
140
3.5
141
0.0
143
0.0393701
146
0.71
147
1.5
176
   256
177
   256
178
     2
271
     2
272
     3
274
     4
283
     0
284
     8
288
     1
289
     0
340
11
371
    -1
372
    -1
  0
DIMSTYLE
105
84
330
A
100
AcDbSymbolTableRecord
100
AcDbDimStyleTableRecord
  2
AM_ISO$6
 70
     0
  4
"
 41
2.5
 42
1.0
 43
10.0
 44
1.0
 47
0.1
 48
0.1
 73
     0
 74
     0
 78
     8
 79
     2
140
3.5
141
0.0
143
0.0393701
146
0.71
147
1.5
172
     1
176
   256
177
   256
178
     2
271
     2
272
     3
274
     4
283
     0
284
     8
340
11
371
    -1
372
    -1
  0
DIMSTYLE
105
85
330
A
100
AcDbSymbolTableRecord
100
AcDbDimStyleTableRecord
  2
AM_ISO$7
 70
     0
  4
"
 41
2.5
 42
1.0
 43
10.0
 44
1.0
 47
0.1
 48
0.1
 73
     0
 74
     0
 77
     1
 78
     8
 79
     2
140
5.0
141
0.0
143
0.0393701
146
0.71
147
1.5
172
     1
176
   256
177
   256
178
     2
271
     2
272
     3
274
     4
283
     0
284
     8
340
11
371
    -1
372
    -1
  0
DIMSTYLE
105
86
330
A
100
AcDbSymbolTableRecord
100
AcDbDimStyleTableRecord
  2
AM_ISO$SF
 70
     0
  4
"
 41
2.5
 42
1.0
 43
10.0
 44
1.0
 47
0.1
 48
0.1
 73
     0
 74
     0
 75
     1
 76
     1
 77
     1
 78
     8
 79
     2
140
3.5
141
0.0
143
0.0393701
146
0.71
147
1.5
172
     1
176
   256
177
   256
178
     2
271
     2
272
     3
274
     4
283
     0
284
     8
340
11
371
    -1
372
    -1
  0
DIMSTYLE
105
8B
330
A
100
AcDbSymbolTableRecord
100
AcDbDimStyleTableRecord
  2
AM_ISO$SH
 70
     0
  4
"
 41
2.5
 42
1.0
 43
10.0
 44
1.0
 47
0.1
 48
0.1
 73
     0
 74
     0
 75
     1
 76
     1
 77
     1
 78
     8
 79
     2
140
3.5
141
0.0
143
0.0393701
144
2.0
146
0.71
147
1.5
172
     1
173
     1
176
   256
177
   256
178
     2
271
     2
272
     3
274
     4
283
     0
284
     8
340
11
343
87
371
    -1
372
    -1
  0
DIMSTYLE
105
308
330
A
100
AcDbSymbolTableRecord
100
AcDbDimStyleTableRecord
  2
GEN-ISO
 70
     0
  4
"
 41
2.5
 42
1.0
 43
10.0
 44
1.0
 47
0.1
 48
0.1
 73
     0
 74
     0
 77
     1
 78
     8
140
3.5
141
0.0
143
0.0393701
146
0.71
147
1.5
172
     1
176
   256
177
   256
178
     2
271
     2
272
     3
274
     4
283
     0
340
11
  0
DIMSTYLE
105
309
330
A
100
AcDbSymbolTableRecord
100
AcDbDimStyleTableRecord
  2
GEN-ISO$3
 70
     0
  4
"
 41
2.5
 42
1.0
 43
10.0
 44
1.0
 47
0.1
 48
0.1
 73
     0
 77
     1
 78
     8
140
3.5
141
0.0
143
0.0393701
146
0.71
147
1.5
176
   256
177
   256
178
     2
271
     2
272
     3
274
     4
283
     0
288
     1
289
     0
340
11
  0
DIMSTYLE
105
30A
330
A
100
AcDbSymbolTableRecord
100
AcDbDimStyleTableRecord
  2
GEN-ISO$4
 70
     0
  4
"
 41
2.5
 42
1.0
 43
10.0
 44
1.0
 47
0.1
 48
0.1
 73
     0
 77
     1
 78
     8
140
3.5
141
0.0
143
0.0393701
146
0.71
147
1.5
176
   256
177
   256
178
     2
271
     2
272
     3
274
     4
283
     0
288
     1
289
     0
340
11
  0
DIMSTYLE
105
30B
330
A
100
AcDbSymbolTableRecord
100
AcDbDimStyleTableRecord
  2
GEN-ISO$6
 70
     0
  4
"
 41
2.5
 42
1.0
 43
10.0
 44
1.0
 47
0.1
 48
0.1
 73
     0
 74
     0
 78
     8
140
3.5
141
0.0
143
0.0393701
146
0.71
147
1.5
176
   256
177
   256
178
     2
271
     2
272
     3
274
     4
283
     0
340
11
  0
DIMSTYLE
105
30C
330
A
100
AcDbSymbolTableRecord
100
AcDbDimStyleTableRecord
  2
GEN-ISO-POS
 70
     0
  4
"
 41
2.5
 42
1.0
 43
10.0
 44
1.0
 47
0.1
 48
0.1
 73
     0
 74
     0
 78
     8
140
5.0
141
0.0
143
0.0393701
146
0.71
147
1.5
176
   256
177
   256
178
     2
271
     2
272
     3
274
     4
283
     0
340
11
  0
DIMSTYLE
105
30D
330
A
100
AcDbSymbolTableRecord
100
AcDbDimStyleTableRecord
  2
GEN-ISO-AXE-F
 70
     0
  4
"
 41
2.5
 42
1.0
 43
10.0
 44
1.0
 47
0.1
 48
0.1
 73
     0
 74
     0
 75
     1
 76
     1
 77
     1
 78
     8
140
3.5
141
0.0
143
0.0393701
146
0.71
147
1.5
172
     1
176
   256
177
   256
178
     2
271
     2
272
     3
274
     4
283
     0
340
11
  0
DIMSTYLE
105
30E
330
A
100
AcDbSymbolTableRecord
100
AcDbDimStyleTableRecord
  2
GEN-ISO-AXE-H
 70
     0
  4
"
 41
2.5
 42
1.0
 43
10.0
 44
1.0
 47
0.1
 48
0.1
 73
     0
 74
     0
 75
     1
 76
     1
 77
     1
 78
     8
140
3.5
141
0.0
143
0.0393701
144
2.0
146
0.71
147
1.5
172
     1
173
     1
176
   256
177
   256
178
     2
271
     2
272
     3
274
     4
283
     0
340
11
  0
DIMSTYLE
105
1ADD
330
A
100
AcDbSymbolTableRecord
100
AcDbDimStyleTableRecord
  2
AM_ANSI
 70
     0
  4
mm
 41
0.1
 42
0.05
 43
0.5
 44
0.1
 47
0.1
 48
0.1
 78
     7
 79
     2
140
0.12
141
0.0
146
0.71
147
0.06
176
   256
177
   256
178
     2
274
     4
284
     7
340
11
371
    -1
372
    -1
  0
ENDTAB
  0
TABLE
  2
BLOCK_RECORD
  5
1
330
0
100
AcDbSymbolTable
 70
    22
  0
BLOCK_RECORD
  5
1F
102
{ACAD_XDICTIONARY
360
8F
102
}
330
1
100
AcDbSymbolTableRecord
100
AcDbBlockTableRecord
  2
*Model_Space
340
22
  0
BLOCK_RECORD
  5
1B
330
1
100
AcDbSymbolTableRecord
100
AcDbBlockTableRecord
  2
*Paper_Space
340
1E
  0
BLOCK_RECORD
  5
23
330
1
100
AcDbSymbolTableRecord
100
AcDbBlockTableRecord
  2
*Paper_Space0
340
26
  0
BLOCK_RECORD
  5
87
330
1
100
AcDbSymbolTableRecord
100
AcDbBlockTableRecord
  2
GENAXEH
340
0
  0
BLOCK_RECORD
  5
2FB
330
1
100
AcDbSymbolTableRecord
100
AcDbBlockTableRecord
  2
_Open30
340
0
  0
BLOCK_RECORD
  5
327
102
{ACAD_XDICTIONARY
360
330
102
}
330
1
100
AcDbSymbolTableRecord
100
AcDbBlockTableRecord
  2
TAKACHI-A3
340
0
102
{BLKREFS
331
79F
102
}
  0
BLOCK_RECORD
  5
340
102
{ACAD_XDICTIONARY
360
395
102
}
330
1
100
AcDbSymbolTableRecord
100
AcDbBlockTableRecord
  2
TAKACHI-TITLE
340
0
102
{BLKREFS
331
7A1
102
}
  0
BLOCK_RECORD
  5
1A62
330
1
100
AcDbSymbolTableRecord
100
AcDbBlockTableRecord
  2
*D6
340
0
  0
BLOCK_RECORD
  5
1A6E
330
1
100
AcDbSymbolTableRecord
100
AcDbBlockTableRecord
  2
*D7
340
0
  0
BLOCK_RECORD
  5
1A7A
330
1
100
AcDbSymbolTableRecord
100
AcDbBlockTableRecord
  2
*D8
340
0
  0
BLOCK_RECORD
  5
1ADE
102
{ACAD_XDICTIONARY
360
1AE6
102
}
330
1
100
AcDbSymbolTableRecord
100
AcDbBlockTableRecord
  2
TK-A3
340
0
102
{BLKREFS
331
79F
102
}
  0
BLOCK_RECORD
  5
1AEC
102
{ACAD_XDICTIONARY
360
1B45
102
}
330
1
100
AcDbSymbolTableRecord
100
AcDbBlockTableRecord
  2
TK-TITLE
340
0
102
{BLKREFS
331
7A1
102
}
  0
BLOCK_RECORD
  5
23CF
330
1
100
AcDbSymbolTableRecord
100
AcDbBlockTableRecord
  2
*S11
340
0
  0
BLOCK_RECORD
  5
23D6
330
1
100
AcDbSymbolTableRecord
100
AcDbBlockTableRecord
  2
*S12
340
0
  0
BLOCK_RECORD
  5
23DE
330
1
100
AcDbSymbolTableRecord
100
AcDbBlockTableRecord
  2
*S13
340
0
  0
BLOCK_RECORD
  5
23E5
330
1
100
AcDbSymbolTableRecord
100
AcDbBlockTableRecord
  2
*S14
340
0
  0
BLOCK_RECORD
  5
23ED
330
1
100
AcDbSymbolTableRecord
100
AcDbBlockTableRecord
  2
*S15
340
0
  0
BLOCK_RECORD
  5
23F4
330
1
100
AcDbSymbolTableRecord
100
AcDbBlockTableRecord
  2
*S16
340
0
  0
BLOCK_RECORD
  5
23FC
330
1
100
AcDbSymbolTableRecord
100
AcDbBlockTableRecord
  2
*S17
340
0
  0
BLOCK_RECORD
  5
2403
330
1
100
AcDbSymbolTableRecord
100
AcDbBlockTableRecord
  2
*S18
340
0
  0
BLOCK_RECORD
  5
240B
330
1
100
AcDbSymbolTableRecord
100
AcDbBlockTableRecord
  2
*S19
340
0
  0
BLOCK_RECORD
  5
2412
330
1
100
AcDbSymbolTableRecord
100
AcDbBlockTableRecord
  2
*S20
340
0
  0
BLOCK_RECORD
  5
241A
330
1
100
AcDbSymbolTableRecord
100
AcDbBlockTableRecord
  2
*S21
340
0
  0
ENDTAB
  0
ENDSEC
  0
SECTION
  2
BLOCKS
  0
BLOCK
  5
20
330
1F
100
AcDbEntity
  8
0
100
AcDbBlockBegin
  2
*Model_Space
 70
     0
 10
0.0
 20
0.0
 30
0.0
  3
*Model_Space
  1

  0
ENDBLK
  5
21
330
1F
100
AcDbEntity
  8
0
100
AcDbBlockEnd
  0
BLOCK
  5
1C
330
1B
100
AcDbEntity
 67
     1
  8
0
100
AcDbBlockBegin
  2
*Paper_Space
 70
     0
 10
0.0
 20
0.0
 30
0.0
  3
*Paper_Space
  1

  0
ENDBLK
  5
1D
330
1B
100
AcDbEntity
 67
     1
  8
0
100
AcDbBlockEnd
  0
BLOCK
  5
24
330
23
100
AcDbEntity
 67
     1
  8
0
100
AcDbBlockBegin
  2
*Paper_Space0
 70
     0
 10
0.0
 20
0.0
 30
0.0
  3
*Paper_Space0
  1

  0
VIEWPORT
  5
17C
102
{ACAD_XDICTIONARY
360
248C
102
}
330
23
100
AcDbEntity
 67
     1
  8
0
100
AcDbViewport
 10
133.3499908447266
 20
123.6089706563676
 30
0.0
 40
370.2266912936524
 41
272.4401407679965
 68
     0
 69
     0
 12
133.3499908447266
 22
123.6089706563676
 13
0.0
 23
0.0
 14
10.0
 24
10.0
 15
10.0
 25
10.0
 16
0.0
 26
0.0
 36
1.0
 17
0.0
 27
0.0
 37
0.0
 42
50.0
 43
0.0
 44
0.0
 45
272.4401407679965
 50
0.0
 51
0.0
 72
   100
 90
    32800
  1

281
     0
 71
     1
 74
     0
110
0.0
120
0.0
130
0.0
111
1.0
121
0.0
131
0.0
112
0.0
122
1.0
132
0.0
 79
     0
146
0.0
  0
ENDBLK
  5
25
330
23
100
AcDbEntity
 67
     1
  8
0
100
AcDbBlockEnd
  0
BLOCK
  5
89
330
87
100
AcDbEntity
  8
0
100
AcDbBlockBegin
  2
GENAXEH
 70
     0
 10
0.0
 20
0.0
 30
0.0
  3
GENAXEH
  1

  0
LINE
  5
88
330
87
100
AcDbEntity
  8
0
100
AcDbLine
 10
-1.0
 20
0.0
 30
0.0
 11
1.0
 21
0.0
 31
0.0
  0
ENDBLK
  5
8A
330
87
100
AcDbEntity
  8
0
100
AcDbBlockEnd
  0
BLOCK
  5
2FC
330
2FB
100
AcDbEntity
  8
0
100
AcDbBlockBegin
  2
_Open30
 70
     0
 10
0.0
 20
0.0
 30
0.0
  3
_Open30
  1

  0
LINE
  5
2FD
330
2FB
100
AcDbEntity
  8
0
  6
ByBlock
 62
     0
370
    -2
100
AcDbLine
 10
-1.0
 20
0.26794919
 30
0.0
 11
0.0
 21
0.0
 31
0.0
  0
LINE
  5
2FE
330
2FB
100
AcDbEntity
  8
0
  6
ByBlock
 62
     0
370
    -2
100
AcDbLine
 10
0.0
 20
0.0
 30
0.0
 11
-1.0
 21
-0.26794919
 31
0.0
  0
LINE
  5
2FF
330
2FB
100
AcDbEntity
  8
0
  6
ByBlock
 62
     0
370
    -2
100
AcDbLine
 10
0.0
 20
0.0
 30
0.0
 11
-1.0
 21
0.0
 31
0.0
  0
ENDBLK
  5
300
330
2FB
100
AcDbEntity
  8
0
100
AcDbBlockEnd
  0
BLOCK
  5
331
330
327
100
AcDbEntity
  8
0
100
AcDbBlockBegin
  2
TAKACHI-A3
 70
     0
 10
0.0
 20
0.0
 30
0.0
  3
TAKACHI-A3
  1

  0
LWPOLYLINE
  5
328
330
327
100
AcDbEntity
  8
0
100
AcDbPolyline
 90
        4
 70
     1
 43
0.0
 10
10.0
 20
0.0
 10
410.0
 20
0.0
 10
410.0
 20
280.0
 10
10.00000000000003
 20
280.0
1001
GENIUS_GENREC_14
1002
{
1000
PYDIR
1011
10.00000000000001
1021
280.0
1031
0.0
1002
}
1002
{
1000
PXDIR
1011
410.0
1021
0.0
1031
0.0
1002
}
1002
{
1000
PORI
1011
10.0
1021
0.0
1031
0.0
1002
}
1002
{
1000
PINS
1011
210.0
1021
139.9999999999999
1031
0.0
1002
}
1002
{
1000
HVAL
1000
280
1002
}
1002
{
1000
H
1070
     2
1002
}
1002
{
1000
WVAL
1000
400
1002
}
1002
{
1000
W
1070
     2
1002
}
1002
{
1000
C
1070
     4
1002
}
1001
GENIUS_GENODEF_13
1002
{
1000
HIER
1070
     0
1002
}
1002
{
1000
MANEDIT
1070
     0
1002
}
1002
{
1000
NOSEL
1070
     0
1002
}
1002
{
1000
BEHIND
1070
     0
1002
}
1002
{
1000
REACTOR
1002
}
1001
GENIUS_GENOBJ-N-REC_13
1002
{
1000
OWNER
1000
GEN
1002
}
  0
TEXT
  5
329
330
327
100
AcDbEntity
  8
0
 60
     1
100
AcDbText
 10
15.00000000000003
 20
50.0
 30
0.0
 40
2.5
  1
!GENTITLE-LL
100
AcDbText
  0
TEXT
  5
32A
330
327
100
AcDbEntity
  8
0
 60
     1
100
AcDbText
 10
410.0
 20
0.0
 30
0.0
 40
2.5
  1
!GENTITLE-INSERT
100
AcDbText
  0
TEXT
  5
32B
330
327
100
AcDbEntity
  8
0
 60
     1
100
AcDbText
 10
405.0
 20
275.0
 30
0.0
 40
2.5
  1
!GENTITLE-RU
100
AcDbText
  0
TEXT
  5
32C
330
327
100
AcDbEntity
  8
0
 60
     1
100
AcDbText
 10
410.0
 20
280.0
 30
0.0
 40
2.5
  1
!GENTITLE-MAX
100
AcDbText
  0
LINE
  5
32D
330
327
100
AcDbEntity
  8
0
100
AcDbLine
 10
366.0
 20
275.0
 30
0.0
 11
410.0
 21
275.0
 31
0.0
  0
MTEXT
  5
32E
330
327
100
AcDbEntity
  8
0
100
AcDbMText
 10
409.3592953827348
 20
276.108542987227
 30
0.0
 40
2.5
 41
43.07840397728298
 71
     9
 72
     5
  1
(文書番号：TY-34)2004.10.29
 73
     1
 44
1.0
1001
ACAD
1000
MTEXTBEGIN
1070
    73
1070
     1
1070
    44
1040
1.0
1070
    74
1070
     0
1000
MTEXTEND
  0
LINE
  5
32F
330
327
100
AcDbEntity
  8
0
100
AcDbLine
 10
366.0
 20
280.0
 30
0.0
 11
366.0
 21
275.0
 31
0.0
  0
ENDBLK
  5
332
330
327
100
AcDbEntity
  8
0
100
AcDbBlockEnd
  0
BLOCK
  5
396
330
340
100
AcDbEntity
  8
0
100
AcDbBlockBegin
  2
TAKACHI-TITLE
 70
     2
 10
0.0
 20
0.0
 30
0.0
  3
TAKACHI-TITLE
  1

  0
LINE
  5
341
330
340
100
AcDbEntity
  8
RAHM2
100
AcDbLine
 10
-195.0
 20
30.00000000000003
 30
0.0
 11
-94.0
 21
30.00000000000003
 31
0.0
  0
LINE
  5
342
330
340
100
AcDbEntity
  8
RAHM2
100
AcDbLine
 10
-195.0
 20
35.00000000000003
 30
0.0
 11
-94.0
 21
35.00000000000003
 31
0.0
  0
LINE
  5
343
330
340
100
AcDbEntity
  8
RAHM2
100
AcDbLine
 10
-195.0
 20
40.00000000000002
 30
0.0
 11
-94.0
 21
40.00000000000002
 31
0.0
  0
LINE
  5
344
330
340
100
AcDbEntity
  8
RAHM2
100
AcDbLine
 10
-195.0
 20
45.00000000000002
 30
0.0
 11
-94.0
 21
45.00000000000002
 31
0.0
  0
LINE
  5
345
330
340
100
AcDbEntity
  8
0
100
AcDbLine
 10
-195.0
 20
7.0
 30
0.0
 11
-94.0
 21
7.0
 31
0.0
  0
LINE
  5
346
330
340
100
AcDbEntity
  8
0
100
AcDbLine
 10
-195.0
 20
19.99999999999997
 30
0.0
 11
-94.0
 21
19.99999999999997
 31
0.0
  0
ATTDEF
  5
347
330
340
100
AcDbEntity
  8
0
100
AcDbText
 10
-183.2438527145607
 20
8.617517191094748
 30
0.0
 40
2.5
  1

 11
-183.2438527145607
 21
8.617517191094748
 31
0.0
100
AcDbAttributeDefinition
  3
サブタイトル
  2
GEN-TITLE-DES2
 70
     0
 74
     1
  0
ATTDEF
  5
348
330
340
100
AcDbEntity
  8
0
100
AcDbText
 10
-183.2438527145607
 20
1.617517191094748
 30
0.0
 40
3.0
  1

 11
-183.2438527145607
 21
1.617517191094748
 31
0.0
100
AcDbAttributeDefinition
  3
図番
  2
GEN-TITLE-NR
 70
     0
 74
     1
  0
MTEXT
  5
349
330
340
100
AcDbEntity
  8
RAHM2
100
AcDbMText
 10
-193.8002551371314
 20
5.801035407279641
 30
0.0
 40
2.5
 41
90.0
 71
     1
 72
     5
  1
図番
 73
     1
 44
1.0
1001
ACAD
1000
MTEXTBEGIN
1070
    73
1070
     1
1070
    44
1040
1.0
1070
    74
1070
     0
1000
MTEXTEND
  0
ATTDEF
  5
34A
330
340
100
AcDbEntity
  8
0
100
AcDbText
 10
-183.2438527145607
 20
13.87395286168501
 30
0.0
 40
4.0
  1

 11
-183.2438527145607
 21
13.87395286168501
 31
0.0
100
AcDbAttributeDefinition
  3
品名
  2
GEN-TITLE-DES1
 70
     0
 74
     1
  0
LINE
  5
34B
330
340
100
AcDbEntity
  8
RAHM2
100
AcDbLine
 10
-187.5751288694036
 20
30.40000000000004
 30
0.0
 11
-190.0
 21
34.60000000000003
 31
0.0
  0
LINE
  5
34C
330
340
100
AcDbEntity
  8
RAHM2
100
AcDbLine
 10
-190.0
 20
34.60000000000003
 30
0.0
 11
-192.4248711305964
 21
30.40000000000004
 31
0.0
  0
LINE
  5
34D
330
340
100
AcDbEntity
  8
RAHM2
100
AcDbLine
 10
-185.0
 20
50.00000000000003
 30
0.0
 11
-185.0
 21
19.99999999999994
 31
0.0
  0
LINE
  5
34E
330
340
100
AcDbEntity
  8
RAHM2
100
AcDbLine
 10
-192.4248711305964
 20
30.40000000000004
 30
0.0
 11
-187.5751288694036
 21
30.40000000000004
 31
0.0
  0
MTEXT
  5
34F
330
340
100
AcDbEntity
  8
RAHM2
100
AcDbMText
 10
-190.0
 20
22.49999999999997
 30
0.0
 40
2.5
 41
10.0
 71
     5
 72
     5
  1
符号
 73
     1
 44
1.0
1001
ACAD
1000
MTEXTBEGIN
1070
    73
1070
     1
1070
    44
1040
1.0
1070
    74
1070
     0
1000
MTEXTEND
  0
MTEXT
  5
350
330
340
100
AcDbEntity
  8
RAHM2
100
AcDbMText
 10
-193.8002551371314
 20
18.80103540727961
 30
0.0
 40
2.5
 41
90.0
 71
     1
 72
     5
  1
品名
 73
     1
 44
1.0
1001
ACAD
1000
MTEXTBEGIN
1070
    73
1070
     1
1070
    44
1040
1.0
1070
    74
1070
     0
1000
MTEXTEND
  0
LINE
  5
351
330
340
100
AcDbEntity
  8
RAHM2
100
AcDbLine
 10
-192.4248711305964
 20
45.40000000000003
 30
0.0
 11
-187.5751288694036
 21
45.40000000000003
 31
0.0
  0
LINE
  5
352
330
340
100
AcDbEntity
  8
RAHM2
100
AcDbLine
 10
-187.5751288694036
 20
45.40000000000003
 30
0.0
 11
-190.0
 21
49.60000000000002
 31
0.0
  0
LINE
  5
353
330
340
100
AcDbEntity
  8
RAHM2
100
AcDbLine
 10
-192.4248711305964
 20
40.40000000000003
 30
0.0
 11
-187.5751288694036
 21
40.40000000000003
 31
0.0
  0
LINE
  5
354
330
340
100
AcDbEntity
  8
RAHM2
100
AcDbLine
 10
-187.5751288694036
 20
40.40000000000003
 30
0.0
 11
-190.0
 21
44.60000000000002
 31
0.0
  0
LINE
  5
355
330
340
100
AcDbEntity
  8
RAHM2
100
AcDbLine
 10
-192.4248711305964
 20
35.40000000000004
 30
0.0
 11
-187.5751288694036
 21
35.40000000000004
 31
0.0
  0
LINE
  5
356
330
340
100
AcDbEntity
  8
RAHM2
100
AcDbLine
 10
-187.5751288694036
 20
35.40000000000004
 30
0.0
 11
-190.0
 21
39.60000000000002
 31
0.0
  0
LINE
  5
357
330
340
100
AcDbEntity
  8
RAHM2
100
AcDbLine
 10
-190.0
 20
39.60000000000002
 30
0.0
 11
-192.4248711305964
 21
35.40000000000004
 31
0.0
  0
LINE
  5
358
330
340
100
AcDbEntity
  8
RAHM2
100
AcDbLine
 10
-190.0
 20
44.60000000000002
 30
0.0
 11
-192.4248711305964
 21
40.40000000000003
 31
0.0
  0
LINE
  5
359
330
340
100
AcDbEntity
  8
RAHM2
100
AcDbLine
 10
-190.0
 20
49.60000000000002
 30
0.0
 11
-192.4248711305964
 21
45.40000000000003
 31
0.0
  0
LINE
  5
35A
330
340
100
AcDbEntity
  8
RAHM2
100
AcDbLine
 10
-129.0
 20
50.00000000000003
 30
0.0
 11
-129.0
 21
19.99999999999994
 31
0.0
  0
MTEXT
  5
35B
330
340
100
AcDbEntity
  8
RAHM2
100
AcDbMText
 10
-157.1448171868856
 20
22.49999999999997
 30
0.0
 40
2.5
 41
45.0
 71
     5
 72
     5
  1
変更記事
 73
     1
 44
1.0
1001
ACAD
1000
MTEXTBEGIN
1070
    73
1070
     1
1070
    44
1040
1.0
1070
    74
1070
     0
1000
MTEXTEND
  0
LINE
  5
35C
330
340
100
AcDbEntity
  8
0
100
AcDbLine
 10
-34.0
 20
50.0
 30
0.0
 11
-34.0
 21
0.0
 31
0.0
  0
LINE
  5
35D
330
340
100
AcDbEntity
  8
0
100
AcDbLine
 10
-94.0
 20
50.0
 30
0.0
 11
-94.0
 21
0.0
 31
0.0
  0
MTEXT
  5
35E
330
340
100
AcDbEntity
  8
0
100
AcDbMText
 10
-64.0
 20
5.0
 30
0.0
 40
3.5
 41
60.0
 71
     5
 72
     5
  1
\fＭＳ ゴシック|b0|i0|c128|p49;株式会社タカチ電機工業
 73
     1
 44
1.0
1001
ACAD
1000
MTEXTBEGIN
1070
    73
1070
     1
1070
    44
1040
1.0
1070
    74
1070
     0
1000
MTEXTEND
  0
LINE
  5
35F
330
340
100
AcDbEntity
  8
0
100
AcDbLine
 10
-94.0
 20
10.0
 30
0.0
 11
-34.0
 21
10.0
 31
0.0
  0
ATTDEF
  5
360
330
340
100
AcDbEntity
  8
0
100
AcDbText
 10
-58.01405119799745
 20
39.25500556178349
 30
0.0
 40
3.0
  1

 72
     2
 11
-58.01405119799745
 21
39.25500556178349
 31
0.0
100
AcDbAttributeDefinition
  3
尺度
  2
GEN-TITLE-SCA
 70
     0
  0
ATTDEF
  5
361
330
340
100
AcDbEntity
  8
0
100
AcDbText
 10
-77.00284966649007
 20
30.62180787943475
 30
0.0
 40
3.0
  1

 11
-77.00284966649007
 21
30.62180787943475
 31
0.0
100
AcDbAttributeDefinition
  3
材質
  2
GEN-TITLE-MAT1
 70
     0
 74
     1
  0
ATTDEF
  5
362
330
340
100
AcDbEntity
  8
0
100
AcDbText
 10
-77.00284966649007
 20
20.62180787943475
 30
0.0
 40
3.0
  1

 11
-77.00284966649007
 21
20.62180787943475
 31
0.0
100
AcDbAttributeDefinition
  3
表面処理
  2
GEN-TITLE-MAT2
 70
     0
 74
     1
  0
ATTDEF
  5
363
330
340
100
AcDbEntity
  8
0
100
AcDbText
 10
-77.00284966649007
 20
11.61751719109475
 30
0.0
 40
3.0
  1

 11
-77.00284966649007
 21
11.61751719109475
 31
0.0
100
AcDbAttributeDefinition
  3
日付
  2
GEN-TITLE-DAT
 70
     0
 74
     1
  0
LINE
  5
364
330
340
100
AcDbEntity
  8
0
100
AcDbLine
 10
-94.0
 20
37.5
 30
0.0
 11
-34.0
 21
37.5
 31
0.0
  0
LINE
  5
365
330
340
100
AcDbEntity
  8
0
100
AcDbLine
 10
-94.0
 20
27.5
 30
0.0
 11
-34.0
 21
27.5
 31
0.0
  0
LINE
  5
366
330
340
100
AcDbEntity
  8
0
100
AcDbLine
 10
-94.0
 20
17.5
 30
0.0
 11
-34.0
 21
17.5
 31
0.0
  0
LINE
  5
367
330
340
100
AcDbEntity
  8
RAHM2
100
AcDbLine
 10
-109.0
 20
50.00000000000003
 30
0.0
 11
-109.0
 21
19.99999999999994
 31
0.0
  0
MTEXT
  5
368
330
340
100
AcDbEntity
  8
RAHM2
100
AcDbMText
 10
-119.4582894723942
 20
32.50000000000003
 30
0.0
 40
2.5
 41
20.0
 71
     5
 72
     5
  1
・  ・   
 73
     1
 44
1.0
1001
ACAD
1000
MTEXTBEGIN
1070
    73
1070
     1
1070
    44
1040
1.0
1070
    74
1070
     0
1000
MTEXTEND
  0
MTEXT
  5
369
330
340
100
AcDbEntity
  8
RAHM2
100
AcDbMText
 10
-118.738119805002
 20
22.49999999999997
 30
0.0
 40
2.5
 41
20.0
 71
     5
 72
     5
  1
年・月・日
 73
     1
 44
1.0
1001
ACAD
1000
MTEXTBEGIN
1070
    73
1070
     1
1070
    44
1040
1.0
1070
    74
1070
     0
1000
MTEXTEND
  0
MTEXT
  5
36A
330
340
100
AcDbEntity
  8
RAHM2
100
AcDbMText
 10
-101.5
 20
22.49999999999997
 30
0.0
 40
2.5
 41
15.0
 71
     5
 72
     5
  1
担当
 73
     1
 44
1.0
1001
ACAD
1000
MTEXTBEGIN
1070
    73
1070
     1
1070
    44
1040
1.0
1070
    74
1070
     0
1000
MTEXTEND
  0
MTEXT
  5
36B
330
340
100
AcDbEntity
  8
RAHM2
100
AcDbMText
 10
-119.4582894723942
 20
42.50000000000002
 30
0.0
 40
2.5
 41
20.0
 71
     5
 72
     5
  1
・  ・   
 73
     1
 44
1.0
1001
ACAD
1000
MTEXTBEGIN
1070
    73
1070
     1
1070
    44
1040
1.0
1070
    74
1070
     0
1000
MTEXTEND
  0
MTEXT
  5
36C
330
340
100
AcDbEntity
  8
RAHM2
100
AcDbMText
 10
-119.4582894723942
 20
37.50000000000003
 30
0.0
 40
2.5
 41
20.0
 71
     5
 72
     5
  1
・  ・   
 73
     1
 44
1.0
1001
ACAD
1000
MTEXTBEGIN
1070
    73
1070
     1
1070
    44
1040
1.0
1070
    74
1070
     0
1000
MTEXTEND
  0
MTEXT
  5
36D
330
340
100
AcDbEntity
  8
RAHM2
100
AcDbMText
 10
-119.4582894723942
 20
47.50000000000002
 30
0.0
 40
2.5
 41
20.0
 71
     5
 72
     5
  1
・  ・   
 73
     1
 44
1.0
1001
ACAD
1000
MTEXTBEGIN
1070
    73
1070
     1
1070
    44
1040
1.0
1070
    74
1070
     0
1000
MTEXTEND
  0
MTEXT
  5
36E
330
340
100
AcDbEntity
  8
RAHM2
100
AcDbMText
 10
-92.80025513713145
 20
16.30103540727964
 30
0.0
 40
2.5
 41
60.0
 71
     1
 72
     5
  1
日付
 73
     1
 44
1.0
1001
ACAD
1000
MTEXTBEGIN
1070
    73
1070
     1
1070
    44
1040
1.0
1070
    74
1070
     0
1000
MTEXTEND
  0
MTEXT
  5
36F
330
340
100
AcDbEntity
  8
RAHM2
100
AcDbMText
 10
-92.80025513713145
 20
26.30103540727964
 30
0.0
 40
2.5
 41
60.0
 71
     1
 72
     5
  1
表面処理
 73
     1
 44
1.0
1001
ACAD
1000
MTEXTBEGIN
1070
    73
1070
     1
1070
    44
1040
1.0
1070
    74
1070
     0
1000
MTEXTEND
  0
LINE
  5
370
330
340
100
AcDbEntity
  8
7A
100
AcDbLine
 10
-89.0
 20
43.75
 30
0.0
 11
-75.2186915997147
 21
43.75
 31
0.0
1001
GENIUS_GENOREF_13
1005
383
  0
LINE
  5
371
330
340
100
AcDbEntity
  8
0
100
AcDbLine
 10
-84.0
 20
45.75
 30
0.0
 11
-76.0
 21
46.74999999999999
 31
0.0
  0
LINE
  5
372
330
340
100
AcDbEntity
  8
0
100
AcDbLine
 10
-76.0
 20
40.75
 30
0.0
 11
-84.0
 21
41.74999999999999
 31
0.0
  0
LINE
  5
373
330
340
100
AcDbEntity
  8
7A
100
AcDbLine
 10
-89.0
 20
43.75
 30
0.0
 11
-89.0
 21
47.32478664473148
 31
0.0
1001
GENIUS_GENOREF_13
1005
383
  0
CIRCLE
  5
374
330
340
100
AcDbEntity
  8
0
100
AcDbCircle
 10
-89.0
 20
43.75
 30
0.0
 40
2.0
  0
CIRCLE
  5
375
330
340
100
AcDbEntity
  8
0
100
AcDbCircle
 10
-89.0
 20
43.75
 30
0.0
 40
3.0
  0
LINE
  5
376
330
340
100
AcDbEntity
  8
0
100
AcDbLine
 10
-84.0
 20
41.74999999999999
 30
0.0
 11
-84.0
 21
45.75
 31
0.0
  0
MTEXT
  5
377
330
340
100
AcDbEntity
  8
RAHM2
100
AcDbMText
 10
-92.80025513713145
 20
36.30103540727964
 30
0.0
 40
2.5
 41
60.0
 71
     1
 72
     5
  1
材質
 73
     1
 44
1.0
1001
ACAD
1000
MTEXTBEGIN
1070
    73
1070
     1
1070
    44
1040
1.0
1070
    74
1070
     0
1000
MTEXTEND
  0
LINE
  5
378
330
340
100
AcDbEntity
  8
7A
100
AcDbLine
 10
-89.0
 20
43.75
 30
0.0
 11
-92.72303737125117
 21
43.75
 31
0.0
1001
GENIUS_GENOREF_13
1005
383
  0
LINE
  5
379
330
340
100
AcDbEntity
  8
7A
100
AcDbLine
 10
-89.0
 20
43.75
 30
0.0
 11
-89.0
 21
40.03991724228479
 31
0.0
1001
GENIUS_GENOREF_13
1005
383
  0
LINE
  5
37A
330
340
100
AcDbEntity
  8
0
100
AcDbLine
 10
-76.0
 20
46.74999999999999
 30
0.0
 11
-76.0
 21
40.75
 31
0.0
  0
LINE
  5
37B
330
340
100
AcDbEntity
  8
0
100
AcDbLine
 10
-74.0
 20
50.0
 30
0.0
 11
-74.0
 21
37.5
 31
0.0
  0
MTEXT
  5
37C
330
340
100
AcDbEntity
  8
RAHM2
100
AcDbMText
 10
-72.80025513713145
 20
48.80103540727964
 30
0.0
 40
2.5
 41
20.0
 71
     1
 72
     5
  1
尺度
 73
     1
 44
1.0
1001
ACAD
1000
MTEXTBEGIN
1070
    73
1070
     1
1070
    44
1040
1.0
1070
    74
1070
     0
1000
MTEXTEND
  0
ATTDEF
  5
37D
330
340
100
AcDbEntity
  8
0
100
AcDbText
 10
-37.76317379391503
 20
39.25500556178349
 30
0.0
 40
3.0
  1

 72
     2
 11
-37.76317379391503
 21
39.25500556178349
 31
0.0
100
AcDbAttributeDefinition
  3
数量
  2
GEN-TITLE-QTY
 70
     0
  0
LINE
  5
37E
330
340
100
AcDbEntity
  8
0
100
AcDbLine
 10
-34.0
 20
25.0
 30
0.0
 11
0.0
 21
25.0
 31
0.0
  0
LINE
  5
37F
330
340
100
AcDbEntity
  8
0
100
AcDbLine
 10
-54.0
 20
50.0
 30
0.0
 11
-54.0
 21
37.5
 31
0.0
  0
MTEXT
  5
380
330
340
100
AcDbEntity
  8
RAHM2
100
AcDbMText
 10
-52.80025513713145
 20
48.80103540727964
 30
0.0
 40
2.5
 41
20.0
 71
     1
 72
     5
  1
数量
 73
     1
 44
1.0
1001
ACAD
1000
MTEXTBEGIN
1070
    73
1070
     1
1070
    44
1040
1.0
1070
    74
1070
     0
1000
MTEXTEND
  0
MTEXT
  5
381
330
340
100
AcDbEntity
  8
RAHM2
100
AcDbMText
 10
-25.5
 20
23.80103540727964
 30
0.0
 40
2.5
 41
17.0
 71
     2
 72
     5
  1
承認
 73
     1
 44
1.0
1001
ACAD
1000
MTEXTBEGIN
1070
    73
1070
     1
1070
    44
1040
1.0
1070
    74
1070
     0
1000
MTEXTEND
  0
MTEXT
  5
382
330
340
100
AcDbEntity
  8
RAHM2
100
AcDbMText
 10
-25.5
 20
48.80103540727964
 30
0.0
 40
2.5
 41
17.0
 71
     2
 72
     5
  1
承認
 73
     1
 44
1.0
1001
ACAD
1000
MTEXTBEGIN
1070
    73
1070
     1
1070
    44
1040
1.0
1070
    74
1070
     0
1000
MTEXTEND
  0
POINT
  5
383
330
340
100
AcDbEntity
  8
0
 60
     1
100
AcDbPoint
 10
-320.5355579819676
 20
-138.1104841268254
 30
0.0
1001
GENIUS_GENODEF_13
1002
{
1000
HIER
1070
    10
1002
}
1002
{
1000
MANEDIT
1070
     0
1002
}
1002
{
1000
NOSEL
1070
     0
1002
}
1002
{
1000
BEHIND
1070
     0
1002
}
1002
{
1000
REACTOR
1002
}
1001
GENIUS_GENOBJ-N-CRS_13
1002
{
1000
OWNER
1000
GEN
1002
}
1001
GENIUS_GENOENT_13
1002
{
1000
MYREF
1005
383
1002
}
1002
{
1000
GRP
1005
0
1002
}
1001
GENIUS_GENOLIS_13
1002
{
1000
ENT
1005
379
1005
378
1005
373
1005
370
1002
}
  0
LINE
  5
384
330
340
100
AcDbEntity
  8
RAHM2
100
AcDbLine
 10
-190.0
 20
29.60000000000002
 30
0.0
 11
-192.4248711305964
 21
25.40000000000004
 31
0.0
  0
LINE
  5
385
330
340
100
AcDbEntity
  8
RAHM2
100
AcDbLine
 10
-187.5751288694036
 20
25.40000000000004
 30
0.0
 11
-190.0
 21
29.60000000000002
 31
0.0
  0
LINE
  5
386
330
340
100
AcDbEntity
  8
RAHM2
100
AcDbLine
 10
-192.4248711305964
 20
25.40000000000004
 30
0.0
 11
-187.5751288694036
 21
25.40000000000004
 31
0.0
  0
LINE
  5
387
330
340
100
AcDbEntity
  8
RAHM2
100
AcDbLine
 10
-195.0
 20
25.00000000000003
 30
0.0
 11
-94.0
 21
25.00000000000003
 31
0.0
  0
MTEXT
  5
388
330
340
100
AcDbEntity
  8
RAHM2
100
AcDbMText
 10
-119.4582894723942
 20
27.50000000000003
 30
0.0
 40
2.5
 41
20.0
 71
     5
 72
     5
  1
・  ・   
 73
     1
 44
1.0
1001
ACAD
1000
MTEXTBEGIN
1070
    73
1070
     1
1070
    44
1040
1.0
1070
    74
1070
     0
1000
MTEXTEND
  0
TEXT
  5
389
330
340
100
AcDbEntity
  8
RAHM2
100
AcDbText
 10
-190.8155863565801
 20
25.65000000000003
 30
0.0
 40
2.5
  1
1
 72
     1
 11
-190.1905863565802
 21
25.65000000000003
 31
0.0
100
AcDbText
 73
     1
  0
TEXT
  5
38A
330
340
100
AcDbEntity
  8
RAHM2
100
AcDbText
 10
-190.9183316929134
 20
30.65000000000003
 30
0.0
 40
2.5
  1
2
 72
     1
 11
-190.0
 21
30.65000000000003
 31
0.0
100
AcDbText
 73
     1
  0
TEXT
  5
38B
330
340
100
AcDbEntity
  8
RAHM2
100
AcDbText
 10
-190.9267766952966
 20
35.65000000000001
 30
0.0
 40
2.5
  1
3
 72
     1
 11
-190.0
 21
35.65000000000001
 31
0.0
100
AcDbText
 73
     1
  0
TEXT
  5
38C
330
340
100
AcDbEntity
  8
RAHM2
100
AcDbText
 10
-191.0
 20
40.65000000000003
 30
0.0
 40
2.5
  1
4
 72
     1
 11
-190.0
 21
40.65000000000003
 31
0.0
100
AcDbText
 73
     1
  0
TEXT
  5
38D
330
340
100
AcDbEntity
  8
RAHM2
100
AcDbText
 10
-190.9267766952966
 20
45.65000000000003
 30
0.0
 40
2.5
  1
5
 72
     1
 11
-190.0
 21
45.65000000000003
 31
0.0
100
AcDbText
 73
     1
  0
LINE
  5
38E
330
340
100
AcDbEntity
  8
0
100
AcDbLine
 10
-17.0
 20
50.0
 30
0.0
 11
-17.0
 21
0.0
 31
0.0
  0
LINE
  5
38F
330
340
100
AcDbEntity
  8
0
100
AcDbLine
 10
-195.0
 20
0.0
 30
0.0
 11
0.0
 21
0.0
 31
0.0
1001
GENIUS_GENREC_14
1002
{
1000
PYDIR
1011
-184.0
1021
50.0
1031
0.0
1002
}
1002
{
1000
PXDIR
1011
0.0
1021
0.0
1031
0.0
1002
}
1002
{
1000
PORI
1011
-184.0
1021
0.0
1031
0.0
1002
}
1002
{
1000
PINS
1011
-100.5
1021
25.0
1031
0.0
1002
}
1002
{
1000
HVAL
1000
50
1002
}
1002
{
1000
H
1070
     2
1002
}
1002
{
1000
WVAL
1000
167
1002
}
1002
{
1000
W
1070
     2
1002
}
1002
{
1000
C
1070
     4
1002
}
1001
GENIUS_GENODEF_13
1002
{
1000
HIER
1070
     0
1002
}
1002
{
1000
MANEDIT
1070
     0
1002
}
1002
{
1000
NOSEL
1070
     0
1002
}
1002
{
1000
BEHIND
1070
     0
1002
}
1002
{
1000
REACTOR
1002
}
1001
GENIUS_GENOBJ-N-REC_13
1002
{
1000
OWNER
1000
GEN
1002
}
  0
LINE
  5
390
330
340
100
AcDbEntity
  8
0
100
AcDbLine
 10
0.0
 20
0.0
 30
0.0
 11
0.0
 21
50.0
 31
0.0
1001
GENIUS_GENREC_14
1002
{
1000
PYDIR
1011
-184.0
1021
50.0
1031
0.0
1002
}
1002
{
1000
PXDIR
1011
0.0
1021
0.0
1031
0.0
1002
}
1002
{
1000
PORI
1011
-184.0
1021
0.0
1031
0.0
1002
}
1002
{
1000
PINS
1011
-100.5
1021
25.0
1031
0.0
1002
}
1002
{
1000
HVAL
1000
50
1002
}
1002
{
1000
H
1070
     2
1002
}
1002
{
1000
WVAL
1000
167
1002
}
1002
{
1000
W
1070
     2
1002
}
1002
{
1000
C
1070
     4
1002
}
1001
GENIUS_GENODEF_13
1002
{
1000
HIER
1070
     0
1002
}
1002
{
1000
MANEDIT
1070
     0
1002
}
1002
{
1000
NOSEL
1070
     0
1002
}
1002
{
1000
BEHIND
1070
     0
1002
}
1002
{
1000
REACTOR
1002
}
1001
GENIUS_GENOBJ-N-REC_13
1002
{
1000
OWNER
1000
GEN
1002
}
  0
LINE
  5
391
330
340
100
AcDbEntity
  8
0
100
AcDbLine
 10
0.0
 20
50.0
 30
0.0
 11
-195.0
 21
50.00000000000003
 31
0.0
1001
GENIUS_GENREC_14
1002
{
1000
PYDIR
1011
-184.0
1021
50.0
1031
0.0
1002
}
1002
{
1000
PXDIR
1011
0.0
1021
0.0
1031
0.0
1002
}
1002
{
1000
PORI
1011
-184.0
1021
0.0
1031
0.0
1002
}
1002
{
1000
PINS
1011
-100.5
1021
25.0
1031
0.0
1002
}
1002
{
1000
HVAL
1000
50
1002
}
1002
{
1000
H
1070
     2
1002
}
1002
{
1000
WVAL
1000
167
1002
}
1002
{
1000
W
1070
     2
1002
}
1002
{
1000
C
1070
     4
1002
}
1001
GENIUS_GENODEF_13
1002
{
1000
HIER
1070
     0
1002
}
1002
{
1000
MANEDIT
1070
     0
1002
}
1002
{
1000
NOSEL
1070
     0
1002
}
1002
{
1000
BEHIND
1070
     0
1002
}
1002
{
1000
REACTOR
1002
}
1001
GENIUS_GENOBJ-N-REC_13
1002
{
1000
OWNER
1000
GEN
1002
}
  0
LINE
  5
392
330
340
100
AcDbEntity
  8
0
100
AcDbLine
 10
-195.0
 20
50.00000000000003
 30
0.0
 11
-195.0
 21
0.0
 31
0.0
1001
GENIUS_GENREC_14
1002
{
1000
PYDIR
1011
-195.0
1021
50.0
1031
0.0
1002
}
1002
{
1000
PXDIR
1011
-11.0
1021
0.0
1031
0.0
1002
}
1002
{
1000
PORI
1011
-195.0
1021
0.0
1031
0.0
1002
}
1002
{
1000
PINS
1011
-111.5
1021
25.0
1031
0.0
1002
}
1002
{
1000
HVAL
1000
50
1002
}
1002
{
1000
H
1070
     2
1002
}
1002
{
1000
WVAL
1000
167
1002
}
1002
{
1000
W
1070
     2
1002
}
1002
{
1000
C
1070
     4
1002
}
1001
GENIUS_GENODEF_13
1002
{
1000
HIER
1070
     0
1002
}
1002
{
1000
MANEDIT
1070
     0
1002
}
1002
{
1000
NOSEL
1070
     0
1002
}
1002
{
1000
BEHIND
1070
     0
1002
}
1002
{
1000
REACTOR
1002
}
1001
GENIUS_GENOBJ-N-REC_13
1002
{
1000
OWNER
1000
GEN
1002
}
  0
MTEXT
  5
393
330
340
100
AcDbEntity
  8
RAHM2
100
AcDbMText
 10
-8.5
 20
48.80103540727964
 30
0.0
 40
2.5
 41
17.0
 71
     2
 72
     5
  1
検図
 73
     1
 44
1.0
1001
ACAD
1000
MTEXTBEGIN
1070
    73
1070
     1
1070
    44
1040
1.0
1070
    74
1070
     0
1000
MTEXTEND
  0
MTEXT
  5
394
330
340
100
AcDbEntity
  8
RAHM2
100
AcDbMText
 10
-8.5
 20
23.80103540727964
 30
0.0
 40
2.5
 41
17.0
 71
     2
 72
     5
  1
製図
 73
     1
 44
1.0
1001
ACAD
1000
MTEXTBEGIN
1070
    73
1070
     1
1070
    44
1040
1.0
1070
    74
1070
     0
1000
MTEXTEND
  0
ENDBLK
  5
397
330
340
100
AcDbEntity
  8
0
100
AcDbBlockEnd
  0
BLOCK
  5
1A6C
330
1A62
100
AcDbEntity
  8
0
100
AcDbBlockBegin
  2
*D6
 70
     1
 10
0.0
 20
0.0
 30
0.0
  3
*D6
  1

  0
LINE
  5
20FD
330
1A62
100
AcDbEntity
  8
AM_5
100
AcDbLine
 10
169.3106108543885
 20
261.4095927681532
 30
0.0
 11
169.3106108543885
 21
285.6595937681532
 31
0.0
  0
LINE
  5
20FE
330
1A62
100
AcDbEntity
  8
AM_5
100
AcDbLine
 10
227.3106108543887
 20
239.1095927681532
 30
0.0
 11
227.3106108543887
 21
285.6595937681532
 31
0.0
  0
LINE
  5
20FF
330
1A62
100
AcDbEntity
  8
AM_5
100
AcDbLine
 10
174.3106108543885
 20
283.6595937681532
 30
0.0
 11
222.3106108543887
 21
283.6595937681532
 31
0.0
  0
SOLID
  5
2100
330
1A62
100
AcDbEntity
  8
AM_5
100
AcDbTrace
 10
174.3106108543885
 20
284.4929271014865
 30
0.0
 11
174.3106108543885
 21
282.8262604348199
 31
0.0
 12
169.3106108543885
 22
283.6595937681532
 32
0.0
 13
169.3106108543885
 23
283.6595937681532
 33
0.0
  0
SOLID
  5
2101
330
1A62
100
AcDbEntity
  8
AM_5
100
AcDbTrace
 10
222.3106108543887
 20
284.4929271014865
 30
0.0
 11
222.3106108543887
 21
282.8262604348199
 31
0.0
 12
227.3106108543887
 22
283.6595937681532
 32
0.0
 13
227.3106108543887
 23
283.6595937681532
 33
0.0
  0
MTEXT
  5
2102
330
1A62
100
AcDbEntity
  8
AM_5
 62
     2
100
AcDbMText
 10
198.3106108543886
 20
290.1595937681532
 30
0.0
 40
7.0
 41
0.0
 71
     5
 72
     1
  1
58
 73
     1
 44
1.0
1001
ACAD
1000
MTEXTBEGIN
1070
    73
1070
     1
1070
    44
1040
1.0
1070
    74
1070
     0
1000
MTEXTEND
  0
POINT
  5
2103
330
1A62
100
AcDbEntity
  8
Defpoints
 62
     0
100
AcDbPoint
 10
169.3106108543885
 20
259.4095927681532
 30
0.0
  0
POINT
  5
2104
330
1A62
100
AcDbEntity
  8
Defpoints
 62
     0
100
AcDbPoint
 10
227.3106108543887
 20
237.1095927681532
 30
0.0
  0
POINT
  5
2105
330
1A62
100
AcDbEntity
  8
Defpoints
 62
     0
100
AcDbPoint
 10
227.3106108543887
 20
283.6595937681532
 30
0.0
  0
ENDBLK
  5
1A6D
330
1A62
100
AcDbEntity
  8
0
100
AcDbBlockEnd
  0
BLOCK
  5
1A78
330
1A6E
100
AcDbEntity
  8
0
100
AcDbBlockBegin
  2
*D7
 70
     1
 10
0.0
 20
0.0
 30
0.0
  3
*D7
  1

  0
LINE
  5
2106
330
1A6E
100
AcDbEntity
  8
AM_5
100
AcDbLine
 10
320.6290204335604
 20
261.6595927681532
 30
0.0
 11
320.6290204335604
 21
285.6595927681526
 31
0.0
  0
LINE
  5
2107
330
1A6E
100
AcDbEntity
  8
AM_5
100
AcDbLine
 10
480.1290204335608
 20
261.659592768152
 30
0.0
 11
480.1290204335608
 21
285.6595927681526
 31
0.0
  0
LINE
  5
2108
330
1A6E
100
AcDbEntity
  8
AM_5
100
AcDbLine
 10
325.6290204335603
 20
283.6595927681526
 30
0.0
 11
475.1290204335608
 21
283.6595927681526
 31
0.0
  0
SOLID
  5
2109
330
1A6E
100
AcDbEntity
  8
AM_5
100
AcDbTrace
 10
325.6290204335603
 20
284.4929261014859
 30
0.0
 11
325.6290204335603
 21
282.8262594348193
 31
0.0
 12
320.6290204335604
 22
283.6595927681526
 32
0.0
 13
320.6290204335604
 23
283.6595927681526
 33
0.0
  0
SOLID
  5
210A
330
1A6E
100
AcDbEntity
  8
AM_5
100
AcDbTrace
 10
475.1290204335608
 20
284.4929261014859
 30
0.0
 11
475.1290204335608
 21
282.8262594348193
 31
0.0
 12
480.1290204335608
 22
283.6595927681526
 32
0.0
 13
480.1290204335608
 23
283.6595927681526
 33
0.0
  0
MTEXT
  5
210B
330
1A6E
100
AcDbEntity
  8
AM_5
 62
     2
100
AcDbMText
 10
400.3790204335606
 20
290.1595927681526
 30
0.0
 40
7.0
 41
0.0
 71
     5
 72
     1
  1
159.5
 73
     1
 44
1.0
1001
ACAD
1000
MTEXTBEGIN
1070
    73
1070
     1
1070
    44
1040
1.0
1070
    74
1070
     0
1000
MTEXTEND
  0
POINT
  5
210C
330
1A6E
100
AcDbEntity
  8
Defpoints
 62
     0
100
AcDbPoint
 10
320.6290204335604
 20
259.6595927681532
 30
0.0
  0
POINT
  5
210D
330
1A6E
100
AcDbEntity
  8
Defpoints
 62
     0
100
AcDbPoint
 10
480.1290204335608
 20
259.659592768152
 30
0.0
  0
POINT
  5
210E
330
1A6E
100
AcDbEntity
  8
Defpoints
 62
     0
100
AcDbPoint
 10
480.1290204335608
 20
283.6595927681526
 30
0.0
  0
ENDBLK
  5
1A79
330
1A6E
100
AcDbEntity
  8
0
100
AcDbBlockEnd
  0
BLOCK
  5
1A84
330
1A7A
100
AcDbEntity
  8
0
100
AcDbBlockBegin
  2
*D8
 70
     1
 10
0.0
 20
0.0
 30
0.0
  3
*D8
  1

  0
LINE
  5
210F
330
1A7A
100
AcDbEntity
  8
AM_5
100
AcDbLine
 10
167.3106108543887
 20
169.8095927681532
 30
0.0
 11
143.3106098543885
 21
169.8095927681532
 31
0.0
  0
LINE
  5
2110
330
1A7A
100
AcDbEntity
  8
AM_5
100
AcDbLine
 10
167.3106108543886
 20
259.4095927681531
 30
0.0
 11
143.3106098543885
 21
259.4095927681531
 31
0.0
  0
LINE
  5
2111
330
1A7A
100
AcDbEntity
  8
AM_5
100
AcDbLine
 10
145.3106098543885
 20
174.8095927681532
 30
0.0
 11
145.3106098543885
 21
254.4095927681532
 31
0.0
  0
SOLID
  5
2112
330
1A7A
100
AcDbEntity
  8
AM_5
100
AcDbTrace
 10
144.4772765210551
 20
174.8095927681532
 30
0.0
 11
146.1439431877218
 21
174.8095927681532
 31
0.0
 12
145.3106098543885
 22
169.8095927681532
 32
0.0
 13
145.3106098543885
 23
169.8095927681532
 33
0.0
  0
SOLID
  5
2113
330
1A7A
100
AcDbEntity
  8
AM_5
100
AcDbTrace
 10
144.4772765210552
 20
254.4095927681532
 30
0.0
 11
146.1439431877218
 21
254.4095927681532
 31
0.0
 12
145.3106098543885
 22
259.4095927681531
 32
0.0
 13
145.3106098543885
 23
259.4095927681531
 33
0.0
  0
MTEXT
  5
2114
330
1A7A
100
AcDbEntity
  8
AM_5
 62
     2
100
AcDbMText
 10
138.8106098543884
 20
214.6095927681532
 30
0.0
 40
7.0
 41
0.0
 71
     5
 72
     1
  1
89.6
 11
0.0000000000000001
 21
1.0
 31
0.0
 73
     1
 44
1.0
1001
ACAD
1000
MTEXTBEGIN
1070
    73
1070
     1
1070
    44
1040
1.0
1070
    74
1070
     0
1000
MTEXTEND
  0
POINT
  5
2115
330
1A7A
100
AcDbEntity
  8
Defpoints
 62
     0
100
AcDbPoint
 10
169.3106108543887
 20
169.8095927681532
 30
0.0
  0
POINT
  5
2116
330
1A7A
100
AcDbEntity
  8
Defpoints
 62
     0
100
AcDbPoint
 10
169.3106108543886
 20
259.4095927681531
 30
0.0
  0
POINT
  5
2117
330
1A7A
100
AcDbEntity
  8
Defpoints
 62
     0
100
AcDbPoint
 10
145.3106098543885
 20
259.4095927681531
 30
0.0
  0
ENDBLK
  5
1A85
330
1A7A
100
AcDbEntity
  8
0
100
AcDbBlockEnd
  0
BLOCK
  5
1AE7
330
1ADE
100
AcDbEntity
  8
0
100
AcDbBlockBegin
  2
TK-A3
 70
     0
 10
0.0
 20
0.0
 30
0.0
  3
TK-A3
  1

  0
LINE
  5
1ADF
330
1ADE
100
AcDbEntity
  8
0
100
AcDbLine
 10
359.0
 20
280.0
 30
0.0
 11
359.0
 21
275.0
 31
0.0
  0
MTEXT
  5
1AE0
330
1ADE
100
AcDbEntity
  8
0
100
AcDbMText
 10
402.3592953827349
 20
276.108542987227
 30
0.0
 40
2.5
 41
43.07840397728298
 71
     9
 72
     5
  1
(文書番号：TY-34)2008.02.08
 73
     1
 44
1.0
1001
ACAD
1000
MTEXTBEGIN
1070
    73
1070
     1
1070
    44
1040
1.0
1070
    74
1070
     0
1000
MTEXTEND
  0
LINE
  5
1AE1
330
1ADE
100
AcDbEntity
  8
0
100
AcDbLine
 10
359.0
 20
275.0
 30
0.0
 11
403.0
 21
275.0
 31
0.0
  0
TEXT
  5
1AE2
330
1ADE
100
AcDbEntity
  8
0
 60
     1
100
AcDbText
 10
403.0
 20
0.0
 30
0.0
 40
2.5
  1
!GENTITLE-INSERT
100
AcDbText
  0
TEXT
  5
1AE3
330
1ADE
100
AcDbEntity
  8
0
 60
     1
100
AcDbText
 10
0.0
 20
0.0
 30
0.0
 40
2.5
  1
!GENTITLE-LL
100
AcDbText
  0
TEXT
  5
1AE4
330
1ADE
100
AcDbEntity
  8
0
 60
     1
100
AcDbText
 10
403.0
 20
280.0
 30
0.0
 40
2.5
  1
!GENTITLE-MAX
100
AcDbText
  0
LWPOLYLINE
  5
1AE5
330
1ADE
100
AcDbEntity
  8
0
100
AcDbPolyline
 90
        4
 70
     1
 43
0.0
 10
0.0
 20
0.0
 10
403.0
 20
0.0
 10
403.0
 20
280.0
 10
0.0
 20
280.0000000000001
1001
GENIUS_GENREC_14
1002
{
1000
PYDIR
1011
0.0000000000000178
1021
280.0
1031
0.0
1002
}
1002
{
1000
PXDIR
1011
403.0
1021
0.0
1031
0.0
1002
}
1002
{
1000
PORI
1011
0.0
1021
0.0
1031
0.0
1002
}
1002
{
1000
PINS
1011
0.0
1021
0.0
1031
0.0
1002
}
1002
{
1000
PINS2
1011
403.0
1021
280.0
1031
0.0
1002
}
1002
{
1000
C
1070
     1
1002
}
1001
GENIUS_GENODEF_13
1002
{
1000
HIER
1070
     0
1002
}
1002
{
1000
MANEDIT
1070
     0
1002
}
1002
{
1000
NOSEL
1070
     0
1002
}
1002
{
1000
BEHIND
1070
     0
1002
}
1002
{
1000
OTHER
1070
     0
1002
}
1002
{
1000
REACTOR
1002
}
1001
GENIUS_GENOBJ-N-REC_13
1002
{
1000
OWNER
1000
GEN
1002
}
  0
ENDBLK
  5
1AE8
330
1ADE
100
AcDbEntity
  8
0
100
AcDbBlockEnd
  0
BLOCK
  5
1B46
330
1AEC
100
AcDbEntity
  8
0
100
AcDbBlockBegin
  2
TK-TITLE
 70
     2
 10
0.0
 20
0.0
 30
0.0
  3
TK-TITLE
  1

  0
LINE
  5
1AED
330
1AEC
100
AcDbEntity
  8
0
100
AcDbLine
 10
-167.0
 20
12.49999999999996
 30
0.0
 11
-193.0000000000001
 21
12.49999999999996
 31
0.0
  0
LINE
  5
1AEE
330
1AEC
100
AcDbEntity
  8
0
100
AcDbLine
 10
-167.0
 20
37.49999999999998
 30
0.0
 11
-193.0000000000001
 21
37.49999999999998
 31
0.0
  0
ATTDEF
  5
1AEF
330
1AEC
100
AcDbEntity
  8
0
100
AcDbText
 10
-180.2171951662138
 20
3.588342537610664
 30
0.0
 40
3.0
  1

 72
     1
 11
-180.2171951662138
 21
3.588342537610664
 31
0.0
100
AcDbAttributeDefinition
  3
日付
  2
GEN-TITLE-DAT
 70
     0
 74
     1
  0
MTEXT
  5
1AF0
330
1AEC
100
AcDbEntity
  8
RAHM2
100
AcDbMText
 10
-191.8002551371315
 20
11.3010354072796
 30
0.0
 40
2.5
 41
60.0
 71
     1
 72
     5
  1
日付
 73
     1
 44
1.0
1001
ACAD
1000
MTEXTBEGIN
1070
    73
1070
     1
1070
    44
1040
1.0
1070
    74
1070
     0
1000
MTEXTEND
  0
ATTDEF
  5
1AF1
330
1AEC
100
AcDbEntity
  8
0
100
AcDbText
 10
-177.824739614424
 20
28.29999999999998
 30
0.0
 40
3.0
  1

 72
     2
 11
-177.824739614424
 21
28.29999999999998
 31
0.0
100
AcDbAttributeDefinition
  3
尺度
  2
GEN-TITLE-SCA
 70
     0
 74
     1
  0
MTEXT
  5
1AF2
330
1AEC
100
AcDbEntity
  8
RAHM2
100
AcDbMText
 10
-191.8002551371315
 20
36.30103540727966
 30
0.0
 40
2.5
 41
20.0
 71
     1
 72
     5
  1
尺度
 73
     1
 44
1.0
1001
ACAD
1000
MTEXTBEGIN
1070
    73
1070
     1
1070
    44
1040
1.0
1070
    74
1070
     0
1000
MTEXTEND
  0
MTEXT
  5
1AF3
330
1AEC
100
AcDbEntity
  8
RAHM2
100
AcDbMText
 10
-191.8002551371315
 20
23.80103540727963
 30
0.0
 40
2.5
 41
20.0
 71
     1
 72
     5
  1
数量
 73
     1
 44
1.0
1001
ACAD
1000
MTEXTBEGIN
1070
    73
1070
     1
1070
    44
1040
1.0
1070
    74
1070
     0
1000
MTEXTEND
  0
ATTDEF
  5
1AF4
330
1AEC
100
AcDbEntity
  8
0
100
AcDbText
 10
-175.6127409126095
 20
15.79999999999994
 30
0.0
 40
3.0
  1

 72
     2
 11
-175.6127409126095
 21
15.79999999999994
 31
0.0
100
AcDbAttributeDefinition
  3
数量
  2
GEN-TITLE-QTY
 70
     0
 74
     1
  0
LINE
  5
1AF5
330
1AEC
100
AcDbEntity
  8
0
100
AcDbLine
 10
-193.0000000000001
 20
49.99999999999999
 30
0.0
 11
-193.0000000000001
 21
-0.0000000000000142
 31
0.0
  0
LINE
  5
1AF6
330
1AEC
100
AcDbEntity
  8
7A
100
AcDbLine
 10
-184.7167418745796
 20
43.74999999999995
 30
0.0
 11
-170.9354334742943
 21
43.74999999999995
 31
0.0
1001
GENIUS_GENOREF_13
1005
1B44
  0
LINE
  5
1AF7
330
1AEC
100
AcDbEntity
  8
0
100
AcDbLine
 10
-179.7167418745796
 20
45.74999999999994
 30
0.0
 11
-171.7167418745796
 21
46.74999999999995
 31
0.0
  0
LINE
  5
1AF8
330
1AEC
100
AcDbEntity
  8
0
100
AcDbLine
 10
-171.7167418745796
 20
40.74999999999994
 30
0.0
 11
-179.7167418745796
 21
41.74999999999995
 31
0.0
  0
LINE
  5
1AF9
330
1AEC
100
AcDbEntity
  8
7A
100
AcDbLine
 10
-184.7167418745796
 20
43.74999999999995
 30
0.0
 11
-184.7167418745796
 21
47.32478664473144
 31
0.0
1001
GENIUS_GENOREF_13
1005
1B44
  0
CIRCLE
  5
1AFA
330
1AEC
100
AcDbEntity
  8
0
100
AcDbCircle
 10
-184.7167418745796
 20
43.74999999999995
 30
0.0
 40
2.0
  0
CIRCLE
  5
1AFB
330
1AEC
100
AcDbEntity
  8
0
100
AcDbCircle
 10
-184.7167418745796
 20
43.74999999999995
 30
0.0
 40
3.0
  0
LINE
  5
1AFC
330
1AEC
100
AcDbEntity
  8
0
100
AcDbLine
 10
-179.7167418745796
 20
41.74999999999995
 30
0.0
 11
-179.7167418745796
 21
45.74999999999994
 31
0.0
  0
LINE
  5
1AFD
330
1AEC
100
AcDbEntity
  8
7A
100
AcDbLine
 10
-184.7167418745796
 20
43.74999999999995
 30
0.0
 11
-188.4397792458307
 21
43.74999999999995
 31
0.0
1001
GENIUS_GENOREF_13
1005
1B44
  0
LINE
  5
1AFE
330
1AEC
100
AcDbEntity
  8
7A
100
AcDbLine
 10
-184.7167418745796
 20
43.74999999999995
 30
0.0
 11
-184.7167418745796
 21
40.03991724228473
 31
0.0
1001
GENIUS_GENOREF_13
1005
1B44
  0
LINE
  5
1AFF
330
1AEC
100
AcDbEntity
  8
0
100
AcDbLine
 10
-171.7167418745796
 20
46.74999999999995
 30
0.0
 11
-171.7167418745796
 21
40.74999999999994
 31
0.0
  0
LINE
  5
1B00
330
1AEC
100
AcDbEntity
  8
0
100
AcDbLine
 10
-167.0
 20
24.99999999999997
 30
0.0
 11
-193.0000000000001
 21
24.99999999999997
 31
0.0
  0
LINE
  5
1B01
330
1AEC
100
AcDbEntity
  8
0
100
AcDbLine
 10
-167.0
 20
39.99999999999991
 30
0.0
 11
-96.0
 21
39.99999999999992
 31
0.0
  0
MTEXT
  5
1B02
330
1AEC
100
AcDbEntity
  8
RAHM2
100
AcDbMText
 10
-165.8002551371314
 20
38.80103540727956
 30
0.0
 40
2.5
 41
60.0
 71
     1
 72
     5
  1
表面処理
 73
     1
 44
1.0
1001
ACAD
1000
MTEXTBEGIN
1070
    73
1070
     1
1070
    44
1040
1.0
1070
    74
1070
     0
1000
MTEXTEND
  0
MTEXT
  5
1B03
330
1AEC
100
AcDbEntity
  8
RAHM2
100
AcDbMText
 10
-165.8002551371314
 20
48.80103540727955
 30
0.0
 40
2.5
 41
60.0
 71
     1
 72
     5
  1
材質
 73
     1
 44
1.0
1001
ACAD
1000
MTEXTBEGIN
1070
    73
1070
     1
1070
    44
1040
1.0
1070
    74
1070
     0
1000
MTEXTEND
  0
ATTDEF
  5
1B04
330
1AEC
100
AcDbEntity
  8
0
100
AcDbText
 10
-148.9618675835291
 20
33.29999999999991
 30
0.0
 40
3.0
  1

100
AcDbAttributeDefinition
  3
表面処理
  2
GEN-TITLE-MAT2
 70
     0
  0
ATTDEF
  5
1B05
330
1AEC
100
AcDbEntity
  8
0
100
AcDbText
 10
-148.9618675835291
 20
43.29999999999991
 30
0.0
 40
3.0
  1

100
AcDbAttributeDefinition
  3
材質
  2
GEN-TITLE-MAT1
 70
     0
  0
MTEXT
  5
1B06
330
1AEC
100
AcDbEntity
  8
0
100
AcDbMText
 10
-131.5000000000001
 20
24.99999999999992
 30
0.0
 40
3.5
 41
60.0
 71
     5
 72
     5
  1
\fＭＳ ゴシック|b0|i0|c128|p49;株式会社タカチ電機工業
 73
     1
 44
1.0
1001
ACAD
1000
MTEXTBEGIN
1070
    73
1070
     1
1070
    44
1040
1.0
1070
    74
1070
     0
1000
MTEXTEND
  0
LINE
  5
1B07
330
1AEC
100
AcDbEntity
  8
0
100
AcDbLine
 10
-167.0
 20
29.99999999999992
 30
0.0
 11
-96.0
 21
29.99999999999992
 31
0.0
  0
MTEXT
  5
1B08
330
1AEC
100
AcDbEntity
  8
RAHM2
100
AcDbMText
 10
-158.1250000000001
 20
18.80103540727956
 30
0.0
 40
2.5
 41
17.0
 71
     2
 72
     5
  1
承認
 73
     1
 44
1.0
1001
ACAD
1000
MTEXTBEGIN
1070
    73
1070
     1
1070
    44
1040
1.0
1070
    74
1070
     0
1000
MTEXTEND
  0
MTEXT
  5
1B09
330
1AEC
100
AcDbEntity
  8
RAHM2
100
AcDbMText
 10
-140.3750000000001
 20
18.80103540727958
 30
0.0
 40
2.5
 41
17.0
 71
     2
 72
     5
  1
承認
 73
     1
 44
1.0
1001
ACAD
1000
MTEXTBEGIN
1070
    73
1070
     1
1070
    44
1040
1.0
1070
    74
1070
     0
1000
MTEXTEND
  0
LINE
  5
1B0A
330
1AEC
100
AcDbEntity
  8
0
100
AcDbLine
 10
-149.2500000000001
 20
19.99999999999993
 30
0.0
 11
-149.2500000000001
 21
-0.0000000000000462
 31
0.0
  0
LINE
  5
1B0B
330
1AEC
100
AcDbEntity
  8
0
100
AcDbLine
 10
-167.0
 20
49.99999999999995
 30
0.0
 11
-167.0
 21
-0.0000000000000497
 31
0.0
  0
MTEXT
  5
1B0C
330
1AEC
100
AcDbEntity
  8
RAHM2
100
AcDbMText
 10
-122.6250000000001
 20
18.80103540727958
 30
0.0
 40
2.5
 41
17.0
 71
     2
 72
     5
  1
検図
 73
     1
 44
1.0
1001
ACAD
1000
MTEXTBEGIN
1070
    73
1070
     1
1070
    44
1040
1.0
1070
    74
1070
     0
1000
MTEXTEND
  0
LINE
  5
1B0D
330
1AEC
100
AcDbEntity
  8
0
100
AcDbLine
 10
-131.5000000000001
 20
19.99999999999993
 30
0.0
 11
-131.5000000000001
 21
-0.0000000000000533
 31
0.0
  0
LINE
  5
1B0E
330
1AEC
100
AcDbEntity
  8
0
100
AcDbLine
 10
-113.75
 20
19.99999999999993
 30
0.0
 11
-113.75
 21
-0.0000000000000533
 31
0.0
  0
LINE
  5
1B0F
330
1AEC
100
AcDbEntity
  8
0
100
AcDbLine
 10
-167.0
 20
19.99999999999993
 30
0.0
 11
-96.0
 21
19.99999999999993
 31
0.0
  0
MTEXT
  5
1B10
330
1AEC
100
AcDbEntity
  8
RAHM2
100
AcDbMText
 10
-104.875
 20
18.80103540727957
 30
0.0
 40
2.5
 41
17.0
 71
     2
 72
     5
  1
製図
 73
     1
 44
1.0
1001
ACAD
1000
MTEXTBEGIN
1070
    73
1070
     1
1070
    44
1040
1.0
1070
    74
1070
     0
1000
MTEXTEND
  0
MTEXT
  5
1B11
330
1AEC
100
AcDbEntity
  8
RAHM2
100
AcDbMText
 10
-16.85742592933491
 20
3.434762466565985
 30
0.0
 40
2.5
 41
7.936478436748416
 71
     5
 72
     5
  1
Rev.
 73
     1
 44
1.0
1001
ACAD
1000
MTEXTBEGIN
1070
    73
1070
     1
1070
    44
1040
1.0
1070
    74
1070
     0
1000
MTEXTEND
  0
LINE
  5
1B12
330
1AEC
100
AcDbEntity
  8
0
100
AcDbLine
 10
-21.17541926625711
 20
0.0
 30
0.0
 11
-21.17541926625734
 21
7.0
 31
0.0
  0
LINE
  5
1B13
330
1AEC
100
AcDbEntity
  8
RAHM2
100
AcDbLine
 10
-96.0
 20
29.99999999999992
 30
0.0
 11
0.0000000000001137
 21
30.00000000000003
 31
0.0
  0
LINE
  5
1B14
330
1AEC
100
AcDbEntity
  8
RAHM2
100
AcDbLine
 10
-96.0
 20
35.00000000000003
 30
0.0
 11
0.0000000000001137
 21
35.00000000000003
 31
0.0
  0
LINE
  5
1B15
330
1AEC
100
AcDbEntity
  8
RAHM2
100
AcDbLine
 10
-96.0
 20
39.99999999999993
 30
0.0
 11
0.0000000000001137
 21
40.00000000000002
 31
0.0
  0
LINE
  5
1B16
330
1AEC
100
AcDbEntity
  8
RAHM2
100
AcDbLine
 10
-96.0
 20
45.00000000000002
 30
0.0
 11
0.0000000000001137
 21
45.00000000000002
 31
0.0
  0
LINE
  5
1B17
330
1AEC
100
AcDbEntity
  8
0
100
AcDbLine
 10
-96.0
 20
7.0
 30
0.0
 11
0.0000000000001137
 21
7.0
 31
0.0
  0
LINE
  5
1B18
330
1AEC
100
AcDbEntity
  8
0
100
AcDbLine
 10
-96.0
 20
19.99999999999997
 30
0.0
 11
0.0000000000001137
 21
19.99999999999997
 31
0.0
  0
MTEXT
  5
1B19
330
1AEC
100
AcDbEntity
  8
RAHM2
100
AcDbMText
 10
-94.80025513713144
 20
5.801035407279627
 30
0.0
 40
2.5
 41
90.0
 71
     1
 72
     5
  1
図番
 73
     1
 44
1.0
1001
ACAD
1000
MTEXTBEGIN
1070
    73
1070
     1
1070
    44
1040
1.0
1070
    74
1070
     0
1000
MTEXTEND
  0
LINE
  5
1B1A
330
1AEC
100
AcDbEntity
  8
RAHM2
100
AcDbLine
 10
-88.57512886940355
 20
30.40000000000002
 30
0.0
 11
-91.0
 21
34.60000000000001
 31
0.0
  0
LINE
  5
1B1B
330
1AEC
100
AcDbEntity
  8
RAHM2
100
AcDbLine
 10
-91.0
 20
34.60000000000001
 30
0.0
 11
-93.42487113059645
 21
30.40000000000002
 31
0.0
  0
LINE
  5
1B1C
330
1AEC
100
AcDbEntity
  8
RAHM2
100
AcDbLine
 10
-86.0
 20
50.00000000000001
 30
0.0
 11
-86.0
 21
19.99999999999993
 31
0.0
  0
LINE
  5
1B1D
330
1AEC
100
AcDbEntity
  8
RAHM2
100
AcDbLine
 10
-93.42487113059645
 20
30.40000000000002
 30
0.0
 11
-88.57512886940355
 21
30.40000000000002
 31
0.0
  0
MTEXT
  5
1B1E
330
1AEC
100
AcDbEntity
  8
RAHM2
100
AcDbMText
 10
-91.0
 20
22.49999999999996
 30
0.0
 40
2.5
 41
10.0
 71
     5
 72
     5
  1
符号
 73
     1
 44
1.0
1001
ACAD
1000
MTEXTBEGIN
1070
    73
1070
     1
1070
    44
1040
1.0
1070
    74
1070
     0
1000
MTEXTEND
  0
MTEXT
  5
1B1F
330
1AEC
100
AcDbEntity
  8
RAHM2
100
AcDbMText
 10
-94.80025513713144
 20
18.8010354072796
 30
0.0
 40
2.5
 41
90.0
 71
     1
 72
     5
  1
品名
 73
     1
 44
1.0
1001
ACAD
1000
MTEXTBEGIN
1070
    73
1070
     1
1070
    44
1040
1.0
1070
    74
1070
     0
1000
MTEXTEND
  0
LINE
  5
1B20
330
1AEC
100
AcDbEntity
  8
RAHM2
100
AcDbLine
 10
-93.42487113059645
 20
45.40000000000001
 30
0.0
 11
-88.57512886940355
 21
45.40000000000001
 31
0.0
  0
LINE
  5
1B21
330
1AEC
100
AcDbEntity
  8
RAHM2
100
AcDbLine
 10
-88.57512886940355
 20
45.40000000000001
 30
0.0
 11
-91.0
 21
49.6
 31
0.0
  0
LINE
  5
1B22
330
1AEC
100
AcDbEntity
  8
RAHM2
100
AcDbLine
 10
-93.42487113059645
 20
40.40000000000001
 30
0.0
 11
-88.57512886940355
 21
40.40000000000001
 31
0.0
  0
LINE
  5
1B23
330
1AEC
100
AcDbEntity
  8
RAHM2
100
AcDbLine
 10
-88.57512886940355
 20
40.40000000000001
 30
0.0
 11
-91.0
 21
44.6
 31
0.0
  0
LINE
  5
1B24
330
1AEC
100
AcDbEntity
  8
RAHM2
100
AcDbLine
 10
-93.42487113059645
 20
35.40000000000002
 30
0.0
 11
-88.57512886940355
 21
35.40000000000002
 31
0.0
  0
LINE
  5
1B25
330
1AEC
100
AcDbEntity
  8
RAHM2
100
AcDbLine
 10
-88.57512886940355
 20
35.40000000000002
 30
0.0
 11
-91.0
 21
39.60000000000001
 31
0.0
  0
LINE
  5
1B26
330
1AEC
100
AcDbEntity
  8
RAHM2
100
AcDbLine
 10
-91.0
 20
39.60000000000001
 30
0.0
 11
-93.42487113059645
 21
35.40000000000002
 31
0.0
  0
LINE
  5
1B27
330
1AEC
100
AcDbEntity
  8
RAHM2
100
AcDbLine
 10
-91.0
 20
44.6
 30
0.0
 11
-93.42487113059645
 21
40.40000000000001
 31
0.0
  0
LINE
  5
1B28
330
1AEC
100
AcDbEntity
  8
RAHM2
100
AcDbLine
 10
-91.0
 20
49.6
 30
0.0
 11
-93.42487113059645
 21
45.40000000000001
 31
0.0
  0
LINE
  5
1B29
330
1AEC
100
AcDbEntity
  8
RAHM2
100
AcDbLine
 10
-31.82081941068907
 20
50.00000000000003
 30
0.0
 11
-31.82081941068918
 21
19.99999999999994
 31
0.0
  0
MTEXT
  5
1B2A
330
1AEC
100
AcDbEntity
  8
RAHM2
100
AcDbMText
 10
-59.0
 20
22.49999999999996
 30
0.0
 40
2.5
 41
45.0
 71
     5
 72
     5
  1
変更記事
 73
     1
 44
1.0
1001
ACAD
1000
MTEXTBEGIN
1070
    73
1070
     1
1070
    44
1040
1.0
1070
    74
1070
     0
1000
MTEXTEND
  0
LINE
  5
1B2B
330
1AEC
100
AcDbEntity
  8
RAHM2
100
AcDbLine
 10
-11.82081941068907
 20
50.00000000000003
 30
0.0
 11
-11.82081941068907
 21
19.99999999999994
 31
0.0
  0
MTEXT
  5
1B2C
330
1AEC
100
AcDbEntity
  8
RAHM2
100
AcDbMText
 10
-22.27910888308327
 20
32.50000000000003
 30
0.0
 40
2.5
 41
20.0
 71
     5
 72
     5
  1
・  ・   
 73
     1
 44
1.0
1001
ACAD
1000
MTEXTBEGIN
1070
    73
1070
     1
1070
    44
1040
1.0
1070
    74
1070
     0
1000
MTEXTEND
  0
MTEXT
  5
1B2D
330
1AEC
100
AcDbEntity
  8
RAHM2
100
AcDbMText
 10
-21.55893921569111
 20
22.49999999999997
 30
0.0
 40
2.5
 41
20.0
 71
     5
 72
     5
  1
年・月・日
 73
     1
 44
1.0
1001
ACAD
1000
MTEXTBEGIN
1070
    73
1070
     1
1070
    44
1040
1.0
1070
    74
1070
     0
1000
MTEXTEND
  0
MTEXT
  5
1B2E
330
1AEC
100
AcDbEntity
  8
RAHM2
100
AcDbMText
 10
-5.910409705344477
 20
22.49999999999997
 30
0.0
 40
2.5
 41
15.0
 71
     5
 72
     5
  1
担当
 73
     1
 44
1.0
1001
ACAD
1000
MTEXTBEGIN
1070
    73
1070
     1
1070
    44
1040
1.0
1070
    74
1070
     0
1000
MTEXTEND
  0
MTEXT
  5
1B2F
330
1AEC
100
AcDbEntity
  8
RAHM2
100
AcDbMText
 10
-22.27910888308327
 20
42.50000000000002
 30
0.0
 40
2.5
 41
20.0
 71
     5
 72
     5
  1
・  ・   
 73
     1
 44
1.0
1001
ACAD
1000
MTEXTBEGIN
1070
    73
1070
     1
1070
    44
1040
1.0
1070
    74
1070
     0
1000
MTEXTEND
  0
MTEXT
  5
1B30
330
1AEC
100
AcDbEntity
  8
RAHM2
100
AcDbMText
 10
-22.27910888308327
 20
37.50000000000003
 30
0.0
 40
2.5
 41
20.0
 71
     5
 72
     5
  1
・  ・   
 73
     1
 44
1.0
1001
ACAD
1000
MTEXTBEGIN
1070
    73
1070
     1
1070
    44
1040
1.0
1070
    74
1070
     0
1000
MTEXTEND
  0
MTEXT
  5
1B31
330
1AEC
100
AcDbEntity
  8
RAHM2
100
AcDbMText
 10
-22.27910888308327
 20
47.50000000000002
 30
0.0
 40
2.5
 41
20.0
 71
     5
 72
     5
  1
・  ・   
 73
     1
 44
1.0
1001
ACAD
1000
MTEXTBEGIN
1070
    73
1070
     1
1070
    44
1040
1.0
1070
    74
1070
     0
1000
MTEXTEND
  0
LINE
  5
1B32
330
1AEC
100
AcDbEntity
  8
RAHM2
100
AcDbLine
 10
-91.0
 20
29.60000000000001
 30
0.0
 11
-93.42487113059645
 21
25.40000000000002
 31
0.0
  0
LINE
  5
1B33
330
1AEC
100
AcDbEntity
  8
RAHM2
100
AcDbLine
 10
-88.57512886940355
 20
25.40000000000002
 30
0.0
 11
-91.0
 21
29.60000000000001
 31
0.0
  0
LINE
  5
1B34
330
1AEC
100
AcDbEntity
  8
RAHM2
100
AcDbLine
 10
-93.42487113059645
 20
25.40000000000002
 30
0.0
 11
-88.57512886940355
 21
25.40000000000002
 31
0.0
  0
LINE
  5
1B35
330
1AEC
100
AcDbEntity
  8
RAHM2
100
AcDbLine
 10
-96.0
 20
25.0
 30
0.0
 11
0.0000000000001137
 21
25.00000000000003
 31
0.0
  0
MTEXT
  5
1B36
330
1AEC
100
AcDbEntity
  8
RAHM2
100
AcDbMText
 10
-22.27910888308327
 20
27.50000000000003
 30
0.0
 40
2.5
 41
20.0
 71
     5
 72
     5
  1
・  ・   
 73
     1
 44
1.0
1001
ACAD
1000
MTEXTBEGIN
1070
    73
1070
     1
1070
    44
1040
1.0
1070
    74
1070
     0
1000
MTEXTEND
  0
TEXT
  5
1B37
330
1AEC
100
AcDbEntity
  8
RAHM2
100
AcDbText
 10
-91.81558635658019
 20
25.65000000000002
 30
0.0
 40
2.5
  1
1
 72
     1
 11
-91.19058635658019
 21
25.65000000000002
 31
0.0
100
AcDbText
 73
     1
  0
TEXT
  5
1B38
330
1AEC
100
AcDbEntity
  8
RAHM2
100
AcDbText
 10
-91.91833169291339
 20
30.65000000000002
 30
0.0
 40
2.5
  1
2
 72
     1
 11
-91.0
 21
30.65000000000002
 31
0.0
100
AcDbText
 73
     1
  0
TEXT
  5
1B39
330
1AEC
100
AcDbEntity
  8
RAHM2
100
AcDbText
 10
-91.92677669529663
 20
35.64999999999999
 30
0.0
 40
2.5
  1
3
 72
     1
 11
-91.0
 21
35.64999999999999
 31
0.0
100
AcDbText
 73
     1
  0
TEXT
  5
1B3A
330
1AEC
100
AcDbEntity
  8
RAHM2
100
AcDbText
 10
-92.0
 20
40.65000000000002
 30
0.0
 40
2.5
  1
4
 72
     1
 11
-91.0
 21
40.65000000000002
 31
0.0
100
AcDbText
 73
     1
  0
TEXT
  5
1B3B
330
1AEC
100
AcDbEntity
  8
RAHM2
100
AcDbText
 10
-91.92677669529663
 20
45.65000000000002
 30
0.0
 40
2.5
  1
5
 72
     1
 11
-91.0
 21
45.65000000000002
 31
0.0
100
AcDbText
 73
     1
  0
LINE
  5
1B3C
330
1AEC
100
AcDbEntity
  8
0
100
AcDbLine
 10
-193.0000000000001
 20
0.0
 30
0.0
 11
0.0
 21
0.0
 31
0.0
1001
GENIUS_GENREC_14
1002
{
1000
PYDIR
1011
-184.0
1021
50.0
1031
0.0
1002
}
1002
{
1000
PXDIR
1011
0.0
1021
0.0
1031
0.0
1002
}
1002
{
1000
PORI
1011
-184.0
1021
0.0
1031
0.0
1002
}
1002
{
1000
PINS
1011
-100.5
1021
25.0
1031
0.0
1002
}
1002
{
1000
HVAL
1000
50
1002
}
1002
{
1000
H
1070
     2
1002
}
1002
{
1000
WVAL
1000
167
1002
}
1002
{
1000
W
1070
     2
1002
}
1002
{
1000
C
1070
     4
1002
}
1001
GENIUS_GENODEF_13
1002
{
1000
HIER
1070
     0
1002
}
1002
{
1000
MANEDIT
1070
     0
1002
}
1002
{
1000
NOSEL
1070
     0
1002
}
1002
{
1000
BEHIND
1070
     0
1002
}
1002
{
1000
REACTOR
1002
}
1001
GENIUS_GENOBJ-N-REC_13
1002
{
1000
OWNER
1000
GEN
1002
}
  0
LINE
  5
1B3D
330
1AEC
100
AcDbEntity
  8
0
100
AcDbLine
 10
0.0
 20
50.0
 30
0.0
 11
-193.0000000000001
 21
50.00000000000002
 31
0.0
1001
GENIUS_GENREC_14
1002
{
1000
PYDIR
1011
-184.0
1021
50.0
1031
0.0
1002
}
1002
{
1000
PXDIR
1011
0.0
1021
0.0
1031
0.0
1002
}
1002
{
1000
PORI
1011
-184.0
1021
0.0
1031
0.0
1002
}
1002
{
1000
PINS
1011
-100.5
1021
25.0
1031
0.0
1002
}
1002
{
1000
HVAL
1000
50
1002
}
1002
{
1000
H
1070
     2
1002
}
1002
{
1000
WVAL
1000
167
1002
}
1002
{
1000
W
1070
     2
1002
}
1002
{
1000
C
1070
     4
1002
}
1001
GENIUS_GENODEF_13
1002
{
1000
HIER
1070
     0
1002
}
1002
{
1000
MANEDIT
1070
     0
1002
}
1002
{
1000
NOSEL
1070
     0
1002
}
1002
{
1000
BEHIND
1070
     0
1002
}
1002
{
1000
REACTOR
1002
}
1001
GENIUS_GENOBJ-N-REC_13
1002
{
1000
OWNER
1000
GEN
1002
}
  0
LINE
  5
1B3E
330
1AEC
100
AcDbEntity
  8
0
100
AcDbLine
 10
-96.0
 20
50.00000000000001
 30
0.0
 11
-96.0
 21
-0.0000000000000142
 31
0.0
1001
GENIUS_GENREC_14
1002
{
1000
PYDIR
1011
-96.0
1021
49.99999999999999
1031
0.0
1002
}
1002
{
1000
PXDIR
1011
88.0
1021
-0.0000000000000142
1031
0.0
1002
}
1002
{
1000
PORI
1011
-96.0
1021
-0.0000000000000142
1031
0.0
1002
}
1002
{
1000
PINS
1011
-12.5
1021
24.99999999999999
1031
0.0
1002
}
1002
{
1000
HVAL
1000
50
1002
}
1002
{
1000
H
1070
     2
1002
}
1002
{
1000
WVAL
1000
167
1002
}
1002
{
1000
W
1070
     2
1002
}
1002
{
1000
C
1070
     4
1002
}
1001
GENIUS_GENODEF_13
1002
{
1000
HIER
1070
     0
1002
}
1002
{
1000
MANEDIT
1070
     0
1002
}
1002
{
1000
NOSEL
1070
     0
1002
}
1002
{
1000
BEHIND
1070
     0
1002
}
1002
{
1000
REACTOR
1002
}
1001
GENIUS_GENOBJ-N-REC_13
1002
{
1000
OWNER
1000
GEN
1002
}
  0
ATTDEF
  5
1B3F
330
1AEC
100
AcDbEntity
  8
0
100
AcDbText
 10
-84.0
 20
1.999999999999957
 30
0.0
 40
3.0
  1

100
AcDbAttributeDefinition
  3
図番
  2
GEN-TITLE-NR1
 70
     0
  0
ATTDEF
  5
1B40
330
1AEC
100
AcDbEntity
  8
0
100
AcDbText
 10
-84.0
 20
9.149999999999948
 30
0.0
 40
2.5
  1

100
AcDbAttributeDefinition
  3
サブタイトル
  2
GEN-TITLE-DES2
 70
     0
  0
LINE
  5
1B41
330
1AEC
100
AcDbEntity
  8
0
100
AcDbLine
 10
0.0
 20
0.0
 30
0.0
 11
0.0
 21
50.0
 31
0.0
1001
GENIUS_GENREC_14
1002
{
1000
PYDIR
1011
-414.0
1021
291.0
1031
0.0
1002
}
1002
{
1000
PXDIR
1011
6.0
1021
-6.0
1031
0.0
1002
}
1002
{
1000
PORI
1011
-414.0
1021
-6.0
1031
0.0
1002
}
1002
{
1000
PINS
1011
-414.0
1021
-6.0
1031
0.0
1002
}
1002
{
1000
HVAL
1000
297
1002
}
1002
{
1000
H
1070
     2
1002
}
1002
{
1000
WVAL
1000
420
1002
}
1002
{
1000
W
1070
     2
1002
}
1002
{
1000
C
1070
     1
1002
}
1001
GENIUS_GENODEF_13
1002
{
1000
HIER
1070
     0
1002
}
1002
{
1000
MANEDIT
1070
     0
1002
}
1002
{
1000
NOSEL
1070
     0
1002
}
1002
{
1000
BEHIND
1070
     0
1002
}
1002
{
1000
OTHER
1070
     0
1002
}
1002
{
1000
REACTOR
1002
}
1001
GENIUS_GENOBJ-N-REC_13
1002
{
1000
OWNER
1000
GEN
1002
}
  0
ATTDEF
  5
1B42
330
1AEC
100
AcDbEntity
  8
0
100
AcDbText
 10
-84.14251901585329
 20
12.82790432564377
 30
0.0
 40
3.5
  1

100
AcDbAttributeDefinition
  3
品名
  2
GEN-TITLE-DES1
 70
     0
  0
ATTDEF
  5
1B43
330
1AEC
100
AcDbEntity
  8
0
100
AcDbText
 10
-8.002309189545826
 20
1.705189434395036
 30
0.0
 40
2.5
  1

100
AcDbAttributeDefinition
  3
Rev.
  2
GEN-TITLE-NR2
 70
     0
  0
POINT
  5
1B44
330
1AEC
100
AcDbEntity
  8
0
 60
     1
100
AcDbPoint
 10
-418.5355579819675
 20
-138.1104841268254
 30
0.0
1001
GENIUS_GENODEF_13
1002
{
1000
HIER
1070
    10
1002
}
1002
{
1000
MANEDIT
1070
     0
1002
}
1002
{
1000
NOSEL
1070
     0
1002
}
1002
{
1000
BEHIND
1070
     0
1002
}
1002
{
1000
REACTOR
1002
}
1001
GENIUS_GENOBJ-N-CRS_13
1002
{
1000
OWNER
1000
GEN
1002
}
1001
GENIUS_GENOENT_13
1002
{
1000
MYREF
1005
1B44
1002
}
1002
{
1000
GRP
1005
0
1002
}
1001
GENIUS_GENOLIS_13
1002
{
1000
ENT
1005
1AFE
1005
1AFD
1005
1AF9
1005
1AF6
1002
}
  0
ENDBLK
  5
1B47
330
1AEC
100
AcDbEntity
  8
0
100
AcDbBlockEnd
  0
BLOCK
  5
23D3
330
23CF
100
AcDbEntity
  8
0
100
AcDbBlockBegin
  2
*S11
 70
     1
 10
0.0
 20
0.0
 30
0.0
  3
*S11
  1

  0
CIRCLE
  5
23D0
330
23CF
100
AcDbEntity
  8
AM_12
 62
     4
100
AcDbCircle
 10
217.1512035766472
 20
229.3239285995434
 30
0.0
 40
3.5
  0
LINE
  5
23D1
330
23CF
100
AcDbEntity
  8
AM_12
 62
     4
100
AcDbLine
 10
213.6512035766472
 20
225.8239285995434
 30
0.0
 11
220.6512035766472
 21
232.8239285995433
 31
0.0
  0
LINE
  5
23D2
330
23CF
100
AcDbEntity
  8
AM_12
 62
     4
100
AcDbLine
 10
213.6512035766472
 20
232.8239285995433
 30
0.0
 11
220.6512035766472
 21
225.8239285995434
 31
0.0
  0
ENDBLK
  5
23D4
330
23CF
100
AcDbEntity
  8
0
100
AcDbBlockEnd
  0
BLOCK
  5
23DB
330
23D6
100
AcDbEntity
  8
0
100
AcDbBlockBegin
  2
*S12
 70
     1
 10
0.0
 20
0.0
 30
0.0
  3
*S12
  1

  0
LINE
  5
23D7
330
23D6
100
AcDbEntity
  8
AM_5
100
AcDbLine
 10
257.69126304027
 20
273.7111150697694
 30
0.0
 11
221.8718910248894
 21
234.4925947733264
 31
0.0
  0
TRACE
  5
23D8
330
23D6
100
AcDbEntity
  8
AM_5
  6
Continuous
100
AcDbTrace
 10
221.1914232169514
 20
235.114085063444
 30
0.0
 11
222.5523588328274
 21
233.8711044832088
 31
0.0
 12
217.1512035766472
 22
229.3239285995434
 32
0.0
 13
217.1512035766472
 23
229.3239285995434
 33
0.0
  0
MTEXT
  5
23D9
330
23D6
100
AcDbEntity
  8
AM_5
 62
     7
100
AcDbMText
 10
265.9524660746938
 20
282.7562808738898
 30
0.0
 40
7.0
 41
0.0
 71
     5
 72
     5
  1
1
  7
ACISOTS
 73
     1
 44
1.0
1001
ACAD
1000
MTEXTBEGIN
1070
    73
1070
     1
1070
    44
1040
1.0
1070
    74
1070
     0
1000
MTEXTEND
  0
CIRCLE
  5
23DA
330
23D6
100
AcDbEntity
  8
AM_5
 62
     3
100
AcDbCircle
 10
265.9524660746938
 20
282.7562808738898
 30
0.0
 40
12.25
  0
ENDBLK
  5
23DC
330
23D6
100
AcDbEntity
  8
0
100
AcDbBlockEnd
  0
BLOCK
  5
23E2
330
23DE
100
AcDbEntity
  8
0
100
AcDbBlockBegin
  2
*S13
 70
     1
 10
0.0
 20
0.0
 30
0.0
  3
*S13
  1

  0
CIRCLE
  5
23DF
330
23DE
100
AcDbEntity
  8
AM_12
 62
     4
100
AcDbCircle
 10
173.1184405349657
 20
240.8434169895021
 30
0.0
 40
3.5
  0
LINE
  5
23E0
330
23DE
100
AcDbEntity
  8
AM_12
 62
     4
100
AcDbLine
 10
169.6184405349657
 20
237.3434169895021
 30
0.0
 11
176.6184405349657
 21
244.3434169895021
 31
0.0
  0
LINE
  5
23E1
330
23DE
100
AcDbEntity
  8
AM_12
 62
     4
100
AcDbLine
 10
169.6184405349657
 20
244.3434169895021
 30
0.0
 11
176.6184405349657
 21
237.3434169895021
 31
0.0
  0
ENDBLK
  5
23E3
330
23DE
100
AcDbEntity
  8
0
100
AcDbBlockEnd
  0
BLOCK
  5
23EA
330
23E5
100
AcDbEntity
  8
0
100
AcDbBlockBegin
  2
*S14
 70
     1
 10
0.0
 20
0.0
 30
0.0
  3
*S14
  1

  0
LINE
  5
23E6
330
23E5
100
AcDbEntity
  8
AM_5
100
AcDbLine
 10
141.1455977123082
 20
275.9969564073941
 30
0.0
 11
168.4085148674716
 21
246.021891688357
 31
0.0
  0
TRACE
  5
23E7
330
23E5
100
AcDbEntity
  8
AM_5
  6
Continuous
100
AcDbTrace
 10
167.726755742716
 20
245.401818213547
 30
0.0
 11
169.0902739922272
 21
246.641965163167
 31
0.0
 12
173.1184405349657
 22
240.8434169895021
 32
0.0
 13
173.1184405349657
 23
240.8434169895021
 33
0.0
  0
MTEXT
  5
23E8
330
23E5
100
AcDbEntity
  8
AM_5
 62
     7
100
AcDbMText
 10
132.9032277941935
 20
285.0592871303901
 30
0.0
 40
7.0
 41
0.0
 71
     5
 72
     5
  1
2
  7
ACISOTS
 73
     1
 44
1.0
1001
ACAD
1000
MTEXTBEGIN
1070
    73
1070
     1
1070
    44
1040
1.0
1070
    74
1070
     0
1000
MTEXTEND
  0
CIRCLE
  5
23E9
330
23E5
100
AcDbEntity
  8
AM_5
 62
     3
100
AcDbCircle
 10
132.9032277941935
 20
285.0592871303901
 30
0.0
 40
12.25
  0
ENDBLK
  5
23EB
330
23E5
100
AcDbEntity
  8
0
100
AcDbBlockEnd
  0
BLOCK
  5
23F1
330
23ED
100
AcDbEntity
  8
0
100
AcDbBlockBegin
  2
*S15
 70
     1
 10
0.0
 20
0.0
 30
0.0
  3
*S15
  1

  0
CIRCLE
  5
23EE
330
23ED
100
AcDbEntity
  8
AM_12
 62
     4
100
AcDbCircle
 10
470.4547296527768
 20
252.6505550043091
 30
0.0
 40
3.5
  0
LINE
  5
23EF
330
23ED
100
AcDbEntity
  8
AM_12
 62
     4
100
AcDbLine
 10
466.9547296527768
 20
249.1505550043091
 30
0.0
 11
473.9547296527767
 21
256.1505550043091
 31
0.0
  0
LINE
  5
23F0
330
23ED
100
AcDbEntity
  8
AM_12
 62
     4
100
AcDbLine
 10
466.9547296527768
 20
256.1505550043091
 30
0.0
 11
473.9547296527767
 21
249.1505550043091
 31
0.0
  0
ENDBLK
  5
23F2
330
23ED
100
AcDbEntity
  8
0
100
AcDbBlockEnd
  0
BLOCK
  5
23F9
330
23F4
100
AcDbEntity
  8
0
100
AcDbBlockBegin
  2
*S16
 70
     1
 10
0.0
 20
0.0
 30
0.0
  3
*S16
  1

  0
LINE
  5
23F5
330
23F4
100
AcDbEntity
  8
AM_5
100
AcDbLine
 10
500.9449009343696
 20
275.5497850908179
 30
0.0
 11
476.0519438226317
 21
256.8542668803508
 31
0.0
  0
TRACE
  5
23F6
330
23F4
100
AcDbEntity
  8
AM_5
  6
Continuous
100
AcDbTrace
 10
475.4985146574823
 20
257.591154102056
 30
0.0
 11
476.6053729877812
 21
256.1173796586456
 31
0.0
 12
470.4547296527768
 22
252.6505550043091
 32
0.0
 13
470.4547296527768
 23
252.6505550043091
 33
0.0
  0
MTEXT
  5
23F7
330
23F4
100
AcDbEntity
  8
AM_5
 62
     7
100
AcDbMText
 10
510.740025731616
 20
282.9062808738909
 30
0.0
 40
7.0
 41
0.0
 71
     5
 72
     5
  1
3
  7
ACISOTS
 73
     1
 44
1.0
1001
ACAD
1000
MTEXTBEGIN
1070
    73
1070
     1
1070
    44
1040
1.0
1070
    74
1070
     0
1000
MTEXTEND
  0
CIRCLE
  5
23F8
330
23F4
100
AcDbEntity
  8
AM_5
 62
     3
100
AcDbCircle
 10
510.740025731616
 20
282.9062808738909
 30
0.0
 40
12.25
  0
ENDBLK
  5
23FA
330
23F4
100
AcDbEntity
  8
0
100
AcDbBlockEnd
  0
BLOCK
  5
2400
330
23FC
100
AcDbEntity
  8
0
100
AcDbBlockBegin
  2
*S17
 70
     1
 10
0.0
 20
0.0
 30
0.0
  3
*S17
  1

  0
CIRCLE
  5
23FD
330
23FC
100
AcDbEntity
  8
AM_12
 62
     4
100
AcDbCircle
 10
471.0926429606582
 20
218.564481895443
 30
0.0
 40
3.5
  0
LINE
  5
23FE
330
23FC
100
AcDbEntity
  8
AM_12
 62
     4
100
AcDbLine
 10
467.5926429606582
 20
215.064481895443
 30
0.0
 11
474.5926429606583
 21
222.064481895443
 31
0.0
  0
LINE
  5
23FF
330
23FC
100
AcDbEntity
  8
AM_12
 62
     4
100
AcDbLine
 10
467.5926429606582
 20
222.064481895443
 30
0.0
 11
474.5926429606583
 21
215.064481895443
 31
0.0
  0
ENDBLK
  5
2401
330
23FC
100
AcDbEntity
  8
0
100
AcDbBlockEnd
  0
BLOCK
  5
2408
330
2403
100
AcDbEntity
  8
0
100
AcDbBlockBegin
  2
*S18
 70
     1
 10
0.0
 20
0.0
 30
0.0
  3
*S18
  1

  0
LINE
  5
2404
330
2403
100
AcDbEntity
  8
AM_5
100
AcDbLine
 10
499.8684239792422
 20
237.1172385491074
 30
0.0
 11
476.9758614020397
 21
222.3575994484578
 31
0.0
  0
TRACE
  5
2405
330
2403
100
AcDbEntity
  8
AM_5
  6
Continuous
100
AcDbTrace
 10
476.4764880047708
 20
223.1321398466621
 30
0.0
 11
477.4752347993087
 21
221.5830590502535
 31
0.0
 12
471.0926429606582
 22
218.564481895443
 32
0.0
 13
471.0926429606582
 23
218.564481895443
 33
0.0
  0
MTEXT
  5
2406
330
2403
100
AcDbEntity
  8
AM_5
 62
     7
100
AcDbMText
 10
510.1640562516597
 20
243.7551942668833
 30
0.0
 40
7.0
 41
0.0
 71
     5
 72
     5
  1
4
  7
ACISOTS
 73
     1
 44
1.0
1001
ACAD
1000
MTEXTBEGIN
1070
    73
1070
     1
1070
    44
1040
1.0
1070
    74
1070
     0
1000
MTEXTEND
  0
CIRCLE
  5
2407
330
2403
100
AcDbEntity
  8
AM_5
 62
     3
100
AcDbCircle
 10
510.1640562516597
 20
243.7551942668833
 30
0.0
 40
12.25
  0
ENDBLK
  5
2409
330
2403
100
AcDbEntity
  8
0
100
AcDbBlockEnd
  0
BLOCK
  5
240F
330
240B
100
AcDbEntity
  8
0
100
AcDbBlockBegin
  2
*S19
 70
     1
 10
0.0
 20
0.0
 30
0.0
  3
*S19
  1

  0
CIRCLE
  5
240C
330
240B
100
AcDbEntity
  8
AM_12
 62
     4
100
AcDbCircle
 10
173.2953313446797
 20
167.8492177344224
 30
0.0
 40
3.5
  0
LINE
  5
240D
330
240B
100
AcDbEntity
  8
AM_12
 62
     4
100
AcDbLine
 10
169.7953313446797
 20
164.3492177344224
 30
0.0
 11
176.7953313446797
 21
171.3492177344224
 31
0.0
  0
LINE
  5
240E
330
240B
100
AcDbEntity
  8
AM_12
 62
     4
100
AcDbLine
 10
169.7953313446797
 20
171.3492177344224
 30
0.0
 11
176.7953313446797
 21
164.3492177344224
 31
0.0
  0
ENDBLK
  5
2410
330
240B
100
AcDbEntity
  8
0
100
AcDbBlockEnd
  0
BLOCK
  5
2417
330
2412
100
AcDbEntity
  8
0
100
AcDbBlockBegin
  2
*S20
 70
     1
 10
0.0
 20
0.0
 30
0.0
  3
*S20
  1

  0
LINE
  5
2413
330
2412
100
AcDbEntity
  8
AM_5
100
AcDbLine
 10
138.7395907419047
 20
138.1645317261141
 30
0.0
 11
167.985509905595
 21
163.287880618506
 31
0.0
  0
TRACE
  5
2414
330
2412
100
AcDbEntity
  8
AM_5
  6
Continuous
100
AcDbTrace
 10
168.5860213265641
 20
162.5888293674264
 30
0.0
 11
167.3849984846258
 21
163.9869318695857
 31
0.0
 12
173.2953313446797
 22
167.8492177344224
 32
0.0
 13
173.2953313446797
 23
167.8492177344224
 33
0.0
  0
MTEXT
  5
2415
330
2412
100
AcDbEntity
  8
AM_5
 62
     7
100
AcDbMText
 10
129.4474032235064
 20
130.1821917732606
 30
0.0
 40
7.0
 41
0.0
 71
     5
 72
     5
  1
5
  7
ACISOTS
 73
     1
 44
1.0
1001
ACAD
1000
MTEXTBEGIN
1070
    73
1070
     1
1070
    44
1040
1.0
1070
    74
1070
     0
1000
MTEXTEND
  0
CIRCLE
  5
2416
330
2412
100
AcDbEntity
  8
AM_5
 62
     3
100
AcDbCircle
 10
129.4474032235064
 20
130.1821917732606
 30
0.0
 40
12.25
  0
ENDBLK
  5
2418
330
2412
100
AcDbEntity
  8
0
100
AcDbBlockEnd
  0
BLOCK
  5
245D
330
241A
100
AcDbEntity
  8
0
100
AcDbBlockBegin
  2
*S21
 70
     1
 10
0.0
 20
0.0
 30
0.0
  3
*S21
  1

  0
LINE
  5
241B
330
241A
100
AcDbEntity
  8
0
 62
     1
100
AcDbLine
 10
420.0
 20
522.95
 30
0.0
 11
806.0
 21
522.95
 31
0.0
  0
LINE
  5
241C
330
241A
100
AcDbEntity
  8
0
 62
     1
100
AcDbLine
 10
420.0
 20
510.6
 30
0.0
 11
806.0
 21
510.6
 31
0.0
  0
LINE
  5
241D
330
241A
100
AcDbEntity
  8
0
 62
     1
100
AcDbLine
 10
420.0
 20
498.2499999999999
 30
0.0
 11
806.0
 21
498.2499999999999
 31
0.0
  0
LINE
  5
241E
330
241A
100
AcDbEntity
  8
0
 62
     1
100
AcDbLine
 10
420.0
 20
485.8999999999999
 30
0.0
 11
806.0
 21
485.8999999999999
 31
0.0
  0
MTEXT
  5
241F
330
241A
100
AcDbEntity
  8
0
 62
     2
100
AcDbMText
 10
435.0
 20
532.6
 30
0.0
 40
7.0
 41
26.4
 71
     2
 72
     5
  1
1
  7
ACISOTS
 73
     1
 44
1.0
1001
ACAD
1000
MTEXTBEGIN
1070
    73
1070
     1
1070
    44
1040
1.0
1070
    74
1070
     0
1000
MTEXTEND
  0
LINE
  5
2420
330
241A
100
AcDbEntity
  8
0
 62
     1
100
AcDbLine
 10
450.0
 20
535.2999999999999
 30
0.0
 11
450.0
 21
522.95
 31
0.0
  0
MTEXT
  5
2421
330
241A
100
AcDbEntity
  8
0
 62
     2
100
AcDbMText
 10
451.7999999999999
 20
532.6
 30
0.0
 40
7.0
 41
116.4
 71
     1
 72
     5
  1
ボディー
  7
ACISOTS
 73
     1
 44
1.0
1001
ACAD
1000
MTEXTBEGIN
1070
    73
1070
     1
1070
    44
1040
1.0
1070
    74
1070
     0
1000
MTEXTEND
  0
LINE
  5
2422
330
241A
100
AcDbEntity
  8
0
 62
     1
100
AcDbLine
 10
570.0
 20
535.2999999999999
 30
0.0
 11
570.0
 21
522.95
 31
0.0
  0
MTEXT
  5
2423
330
241A
100
AcDbEntity
  8
0
 62
     2
100
AcDbMText
 10
585.0
 20
532.6
 30
0.0
 40
7.0
 41
26.4
 71
     2
 72
     5
  1
1
  7
ACISOTS
 73
     1
 44
1.0
1001
ACAD
1000
MTEXTBEGIN
1070
    73
1070
     1
1070
    44
1040
1.0
1070
    74
1070
     0
1000
MTEXTEND
  0
LINE
  5
2424
330
241A
100
AcDbEntity
  8
0
 62
     1
100
AcDbLine
 10
600.0
 20
535.2999999999999
 30
0.0
 11
600.0
 21
522.95
 31
0.0
  0
MTEXT
  5
2425
330
241A
100
AcDbEntity
  8
0
 62
     2
100
AcDbMText
 10
601.7999999999999
 20
532.6
 30
0.0
 40
7.0
 41
76.4
 71
     1
 72
     5
  1
ﾉﾘﾙ
  7
ACISOTS
 73
     1
 44
1.0
1001
ACAD
1000
MTEXTBEGIN
1070
    73
1070
     1
1070
    44
1040
1.0
1070
    74
1070
     0
1000
MTEXTEND
  0
LINE
  5
2426
330
241A
100
AcDbEntity
  8
0
 62
     1
100
AcDbLine
 10
680.0
 20
535.2999999999999
 30
0.0
 11
680.0
 21
522.95
 31
0.0
  0
MTEXT
  5
2427
330
241A
100
AcDbEntity
  8
0
 62
     2
100
AcDbMText
 10
681.7999999999999
 20
532.6
 30
0.0
 40
7.0
 41
122.4
 71
     1
 72
     5
  1
ｸﾞﾚｰ
  7
ACISOTS
 73
     1
 44
1.0
1001
ACAD
1000
MTEXTBEGIN
1070
    73
1070
     1
1070
    44
1040
1.0
1070
    74
1070
     0
1000
MTEXTEND
  0
MTEXT
  5
2428
330
241A
100
AcDbEntity
  8
0
 62
     2
100
AcDbMText
 10
435.0
 20
520.2499999999999
 30
0.0
 40
7.0
 41
26.4
 71
     2
 72
     5
  1
2
  7
ACISOTS
 73
     1
 44
1.0
1001
ACAD
1000
MTEXTBEGIN
1070
    73
1070
     1
1070
    44
1040
1.0
1070
    74
1070
     0
1000
MTEXTEND
  0
LINE
  5
2429
330
241A
100
AcDbEntity
  8
0
 62
     1
100
AcDbLine
 10
450.0
 20
522.95
 30
0.0
 11
450.0
 21
510.6
 31
0.0
  0
MTEXT
  5
242A
330
241A
100
AcDbEntity
  8
0
 62
     2
100
AcDbMText
 10
451.7999999999999
 20
520.2499999999999
 30
0.0
 40
7.0
 41
116.4
 71
     1
 72
     5
  1
ベース
  7
ACISOTS
 73
     1
 44
1.0
1001
ACAD
1000
MTEXTBEGIN
1070
    73
1070
     1
1070
    44
1040
1.0
1070
    74
1070
     0
1000
MTEXTEND
  0
LINE
  5
242B
330
241A
100
AcDbEntity
  8
0
 62
     1
100
AcDbLine
 10
570.0
 20
522.95
 30
0.0
 11
570.0
 21
510.6
 31
0.0
  0
MTEXT
  5
242C
330
241A
100
AcDbEntity
  8
0
 62
     2
100
AcDbMText
 10
585.0
 20
520.2499999999999
 30
0.0
 40
7.0
 41
26.4
 71
     2
 72
     5
  1
1
  7
ACISOTS
 73
     1
 44
1.0
1001
ACAD
1000
MTEXTBEGIN
1070
    73
1070
     1
1070
    44
1040
1.0
1070
    74
1070
     0
1000
MTEXTEND
  0
LINE
  5
242D
330
241A
100
AcDbEntity
  8
0
 62
     1
100
AcDbLine
 10
600.0
 20
522.95
 30
0.0
 11
600.0
 21
510.6
 31
0.0
  0
MTEXT
  5
242E
330
241A
100
AcDbEntity
  8
0
 62
     2
100
AcDbMText
 10
601.7999999999999
 20
520.2499999999999
 30
0.0
 40
7.0
 41
76.4
 71
     1
 72
     5
  1
ﾉﾘﾙ
  7
ACISOTS
 73
     1
 44
1.0
1001
ACAD
1000
MTEXTBEGIN
1070
    73
1070
     1
1070
    44
1040
1.0
1070
    74
1070
     0
1000
MTEXTEND
  0
LINE
  5
242F
330
241A
100
AcDbEntity
  8
0
 62
     1
100
AcDbLine
 10
680.0
 20
522.95
 30
0.0
 11
680.0
 21
510.6
 31
0.0
  0
MTEXT
  5
2430
330
241A
100
AcDbEntity
  8
0
 62
     2
100
AcDbMText
 10
681.7999999999999
 20
520.2499999999999
 30
0.0
 40
7.0
 41
122.4
 71
     1
 72
     5
  1
ｸﾞﾚｰ
  7
ACISOTS
 73
     1
 44
1.0
1001
ACAD
1000
MTEXTBEGIN
1070
    73
1070
     1
1070
    44
1040
1.0
1070
    74
1070
     0
1000
MTEXTEND
  0
MTEXT
  5
2431
330
241A
100
AcDbEntity
  8
0
 62
     2
100
AcDbMText
 10
435.0
 20
507.8999999999999
 30
0.0
 40
7.0
 41
26.4
 71
     2
 72
     5
  1
3
  7
ACISOTS
 73
     1
 44
1.0
1001
ACAD
1000
MTEXTBEGIN
1070
    73
1070
     1
1070
    44
1040
1.0
1070
    74
1070
     0
1000
MTEXTEND
  0
LINE
  5
2432
330
241A
100
AcDbEntity
  8
0
 62
     1
100
AcDbLine
 10
450.0
 20
510.6
 30
0.0
 11
450.0
 21
498.2499999999999
 31
0.0
  0
MTEXT
  5
2433
330
241A
100
AcDbEntity
  8
0
 62
     2
100
AcDbMText
 10
451.7999999999999
 20
507.8999999999999
 30
0.0
 40
7.0
 41
116.4
 71
     1
 72
     5
  1
ターミナルカバー
  7
ACISOTS
 73
     1
 44
1.0
1001
ACAD
1000
MTEXTBEGIN
1070
    73
1070
     1
1070
    44
1040
1.0
1070
    74
1070
     0
1000
MTEXTEND
  0
LINE
  5
2434
330
241A
100
AcDbEntity
  8
0
 62
     1
100
AcDbLine
 10
570.0
 20
510.6
 30
0.0
 11
570.0
 21
498.2499999999999
 31
0.0
  0
MTEXT
  5
2435
330
241A
100
AcDbEntity
  8
0
 62
     2
100
AcDbMText
 10
585.0
 20
507.8999999999999
 30
0.0
 40
7.0
 41
26.4
 71
     2
 72
     5
  1
6
  7
ACISOTS
 73
     1
 44
1.0
1001
ACAD
1000
MTEXTBEGIN
1070
    73
1070
     1
1070
    44
1040
1.0
1070
    74
1070
     0
1000
MTEXTEND
  0
LINE
  5
2436
330
241A
100
AcDbEntity
  8
0
 62
     1
100
AcDbLine
 10
600.0
 20
510.6
 30
0.0
 11
600.0
 21
498.2499999999999
 31
0.0
  0
MTEXT
  5
2437
330
241A
100
AcDbEntity
  8
0
 62
     2
100
AcDbMText
 10
601.7999999999999
 20
507.8999999999999
 30
0.0
 40
7.0
 41
76.4
 71
     1
 72
     5
  1
ﾉﾘﾙ
  7
ACISOTS
 73
     1
 44
1.0
1001
ACAD
1000
MTEXTBEGIN
1070
    73
1070
     1
1070
    44
1040
1.0
1070
    74
1070
     0
1000
MTEXTEND
  0
LINE
  5
2438
330
241A
100
AcDbEntity
  8
0
 62
     1
100
AcDbLine
 10
680.0
 20
510.6
 30
0.0
 11
680.0
 21
498.2499999999999
 31
0.0
  0
MTEXT
  5
2439
330
241A
100
AcDbEntity
  8
0
 62
     2
100
AcDbMText
 10
681.7999999999999
 20
507.8999999999999
 30
0.0
 40
7.0
 41
122.4
 71
     1
 72
     5
  1
ｸﾞﾚｰ
  7
ACISOTS
 73
     1
 44
1.0
1001
ACAD
1000
MTEXTBEGIN
1070
    73
1070
     1
1070
    44
1040
1.0
1070
    74
1070
     0
1000
MTEXTEND
  0
MTEXT
  5
243A
330
241A
100
AcDbEntity
  8
0
 62
     2
100
AcDbMText
 10
435.0
 20
495.5499999999999
 30
0.0
 40
7.0
 41
26.4
 71
     2
 72
     5
  1
4
  7
ACISOTS
 73
     1
 44
1.0
1001
ACAD
1000
MTEXTBEGIN
1070
    73
1070
     1
1070
    44
1040
1.0
1070
    74
1070
     0
1000
MTEXTEND
  0
LINE
  5
243B
330
241A
100
AcDbEntity
  8
0
 62
     1
100
AcDbLine
 10
450.0
 20
498.2499999999999
 30
0.0
 11
450.0
 21
485.8999999999999
 31
0.0
  0
MTEXT
  5
243C
330
241A
100
AcDbEntity
  8
0
 62
     2
100
AcDbMText
 10
451.7999999999999
 20
495.5499999999999
 30
0.0
 40
7.0
 41
116.4
 71
     1
 72
     5
  1
前面パネル
  7
ACISOTS
 73
     1
 44
1.0
1001
ACAD
1000
MTEXTBEGIN
1070
    73
1070
     1
1070
    44
1040
1.0
1070
    74
1070
     0
1000
MTEXTEND
  0
LINE
  5
243D
330
241A
100
AcDbEntity
  8
0
 62
     1
100
AcDbLine
 10
570.0
 20
498.2499999999999
 30
0.0
 11
570.0
 21
485.8999999999999
 31
0.0
  0
MTEXT
  5
243E
330
241A
100
AcDbEntity
  8
0
 62
     2
100
AcDbMText
 10
585.0
 20
495.5499999999999
 30
0.0
 40
7.0
 41
26.4
 71
     2
 72
     5
  1
1
  7
ACISOTS
 73
     1
 44
1.0
1001
ACAD
1000
MTEXTBEGIN
1070
    73
1070
     1
1070
    44
1040
1.0
1070
    74
1070
     0
1000
MTEXTEND
  0
LINE
  5
243F
330
241A
100
AcDbEntity
  8
0
 62
     1
100
AcDbLine
 10
600.0
 20
498.2499999999999
 30
0.0
 11
600.0
 21
485.8999999999999
 31
0.0
  0
MTEXT
  5
2440
330
241A
100
AcDbEntity
  8
0
 62
     2
100
AcDbMText
 10
601.7999999999999
 20
495.5499999999999
 30
0.0
 40
7.0
 41
76.4
 71
     1
 72
     5
  1
ﾉﾘﾙ/ﾎﾟﾘｶｰﾎﾞﾈｰﾄ
  7
ACISOTS
 73
     1
 44
1.0
1001
ACAD
1000
MTEXTBEGIN
1070
    73
1070
     1
1070
    44
1040
1.0
1070
    74
1070
     0
1000
MTEXTEND
  0
LINE
  5
2441
330
241A
100
AcDbEntity
  8
0
 62
     1
100
AcDbLine
 10
680.0
 20
498.2499999999999
 30
0.0
 11
680.0
 21
485.8999999999999
 31
0.0
  0
MTEXT
  5
2442
330
241A
100
AcDbEntity
  8
0
 62
     2
100
AcDbMText
 10
681.7999999999999
 20
495.5499999999999
 30
0.0
 40
7.0
 41
122.4
 71
     1
 72
     5
  1
ｸﾞﾚｰ/ｸﾘｱｰ
  7
ACISOTS
 73
     1
 44
1.0
1001
ACAD
1000
MTEXTBEGIN
1070
    73
1070
     1
1070
    44
1040
1.0
1070
    74
1070
     0
1000
MTEXTEND
  0
MTEXT
  5
2443
330
241A
100
AcDbEntity
  8
0
 62
     2
100
AcDbMText
 10
435.0
 20
483.1999999999999
 30
0.0
 40
7.0
 41
26.4
 71
     2
 72
     5
  1
5
  7
ACISOTS
 73
     1
 44
1.0
1001
ACAD
1000
MTEXTBEGIN
1070
    73
1070
     1
1070
    44
1040
1.0
1070
    74
1070
     0
1000
MTEXTEND
  0
LINE
  5
2444
330
241A
100
AcDbEntity
  8
0
 62
     1
100
AcDbLine
 10
450.0
 20
485.8999999999999
 30
0.0
 11
450.0
 21
473.55
 31
0.0
  0
MTEXT
  5
2445
330
241A
100
AcDbEntity
  8
0
 62
     2
100
AcDbMText
 10
451.7999999999999
 20
483.1999999999999
 30
0.0
 40
7.0
 41
116.4
 71
     1
 72
     5
  1
ホック
  7
ACISOTS
 73
     1
 44
1.0
1001
ACAD
1000
MTEXTBEGIN
1070
    73
1070
     1
1070
    44
1040
1.0
1070
    74
1070
     0
1000
MTEXTEND
  0
LINE
  5
2446
330
241A
100
AcDbEntity
  8
0
 62
     1
100
AcDbLine
 10
570.0
 20
485.8999999999999
 30
0.0
 11
570.0
 21
473.55
 31
0.0
  0
MTEXT
  5
2447
330
241A
100
AcDbEntity
  8
0
 62
     2
100
AcDbMText
 10
585.0
 20
483.1999999999999
 30
0.0
 40
7.0
 41
26.4
 71
     2
 72
     5
  1
1
  7
ACISOTS
 73
     1
 44
1.0
1001
ACAD
1000
MTEXTBEGIN
1070
    73
1070
     1
1070
    44
1040
1.0
1070
    74
1070
     0
1000
MTEXTEND
  0
LINE
  5
2448
330
241A
100
AcDbEntity
  8
0
 62
     1
100
AcDbLine
 10
600.0
 20
485.8999999999999
 30
0.0
 11
600.0
 21
473.55
 31
0.0
  0
MTEXT
  5
2449
330
241A
100
AcDbEntity
  8
0
 62
     2
100
AcDbMText
 10
601.7999999999999
 20
483.1999999999999
 30
0.0
 40
7.0
 41
76.4
 71
     1
 72
     5
  1
ﾉﾘﾙ
  7
ACISOTS
 73
     1
 44
1.0
1001
ACAD
1000
MTEXTBEGIN
1070
    73
1070
     1
1070
    44
1040
1.0
1070
    74
1070
     0
1000
MTEXTEND
  0
LINE
  5
244A
330
241A
100
AcDbEntity
  8
0
 62
     1
100
AcDbLine
 10
680.0
 20
485.8999999999999
 30
0.0
 11
680.0
 21
473.55
 31
0.0
  0
MTEXT
  5
244B
330
241A
100
AcDbEntity
  8
0
 62
     2
100
AcDbMText
 10
681.7999999999999
 20
483.1999999999999
 30
0.0
 40
7.0
 41
122.4
 71
     1
 72
     5
  1
ﾌﾞﾗｯｸ
  7
ACISOTS
 73
     1
 44
1.0
1001
ACAD
1000
MTEXTBEGIN
1070
    73
1070
     1
1070
    44
1040
1.0
1070
    74
1070
     0
1000
MTEXTEND
  0
LINE
  5
244C
330
241A
100
AcDbEntity
  8
0
 62
     1
100
AcDbLine
 10
420.0
 20
535.2999999999999
 30
0.0
 11
806.0
 21
535.2999999999999
 31
0.0
  0
MTEXT
  5
244D
330
241A
100
AcDbEntity
  8
0
 62
     2
100
AcDbMText
 10
435.0
 20
544.95
 30
0.0
 40
7.0
 41
26.4
 71
     2
 72
     5
  1
照番
  7
ACISOTS
 73
     1
 44
1.0
1001
ACAD
1000
MTEXTBEGIN
1070
    73
1070
     1
1070
    44
1040
1.0
1070
    74
1070
     0
1000
MTEXTEND
  0
LINE
  5
244E
330
241A
100
AcDbEntity
  8
0
 62
     1
100
AcDbLine
 10
450.0
 20
547.6499999999999
 30
0.0
 11
450.0
 21
535.2999999999999
 31
0.0
  0
MTEXT
  5
244F
330
241A
100
AcDbEntity
  8
0
 62
     2
100
AcDbMText
 10
510.0
 20
544.95
 30
0.0
 40
7.0
 41
116.4
 71
     2
 72
     5
  1
名称
  7
ACISOTS
 73
     1
 44
1.0
1001
ACAD
1000
MTEXTBEGIN
1070
    73
1070
     1
1070
    44
1040
1.0
1070
    74
1070
     0
1000
MTEXTEND
  0
LINE
  5
2450
330
241A
100
AcDbEntity
  8
0
 62
     1
100
AcDbLine
 10
570.0
 20
547.6499999999999
 30
0.0
 11
570.0
 21
535.2999999999999
 31
0.0
  0
MTEXT
  5
2451
330
241A
100
AcDbEntity
  8
0
 62
     2
100
AcDbMText
 10
585.0
 20
544.95
 30
0.0
 40
7.0
 41
26.4
 71
     2
 72
     5
  1
数量
  7
ACISOTS
 73
     1
 44
1.0
1001
ACAD
1000
MTEXTBEGIN
1070
    73
1070
     1
1070
    44
1040
1.0
1070
    74
1070
     0
1000
MTEXTEND
  0
LINE
  5
2452
330
241A
100
AcDbEntity
  8
0
 62
     1
100
AcDbLine
 10
600.0
 20
547.6499999999999
 30
0.0
 11
600.0
 21
535.2999999999999
 31
0.0
  0
MTEXT
  5
2453
330
241A
100
AcDbEntity
  8
0
 62
     2
100
AcDbMText
 10
640.0
 20
544.95
 30
0.0
 40
7.0
 41
76.4
 71
     2
 72
     5
  1
材質
  7
ACISOTS
 73
     1
 44
1.0
1001
ACAD
1000
MTEXTBEGIN
1070
    73
1070
     1
1070
    44
1040
1.0
1070
    74
1070
     0
1000
MTEXTEND
  0
LINE
  5
2454
330
241A
100
AcDbEntity
  8
0
 62
     1
100
AcDbLine
 10
680.0
 20
547.6499999999999
 30
0.0
 11
680.0
 21
535.2999999999999
 31
0.0
  0
MTEXT
  5
2455
330
241A
100
AcDbEntity
  8
0
 62
     2
100
AcDbMText
 10
743.0
 20
544.95
 30
0.0
 40
7.0
 41
122.4
 71
     2
 72
     5
  1
色・表面処理
  7
ACISOTS
 73
     1
 44
1.0
1001
ACAD
1000
MTEXTBEGIN
1070
    73
1070
     1
1070
    44
1040
1.0
1070
    74
1070
     0
1000
MTEXTEND
  0
MTEXT
  5
2456
330
241A
100
AcDbEntity
  8
0
 62
     2
100
AcDbMText
 10
613.0
 20
553.825
 30
0.0
 40
7.0
 41
0.0
 71
     5
 72
     5
  1
構成内容
  7
ACISOTS
 73
     1
 44
1.0
1001
ACAD
1000
MTEXTBEGIN
1070
    73
1070
     1
1070
    44
1040
1.0
1070
    74
1070
     0
1000
MTEXTEND
  0
LINE
  5
2457
330
241A
100
AcDbEntity
  8
0
 62
     1
100
AcDbLine
 10
420.0
 20
547.6499999999999
 30
0.0
 11
806.0
 21
547.6499999999999
 31
0.0
  0
LINE
  5
2458
330
241A
100
AcDbEntity
  8
0
 62
     1
100
AcDbLine
 10
420.0
 20
560.0
 30
0.0
 11
806.0
 21
560.0
 31
0.0
  0
LINE
  5
2459
330
241A
100
AcDbEntity
  8
0
 62
     7
100
AcDbLine
 10
420.0
 20
473.55
 30
0.0
 11
420.0
 21
560.0
 31
0.0
  0
LINE
  5
245A
330
241A
100
AcDbEntity
  8
0
 62
     7
100
AcDbLine
 10
420.0
 20
560.0
 30
0.0
 11
806.0
 21
560.0
 31
0.0
  0
LINE
  5
245B
330
241A
100
AcDbEntity
  8
0
 62
     7
100
AcDbLine
 10
806.0
 20
560.0
 30
0.0
 11
806.0
 21
473.55
 31
0.0
  0
LINE
  5
245C
330
241A
100
AcDbEntity
  8
0
 62
     7
100
AcDbLine
 10
420.0
 20
473.55
 30
0.0
 11
806.0
 21
473.55
 31
0.0
  0
ENDBLK
  5
245E
330
241A
100
AcDbEntity
  8
0
100
AcDbBlockEnd
  0
ENDSEC
  0
SECTION
  2
ENTITIES
  0
INSERT
  5
79F
330
1F
100
AcDbEntity
  8
0
370
     0
100
AcDbBlockReference
  2
TK-A3
 10
0.0
 20
0.0
 30
0.0
 41
2.0
 42
2.0
 43
2.0
1001
GENIUS_GENOREF_13
1005
7CB
1001
GENIUS_GENOBJ-N-SDF_13
1002
{
1000
OWNER
1000
GEN
1002
}
1001
GENIUS_GENODEF_13
1002
{
1000
HIER
1070
     0
1002
}
1002
{
1000
MANEDIT
1070
     0
1002
}
1002
{
1000
NOSEL
1070
     0
1002
}
1002
{
1000
BEHIND
1070
     0
1002
}
1002
{
1000
OTHER
1070
     0
1002
}
1002
{
1000
REACTOR
1002
}
1001
GENIUS_GENSCREG_15
1040
2.0
1040
1.0
1011
0.0
1021
0.0
1031
0.0
1011
806.0
1021
560.0000000000001
1031
0.0
1070
     3
  0
INSERT
  5
7A1
330
1F
100
AcDbEntity
  8
0
370
     0
100
AcDbBlockReference
 66
     1
  2
TK-TITLE
 10
806.0
 20
0.0
 30
0.0
 41
2.0
 42
2.0
 43
2.0
1001
GENIUS_GENOREF_13
1005
7CB
  0
ATTRIB
  5
1B4B
330
7A1
100
AcDbEntity
  8
0
100
AcDbText
 10
424.4616136045801
 20
7.176685075221328
 30
0.0
 40
6.0
  1
2008/08/22
 72
     1
 11
445.5656096675722
 21
7.176685075221328
 31
0.0
100
AcDbAttribute
  2
GEN-TITLE-DAT
 70
     0
 74
     1
  0
ATTRIB
  5
1B4C
330
7A1
100
AcDbEntity
  8
0
100
AcDbText
 10
441.8901664404432
 20
56.59999999999995
 30
0.0
 40
6.0
  1
1:2
 72
     2
 11
450.3505207711518
 21
56.59999999999995
 31
0.0
100
AcDbAttribute
  2
GEN-TITLE-SCA
 70
     0
 74
     1
  0
ATTRIB
  5
1B4D
330
7A1
100
AcDbEntity
  8
0
100
AcDbText
 10
454.7745181747809
 20
31.59999999999988
 30
0.0
 40
6.0
  1

 72
     2
 11
454.7745181747809
 21
31.59999999999988
 31
0.0
100
AcDbAttribute
  2
GEN-TITLE-QTY
 70
     0
 74
     1
  0
ATTRIB
  5
1B4E
330
7A1
100
AcDbEntity
  8
0
100
AcDbText
 10
508.0762648329416
 20
66.59999999999982
 30
0.0
 40
6.0
  1

100
AcDbAttribute
  2
GEN-TITLE-MAT2
 70
     0
  0
ATTRIB
  5
1B4F
330
7A1
100
AcDbEntity
  8
0
100
AcDbText
 10
508.0762648329416
 20
86.59999999999982
 30
0.0
 40
6.0
  1

100
AcDbAttribute
  2
GEN-TITLE-MAT1
 70
     0
  0
ATTRIB
  5
1B50
330
7A1
100
AcDbEntity
  8
0
100
AcDbText
 10
638.0
 20
3.999999999999914
 30
0.0
 40
6.0
  1

100
AcDbAttribute
  2
GEN-TITLE-NR1
 70
     0
  0
ATTRIB
  5
1B51
330
7A1
100
AcDbEntity
  8
0
100
AcDbText
 10
638.0
 20
18.2999999999999
 30
0.0
 40
5.0
  1
H53型窓開閉DINモジュールボックス
100
AcDbAttribute
  2
GEN-TITLE-DES2
 70
     0
  0
ATTRIB
  5
1B52
330
7A1
100
AcDbEntity
  8
0
100
AcDbText
 10
637.7149619682934
 20
25.65580865128755
 30
0.0
 40
7.0
  1
H53-9MG-
100
AcDbAttribute
  2
GEN-TITLE-DES1
 70
     0
  0
ATTRIB
  5
1B53
330
7A1
100
AcDbEntity
  8
0
100
AcDbText
 10
789.9953816209083
 20
3.410378868790072
 30
0.0
 40
5.0
  1

100
AcDbAttribute
  2
GEN-TITLE-NR2
 70
     0
  0
SEQEND
  5
1B4A
330
7A1
100
AcDbEntity
  8
0
370
     0
  0
POINT
  5
7CB
330
1F
100
AcDbEntity
  8
0
 60
     1
100
AcDbPoint
 10
0.0
 20
0.0
 30
0.0
1001
GENIUS_GENOENT_13
1002
{
1000
MYREF
1005
7CB
1002
}
1002
{
1000
GRP
1005
0
1002
}
1001
GENIUS_GENOBJ-N-TIT_13
1002
{
1000
OWNER
1000
GEN
1002
}
1001
GENIUS_GENODEF_13
1002
{
1000
HIER
1070
     1
1002
}
1002
{
1000
MANEDIT
1070
     0
1002
}
1002
{
1000
NOSEL
1070
     0
1002
}
1002
{
1000
BEHIND
1070
     0
1002
}
1002
{
1000
OTHER
1070
     0
1002
}
1002
{
1000
REACTOR
1002
}
1001
GENIUS_GENOLIS_13
1002
{
1000
ENT
1005
7A1
1005
79F
1005
1B49
1002
}
1001
GENIUS_GENTITLE_13
1002
{
1000
BORDER
1000
TK-A3
1002
}
1002
{
1000
TITLE
1000
TK-TITLE
1002
}
1002
{
1000
SCALE
1000
1:2
1002
}
1002
{
1000
TITLESTD
1000
ISO
1002
}
1002
{
1000
HRA
1005
79F
1002
}
1002
{
1000
HTIT
1005
7A1
1002
}
1002
{
1000
GENIUSID
1005
7CB
1002
}
1002
{
1000
INVTXTID
1005
0
1002
}
1002
{
1000
UNCHG
1002
{
1000
GEN-TITLE-SIZ
1000
GEN-TITLE-SCA
1002
}
1002
}
  0
INSERT
  5
842
102
{ACAD_REACTORS
330
841
102
}
330
1F
100
AcDbEntity
  8
AM_12
100
AcDbBlockReference
  2
*S11
 10
0.0
 20
0.0
 30
0.0
  0
INSERT
  5
847
102
{ACAD_REACTORS
330
846
102
}
330
1F
100
AcDbEntity
  8
AM_5
100
AcDbBlockReference
  2
*S12
 10
0.0
 20
0.0
 30
0.0
  0
INSERT
  5
84A
102
{ACAD_REACTORS
330
849
102
}
330
1F
100
AcDbEntity
  8
AM_12
100
AcDbBlockReference
  2
*S13
 10
0.0
 20
0.0
 30
0.0
  0
INSERT
  5
84F
102
{ACAD_REACTORS
330
84E
102
}
330
1F
100
AcDbEntity
  8
AM_5
100
AcDbBlockReference
  2
*S14
 10
0.0
 20
0.0
 30
0.0
  0
INSERT
  5
851
102
{ACAD_REACTORS
330
850
102
}
330
1F
100
AcDbEntity
  8
AM_12
100
AcDbBlockReference
  2
*S15
 10
0.0
 20
0.0
 30
0.0
  0
INSERT
  5
854
102
{ACAD_REACTORS
330
853
102
}
330
1F
100
AcDbEntity
  8
AM_5
100
AcDbBlockReference
  2
*S16
 10
0.0
 20
0.0
 30
0.0
  0
INSERT
  5
856
102
{ACAD_REACTORS
330
855
102
}
330
1F
100
AcDbEntity
  8
AM_12
100
AcDbBlockReference
  2
*S17
 10
0.0
 20
0.0
 30
0.0
  0
INSERT
  5
859
102
{ACAD_REACTORS
330
858
102
}
330
1F
100
AcDbEntity
  8
AM_5
100
AcDbBlockReference
  2
*S18
 10
0.0
 20
0.0
 30
0.0
  0
INSERT
  5
85B
102
{ACAD_REACTORS
330
85A
102
}
330
1F
100
AcDbEntity
  8
AM_12
100
AcDbBlockReference
  2
*S19
 10
0.0
 20
0.0
 30
0.0
  0
INSERT
  5
85E
102
{ACAD_REACTORS
330
85D
102
}
330
1F
100
AcDbEntity
  8
AM_5
100
AcDbBlockReference
  2
*S20
 10
0.0
 20
0.0
 30
0.0
  0
DIMENSION
  5
18DF
102
{ACAD_XDICTIONARY
360
18E0
102
}
102
{ACAD_REACTORS
330
18E1
102
}
330
1F
100
AcDbEntity
  8
AM_5
100
AcDbDimension
  2
*D6
 10
227.3106108543887
 20
283.6595937681532
 30
0.0
 11
198.3106108543886
 21
290.1595937681532
 31
0.0
 70
    32
 71
     5
 42
58.00000000000022
  3
AM_ISO
100
AcDbAlignedDimension
 13
169.3106108543885
 23
259.4095927681532
 33
0.0
 14
227.3106108543887
 24
237.1095927681532
 34
0.0
100
AcDbRotatedDimension
1001
ACAD
1000
DSTYLE
1002
{
1070
    40
1040
2.0
1002
}
  0
DIMENSION
  5
18E2
102
{ACAD_XDICTIONARY
360
18E3
102
}
102
{ACAD_REACTORS
330
18E4
102
}
330
1F
100
AcDbEntity
  8
AM_5
100
AcDbDimension
  2
*D7
 10
480.1290204335608
 20
283.6595927681526
 30
0.0
 11
400.3790204335606
 21
290.1595927681526
 31
0.0
 70
    32
 71
     5
 42
159.5000000000005
  3
AM_ISO
100
AcDbAlignedDimension
 13
320.6290204335604
 23
259.6595927681532
 33
0.0
 14
480.1290204335608
 24
259.659592768152
 34
0.0
100
AcDbRotatedDimension
1001
ACAD
1000
DSTYLE
1002
{
1070
    40
1040
2.0
1002
}
  0
HATCH
  5
18E5
330
1F
100
AcDbEntity
  8
AM_8
100
AcDbHatch
 10
0.0
 20
0.0
 30
0.0
210
0.0
220
0.0
230
1.0
  2
_U
 70
     0
 71
     0
 91
        1
 92
        1
 93
        4
 72
     1
 10
478.2290204335597
 20
378.6845343447944
 11
400.3790204335595
 21
378.6845343447944
 72
     1
 10
400.3790204335596
 20
378.6845343447944
 11
400.3790204335595
 21
376.1845343447945
 72
     1
 10
400.3790204335595
 20
376.1845343447945
 11
478.2290204335597
 21
376.1845343447944
 72
     1
 10
478.2290204335597
 20
376.1845343447944
 11
478.2290204335597
 21
378.6845343447944
 97
        0
 75
     0
 76
     0
 52
-45.00000000000001
 41
5.0
 77
     0
 78
     1
 53
315.0
 43
-482.4562453332909
 44
794.1883430488677
 45
3.535533905932738
 46
3.535533905932736
 79
     0
 98
        1
 10
-482.4562453332909
 20
795.1883430488678
1001
GENIUS_GENOBJ-N-HTC_13
1002
{
1000
OWNER
1000
GEN
1002
}
1001
GENIUS_GENODEF_13
1002
{
1000
HIER
1070
     0
1002
}
1002
{
1000
MANEDIT
1070
     0
1002
}
1002
{
1000
NOSEL
1070
     0
1002
}
1002
{
1000
BEHIND
1070
     0
1002
}
1002
{
1000
OTHER
1070
     0
1002
}
1002
{
1000
REACTOR
1002
}
1001
GENIUS_GENHATCH_13
1002
{
1000
DATA
1040
45.0
1042
2.5
1000
_U
1070
     0
1011
418.606276724514
1021
377.1848149167429
1031
0.0
1002
}
1002
{
1000
UCS
1010
0.0
1020
0.0
1030
0.0
1010
1.0
1020
0.0
1030
0.0
1010
0.0
1020
1.0
1030
0.0
1002
}
  0
LINE
  5
18E6
330
1F
100
AcDbEntity
  8
前面ﾊﾟﾈﾙ
100
AcDbLine
 10
478.2290204335597
 20
376.1845343447944
 30
0.0
 11
400.3790204335595
 21
376.1845343447945
 31
0.0
  0
LINE
  5
18E7
330
1F
100
AcDbEntity
  8
ﾀｰﾐﾅﾙｶﾊﾞｰ
100
AcDbLine
 10
369.7790204335595
 20
407.8845343447957
 30
0.0
 11
373.4290204335594
 21
407.8845343447957
 31
0.0
  0
LINE
  5
18E8
330
1F
100
AcDbEntity
  8
ﾀｰﾐﾅﾙｶﾊﾞｰ
100
AcDbLine
 10
369.7790204335595
 20
421.1845343447958
 30
0.0
 11
369.7790204335595
 21
407.8845343447956
 31
0.0
  0
LINE
  5
18E9
330
1F
100
AcDbEntity
  8
ﾀｰﾐﾅﾙｶﾊﾞｰ
100
AcDbLine
 10
324.2790204335595
 20
421.1845343447958
 30
0.0
 11
369.7790204335595
 21
421.1845343447958
 31
0.0
  0
LINE
  5
18EA
330
1F
100
AcDbEntity
  8
ﾀｰﾐﾅﾙｶﾊﾞｰ
100
AcDbLine
 10
324.2790204335595
 20
407.8845343447957
 30
0.0
 11
324.2790204335595
 21
421.1845343447958
 31
0.0
  0
LINE
  5
18EB
330
1F
100
AcDbEntity
  8
ﾀｰﾐﾅﾙｶﾊﾞｰ
100
AcDbLine
 10
373.2790204335596
 20
401.1845343447958
 30
0.0
 11
320.7790204335595
 21
401.1845343447958
 31
0.0
  0
LINE
  5
18EC
330
1F
100
AcDbEntity
  8
ﾀｰﾐﾅﾙｶﾊﾞｰ
100
AcDbLine
 10
373.4290204335594
 20
407.8845343447957
 30
0.0
 11
373.2790204335596
 21
401.1845343447958
 31
0.0
  0
LINE
  5
18ED
330
1F
100
AcDbEntity
  8
ﾀｰﾐﾅﾙｶﾊﾞｰ
100
AcDbLine
 10
320.6290204335597
 20
407.8845343447957
 30
0.0
 11
324.2790204335595
 21
407.8845343447957
 31
0.0
  0
LINE
  5
18EE
330
1F
100
AcDbEntity
  8
ﾀｰﾐﾅﾙｶﾊﾞｰ
100
AcDbLine
 10
320.7790204335595
 20
401.1845343447958
 30
0.0
 11
320.6290204335597
 21
407.8845343447957
 31
0.0
  0
LINE
  5
18EF
330
1F
100
AcDbEntity
  8
ﾎﾞﾃﾞｨｰ
100
AcDbLine
 10
476.6343537668928
 20
407.7845343447944
 30
0.0
 11
477.0316871002264
 21
422.6845343447944
 31
0.0
  0
LINE
  5
18F0
330
1F
100
AcDbEntity
  8
前面ﾊﾟﾈﾙ
100
AcDbLine
 10
478.2290204335597
 20
378.6845343447944
 30
0.0
 11
400.3790204335596
 21
378.6845343447944
 31
0.0
  0
LINE
  5
18F1
330
1F
100
AcDbEntity
  8
前面ﾊﾟﾈﾙ
100
AcDbLine
 10
478.2290204335597
 20
376.1845343447944
 30
0.0
 11
478.2290204335597
 21
378.6845343447944
 31
0.0
  0
LINE
  5
18F2
330
1F
100
AcDbEntity
  8
ﾎﾞﾃﾞｨｰ
100
AcDbLine
 10
477.0290204335594
 20
380.1845343447944
 30
0.0
 11
478.6290204335596
 21
380.1845343447944
 31
0.0
  0
LINE
  5
18F3
330
1F
100
AcDbEntity
  8
ﾎﾞﾃﾞｨｰ
100
AcDbLine
 10
477.5790204335597
 20
392.6845343447942
 30
0.0
 11
477.7290204335598
 21
387.6845343447942
 31
0.0
  0
LINE
  5
18F5
330
1F
100
AcDbEntity
  8
ﾎﾞﾃﾞｨｰ
100
AcDbLine
 10
475.0790204335596
 20
392.6845343447942
 30
0.0
 11
474.9290204335598
 21
387.6845343447942
 31
0.0
  0
LINE
  5
18F6
330
1F
100
AcDbEntity
  8
ﾎﾞﾃﾞｨｰ
100
AcDbLine
 10
477.5790204335597
 20
392.6845343447942
 30
0.0
 11
475.0790204335596
 21
392.6845343447942
 31
0.0
  0
LINE
  5
18F7
330
1F
100
AcDbEntity
  8
ﾎﾞﾃﾞｨｰ
100
AcDbLine
 10
443.6290204335601
 20
387.6845343447942
 30
0.0
 11
478.6290204335596
 21
387.6845343447942
 31
0.0
  0
LINE
  5
18F9
330
1F
100
AcDbEntity
  8
ﾎﾞﾃﾞｨｰ
100
AcDbLine
 10
442.6290204335599
 20
394.3845343447943
 30
0.0
 11
442.37902043356
 21
399.3845343447942
 31
0.0
  0
LINE
  5
18FC
330
1F
100
AcDbEntity
  8
ﾎﾞﾃﾞｨｰ
100
AcDbLine
 10
443.62902043356
 20
387.0845343447948
 30
0.0
 11
443.62902043356
 21
388.7845343447946
 31
0.0
  0
LINE
  5
18FE
330
1F
100
AcDbEntity
  8
ﾎﾞﾃﾞｨｰ
100
AcDbLine
 10
474.8290204335596
 20
385.5845343447943
 30
0.0
 11
474.8290204335596
 21
378.6845343447944
 31
0.0
  0
LINE
  5
18FF
330
1F
100
AcDbEntity
  8
ﾎﾞﾃﾞｨｰ
100
AcDbLine
 10
477.8290204335596
 20
385.5845343447943
 30
0.0
 11
474.8290204335596
 21
385.5845343447943
 31
0.0
  0
LINE
  5
1900
330
1F
100
AcDbEntity
  8
ﾎﾞﾃﾞｨｰ
100
AcDbLine
 10
477.8290204335596
 20
380.1845343447944
 30
0.0
 11
477.8290204335596
 21
385.5845343447943
 31
0.0
  0
LINE
  5
1901
330
1F
100
AcDbEntity
  8
ﾎﾞﾃﾞｨｰ
100
AcDbLine
 10
477.0290204335597
 20
378.6845343447944
 30
0.0
 11
477.0290204335597
 21
380.1845343447944
 31
0.0
  0
LINE
  5
1902
330
1F
100
AcDbEntity
  8
ﾎﾞﾃﾞｨｰ
100
AcDbLine
 10
443.6290204335601
 20
380.1845343447944
 30
0.0
 11
474.8290204335596
 21
380.1845343447944
 31
0.0
  0
LINE
  5
1903
330
1F
100
AcDbEntity
  8
ﾍﾞｰｽ
100
AcDbLine
 10
478.6290204335596
 20
424.1845343447944
 30
0.0
 11
478.6290204335596
 21
427.1845343447944
 31
0.0
  0
LINE
  5
1904
330
1F
100
AcDbEntity
  8
ﾍﾞｰｽ
100
AcDbLine
 10
400.3790204335596
 20
424.1845343447945
 30
0.0
 11
478.6290204335596
 21
424.1845343447944
 31
0.0
  0
LINE
  5
1905
330
1F
100
AcDbEntity
  8
ﾎﾞﾃﾞｨｰ
100
AcDbLine
 10
478.6290204335596
 20
376.1845343447944
 30
0.0
 11
478.6290204335596
 21
427.1845343447944
 31
0.0
  0
LINE
  5
1907
330
1F
100
AcDbEntity
  8
ﾍﾞｰｽ
100
AcDbLine
 10
320.6790192290114
 20
427.1852843267267
 30
0.0
 11
480.1290204335596
 21
427.1845343447944
 31
0.0
  0
LINE
  5
1908
330
1F
100
AcDbEntity
  8
ﾍﾞｰｽ
100
AcDbLine
 10
320.629026057927
 20
434.1845344291601
 30
0.0
 11
320.629026057927
 21
427.1852843267267
 31
0.0
  0
LINE
  5
1909
330
1F
100
AcDbEntity
  8
ﾍﾞｰｽ
100
AcDbLine
 10
480.1290204335596
 20
434.1845343447945
 30
0.0
 11
320.629026057927
 21
434.1845344291601
 31
0.0
  0
LINE
  5
190A
330
1F
100
AcDbEntity
  8
ﾍﾞｰｽ
100
AcDbLine
 10
480.1290204335596
 20
427.1845343447944
 30
0.0
 11
480.1290204335596
 21
434.1845343447945
 31
0.0
  0
LINE
  5
190B
330
1F
100
AcDbEntity
  8
ﾎﾞﾃﾞｨｰ
100
AcDbLine
 10
476.6290204335596
 20
407.7845343447944
 30
0.0
 11
431.6290204335596
 21
407.7845343447944
 31
0.0
  0
LINE
  5
190C
330
1F
100
AcDbEntity
  8
ﾎﾞﾃﾞｨｰ
100
AcDbLine
 10
400.3790204335596
 20
386.1845343447944
 30
0.0
 11
320.6290204335597
 21
386.1845343447944
 31
0.0
  0
LINE
  5
190D
330
1F
100
AcDbEntity
  8
ﾎﾞﾃﾞｨｰ
100
AcDbLine
 10
320.6290204335597
 20
427.1845343447944
 30
0.0
 11
400.3790204335596
 21
427.1845343447944
 31
0.0
  0
LINE
  5
190E
330
1F
100
AcDbEntity
  8
ﾎﾞﾃﾞｨｰ
100
AcDbLine
 10
320.6290204335597
 20
376.1845343447944
 30
0.0
 11
320.6290204335597
 21
427.1845343447944
 31
0.0
  0
LINE
  5
190F
330
1F
100
AcDbEntity
  8
ﾎﾞﾃﾞｨｰ
100
AcDbLine
 10
480.1290204335596
 20
376.1845343447944
 30
0.0
 11
320.6290204335597
 21
376.1845343447944
 31
0.0
  0
LINE
  5
1910
330
1F
100
AcDbEntity
  8
ﾎﾞﾃﾞｨｰ
100
AcDbLine
 10
480.1290204335596
 20
427.1845343447944
 30
0.0
 11
480.1290204335596
 21
376.1845343447944
 31
0.0
  0
LINE
  5
1911
330
1F
100
AcDbEntity
  8
ﾎﾞﾃﾞｨｰ
100
AcDbLine
 10
369.7790204335597
 20
421.1845343447958
 30
0.0
 11
324.2790204335595
 21
421.1845343447958
 31
0.0
  0
LINE
  5
1912
330
1F
100
AcDbEntity
  8
ﾎﾞﾃﾞｨｰ
100
AcDbLine
 10
324.2790204335595
 20
421.1845343447952
 30
0.0
 11
324.2790204335595
 21
407.8845343447965
 31
0.0
  0
LINE
  5
1913
330
1F
100
AcDbEntity
  8
ﾎﾞﾃﾞｨｰ
100
AcDbLine
 10
478.6290204335596
 20
422.6845343447944
 30
0.0
 11
400.3790204335596
 21
422.6845343447944
 31
0.0
  0
LINE
  5
1914
330
1F
100
AcDbEntity
  8
ﾎﾞﾃﾞｨｰ
100
AcDbLine
 10
480.1290204335596
 20
427.1845343447944
 30
0.0
 11
478.6290204335598
 21
427.1845343447944
 31
0.0
  0
LINE
  5
1915
330
1F
100
AcDbEntity
  8
ﾎﾞﾃﾞｨｰ
100
AcDbLine
 10
480.1290204335596
 20
427.1845343447944
 30
0.0
 11
478.6290204335598
 21
427.1845343447944
 31
0.0
  0
LINE
  5
1916
330
1F
100
AcDbEntity
  8
ﾎﾞﾃﾞｨｰ
100
AcDbLine
 10
377.0290204335595
 20
407.8845343447958
 30
0.0
 11
369.7790204335595
 21
407.8845343447958
 31
0.0
  0
LINE
  5
1917
330
1F
100
AcDbEntity
  8
ﾎﾞﾃﾞｨｰ
100
AcDbLine
 10
369.7790204335595
 20
407.8845343447964
 30
0.0
 11
369.7790204335597
 21
421.184534344795
 31
0.0
  0
LINE
  5
1918
330
1F
100
AcDbEntity
  8
ﾎﾞﾃﾞｨｰ
100
AcDbLine
 10
324.2790204335595
 20
407.8845343447957
 30
0.0
 11
320.6290204335597
 21
407.8845343447957
 31
0.0
  0
LINE
  5
1919
330
1F
100
AcDbEntity
  8
ﾎﾞﾃﾞｨｰ
100
AcDbLine
 10
437.62902043356
 20
380.1845343447944
 30
0.0
 11
403.3790204335597
 21
380.1845343447944
 31
0.0
  0
LINE
  5
191A
330
1F
100
AcDbEntity
  8
ﾎﾞﾃﾞｨｰ
100
AcDbLine
 10
437.62902043356
 20
378.6845343447944
 30
0.0
 11
437.62902043356
 21
380.1845343447944
 31
0.0
  0
LINE
  5
191B
330
1F
100
AcDbEntity
  8
ﾎﾞﾃﾞｨｰ
100
AcDbLine
 10
443.6290204335601
 20
378.6845343447944
 30
0.0
 11
443.6290204335601
 21
380.1845343447944
 31
0.0
  0
LINE
  5
191C
330
1F
100
AcDbEntity
  8
ﾎﾞﾃﾞｨｰ
100
AcDbLine
 10
443.62902043356
 20
387.0845343447948
 30
0.0
 11
437.62902043356
 21
387.0845343447948
 31
0.0
  0
LINE
  5
191D
330
1F
100
AcDbEntity
  8
ﾎﾞﾃﾞｨｰ
100
AcDbLine
 10
437.62902043356
 20
387.0845343447948
 30
0.0
 11
437.62902043356
 21
388.7845343447946
 31
0.0
  0
LINE
  5
191E
330
1F
100
AcDbEntity
  8
ﾎﾞﾃﾞｨｰ
100
AcDbLine
 10
437.62902043356
 20
388.7845343447946
 30
0.0
 11
443.62902043356
 21
388.7845343447946
 31
0.0
  0
LINE
  5
191F
330
1F
100
AcDbEntity
  8
ﾎﾞﾃﾞｨｰ
100
AcDbLine
 10
442.6290204335599
 20
394.3845343447943
 30
0.0
 11
438.62902043356
 21
394.3845343447943
 31
0.0
  0
LINE
  5
1920
330
1F
100
AcDbEntity
  8
ﾎﾞﾃﾞｨｰ
100
AcDbLine
 10
438.62902043356
 20
394.3845343447943
 30
0.0
 11
438.87902043356
 21
399.3845343447942
 31
0.0
  0
LINE
  5
1921
330
1F
100
AcDbEntity
  8
ﾎﾞﾃﾞｨｰ
100
AcDbLine
 10
438.87902043356
 20
399.3845343447942
 30
0.0
 11
442.37902043356
 21
399.3845343447942
 31
0.0
  0
LINE
  5
1922
330
1F
100
AcDbEntity
  8
ﾎﾞﾃﾞｨｰ
100
AcDbLine
 10
437.6290204335601
 20
387.6845343447941
 30
0.0
 11
400.3790204335596
 21
387.6845343447942
 31
0.0
  0
LINE
  5
1923
330
1F
100
AcDbEntity
  8
ﾎﾞﾃﾞｨｰ
100
AcDbLine
 10
403.3790204335597
 20
378.6845343447944
 30
0.0
 11
403.3790204335597
 21
380.1845343447944
 31
0.0
  0
LINE
  5
1924
330
1F
100
AcDbEntity
  8
ﾎﾞﾃﾞｨｰ
100
AcDbLine
 10
400.3790204335599
 20
392.6845343447942
 30
0.0
 11
401.6290204335598
 21
392.6845343447942
 31
0.0
  0
LINE
  5
1925
330
1F
100
AcDbEntity
  8
ﾎﾞﾃﾞｨｰ
100
AcDbLine
 10
401.6290204335598
 20
392.6845343447942
 30
0.0
 11
401.7790204335597
 21
387.6845343447942
 31
0.0
  0
HATCH
  5
1926
330
1F
100
AcDbEntity
  8
AM_8
100
AcDbHatch
 10
0.0
 20
0.0
 30
0.0
210
0.0
220
0.0
230
1.0
  2
_U
 70
     0
 71
     0
 91
        1
 92
        1
 93
        4
 72
     1
 10
480.1290204335596
 20
376.1845343447944
 11
480.1290204335596
 21
427.1845343447944
 72
     1
 10
480.1290204335596
 20
427.1845343447944
 11
478.6290204335596
 21
427.1845343447944
 72
     1
 10
478.6290204335596
 20
427.1845343447944
 11
478.6290204335596
 21
376.1845343447944
 72
     1
 10
478.6290204335596
 20
376.1845343447944
 11
480.1290204335596
 21
376.1845343447944
 97
        0
 75
     0
 76
     0
 52
-135.0
 41
5.0
 77
     0
 78
     1
 53
225.0
 43
755.1488648313298
 44
486.3670940622088
 45
3.535533905932736
 46
-3.535533905932738
 79
     0
 98
        1
 10
755.1488648313298
 20
486.3670940622088
1001
GENIUS_GENOBJ-N-HTC_13
1002
{
1000
OWNER
1000
GEN
1002
}
1001
GENIUS_GENODEF_13
1002
{
1000
HIER
1070
     0
1002
}
1002
{
1000
MANEDIT
1070
     0
1002
}
1002
{
1000
NOSEL
1070
     0
1002
}
1002
{
1000
BEHIND
1070
     0
1002
}
1002
{
1000
OTHER
1070
     0
1002
}
1002
{
1000
REACTOR
1002
}
1001
GENIUS_GENHATCH_13
1002
{
1000
DATA
1040
45.0
1042
2.5
1000
_U
1070
     0
1011
479.3424002766466
1021
379.4746837035372
1031
0.0
1002
}
1002
{
1000
UCS
1010
0.0
1020
0.0
1030
0.0
1010
1.0
1020
0.0
1030
0.0
1010
0.0
1020
1.0
1030
0.0
1002
}
  0
LINE
  5
1928
330
1F
100
AcDbEntity
  8
ﾎﾞﾃﾞｨｰ
100
AcDbLine
 10
377.0290204335595
 20
421.1845343447945
 30
0.0
 11
377.0290204335595
 21
407.8845343447958
 31
0.0
  0
LINE
  5
1929
330
1F
100
AcDbEntity
  8
ﾎﾞﾃﾞｨｰ
100
AcDbLine
 10
400.3790204335596
 20
421.1845343447945
 30
0.0
 11
377.0290204335595
 21
421.1845343447945
 31
0.0
  0
LINE
  5
192A
330
1F
100
AcDbEntity
  8
ﾎﾞﾃﾞｨｰ
100
AcDbLine
 10
431.6236871002264
 20
407.7845343447944
 30
0.0
 11
431.2263537668932
 21
422.6845343447944
 31
0.0
  0
LINE
  5
192B
330
1F
100
AcDbEntity
  8
ﾎﾞﾃﾞｨｰ
100
AcDbLine
 10
423.6343537668929
 20
407.7845343447944
 30
0.0
 11
424.0316871002264
 21
422.6845343447944
 31
0.0
  0
LINE
  5
192C
330
1F
100
AcDbEntity
  8
ﾎﾞﾃﾞｨｰ
100
AcDbLine
 10
423.6290204335596
 20
407.7845343447944
 30
0.0
 11
400.3790204335596
 21
407.7845343447944
 31
0.0
  0
LINE
  5
192D
330
1F
100
AcDbEntity
  8
前面ﾊﾟﾈﾙ
100
AcDbLine
 10
402.8790204335599
 20
234.6095927681535
 30
0.0
 11
402.8790204335597
 21
235.6095927681533
 31
0.0
  0
LINE
  5
192E
330
1F
100
AcDbEntity
  8
前面ﾊﾟﾈﾙ
100
AcDbLine
 10
397.8790204335597
 20
234.6095927681532
 30
0.0
 11
397.8790204335597
 21
235.6095927681533
 31
0.0
  0
LINE
  5
192F
330
1F
100
AcDbEntity
  8
前面ﾊﾟﾈﾙ
100
AcDbLine
 10
397.87902043356
 20
194.6095927681535
 30
0.0
 11
397.87902043356
 21
193.6095927681535
 31
0.0
  0
LINE
  5
1930
330
1F
100
AcDbEntity
  8
前面ﾊﾟﾈﾙ
100
AcDbLine
 10
402.8790204335601
 20
194.6095927681532
 30
0.0
 11
402.8790204335601
 21
193.6095927681535
 31
0.0
  0
LINE
  5
1931
330
1F
100
AcDbEntity
  8
ﾎﾞﾃﾞｨｰ
100
AcDbLine
 10
320.6290204335597
 20
184.1095927681544
 30
0.0
 11
480.1290204335604
 21
184.1095927681544
 31
0.0
  0
LINE
  5
1933
330
1F
100
AcDbEntity
  8
ﾎﾞﾃﾞｨｰ
100
AcDbLine
 10
357.1290204335602
 20
243.6095927681532
 30
0.0
 11
363.1290204335602
 21
243.6095927681535
 31
0.0
  0
LINE
  5
1934
330
1F
100
AcDbEntity
  8
ﾎﾞﾃﾞｨｰ
100
AcDbLine
 10
357.1290204335602
 20
241.7095927681535
 30
0.0
 11
357.1290204335602
 21
243.6095927681532
 31
0.0
  0
LINE
  5
1935
330
1F
100
AcDbEntity
  8
ﾎﾞﾃﾞｨｰ
100
AcDbLine
 10
363.1290204335602
 20
241.7095927681534
 30
0.0
 11
357.1290204335602
 21
241.7095927681534
 31
0.0
  0
LINE
  5
1936
330
1F
100
AcDbEntity
  8
ﾎﾞﾃﾞｨｰ
100
AcDbLine
 10
363.1290204335602
 20
243.6095927681535
 30
0.0
 11
363.1290204335602
 21
241.7095927681535
 31
0.0
  0
LINE
  5
1937
330
1F
100
AcDbEntity
  8
ﾎﾞﾃﾞｨｰ
100
AcDbLine
 10
320.6290204335602
 20
245.1095927681535
 30
0.0
 11
480.1290204335604
 21
245.109592768152
 31
0.0
  0
LINE
  5
1938
102
{ACAD_REACTORS
330
18E4
102
}
330
1F
100
AcDbEntity
  8
ﾎﾞﾃﾞｨｰ
100
AcDbLine
 10
480.1290204335608
 20
259.659592768152
 30
0.0
 11
320.6290204335607
 21
259.6595927681532
 31
0.0
  0
LINE
  5
1939
330
1F
100
AcDbEntity
  8
ﾎﾞﾃﾞｨｰ
100
AcDbLine
 10
320.9290204335603
 20
237.1095927681539
 30
0.0
 11
479.8290204335605
 21
237.1095927681526
 31
0.0
  0
LINE
  5
193A
330
1F
100
AcDbEntity
  8
ﾎﾞﾃﾞｨｰ
100
AcDbLine
 10
322.1290204335604
 20
235.6095927681539
 30
0.0
 11
478.6290204335604
 21
235.6095927681528
 31
0.0
  0
ARC
  5
193F
330
1F
100
AcDbEntity
  8
ﾎﾞﾃﾞｨｰ
100
AcDbCircle
 10
320.9290204335605
 20
236.809592768154
 30
0.0
 40
0.3
100
AcDbArc
 50
90.0
 51
180.0
  0
ARC
  5
1940
330
1F
100
AcDbEntity
  8
ﾎﾞﾃﾞｨｰ
100
AcDbCircle
 10
479.8290204335605
 20
236.8095927681527
 30
0.0
 40
0.3
100
AcDbArc
 50
0.0
 51
90.0
  0
LINE
  5
1941
330
1F
100
AcDbEntity
  8
ﾎﾞﾃﾞｨｰ
100
AcDbLine
 10
478.2290204335601
 20
217.6095927681528
 30
0.0
 11
478.6290204335601
 21
217.6095927681528
 31
0.0
  0
LINE
  5
1942
330
1F
100
AcDbEntity
  8
ﾎﾞﾃﾞｨｰ
100
AcDbLine
 10
322.5290204335601
 20
217.6095927681539
 30
0.0
 11
322.1290204335602
 21
217.6095927681539
 31
0.0
  0
ARC
  5
1943
330
1F
100
AcDbEntity
  8
前面ﾊﾟﾈﾙ
100
AcDbCircle
 10
324.5290204335605
 20
233.6095927681539
 30
0.0
 40
1.0
100
AcDbArc
 50
90.0
 51
180.0
1001
GENIUS_GENODEF_13
1002
{
1000
HIER
1070
     0
1002
}
1002
{
1000
MANEDIT
1070
     0
1002
}
1002
{
1000
NOSEL
1070
     0
1002
}
1002
{
1000
BEHIND
1070
     0
1002
}
1002
{
1000
REACTOR
1002
}
1001
GENIUS_GENOBJ-N-FIL_13
1002
{
1000
OWNER
1000
GEN
1002
}
  0
ARC
  5
1944
330
1F
100
AcDbEntity
  8
前面ﾊﾟﾈﾙ
100
AcDbCircle
 10
476.2290204335605
 20
233.6095927681527
 30
0.0
 40
1.0
100
AcDbArc
 50
0.0
 51
90.0
1001
GENIUS_GENODEF_13
1002
{
1000
HIER
1070
     0
1002
}
1002
{
1000
MANEDIT
1070
     0
1002
}
1002
{
1000
NOSEL
1070
     0
1002
}
1002
{
1000
BEHIND
1070
     0
1002
}
1002
{
1000
REACTOR
1002
}
1001
GENIUS_GENOBJ-N-FIL_13
1002
{
1000
OWNER
1000
GEN
1002
}
  0
LINE
  5
1945
330
1F
100
AcDbEntity
  8
前面ﾊﾟﾈﾙ
100
AcDbLine
 10
476.2290204335603
 20
234.6095927681528
 30
0.0
 11
324.5290204335605
 21
234.6095927681538
 31
0.0
  0
LINE
  5
1948
330
1F
100
AcDbEntity
  8
前面ﾊﾟﾈﾙ
100
AcDbLine
 10
323.0290204335601
 20
217.1095927681539
 30
0.0
 11
322.5290204335601
 21
217.1095927681539
 31
0.0
  0
LINE
  5
1949
330
1F
100
AcDbEntity
  8
前面ﾊﾟﾈﾙ
100
AcDbLine
 10
322.5290204335601
 20
216.8641382226993
 30
0.0
 11
323.0290204335601
 21
216.8641382226993
 31
0.0
  0
LINE
  5
194A
330
1F
100
AcDbEntity
  8
前面ﾊﾟﾈﾙ
100
AcDbLine
 10
323.0290204335601
 20
217.1095927681539
 30
0.0
 11
323.0290204335601
 21
214.6095927681539
 31
0.0
  0
LINE
  5
194B
330
1F
100
AcDbEntity
  8
前面ﾊﾟﾈﾙ
100
AcDbLine
 10
322.5290204335601
 20
216.8641382226993
 30
0.0
 11
322.5290204335601
 21
214.6095927681538
 31
0.0
  0
LINE
  5
194C
330
1F
100
AcDbEntity
  8
前面ﾊﾟﾈﾙ
100
AcDbLine
 10
477.72902043356
 20
217.1095927681528
 30
0.0
 11
478.2290204335601
 21
217.1095927681528
 31
0.0
  0
LINE
  5
194D
330
1F
100
AcDbEntity
  8
前面ﾊﾟﾈﾙ
100
AcDbLine
 10
478.2290204335601
 20
216.8595927681528
 30
0.0
 11
477.72902043356
 21
216.8595927681528
 31
0.0
  0
LINE
  5
194E
330
1F
100
AcDbEntity
  8
前面ﾊﾟﾈﾙ
100
AcDbLine
 10
477.72902043356
 20
217.1095927681528
 30
0.0
 11
477.72902043356
 21
214.6095927681528
 31
0.0
  0
LINE
  5
194F
330
1F
100
AcDbEntity
  8
前面ﾊﾟﾈﾙ
100
AcDbLine
 10
478.2290204335601
 20
216.8595927681528
 30
0.0
 11
478.2290204335601
 21
214.6095927681517
 31
0.0
  0
LINE
  5
1950
330
1F
100
AcDbEntity
  8
前面ﾊﾟﾈﾙ
100
AcDbLine
 10
478.2290204335603
 20
235.6095927681528
 30
0.0
 11
322.5290204335603
 21
235.6095927681538
 31
0.0
  0
LINE
  5
1951
330
1F
100
AcDbEntity
  8
前面ﾊﾟﾈﾙ
100
AcDbLine
 10
478.2290204335603
 20
235.6095927681528
 30
0.0
 11
478.2290204335601
 21
217.1095927681528
 31
0.0
  0
LINE
  5
1952
330
1F
100
AcDbEntity
  8
前面ﾊﾟﾈﾙ
100
AcDbLine
 10
322.5290204335603
 20
235.6095927681538
 30
0.0
 11
322.5290204335601
 21
217.1095927681539
 31
0.0
  0
LINE
  5
1953
330
1F
100
AcDbEntity
  8
ﾎﾞﾃﾞｨｰ
100
AcDbLine
 10
437.6290204335601
 20
243.6095927681523
 30
0.0
 11
437.6290204335601
 21
241.7095927681525
 31
0.0
  0
LINE
  5
1954
330
1F
100
AcDbEntity
  8
ﾎﾞﾃﾞｨｰ
100
AcDbLine
 10
437.6290204335601
 20
241.7095927681523
 30
0.0
 11
443.6290204335602
 21
241.7095927681521
 31
0.0
  0
LINE
  5
1955
330
1F
100
AcDbEntity
  8
ﾎﾞﾃﾞｨｰ
100
AcDbLine
 10
443.6290204335602
 20
241.7095927681522
 30
0.0
 11
443.6290204335602
 21
243.609592768152
 31
0.0
  0
LINE
  5
1956
330
1F
100
AcDbEntity
  8
ﾎﾞﾃﾞｨｰ
100
AcDbLine
 10
443.6290204335602
 20
243.609592768152
 30
0.0
 11
437.6290204335601
 21
243.6095927681523
 31
0.0
  0
LINE
  5
1957
330
1F
100
AcDbEntity
  8
ﾀｰﾐﾅﾙｶﾊﾞｰ
100
AcDbLine
 10
373.2790204335603
 20
259.309592768155
 30
0.0
 11
373.27902043356
 21
245.7095927681543
 31
0.0
  0
LINE
  5
1958
330
1F
100
AcDbEntity
  8
ﾀｰﾐﾅﾙｶﾊﾞｰ
100
AcDbLine
 10
372.2790204335603
 20
258.3595927681535
 30
0.0
 11
372.2790204335601
 21
246.6595927681535
 31
0.0
  0
LINE
  5
1959
330
1F
100
AcDbEntity
  8
ﾀｰﾐﾅﾙｶﾊﾞｰ
100
AcDbLine
 10
373.4290204335601
 20
259.5095927681535
 30
0.0
 11
373.4290204335599
 21
245.5095927681535
 31
0.0
  0
LINE
  5
195A
330
1F
100
AcDbEntity
  8
ﾀｰﾐﾅﾙｶﾊﾞｰ
100
AcDbLine
 10
349.0290204335601
 20
245.7095927681539
 30
0.0
 11
349.0290204335601
 21
246.1595927681538
 31
0.0
  0
LINE
  5
195B
330
1F
100
AcDbEntity
  8
ﾀｰﾐﾅﾙｶﾊﾞｰ
100
AcDbLine
 10
348.4790204335601
 20
245.7095927681539
 30
0.0
 11
348.4790204335601
 21
245.5095927681532
 31
0.0
  0
LINE
  5
195C
330
1F
100
AcDbEntity
  8
ﾀｰﾐﾅﾙｶﾊﾞｰ
100
AcDbLine
 10
345.0290204335601
 20
245.7095927681539
 30
0.0
 11
345.0290204335601
 21
246.1595927681538
 31
0.0
  0
LINE
  5
195D
330
1F
100
AcDbEntity
  8
ﾀｰﾐﾅﾙｶﾊﾞｰ
100
AcDbLine
 10
345.57902043356
 20
245.7095927681539
 30
0.0
 11
345.57902043356
 21
245.5095927681532
 31
0.0
  0
LINE
  5
195E
330
1F
100
AcDbEntity
  8
ﾀｰﾐﾅﾙｶﾊﾞｰ
100
AcDbLine
 10
349.0290204335601
 20
246.1595927681538
 30
0.0
 11
345.0290204335601
 21
246.1595927681538
 31
0.0
  0
LINE
  5
195F
330
1F
100
AcDbEntity
  8
ﾀｰﾐﾅﾙｶﾊﾞｰ
100
AcDbLine
 10
320.7790204335601
 20
245.7095927681543
 30
0.0
 11
320.7790204335603
 21
259.3095927681558
 31
0.0
  0
LINE
  5
1960
330
1F
100
AcDbEntity
  8
ﾀｰﾐﾅﾙｶﾊﾞｰ
100
AcDbLine
 10
321.7790204335601
 20
246.6595927681543
 30
0.0
 11
321.7790204335603
 21
258.3595927681543
 31
0.0
  0
LINE
  5
1961
330
1F
100
AcDbEntity
  8
ﾀｰﾐﾅﾙｶﾊﾞｰ
100
AcDbLine
 10
320.6290204335601
 20
245.5095927681542
 30
0.0
 11
320.6290204335604
 21
259.5095927681543
 31
0.0
  0
LINE
  5
1962
330
1F
100
AcDbEntity
  8
ﾀｰﾐﾅﾙｶﾊﾞｰ
100
AcDbLine
 10
373.27902043356
 20
245.7095927681535
 30
0.0
 11
320.7790204335601
 21
245.7095927681543
 31
0.0
  0
LINE
  5
1963
330
1F
100
AcDbEntity
  8
ﾀｰﾐﾅﾙｶﾊﾞｰ
100
AcDbLine
 10
320.7790204335603
 20
259.3095927681558
 30
0.0
 11
373.2790204335603
 21
259.309592768155
 31
0.0
  0
LINE
  5
1964
330
1F
100
AcDbEntity
  8
ﾀｰﾐﾅﾙｶﾊﾞｰ
100
AcDbLine
 10
372.2790204335601
 20
246.6595927681535
 30
0.0
 11
321.7790204335601
 21
246.6595927681543
 31
0.0
  0
LINE
  5
1965
330
1F
100
AcDbEntity
  8
ﾀｰﾐﾅﾙｶﾊﾞｰ
100
AcDbLine
 10
321.7790204335603
 20
258.3595927681543
 30
0.0
 11
372.2790204335603
 21
258.3595927681535
 31
0.0
  0
LINE
  5
1966
330
1F
100
AcDbEntity
  8
ﾀｰﾐﾅﾙｶﾊﾞｰ
100
AcDbLine
 10
320.6290204335604
 20
259.5095927681543
 30
0.0
 11
373.4290204335601
 21
259.5095927681535
 31
0.0
  0
LINE
  5
1967
330
1F
100
AcDbEntity
  8
ﾀｰﾐﾅﾙｶﾊﾞｰ
100
AcDbLine
 10
373.4290204335599
 20
245.5095927681535
 30
0.0
 11
320.6290204335601
 21
245.5095927681542
 31
0.0
  0
LINE
  5
1968
330
1F
100
AcDbEntity
  8
ﾀｰﾐﾅﾙｶﾊﾞｰ
100
AcDbLine
 10
480.1290204335608
 20
245.5095927681518
 30
0.0
 11
480.1290204335611
 21
259.5095927681519
 31
0.0
  0
LINE
  5
1969
330
1F
100
AcDbEntity
  8
ﾀｰﾐﾅﾙｶﾊﾞｰ
100
AcDbLine
 10
478.9790204335607
 20
246.6595927681519
 30
0.0
 11
478.9790204335609
 21
258.3595927681519
 31
0.0
  0
LINE
  5
196A
330
1F
100
AcDbEntity
  8
ﾀｰﾐﾅﾙｶﾊﾞｰ
100
AcDbLine
 10
479.9790204335607
 20
245.7095927681518
 30
0.0
 11
479.979020433561
 21
259.3095927681542
 31
0.0
  0
LINE
  5
196B
330
1F
100
AcDbEntity
  8
ﾀｰﾐﾅﾙｶﾊﾞｰ
100
AcDbLine
 10
451.7290204335608
 20
246.1595927681522
 30
0.0
 11
455.7290204335608
 21
246.1595927681522
 31
0.0
  0
LINE
  5
196C
330
1F
100
AcDbEntity
  8
ﾀｰﾐﾅﾙｶﾊﾞｰ
100
AcDbLine
 10
455.1790204335608
 20
245.7095927681543
 30
0.0
 11
455.1790204335608
 21
245.5095927681516
 31
0.0
  0
LINE
  5
196D
330
1F
100
AcDbEntity
  8
ﾀｰﾐﾅﾙｶﾊﾞｰ
100
AcDbLine
 10
455.7290204335608
 20
245.7095927681522
 30
0.0
 11
455.7290204335608
 21
246.1595927681522
 31
0.0
  0
LINE
  5
196E
330
1F
100
AcDbEntity
  8
ﾀｰﾐﾅﾙｶﾊﾞｰ
100
AcDbLine
 10
452.2790204335607
 20
245.7095927681523
 30
0.0
 11
452.2790204335607
 21
245.5095927681516
 31
0.0
  0
LINE
  5
196F
330
1F
100
AcDbEntity
  8
ﾀｰﾐﾅﾙｶﾊﾞｰ
100
AcDbLine
 10
451.7290204335608
 20
245.7095927681523
 30
0.0
 11
451.7290204335608
 21
246.1595927681522
 31
0.0
  0
LINE
  5
1970
330
1F
100
AcDbEntity
  8
ﾀｰﾐﾅﾙｶﾊﾞｰ
100
AcDbLine
 10
427.3290204335609
 20
245.5095927681526
 30
0.0
 11
480.1290204335608
 21
245.5095927681518
 31
0.0
  0
LINE
  5
1971
330
1F
100
AcDbEntity
  8
ﾀｰﾐﾅﾙｶﾊﾞｰ
100
AcDbLine
 10
480.1290204335611
 20
259.5095927681519
 30
0.0
 11
427.3290204335611
 21
259.5095927681526
 31
0.0
  0
LINE
  5
1972
330
1F
100
AcDbEntity
  8
ﾀｰﾐﾅﾙｶﾊﾞｰ
100
AcDbLine
 10
478.9790204335609
 20
258.3595927681519
 30
0.0
 11
428.4790204335609
 21
258.3595927681527
 31
0.0
  0
LINE
  5
1973
330
1F
100
AcDbEntity
  8
ﾀｰﾐﾅﾙｶﾊﾞｰ
100
AcDbLine
 10
428.4790204335608
 20
246.6595927681527
 30
0.0
 11
478.9790204335607
 21
246.6595927681519
 31
0.0
  0
LINE
  5
1974
330
1F
100
AcDbEntity
  8
ﾀｰﾐﾅﾙｶﾊﾞｰ
100
AcDbLine
 10
479.979020433561
 20
259.3095927681533
 30
0.0
 11
427.479020433561
 21
259.3095927681542
 31
0.0
  0
LINE
  5
1975
330
1F
100
AcDbEntity
  8
ﾀｰﾐﾅﾙｶﾊﾞｰ
100
AcDbLine
 10
427.4790204335608
 20
245.7095927681527
 30
0.0
 11
479.9790204335607
 21
245.7095927681518
 31
0.0
  0
LINE
  5
1976
330
1F
100
AcDbEntity
  8
ﾀｰﾐﾅﾙｶﾊﾞｰ
100
AcDbLine
 10
427.3290204335611
 20
259.5095927681526
 30
0.0
 11
427.3290204335609
 21
245.5095927681526
 31
0.0
  0
LINE
  5
1977
330
1F
100
AcDbEntity
  8
ﾀｰﾐﾅﾙｶﾊﾞｰ
100
AcDbLine
 10
428.4790204335609
 20
258.3595927681527
 30
0.0
 11
428.4790204335608
 21
246.6595927681527
 31
0.0
  0
LINE
  5
1978
330
1F
100
AcDbEntity
  8
ﾀｰﾐﾅﾙｶﾊﾞｰ
100
AcDbLine
 10
427.479020433561
 20
259.3595927681527
 30
0.0
 11
427.4790204335608
 21
245.7095927681527
 31
0.0
  0
LINE
  5
1979
330
1F
100
AcDbEntity
  8
ﾀｰﾐﾅﾙｶﾊﾞｰ
100
AcDbLine
 10
374.1290204335604
 20
259.3095927681545
 30
0.0
 11
374.1290204335602
 21
245.7095927681529
 31
0.0
  0
LINE
  5
197A
330
1F
100
AcDbEntity
  8
ﾀｰﾐﾅﾙｶﾊﾞｰ
100
AcDbLine
 10
375.1290204335604
 20
258.3595927681529
 30
0.0
 11
375.1290204335602
 21
246.6595927681529
 31
0.0
  0
LINE
  5
197B
330
1F
100
AcDbEntity
  8
ﾀｰﾐﾅﾙｶﾊﾞｰ
100
AcDbLine
 10
373.9790204335605
 20
259.5095927681529
 30
0.0
 11
373.9790204335603
 21
245.5095927681528
 31
0.0
  0
LINE
  5
197C
330
1F
100
AcDbEntity
  8
ﾀｰﾐﾅﾙｶﾊﾞｰ
100
AcDbLine
 10
374.1290204335602
 20
245.709592768153
 30
0.0
 11
426.6290204335602
 21
245.7095927681522
 31
0.0
  0
LINE
  5
197D
330
1F
100
AcDbEntity
  8
ﾀｰﾐﾅﾙｶﾊﾞｰ
100
AcDbLine
 10
426.6290204335604
 20
259.3095927681537
 30
0.0
 11
374.1290204335604
 21
259.3095927681545
 31
0.0
  0
LINE
  5
197E
330
1F
100
AcDbEntity
  8
ﾀｰﾐﾅﾙｶﾊﾞｰ
100
AcDbLine
 10
375.1290204335602
 20
246.6595927681529
 30
0.0
 11
425.6290204335601
 21
246.6595927681522
 31
0.0
  0
LINE
  5
197F
330
1F
100
AcDbEntity
  8
ﾀｰﾐﾅﾙｶﾊﾞｰ
100
AcDbLine
 10
425.6290204335604
 20
258.3595927681523
 30
0.0
 11
375.1290204335604
 21
258.3595927681529
 31
0.0
  0
LINE
  5
1980
330
1F
100
AcDbEntity
  8
ﾀｰﾐﾅﾙｶﾊﾞｰ
100
AcDbLine
 10
426.7790204335605
 20
259.5095927681521
 30
0.0
 11
373.9790204335605
 21
259.5095927681529
 31
0.0
  0
LINE
  5
1981
330
1F
100
AcDbEntity
  8
ﾀｰﾐﾅﾙｶﾊﾞｰ
100
AcDbLine
 10
373.9790204335603
 20
245.5095927681528
 30
0.0
 11
426.7790204335603
 21
245.5095927681521
 31
0.0
  0
LINE
  5
1982
330
1F
100
AcDbEntity
  8
ﾀｰﾐﾅﾙｶﾊﾞｰ
100
AcDbLine
 10
398.3790204335602
 20
245.7095927681526
 30
0.0
 11
398.3790204335602
 21
246.1595927681525
 31
0.0
  0
LINE
  5
1983
330
1F
100
AcDbEntity
  8
ﾀｰﾐﾅﾙｶﾊﾞｰ
100
AcDbLine
 10
398.9290204335601
 20
245.7095927681526
 30
0.0
 11
398.9290204335601
 21
245.5095927681524
 31
0.0
  0
LINE
  5
1984
330
1F
100
AcDbEntity
  8
ﾀｰﾐﾅﾙｶﾊﾞｰ
100
AcDbLine
 10
402.3790204335601
 20
245.7095927681525
 30
0.0
 11
402.3790204335601
 21
246.1595927681524
 31
0.0
  0
LINE
  5
1985
330
1F
100
AcDbEntity
  8
ﾀｰﾐﾅﾙｶﾊﾞｰ
100
AcDbLine
 10
401.8290204335602
 20
245.7095927681525
 30
0.0
 11
401.8290204335602
 21
245.5095927681524
 31
0.0
  0
LINE
  5
1986
330
1F
100
AcDbEntity
  8
ﾀｰﾐﾅﾙｶﾊﾞｰ
100
AcDbLine
 10
398.3790204335602
 20
246.1595927681525
 30
0.0
 11
402.3790204335601
 21
246.1595927681524
 31
0.0
  0
LINE
  5
1987
330
1F
100
AcDbEntity
  8
ﾀｰﾐﾅﾙｶﾊﾞｰ
100
AcDbLine
 10
426.6290204335602
 20
245.7095927681521
 30
0.0
 11
426.6290204335604
 21
259.3595927681521
 31
0.0
  0
LINE
  5
1988
330
1F
100
AcDbEntity
  8
ﾀｰﾐﾅﾙｶﾊﾞｰ
100
AcDbLine
 10
425.6290204335601
 20
246.6595927681522
 30
0.0
 11
425.6290204335604
 21
258.3595927681523
 31
0.0
  0
LINE
  5
1989
330
1F
100
AcDbEntity
  8
ﾀｰﾐﾅﾙｶﾊﾞｰ
100
AcDbLine
 10
426.7790204335603
 20
245.5095927681521
 30
0.0
 11
426.7790204335605
 21
259.5095927681521
 31
0.0
  0
LINE
  5
198A
330
1F
100
AcDbEntity
  8
ﾀｰﾐﾅﾙｶﾊﾞｰ
100
AcDbLine
 10
426.7790204335597
 20
184.0095927681549
 30
0.0
 11
426.7790204335597
 21
170.0095927681548
 31
0.0
  0
LINE
  5
198B
330
1F
100
AcDbEntity
  8
ﾀｰﾐﾅﾙｶﾊﾞｰ
100
AcDbLine
 10
425.6290204335597
 20
182.8095927681549
 30
0.0
 11
425.6290204335597
 21
171.2095927681544
 31
0.0
  0
LINE
  5
198C
330
1F
100
AcDbEntity
  8
ﾀｰﾐﾅﾙｶﾊﾞｰ
100
AcDbLine
 10
426.6290204335597
 20
183.8095927681549
 30
0.0
 11
426.6290204335597
 21
170.2095927681544
 31
0.0
  0
LINE
  5
198D
330
1F
100
AcDbEntity
  8
ﾀｰﾐﾅﾙｶﾊﾞｰ
100
AcDbLine
 10
398.3790204335597
 20
183.359592768155
 30
0.0
 11
402.3790204335597
 21
183.359592768155
 31
0.0
  0
LINE
  5
198E
330
1F
100
AcDbEntity
  8
ﾀｰﾐﾅﾙｶﾊﾞｰ
100
AcDbLine
 10
401.8290204335597
 20
183.8095927681549
 30
0.0
 11
401.8290204335597
 21
184.0095927681545
 31
0.0
  0
LINE
  5
198F
330
1F
100
AcDbEntity
  8
ﾀｰﾐﾅﾙｶﾊﾞｰ
100
AcDbLine
 10
402.3790204335597
 20
183.8095927681549
 30
0.0
 11
402.3790204335597
 21
183.359592768155
 31
0.0
  0
LINE
  5
1990
330
1F
100
AcDbEntity
  8
ﾀｰﾐﾅﾙｶﾊﾞｰ
100
AcDbLine
 10
398.9290204335597
 20
183.8095927681549
 30
0.0
 11
398.9290204335597
 21
184.0095927681545
 31
0.0
  0
LINE
  5
1991
330
1F
100
AcDbEntity
  8
ﾀｰﾐﾅﾙｶﾊﾞｰ
100
AcDbLine
 10
398.3790204335597
 20
183.8095927681543
 30
0.0
 11
398.3790204335597
 21
183.359592768155
 31
0.0
  0
LINE
  5
1992
330
1F
100
AcDbEntity
  8
ﾀｰﾐﾅﾙｶﾊﾞｰ
100
AcDbLine
 10
373.9790204335599
 20
184.0095927681549
 30
0.0
 11
426.7790204335597
 21
184.0095927681549
 31
0.0
  0
LINE
  5
1993
330
1F
100
AcDbEntity
  8
ﾀｰﾐﾅﾙｶﾊﾞｰ
100
AcDbLine
 10
426.7790204335597
 20
170.0095927681548
 30
0.0
 11
373.9790204335599
 21
170.0095927681548
 31
0.0
  0
LINE
  5
1994
330
1F
100
AcDbEntity
  8
ﾀｰﾐﾅﾙｶﾊﾞｰ
100
AcDbLine
 10
425.6290204335597
 20
171.209592768155
 30
0.0
 11
375.1290204335597
 21
171.209592768155
 31
0.0
  0
LINE
  5
1995
330
1F
100
AcDbEntity
  8
ﾀｰﾐﾅﾙｶﾊﾞｰ
100
AcDbLine
 10
375.1290204335597
 20
182.8095927681549
 30
0.0
 11
425.6290204335597
 21
182.8095927681549
 31
0.0
  0
LINE
  5
1996
330
1F
100
AcDbEntity
  8
ﾀｰﾐﾅﾙｶﾊﾞｰ
100
AcDbLine
 10
426.6290204335597
 20
170.209592768155
 30
0.0
 11
374.1290204335598
 21
170.209592768155
 31
0.0
  0
LINE
  5
1997
330
1F
100
AcDbEntity
  8
ﾀｰﾐﾅﾙｶﾊﾞｰ
100
AcDbLine
 10
374.1290204335598
 20
183.8095927681549
 30
0.0
 11
426.6290204335597
 21
183.8095927681549
 31
0.0
  0
LINE
  5
1998
330
1F
100
AcDbEntity
  8
ﾀｰﾐﾅﾙｶﾊﾞｰ
100
AcDbLine
 10
373.9790204335599
 20
170.0095927681548
 30
0.0
 11
373.9790204335599
 21
184.0095927681549
 31
0.0
  0
LINE
  5
1999
330
1F
100
AcDbEntity
  8
ﾀｰﾐﾅﾙｶﾊﾞｰ
100
AcDbLine
 10
375.1290204335597
 20
171.2095927681544
 30
0.0
 11
375.1290204335596
 21
182.8095927681549
 31
0.0
  0
LINE
  5
199A
330
1F
100
AcDbEntity
  8
ﾀｰﾐﾅﾙｶﾊﾞｰ
100
AcDbLine
 10
374.1290204335598
 20
170.2095927681544
 30
0.0
 11
374.1290204335598
 21
183.8095927681549
 31
0.0
  0
LINE
  5
199B
330
1F
100
AcDbEntity
  8
ﾀｰﾐﾅﾙｶﾊﾞｰ
100
AcDbLine
 10
427.4790204335602
 20
170.2095927681544
 30
0.0
 11
427.4790204335602
 21
183.8095927681543
 31
0.0
  0
LINE
  5
199C
330
1F
100
AcDbEntity
  8
ﾀｰﾐﾅﾙｶﾊﾞｰ
100
AcDbLine
 10
428.4790204335603
 20
171.2095927681544
 30
0.0
 11
428.4790204335601
 21
182.8095927681543
 31
0.0
  0
LINE
  5
199D
330
1F
100
AcDbEntity
  8
ﾀｰﾐﾅﾙｶﾊﾞｰ
100
AcDbLine
 10
427.3290204335604
 20
170.0095927681544
 30
0.0
 11
427.3290204335604
 21
184.0095927681544
 31
0.0
  0
LINE
  5
199E
330
1F
100
AcDbEntity
  8
ﾀｰﾐﾅﾙｶﾊﾞｰ
100
AcDbLine
 10
427.4790204335602
 20
183.8095927681543
 30
0.0
 11
479.9790204335603
 21
183.8095927681543
 31
0.0
  0
LINE
  5
199F
330
1F
100
AcDbEntity
  8
ﾀｰﾐﾅﾙｶﾊﾞｰ
100
AcDbLine
 10
479.9790204335603
 20
170.2095927681544
 30
0.0
 11
427.4790204335602
 21
170.2095927681544
 31
0.0
  0
LINE
  5
19A0
330
1F
100
AcDbEntity
  8
ﾀｰﾐﾅﾙｶﾊﾞｰ
100
AcDbLine
 10
428.4790204335603
 20
182.8095927681543
 30
0.0
 11
478.9790204335603
 21
182.8095927681543
 31
0.0
  0
LINE
  5
19A1
330
1F
100
AcDbEntity
  8
ﾀｰﾐﾅﾙｶﾊﾞｰ
100
AcDbLine
 10
478.9790204335603
 20
171.2095927681544
 30
0.0
 11
428.4790204335603
 21
171.2095927681544
 31
0.0
  0
LINE
  5
19A2
330
1F
100
AcDbEntity
  8
ﾀｰﾐﾅﾙｶﾊﾞｰ
100
AcDbLine
 10
480.1290204335604
 20
170.0095927681544
 30
0.0
 11
427.3290204335604
 21
170.0095927681544
 31
0.0
  0
LINE
  5
19A3
330
1F
100
AcDbEntity
  8
ﾀｰﾐﾅﾙｶﾊﾞｰ
100
AcDbLine
 10
427.3290204335604
 20
184.0095927681544
 30
0.0
 11
480.1290204335604
 21
184.0095927681544
 31
0.0
  0
LINE
  5
19A4
330
1F
100
AcDbEntity
  8
ﾀｰﾐﾅﾙｶﾊﾞｰ
100
AcDbLine
 10
451.7290204335603
 20
183.8095927681543
 30
0.0
 11
451.7290204335603
 21
183.3595927681544
 31
0.0
  0
LINE
  5
19A5
330
1F
100
AcDbEntity
  8
ﾀｰﾐﾅﾙｶﾊﾞｰ
100
AcDbLine
 10
452.2790204335603
 20
183.8095927681543
 30
0.0
 11
452.2790204335604
 21
184.0095927681545
 31
0.0
  0
LINE
  5
19A6
330
1F
100
AcDbEntity
  8
ﾀｰﾐﾅﾙｶﾊﾞｰ
100
AcDbLine
 10
455.7290204335603
 20
183.8095927681543
 30
0.0
 11
455.7290204335603
 21
183.3595927681544
 31
0.0
  0
LINE
  5
19A7
330
1F
100
AcDbEntity
  8
ﾀｰﾐﾅﾙｶﾊﾞｰ
100
AcDbLine
 10
455.1790204335603
 20
183.8095927681543
 30
0.0
 11
455.1790204335603
 21
184.0095927681545
 31
0.0
  0
LINE
  5
19A8
330
1F
100
AcDbEntity
  8
ﾀｰﾐﾅﾙｶﾊﾞｰ
100
AcDbLine
 10
451.7290204335603
 20
183.3595927681544
 30
0.0
 11
455.7290204335603
 21
183.3595927681544
 31
0.0
  0
LINE
  5
19A9
330
1F
100
AcDbEntity
  8
ﾀｰﾐﾅﾙｶﾊﾞｰ
100
AcDbLine
 10
479.9790204335603
 20
183.8095927681543
 30
0.0
 11
479.9790204335603
 21
170.2095927681544
 31
0.0
  0
LINE
  5
19AA
330
1F
100
AcDbEntity
  8
ﾀｰﾐﾅﾙｶﾊﾞｰ
100
AcDbLine
 10
478.9790204335603
 20
182.8095927681543
 30
0.0
 11
478.9790204335601
 21
171.2095927681544
 31
0.0
  0
LINE
  5
19AB
330
1F
100
AcDbEntity
  8
ﾀｰﾐﾅﾙｶﾊﾞｰ
100
AcDbLine
 10
480.1290204335604
 20
184.0095927681544
 30
0.0
 11
480.1290204335604
 21
170.0095927681544
 31
0.0
  0
LINE
  5
19AC
330
1F
100
AcDbEntity
  8
ﾀｰﾐﾅﾙｶﾊﾞｰ
100
AcDbLine
 10
373.4290204335595
 20
184.0095927681544
 30
0.0
 11
320.6290204335597
 21
184.0095927681544
 31
0.0
  0
LINE
  5
19AD
330
1F
100
AcDbEntity
  8
ﾀｰﾐﾅﾙｶﾊﾞｰ
100
AcDbLine
 10
320.6290204335597
 20
170.0095927681544
 30
0.0
 11
373.4290204335595
 21
170.0095927681544
 31
0.0
  0
LINE
  5
19AE
330
1F
100
AcDbEntity
  8
ﾀｰﾐﾅﾙｶﾊﾞｰ
100
AcDbLine
 10
321.7790204335596
 20
171.2095927681544
 30
0.0
 11
372.2790204335596
 21
171.2095927681544
 31
0.0
  0
LINE
  5
19AF
330
1F
100
AcDbEntity
  8
ﾀｰﾐﾅﾙｶﾊﾞｰ
100
AcDbLine
 10
372.2790204335596
 20
182.8095927681543
 30
0.0
 11
321.7790204335596
 21
182.8095927681543
 31
0.0
  0
LINE
  5
19B0
330
1F
100
AcDbEntity
  8
ﾀｰﾐﾅﾙｶﾊﾞｰ
100
AcDbLine
 10
320.7790204335597
 20
170.2095927681544
 30
0.0
 11
373.2790204335596
 21
170.2095927681544
 31
0.0
  0
LINE
  5
19B1
330
1F
100
AcDbEntity
  8
ﾀｰﾐﾅﾙｶﾊﾞｰ
100
AcDbLine
 10
373.2790204335596
 20
183.8095927681543
 30
0.0
 11
320.7790204335597
 21
183.8095927681543
 31
0.0
  0
LINE
  5
19B2
330
1F
100
AcDbEntity
  8
ﾀｰﾐﾅﾙｶﾊﾞｰ
100
AcDbLine
 10
320.6290204335597
 20
184.0095927681544
 30
0.0
 11
320.6290204335597
 21
170.0095927681544
 31
0.0
  0
LINE
  5
19B3
330
1F
100
AcDbEntity
  8
ﾀｰﾐﾅﾙｶﾊﾞｰ
100
AcDbLine
 10
321.7790204335596
 20
182.8095927681543
 30
0.0
 11
321.7790204335596
 21
171.2095927681544
 31
0.0
  0
LINE
  5
19B4
330
1F
100
AcDbEntity
  8
ﾀｰﾐﾅﾙｶﾊﾞｰ
100
AcDbLine
 10
320.7790204335597
 20
183.8095927681543
 30
0.0
 11
320.7790204335597
 21
170.2095927681544
 31
0.0
  0
LINE
  5
19B5
330
1F
100
AcDbEntity
  8
ﾀｰﾐﾅﾙｶﾊﾞｰ
100
AcDbLine
 10
349.0290204335596
 20
183.3595927681544
 30
0.0
 11
345.0290204335596
 21
183.3595927681544
 31
0.0
  0
LINE
  5
19B6
330
1F
100
AcDbEntity
  8
ﾀｰﾐﾅﾙｶﾊﾞｰ
100
AcDbLine
 10
345.5790204335595
 20
183.8095927681543
 30
0.0
 11
345.5790204335598
 21
184.0095927681545
 31
0.0
  0
LINE
  5
19B7
330
1F
100
AcDbEntity
  8
ﾀｰﾐﾅﾙｶﾊﾞｰ
100
AcDbLine
 10
345.0290204335596
 20
183.8095927681543
 30
0.0
 11
345.0290204335596
 21
183.3595927681544
 31
0.0
  0
LINE
  5
19B8
330
1F
100
AcDbEntity
  8
ﾀｰﾐﾅﾙｶﾊﾞｰ
100
AcDbLine
 10
348.4790204335596
 20
183.8095927681543
 30
0.0
 11
348.4790204335596
 21
184.0095927681545
 31
0.0
  0
LINE
  5
19B9
330
1F
100
AcDbEntity
  8
ﾀｰﾐﾅﾙｶﾊﾞｰ
100
AcDbLine
 10
349.0290204335596
 20
183.8095927681543
 30
0.0
 11
349.0290204335596
 21
183.3595927681544
 31
0.0
  0
LINE
  5
19BA
330
1F
100
AcDbEntity
  8
ﾀｰﾐﾅﾙｶﾊﾞｰ
100
AcDbLine
 10
373.4290204335595
 20
170.0095927681544
 30
0.0
 11
373.4290204335595
 21
184.0095927681544
 31
0.0
  0
LINE
  5
19BB
330
1F
100
AcDbEntity
  8
ﾀｰﾐﾅﾙｶﾊﾞｰ
100
AcDbLine
 10
372.2790204335596
 20
171.2095927681544
 30
0.0
 11
372.2790204335596
 21
182.8095927681543
 31
0.0
  0
LINE
  5
19BC
330
1F
100
AcDbEntity
  8
ﾀｰﾐﾅﾙｶﾊﾞｰ
100
AcDbLine
 10
373.2790204335596
 20
170.2095927681544
 30
0.0
 11
373.2790204335596
 21
183.8095927681543
 31
0.0
  0
LINE
  5
19BD
330
1F
100
AcDbEntity
  8
ﾎﾞﾃﾞｨｰ
100
AcDbLine
 10
443.6290204335597
 20
185.6095927681541
 30
0.0
 11
437.6290204335597
 21
185.6095927681539
 31
0.0
  0
LINE
  5
19BE
330
1F
100
AcDbEntity
  8
ﾎﾞﾃﾞｨｰ
100
AcDbLine
 10
443.6290204335597
 20
187.5095927681539
 30
0.0
 11
443.6290204335597
 21
185.6095927681541
 31
0.0
  0
LINE
  5
19BF
330
1F
100
AcDbEntity
  8
ﾎﾞﾃﾞｨｰ
100
AcDbLine
 10
437.6290204335597
 20
187.5095927681538
 30
0.0
 11
443.6290204335597
 21
187.509592768154
 31
0.0
  0
LINE
  5
19C0
330
1F
100
AcDbEntity
  8
ﾎﾞﾃﾞｨｰ
100
AcDbLine
 10
437.6290204335597
 20
185.6095927681538
 30
0.0
 11
437.6290204335597
 21
187.5095927681538
 31
0.0
  0
LINE
  5
19C2
330
1F
100
AcDbEntity
  8
ﾎﾞﾃﾞｨｰ
100
AcDbLine
 10
209.1106108543887
 20
186.4095927681532
 30
0.0
 11
204.1106108543886
 21
185.6095927681532
 31
0.0
  0
LINE
  5
19C4
330
1F
100
AcDbEntity
  8
ﾎﾞﾃﾞｨｰ
100
AcDbLine
 10
216.2106108543885
 20
193.6095927681532
 30
0.0
 11
216.2106108543885
 21
194.4095927681532
 31
0.0
  0
LINE
  5
19C5
330
1F
100
AcDbEntity
  8
ﾎﾞﾃﾞｨｰ
100
AcDbLine
 10
214.7106108543886
 20
191.7095927681531
 30
0.0
 11
214.7106108543886
 21
193.4095927681531
 31
0.0
  0
LINE
  5
19C6
330
1F
100
AcDbEntity
  8
ﾎﾞﾃﾞｨｰ
100
AcDbLine
 10
214.7106108543886
 20
191.7095927681531
 30
0.0
 11
215.8106108543887
 21
191.7095927681531
 31
0.0
  0
LINE
  5
19C7
330
1F
100
AcDbEntity
  8
ﾎﾞﾃﾞｨｰ
100
AcDbLine
 10
214.7106108543886
 20
193.4095927681531
 30
0.0
 11
216.2106108543885
 21
194.4095927681532
 31
0.0
  0
LINE
  5
19CB
330
1F
100
AcDbEntity
  8
ﾎﾞﾃﾞｨｰ
100
AcDbLine
 10
182.3106108543886
 20
169.5595927681532
 30
0.0
 11
182.3106108543886
 21
171.4595927681531
 31
0.0
  0
LINE
  5
19CC
330
1F
100
AcDbEntity
  8
ﾎﾞﾃﾞｨｰ
100
AcDbLine
 10
176.3106108543886
 20
171.4595927681531
 30
0.0
 11
182.3106108543886
 21
171.4595927681531
 31
0.0
  0
LINE
  5
19CD
330
1F
100
AcDbEntity
  8
ﾎﾞﾃﾞｨｰ
100
AcDbLine
 10
180.8106108543886
 20
184.1095927681532
 30
0.0
 11
180.8106108543886
 21
185.6095927681532
 31
0.0
  0
LINE
  5
19CE
330
1F
100
AcDbEntity
  8
ﾎﾞﾃﾞｨｰ
100
AcDbLine
 10
195.7106108543887
 20
184.1095927681532
 30
0.0
 11
195.7106108543887
 21
185.6095927681532
 31
0.0
  0
LINE
  5
19D0
330
1F
100
AcDbEntity
  8
ﾎﾞﾃﾞｨｰ
100
AcDbLine
 10
195.6106108543882
 20
169.5595927681532
 30
0.0
 11
195.6106108543881
 21
169.8345927681532
 31
0.0
  0
LINE
  5
19D1
330
1F
100
AcDbEntity
  8
ﾎﾞﾃﾞｨｰ
100
AcDbLine
 10
210.8106108543887
 20
186.6095927681532
 30
0.0
 11
215.8106108543887
 21
186.4595927681531
 31
0.0
  0
LINE
  5
19D2
330
1F
100
AcDbEntity
  8
ﾎﾞﾃﾞｨｰ
100
AcDbLine
 10
210.8106108543887
 20
189.1095927681532
 30
0.0
 11
215.8106108543887
 21
189.2595927681531
 31
0.0
  0
LINE
  5
19D3
330
1F
100
AcDbEntity
  8
ﾎﾞﾃﾞｨｰ
100
AcDbLine
 10
210.8106108543887
 20
186.6095927681532
 30
0.0
 11
210.8106108543887
 21
189.1095927681532
 31
0.0
  0
LINE
  5
19D4
330
1F
100
AcDbEntity
  8
ﾎﾞﾃﾞｨｰ
100
AcDbLine
 10
217.9106108543886
 20
194.6095927681532
 30
0.0
 11
223.4106108543886
 21
194.6095927681532
 31
0.0
  0
LINE
  5
19D5
330
1F
100
AcDbEntity
  8
ﾎﾞﾃﾞｨｰ
100
AcDbLine
 10
217.9106108543886
 20
194.6095927681532
 30
0.0
 11
217.9106108543886
 21
197.6095927681532
 31
0.0
  0
LINE
  5
19D6
330
1F
100
AcDbEntity
  8
ﾎﾞﾃﾞｨｰ
100
AcDbLine
 10
217.9106108543886
 20
197.6095927681532
 30
0.0
 11
224.8106108543885
 21
197.6095927681532
 31
0.0
  0
LINE
  5
19DA
330
1F
100
AcDbEntity
  8
ﾎﾞﾃﾞｨｰ
100
AcDbLine
 10
224.8106108543885
 20
211.5595927681533
 30
0.0
 11
223.4106108543886
 21
211.5595927681533
 31
0.0
  0
LINE
  5
19DB
330
1F
100
AcDbEntity
  8
ﾎﾞﾃﾞｨｰ
100
AcDbLine
 10
223.4106108543886
 20
212.3825927681531
 30
0.0
 11
223.4106108543886
 21
197.6095927681532
 31
0.0
  0
LINE
  5
19DC
330
1F
100
AcDbEntity
  8
ﾎﾞﾃﾞｨｰ
100
AcDbLine
 10
224.8106108543885
 20
212.2845927681532
 30
0.0
 11
224.8106108543885
 21
195.3095927681532
 31
0.0
  0
LINE
  5
19DD
330
1F
100
AcDbEntity
  8
ﾎﾞﾃﾞｨｰ
100
AcDbLine
 10
224.8106108543885
 20
195.3095927681532
 30
0.0
 11
224.8106108543887
 21
193.6095927681532
 31
0.0
  0
LINE
  5
19DE
330
1F
100
AcDbEntity
  8
ﾎﾞﾃﾞｨｰ
100
AcDbLine
 10
223.4106108543886
 20
195.3095927681532
 30
0.0
 11
223.4106108543886
 21
193.6095927681532
 31
0.0
  0
LINE
  5
19DF
330
1F
100
AcDbEntity
  8
ﾎﾞﾃﾞｨｰ
100
AcDbLine
 10
223.4106108543886
 20
195.3095927681532
 30
0.0
 11
224.8106108543885
 21
195.3095927681532
 31
0.0
  0
LINE
  5
19E0
330
1F
100
AcDbEntity
  8
ﾎﾞﾃﾞｨｰ
100
AcDbLine
 10
209.1106108543887
 20
185.6095927681532
 30
0.0
 11
217.3106108543887
 21
185.6095927681532
 31
0.0
  0
LINE
  5
19E1
330
1F
100
AcDbEntity
  8
ﾎﾞﾃﾞｨｰ
100
AcDbLine
 10
209.1106108543887
 20
185.6095927681532
 30
0.0
 11
209.1106108543887
 21
186.4095927681532
 31
0.0
  0
LINE
  5
19E2
330
1F
100
AcDbEntity
  8
ﾎﾞﾃﾞｨｰ
100
AcDbLine
 10
215.8106108543887
 20
185.6095927681532
 30
0.0
 11
215.8106108543887
 21
191.7095927681531
 31
0.0
  0
LINE
  5
19E3
330
1F
100
AcDbEntity
  8
ﾎﾞﾃﾞｨｰ
100
AcDbLine
 10
180.8106108543886
 20
185.6095927681532
 30
0.0
 11
204.1106108543886
 21
185.6095927681532
 31
0.0
  0
LINE
  5
19E4
330
1F
100
AcDbEntity
  8
ﾎﾞﾃﾞｨｰ
100
AcDbLine
 10
216.2106108543885
 20
193.6095927681532
 30
0.0
 11
227.3106108543887
 21
193.6095927681532
 31
0.0
  0
LINE
  5
19E5
330
1F
100
AcDbEntity
  8
ﾎﾞﾃﾞｨｰ
100
AcDbLine
 10
215.8106108543887
 20
187.5095927681531
 30
0.0
 11
217.3106108543887
 21
187.5095927681533
 31
0.0
  0
LINE
  5
19E6
330
1F
100
AcDbEntity
  8
ﾎﾞﾃﾞｨｰ
100
AcDbLine
 10
217.3106108543887
 20
192.1095927681532
 30
0.0
 11
217.3106108543887
 21
184.1095927681532
 31
0.0
  0
LINE
  5
19E7
102
{ACAD_REACTORS
330
18E1
102
}
330
1F
100
AcDbEntity
  8
ﾎﾞﾃﾞｨｰ
100
AcDbLine
 10
227.3106108543887
 20
237.1095927681532
 30
0.0
 11
227.3106108543887
 21
192.1095927681532
 31
0.0
  0
LINE
  5
19E8
330
1F
100
AcDbEntity
  8
ﾎﾞﾃﾞｨｰ
100
AcDbLine
 10
217.3106108543887
 20
192.1095927681532
 30
0.0
 11
227.3106108543887
 21
192.1095927681532
 31
0.0
1001
GENIUS_GENODEF_13
1002
{
1000
HIER
1070
     0
1002
}
1002
{
1000
MANEDIT
1070
     0
1002
}
1002
{
1000
NOSEL
1070
     0
1002
}
1002
{
1000
BEHIND
1070
     0
1002
}
1002
{
1000
REACTOR
1002
}
1001
GENIUS_GENOBJ-N-CEN_13
1002
{
1000
OWNER
1000
GEN
1002
}
  0
LINE
  5
19EB
330
1F
100
AcDbEntity
  8
ﾎﾞﾃﾞｨｰ
100
AcDbLine
 10
180.8106108543886
 20
184.1095927681532
 30
0.0
 11
194.6177537115316
 21
184.1095927681532
 31
0.0
1001
GENIUS_GENODEF_13
1002
{
1000
HIER
1070
     0
1002
}
1002
{
1000
MANEDIT
1070
     0
1002
}
1002
{
1000
NOSEL
1070
     0
1002
}
1002
{
1000
BEHIND
1070
     0
1002
}
1002
{
1000
REACTOR
1002
}
1001
GENIUS_GENOBJ-N-CEN_13
1002
{
1000
OWNER
1000
GEN
1002
}
  0
LINE
  5
19ED
330
1F
100
AcDbEntity
  8
ﾎﾞﾃﾞｨｰ
100
AcDbLine
 10
176.3106108543886
 20
169.5595927681532
 30
0.0
 11
195.6106108543882
 21
169.5595927681532
 31
0.0
  0
LINE
  5
19F0
330
1F
100
AcDbEntity
  8
ﾍﾞｰｽ
100
AcDbLine
 10
179.3106108543886
 20
171.4595927681531
 30
0.0
 11
179.3106108543884
 21
257.7595927681532
 31
0.0
  0
LINE
  5
19F1
330
1F
100
AcDbEntity
  8
ﾍﾞｰｽ
100
AcDbLine
 10
176.3106108543887
 20
181.9095927681532
 30
0.0
 11
176.3106108543885
 21
247.3095927681533
 31
0.0
  0
LINE
  5
19F8
330
1F
100
AcDbEntity
  8
ﾍﾞｰｽ
100
AcDbLine
 10
169.3106108543887
 20
169.8095927681532
 30
0.0
 11
169.3106108543887
 21
195.0095927681533
 31
0.0
  0
LINE
  5
19FD
330
1F
100
AcDbEntity
  8
ﾍﾞｰｽ
100
AcDbLine
 10
174.2106108543886
 20
196.1095927681532
 30
0.0
 11
169.3106108543887
 21
195.0095927681533
 31
0.0
  0
LINE
  5
19FF
330
1F
100
AcDbEntity
  8
ﾍﾞｰｽ
100
AcDbLine
 10
172.8106108543887
 20
181.9095927681532
 30
0.0
 11
172.8106108543887
 21
175.4095927681531
 31
0.0
  0
LINE
  5
1A00
330
1F
100
AcDbEntity
  8
ﾍﾞｰｽ
100
AcDbLine
 10
176.3106108543887
 20
181.9095927681532
 30
0.0
 11
169.3106108543887
 21
181.9095927681532
 31
0.0
  0
LINE
  5
1A01
330
1F
100
AcDbEntity
  8
ﾍﾞｰｽ
100
AcDbLine
 10
176.3106108543887
 20
175.4095927681531
 30
0.0
 11
169.3106108543887
 21
175.4095927681531
 31
0.0
  0
LINE
  5
1A02
330
1F
100
AcDbEntity
  8
ﾍﾞｰｽ
100
AcDbLine
 10
179.3106108543886
 20
171.4595927681531
 30
0.0
 11
176.3106108543886
 21
171.4595927681531
 31
0.0
  0
LINE
  5
1A03
330
1F
100
AcDbEntity
  8
ﾍﾞｰｽ
100
AcDbLine
 10
176.3106108543887
 20
169.8095927681532
 30
0.0
 11
176.3106108543887
 21
175.4095927681531
 31
0.0
  0
LINE
  5
1A05
102
{ACAD_REACTORS
330
1A61
102
}
330
1F
100
AcDbEntity
  8
ﾍﾞｰｽ
100
AcDbLine
 10
169.3106108543887
 20
169.8095927681532
 30
0.0
 11
176.3106108543887
 21
169.8095927681532
 31
0.0
  0
LINE
  5
1A08
330
1F
100
AcDbEntity
  8
ﾎﾞﾃﾞｨｰ
100
AcDbLine
 10
176.3106108543886
 20
169.5595927681532
 30
0.0
 11
176.3106108543886
 21
171.4595927681531
 31
0.0
  0
LINE
  5
1A09
330
1F
100
AcDbEntity
  8
前面ﾊﾟﾈﾙ
100
AcDbLine
 10
224.8106108543887
 20
193.6095927681532
 30
0.0
 11
227.310610854388
 21
193.609592768153
 31
0.0
  0
LINE
  5
1A0A
330
1F
100
AcDbEntity
  8
前面ﾊﾟﾈﾙ
100
AcDbLine
 10
222.3106108543887
 20
212.4595927681531
 30
0.0
 11
222.3106108543887
 21
216.7595927681534
 31
0.0
  0
LINE
  5
1A0B
330
1F
100
AcDbEntity
  8
前面ﾊﾟﾈﾙ
100
AcDbLine
 10
223.5106108543888
 20
216.8435927681533
 30
0.0
 11
223.5106108543888
 21
212.3818149903753
 31
0.0
  0
LINE
  5
1A0C
330
1F
100
AcDbEntity
  8
前面ﾊﾟﾈﾙ
100
AcDbLine
 10
224.8106108543885
 20
212.2845927681532
 30
0.0
 11
222.3106108543887
 21
212.4595927681531
 31
0.0
  0
LINE
  5
1A0D
330
1F
100
AcDbEntity
  8
前面ﾊﾟﾈﾙ
100
AcDbLine
 10
224.8106108543883
 20
235.6095927681534
 30
0.0
 11
224.8106108543887
 21
193.6095927681532
 31
0.0
  0
LINE
  5
1A0E
330
1F
100
AcDbEntity
  8
前面ﾊﾟﾈﾙ
100
AcDbLine
 10
227.3106108543887
 20
235.6095927681535
 30
0.0
 11
227.3106108543887
 21
193.609592768153
 31
0.0
  0
LINE
  5
1A0F
330
1F
100
AcDbEntity
  8
前面ﾊﾟﾈﾙ
100
AcDbLine
 10
227.0106108543897
 20
234.9095927681536
 30
0.0
 11
227.0106108543874
 21
194.309592768153
 31
0.0
  0
LINE
  5
1A10
330
1F
100
AcDbEntity
  8
前面ﾊﾟﾈﾙ
100
AcDbLine
 10
227.0106108543874
 20
194.309592768153
 30
0.0
 11
227.3106108543887
 21
194.309592768153
 31
0.0
  0
ARC
  5
1A13
330
1F
100
AcDbEntity
  8
ﾀｰﾐﾅﾙｶﾊﾞｰ
100
AcDbCircle
 10
191.5106108543887
 20
171.8595927681533
 30
0.0
 40
0.5
100
AcDbArc
 50
180.0
 51
270.0
1001
GENIUS_GENODEF_13
1002
{
1000
HIER
1070
     0
1002
}
1002
{
1000
MANEDIT
1070
     0
1002
}
1002
{
1000
NOSEL
1070
     0
1002
}
1002
{
1000
BEHIND
1070
     0
1002
}
1002
{
1000
REACTOR
1002
}
1001
GENIUS_GENOBJ-N-FIL_13
1002
{
1000
OWNER
1000
GEN
1002
}
  0
ARC
  5
1A14
330
1F
100
AcDbEntity
  8
ﾀｰﾐﾅﾙｶﾊﾞｰ
100
AcDbCircle
 10
191.5106108543887
 20
183.3595927681533
 30
0.0
 40
0.5
100
AcDbArc
 50
90.0
 51
180.0
1001
GENIUS_GENODEF_13
1002
{
1000
HIER
1070
     0
1002
}
1002
{
1000
MANEDIT
1070
     0
1002
}
1002
{
1000
NOSEL
1070
     0
1002
}
1002
{
1000
BEHIND
1070
     0
1002
}
1002
{
1000
REACTOR
1002
}
1001
GENIUS_GENOBJ-N-FIL_13
1002
{
1000
OWNER
1000
GEN
1002
}
  0
LINE
  5
1A15
330
1F
100
AcDbEntity
  8
ﾀｰﾐﾅﾙｶﾊﾞｰ
100
AcDbLine
 10
200.7106108543887
 20
171.3595927681533
 30
0.0
 11
182.3106108543887
 21
171.3595927681533
 31
0.0
  0
LINE
  5
1A16
330
1F
100
AcDbEntity
  8
ﾀｰﾐﾅﾙｶﾊﾞｰ
100
AcDbLine
 10
195.8106108543879
 20
183.8595927681533
 30
0.0
 11
195.7106108543888
 21
183.859592768153
 31
0.0
  0
LINE
  5
1A17
330
1F
100
AcDbEntity
  8
ﾀｰﾐﾅﾙｶﾊﾞｰ
100
AcDbLine
 10
191.0106108543887
 20
183.3595927681533
 30
0.0
 11
191.0106108543887
 21
171.8595927681533
 31
0.0
  0
LINE
  5
1A18
330
1F
100
AcDbEntity
  8
ﾀｰﾐﾅﾙｶﾊﾞｰ
100
AcDbLine
 10
202.3106108543886
 20
170.0595927681533
 30
0.0
 11
195.8106108543875
 21
169.8595927681533
 31
0.0
  0
LINE
  5
1A19
330
1F
100
AcDbEntity
  8
ﾀｰﾐﾅﾙｶﾊﾞｰ
100
AcDbLine
 10
195.8106108543879
 20
183.8595927681533
 30
0.0
 11
202.3106108543886
 21
183.6595927681532
 31
0.0
  0
LINE
  5
1A1A
330
1F
100
AcDbEntity
  8
ﾀｰﾐﾅﾙｶﾊﾞｰ
100
AcDbLine
 10
195.8106108543875
 20
169.8595927681533
 30
0.0
 11
182.3106108543887
 21
169.8595927681533
 31
0.0
  0
LINE
  5
1A1B
330
1F
100
AcDbEntity
  8
ﾀｰﾐﾅﾙｶﾊﾞｰ
100
AcDbLine
 10
182.3106108543887
 20
171.3595927681533
 30
0.0
 11
182.3106108543887
 21
169.8595927681533
 31
0.0
  0
LINE
  5
1A1C
330
1F
100
AcDbEntity
  8
ﾀｰﾐﾅﾙｶﾊﾞｰ
100
AcDbLine
 10
202.3106108543886
 20
183.6595927681532
 30
0.0
 11
202.3106108543886
 21
170.0595927681533
 31
0.0
  0
LINE
  5
1A1D
330
1F
100
AcDbEntity
  8
ﾀｰﾐﾅﾙｶﾊﾞｰ
100
AcDbLine
 10
202.3106108543886
 20
182.6595927681532
 30
0.0
 11
202.0106108543886
 21
182.6595927681532
 31
0.0
  0
LINE
  5
1A1E
330
1F
100
AcDbEntity
  8
ﾀｰﾐﾅﾙｶﾊﾞｰ
100
AcDbLine
 10
202.0106108543886
 20
182.6595927681532
 30
0.0
 11
202.0106108543886
 21
171.0595927681533
 31
0.0
  0
LINE
  5
1A1F
330
1F
100
AcDbEntity
  8
ﾀｰﾐﾅﾙｶﾊﾞｰ
100
AcDbLine
 10
202.0106108543886
 20
171.0595927681533
 30
0.0
 11
202.3106108543888
 21
171.0595927681533
 31
0.0
  0
LINE
  5
1A20
330
1F
100
AcDbEntity
  8
ﾀｰﾐﾅﾙｶﾊﾞｰ
100
AcDbLine
 10
192.3106108543887
 20
183.859592768153
 30
0.0
 11
192.3106108543887
 21
182.6595927681532
 31
0.0
  0
LINE
  5
1A21
330
1F
100
AcDbEntity
  8
ﾀｰﾐﾅﾙｶﾊﾞｰ
100
AcDbLine
 10
192.3106108543887
 20
182.6595927681532
 30
0.0
 11
200.7106108543887
 21
182.6595927681532
 31
0.0
  0
LINE
  5
1A22
330
1F
100
AcDbEntity
  8
ﾀｰﾐﾅﾙｶﾊﾞｰ
100
AcDbLine
 10
200.7106108543887
 20
182.6595927681532
 30
0.0
 11
200.7106108543887
 21
171.3595927681533
 31
0.0
  0
LINE
  5
1A23
330
1F
100
AcDbEntity
  8
ﾀｰﾐﾅﾙｶﾊﾞｰ
100
AcDbLine
 10
195.7106108543888
 20
183.8595927681533
 30
0.0
 11
195.7106108543888
 21
184.5595927681531
 31
0.0
  0
LINE
  5
1A24
330
1F
100
AcDbEntity
  8
ﾀｰﾐﾅﾙｶﾊﾞｰ
100
AcDbLine
 10
195.7106108543888
 20
184.5595927681531
 30
0.0
 11
194.0106108543888
 21
183.8595927681533
 31
0.0
  0
LINE
  5
1A25
330
1F
100
AcDbEntity
  8
ﾀｰﾐﾅﾙｶﾊﾞｰ
100
AcDbLine
 10
194.0106108543888
 20
183.859592768153
 30
0.0
 11
191.5106108543887
 21
183.859592768153
 31
0.0
  0
LINE
  5
1A26
330
1F
100
AcDbEntity
  8
ﾎﾞﾃﾞｨｰ
100
AcDbLine
 10
195.7106108543885
 20
184.1095927681532
 30
0.0
 11
217.3106108543887
 21
184.1095927681532
 31
0.0
1001
GENIUS_GENODEF_13
1002
{
1000
HIER
1070
     0
1002
}
1002
{
1000
MANEDIT
1070
     0
1002
}
1002
{
1000
NOSEL
1070
     0
1002
}
1002
{
1000
BEHIND
1070
     0
1002
}
1002
{
1000
REACTOR
1002
}
1001
GENIUS_GENOBJ-N-CEN_13
1002
{
1000
OWNER
1000
GEN
1002
}
  0
HATCH
  5
1A27
330
1F
100
AcDbEntity
  8
AM_8
100
AcDbHatch
 10
0.0
 20
0.0
 30
0.0
210
0.0
220
0.0
230
1.0
  2
_U
 70
     0
 71
     0
 91
        1
 92
        1
 93
       17
 72
     1
 10
202.3106108543886
 20
182.6595927681532
 11
202.3106108543886
 21
183.6595927681532
 72
     1
 10
202.3106108543886
 20
183.6595927681532
 11
195.8106108543878
 21
183.8595927681532
 72
     1
 10
195.8106108543879
 20
183.8595927681533
 11
195.7106108543887
 21
183.8595927681532
 72
     1
 10
195.7106108543888
 20
183.859592768153
 11
195.7106108543888
 21
184.5595927681531
 72
     1
 10
195.7106108543888
 20
184.5595927681531
 11
194.0106108543888
 21
183.8595927681531
 72
     1
 10
194.0106108543888
 20
183.8595927681533
 11
192.3106108543887
 21
183.8595927681531
 72
     1
 10
192.3106108543887
 20
183.859592768153
 11
192.3106108543887
 21
182.6595927681531
 72
     1
 10
192.3106108543887
 20
182.6595927681532
 11
200.7106108543887
 21
182.6595927681532
 72
     1
 10
200.7106108543887
 20
182.6595927681532
 11
200.7106108543887
 21
171.3595927681532
 72
     1
 10
200.7106108543887
 20
171.3595927681533
 11
182.3106108543887
 21
171.3595927681534
 72
     1
 10
182.3106108543887
 20
171.3595927681533
 11
182.3106108543887
 21
169.8595927681531
 72
     1
 10
182.3106108543887
 20
169.8595927681533
 11
195.8106108543875
 21
169.8595927681533
 72
     1
 10
195.8106108543875
 20
169.8595927681533
 11
202.3106108543887
 21
170.0595927681534
 72
     1
 10
202.3106108543886
 20
170.0595927681533
 11
202.3106108543886
 21
171.0595927681533
 72
     1
 10
202.3106108543886
 20
171.0595927681533
 11
202.0106108543886
 21
171.0595927681533
 72
     1
 10
202.0106108543886
 20
171.0595927681533
 11
202.0106108543886
 21
182.6595927681532
 72
     1
 10
202.0106108543886
 20
182.6595927681532
 11
202.3106108543886
 21
182.6595927681532
 97
        0
 75
     0
 76
     0
 52
-45.00000000000001
 41
5.0
 77
     0
 78
     1
 53
315.0
 43
-141.5050606146527
 44
484.1160744259509
 45
3.535533905932738
 46
3.535533905932736
 79
     0
 98
        1
 10
-141.5050606146527
 20
484.1160744259509
1001
GENIUS_GENOBJ-N-HTC_13
1002
{
1000
OWNER
1000
GEN
1002
}
1001
GENIUS_GENODEF_13
1002
{
1000
HIER
1070
     0
1002
}
1002
{
1000
MANEDIT
1070
     0
1002
}
1002
{
1000
NOSEL
1070
     0
1002
}
1002
{
1000
BEHIND
1070
     0
1002
}
1002
{
1000
OTHER
1070
     0
1002
}
1002
{
1000
REACTOR
1002
}
1001
GENIUS_GENHATCH_13
1002
{
1000
DATA
1040
45.0
1042
2.5
1000
_U
1070
     0
1011
201.3899302395193
1021
177.5311549088234
1031
0.0
1002
}
1002
{
1000
UCS
1010
0.0
1020
0.0
1030
0.0
1010
1.0
1020
0.0
1030
0.0
1010
0.0
1020
1.0
1030
0.0
1002
}
  0
LINE
  5
1A2C
330
1F
100
AcDbEntity
  8
ﾎｯｸ
100
AcDbLine
 10
171.7106108543887
 20
169.8095927681532
 30
0.0
 11
171.7106108543887
 21
165.3095927681532
 31
0.0
  0
LINE
  5
1A2D
330
1F
100
AcDbEntity
  8
ﾎｯｸ
100
AcDbLine
 10
175.2106108543886
 20
165.3095927681532
 30
0.0
 11
175.2106108543886
 21
169.8095927681532
 31
0.0
  0
LINE
  5
1A2E
330
1F
100
AcDbEntity
  8
ﾎｯｸ
100
AcDbLine
 10
169.8106108543887
 20
195.1218376661123
 30
0.0
 11
169.8106108543886
 21
197.3095927681533
 31
0.0
  0
LINE
  5
1A2F
330
1F
100
AcDbEntity
  8
ﾎｯｸ
100
AcDbLine
 10
169.8106108543886
 20
197.3095927681533
 30
0.0
 11
171.8106108543886
 21
199.3095927681532
 31
0.0
  0
LINE
  5
1A30
330
1F
100
AcDbEntity
  8
ﾎｯｸ
100
AcDbLine
 10
171.8106108543886
 20
199.3095927681532
 30
0.0
 11
172.8106108543886
 21
197.3095927681533
 31
0.0
  0
LINE
  5
1A31
330
1F
100
AcDbEntity
  8
ﾎｯｸ
100
AcDbLine
 10
172.8106108543886
 20
197.3095927681533
 30
0.0
 11
174.2106108543886
 21
197.3095927681533
 31
0.0
  0
LINE
  5
1A32
330
1F
100
AcDbEntity
  8
ﾍﾞｰｽ
100
AcDbLine
 10
174.2106108543886
 20
196.1095927681532
 30
0.0
 11
174.2106108543885
 21
232.4095927681532
 31
0.0
  0
LINE
  5
1A33
330
1F
100
AcDbEntity
  8
ﾎｯｸ
100
AcDbLine
 10
171.7106108543887
 20
165.3095927681532
 30
0.0
 11
175.2106108543886
 21
165.3095927681532
 31
0.0
  0
LINE
  5
1A34
330
1F
100
AcDbEntity
  8
前面ﾊﾟﾈﾙ
100
AcDbLine
 10
322.52902043356
 20
193.6095927681541
 30
0.0
 11
322.5290204335601
 21
212.1095927681539
 31
0.0
  0
LINE
  5
1A35
330
1F
100
AcDbEntity
  8
前面ﾊﾟﾈﾙ
100
AcDbLine
 10
478.2290204335601
 20
193.6095927681528
 30
0.0
 11
478.2290204335601
 21
212.1095927681528
 31
0.0
  0
LINE
  5
1A36
330
1F
100
AcDbEntity
  8
前面ﾊﾟﾈﾙ
100
AcDbLine
 10
478.2290204335601
 20
193.6095927681528
 30
0.0
 11
322.52902043356
 21
193.6095927681541
 31
0.0
  0
LINE
  5
1A37
330
1F
100
AcDbEntity
  8
前面ﾊﾟﾈﾙ
100
AcDbLine
 10
478.2290204335601
 20
212.3595927681528
 30
0.0
 11
478.2290204335601
 21
214.6095927681539
 31
0.0
  0
LINE
  5
1A38
330
1F
100
AcDbEntity
  8
前面ﾊﾟﾈﾙ
100
AcDbLine
 10
477.72902043356
 20
212.1095927681528
 30
0.0
 11
477.72902043356
 21
214.6095927681528
 31
0.0
  0
LINE
  5
1A39
330
1F
100
AcDbEntity
  8
前面ﾊﾟﾈﾙ
100
AcDbLine
 10
478.2290204335601
 20
212.3595927681528
 30
0.0
 11
477.72902043356
 21
212.3595927681528
 31
0.0
  0
LINE
  5
1A3A
330
1F
100
AcDbEntity
  8
前面ﾊﾟﾈﾙ
100
AcDbLine
 10
477.72902043356
 20
212.1095927681528
 30
0.0
 11
478.2290204335601
 21
212.1095927681528
 31
0.0
  0
LINE
  5
1A3B
330
1F
100
AcDbEntity
  8
前面ﾊﾟﾈﾙ
100
AcDbLine
 10
322.5290204335601
 20
212.3550473136087
 30
0.0
 11
322.5290204335601
 21
214.6095927681542
 31
0.0
  0
LINE
  5
1A3C
330
1F
100
AcDbEntity
  8
前面ﾊﾟﾈﾙ
100
AcDbLine
 10
323.0290204335601
 20
212.1095927681539
 30
0.0
 11
323.0290204335601
 21
214.6095927681539
 31
0.0
  0
LINE
  5
1A3D
330
1F
100
AcDbEntity
  8
前面ﾊﾟﾈﾙ
100
AcDbLine
 10
322.5290204335601
 20
212.3550473136087
 30
0.0
 11
323.0290204335601
 21
212.3550473136087
 31
0.0
  0
LINE
  5
1A3E
330
1F
100
AcDbEntity
  8
前面ﾊﾟﾈﾙ
100
AcDbLine
 10
323.0290204335601
 20
212.1095927681539
 30
0.0
 11
322.5290204335601
 21
212.1095927681539
 31
0.0
  0
LINE
  5
1A3F
330
1F
100
AcDbEntity
  8
前面ﾊﾟﾈﾙ
100
AcDbLine
 10
323.5290204335601
 20
195.6095927681541
 30
0.0
 11
323.5290204335603
 21
233.6095927681539
 31
0.0
  0
LINE
  5
1A40
330
1F
100
AcDbEntity
  8
前面ﾊﾟﾈﾙ
100
AcDbLine
 10
477.22902043356
 20
195.6095927681528
 30
0.0
 11
477.2290204335605
 21
233.6095927681527
 31
0.0
  0
LINE
  5
1A41
330
1F
100
AcDbEntity
  8
前面ﾊﾟﾈﾙ
100
AcDbLine
 10
476.2290204335601
 20
194.6095927681528
 30
0.0
 11
324.5290204335601
 21
194.6095927681541
 31
0.0
  0
ARC
  5
1A42
330
1F
100
AcDbEntity
  8
前面ﾊﾟﾈﾙ
100
AcDbCircle
 10
476.2290204335601
 20
195.6095927681529
 30
0.0
 40
1.0
100
AcDbArc
 50
270.0
 51
0.0
1001
GENIUS_GENODEF_13
1002
{
1000
HIER
1070
     0
1002
}
1002
{
1000
MANEDIT
1070
     0
1002
}
1002
{
1000
NOSEL
1070
     0
1002
}
1002
{
1000
BEHIND
1070
     0
1002
}
1002
{
1000
REACTOR
1002
}
1001
GENIUS_GENOBJ-N-FIL_13
1002
{
1000
OWNER
1000
GEN
1002
}
  0
ARC
  5
1A43
330
1F
100
AcDbEntity
  8
前面ﾊﾟﾈﾙ
100
AcDbCircle
 10
324.5290204335601
 20
195.6095927681539
 30
0.0
 40
1.0
100
AcDbArc
 50
180.0
 51
270.0
1001
GENIUS_GENODEF_13
1002
{
1000
HIER
1070
     0
1002
}
1002
{
1000
MANEDIT
1070
     0
1002
}
1002
{
1000
NOSEL
1070
     0
1002
}
1002
{
1000
BEHIND
1070
     0
1002
}
1002
{
1000
REACTOR
1002
}
1001
GENIUS_GENOBJ-N-FIL_13
1002
{
1000
OWNER
1000
GEN
1002
}
  0
LINE
  5
1A44
330
1F
100
AcDbEntity
  8
ﾎﾞﾃﾞｨｰ
100
AcDbLine
 10
322.5290204335601
 20
211.6095927681539
 30
0.0
 11
322.1290204335602
 21
211.6095927681539
 31
0.0
  0
LINE
  5
1A45
330
1F
100
AcDbEntity
  8
ﾎﾞﾃﾞｨｰ
100
AcDbLine
 10
478.2290204335601
 20
211.6095927681528
 30
0.0
 11
478.6290204335601
 21
211.6095927681528
 31
0.0
  0
ARC
  5
1A46
330
1F
100
AcDbEntity
  8
ﾎﾞﾃﾞｨｰ
100
AcDbCircle
 10
479.8290204335599
 20
192.4095927681527
 30
0.0
 40
0.3
100
AcDbArc
 50
270.0
 51
0.0
  0
ARC
  5
1A47
330
1F
100
AcDbEntity
  8
ﾎﾞﾃﾞｨｰ
100
AcDbCircle
 10
320.9290204335602
 20
192.4095927681539
 30
0.0
 40
0.3
100
AcDbArc
 50
180.0
 51
270.0
  0
LINE
  5
1A48
330
1F
100
AcDbEntity
  8
ﾎﾞﾃﾞｨｰ
100
AcDbLine
 10
478.6290204335599
 20
193.6095927681528
 30
0.0
 11
478.6290204335604
 21
235.6095927681528
 31
0.0
  0
LINE
  5
1A49
330
1F
100
AcDbEntity
  8
ﾎﾞﾃﾞｨｰ
100
AcDbLine
 10
480.1290204335601
 20
169.5595927681535
 30
0.0
 11
480.1290204335601
 21
259.659592768152
 31
0.0
  0
LINE
  5
1A4A
330
1F
100
AcDbEntity
  8
ﾎﾞﾃﾞｨｰ
100
AcDbLine
 10
322.1290204335605
 20
235.6095927681539
 30
0.0
 11
322.12902043356
 21
193.6095927681539
 31
0.0
  0
LINE
  5
1A4B
330
1F
100
AcDbEntity
  8
ﾎﾞﾃﾞｨｰ
100
AcDbLine
 10
320.6290204335608
 20
259.6595927681532
 30
0.0
 11
320.6290204335597
 21
169.5595927681546
 31
0.0
  0
LINE
  5
1A4C
330
1F
100
AcDbEntity
  8
ﾎﾞﾃﾞｨｰ
100
AcDbLine
 10
322.12902043356
 20
193.6095927681539
 30
0.0
 11
478.6290204335599
 21
193.6095927681528
 31
0.0
  0
LINE
  5
1A4D
330
1F
100
AcDbEntity
  8
ﾎﾞﾃﾞｨｰ
100
AcDbLine
 10
320.92902043356
 20
192.1095927681539
 30
0.0
 11
479.8290204335599
 21
192.109592768153
 31
0.0
  0
LINE
  5
1A50
330
1F
100
AcDbEntity
  8
ﾎﾞﾃﾞｨｰ
100
AcDbLine
 10
480.1290204335601
 20
169.5595927681535
 30
0.0
 11
320.62902043356
 21
169.5595927681547
 31
0.0
  0
LINE
  5
1A51
330
1F
100
AcDbEntity
  8
ﾎﾞﾃﾞｨｰ
100
AcDbLine
 10
320.6290204335598
 20
184.1095927681544
 30
0.0
 11
480.1290204335599
 21
184.1095927681535
 31
0.0
  0
LINE
  5
1A52
330
1F
100
AcDbEntity
  8
ﾎｯｸ
100
AcDbLine
 10
405.1290204335597
 20
169.5595927681542
 30
0.0
 11
405.1290204335597
 21
165.309592768154
 31
0.0
  0
LINE
  5
1A53
330
1F
100
AcDbEntity
  8
ﾎｯｸ
100
AcDbLine
 10
405.1290204335597
 20
165.309592768154
 30
0.0
 11
395.6290204335597
 21
165.309592768154
 31
0.0
  0
LINE
  5
1A54
330
1F
100
AcDbEntity
  8
ﾎｯｸ
100
AcDbLine
 10
402.8790204335597
 20
169.5595927681542
 30
0.0
 11
402.8790204335597
 21
167.309592768154
 31
0.0
  0
LINE
  5
1A55
330
1F
100
AcDbEntity
  8
ﾎｯｸ
100
AcDbLine
 10
402.8790204335597
 20
167.309592768154
 30
0.0
 11
397.8790204335597
 21
167.309592768154
 31
0.0
  0
LINE
  5
1A57
330
1F
100
AcDbEntity
  8
ﾎｯｸ
100
AcDbLine
 10
397.87902043356
 20
169.5595927681542
 30
0.0
 11
397.8790204335597
 21
167.309592768154
 31
0.0
  0
LINE
  5
1A59
330
1F
100
AcDbEntity
  8
ﾎｯｸ
100
AcDbLine
 10
395.62902043356
 20
169.5595927681542
 30
0.0
 11
395.6290204335597
 21
165.3095927681542
 31
0.0
  0
LINE
  5
1A5A
330
1F
100
AcDbEntity
  8
ﾎﾞﾃﾞｨｰ
100
AcDbLine
 10
363.1290204335597
 20
185.6095927681538
 30
0.0
 11
363.1290204335597
 21
187.5095927681538
 31
0.0
  0
LINE
  5
1A5B
330
1F
100
AcDbEntity
  8
ﾎﾞﾃﾞｨｰ
100
AcDbLine
 10
363.1290204335597
 20
187.5095927681538
 30
0.0
 11
357.1290204335597
 21
187.509592768154
 31
0.0
  0
LINE
  5
1A5C
330
1F
100
AcDbEntity
  8
ﾎﾞﾃﾞｨｰ
100
AcDbLine
 10
357.1290204335597
 20
187.5095927681539
 30
0.0
 11
357.1290204335597
 21
185.6095927681541
 31
0.0
  0
LINE
  5
1A5D
330
1F
100
AcDbEntity
  8
ﾎﾞﾃﾞｨｰ
100
AcDbLine
 10
357.1290204335597
 20
185.6095927681541
 30
0.0
 11
363.1290204335597
 21
185.6095927681539
 31
0.0
  0
DIMENSION
  5
1A5F
102
{ACAD_XDICTIONARY
360
1A60
102
}
102
{ACAD_REACTORS
330
1A61
102
}
330
1F
100
AcDbEntity
  8
AM_5
100
AcDbDimension
  2
*D8
 10
145.3106098543885
 20
259.4095927681531
 30
0.0
 11
138.8106098543884
 21
214.6095927681532
 31
0.0
 70
    32
 71
     5
 42
89.59999999999988
  3
AM_ISO
100
AcDbAlignedDimension
 13
169.3106108543887
 23
169.8095927681532
 33
0.0
 14
169.3106108543886
 24
259.4095927681531
 34
0.0
 50
90.0
100
AcDbRotatedDimension
1001
ACAD
1000
DSTYLE
1002
{
1070
    40
1040
2.0
1002
}
  0
LINE
  5
1BB3
330
1F
100
AcDbEntity
  8
AM_7
100
AcDbLine
 10
400.3790232457434
 20
440.1845343869773
 30
0.0
 11
400.3790232457434
 21
370.1845343447944
 31
0.0
1001
GENIUS_GENODEF_13
1002
{
1000
HIER
1070
     0
1002
}
1002
{
1000
MANEDIT
1070
     0
1002
}
1002
{
1000
NOSEL
1070
     0
1002
}
1002
{
1000
BEHIND
1070
     0
1002
}
1002
{
1000
OTHER
1070
     0
1002
}
1002
{
1000
REACTOR
1002
}
1001
GENIUS_GENOBJ-N-CEN_13
1002
{
1000
OWNER
1000
GEN
1002
}
1001
GENIUS_GENCEN_19
1002
{
1040
6.0
1002
}
  0
INSERT
  5
1EE8
102
{ACAD_REACTORS
330
1E3
102
}
330
1F
100
AcDbEntity
  8
0
100
AcDbBlockReference
  2
*S21
 10
0.0
 20
0.0
 30
0.0
  0
HATCH
  5
1F1E
330
1F
100
AcDbEntity
  8
AM_8
100
AcDbHatch
 10
0.0
 20
0.0
 30
0.0
210
0.0
220
0.0
230
1.0
  2
_U
 70
     0
 71
     0
 91
        1
 92
        1
 93
        5
 72
     1
 10
182.3106108543887
 20
171.3595927681533
 11
182.3106108543886
 21
171.4595927681531
 72
     1
 10
182.3106108543886
 20
171.4595927681531
 11
176.3106108543886
 21
171.4595927681531
 72
     1
 10
176.3106108543886
 20
171.4595927681531
 11
176.3106108543886
 21
169.5595927681532
 72
     1
 10
176.3106108543886
 20
169.5595927681532
 11
182.3106108543886
 21
169.5595927681532
 72
     1
 10
182.3106108543886
 20
169.5595927681532
 11
182.3106108543887
 21
171.3595927681533
 97
        0
 75
     0
 76
     0
 52
45.0
 41
3.0
 77
     0
 78
     1
 53
45.0
 43
-37.21220004354177
 44
8.185208782726249
 45
-2.121320343559642
 46
2.121320343559642
 79
     0
 98
        1
 10
-38.21220004354177
 20
8.185208782726249
1001
GENIUS_GENODEF_13
1002
{
1000
HIER
1070
     0
1002
}
1002
{
1000
MANEDIT
1070
     0
1002
}
1002
{
1000
NOSEL
1070
     0
1002
}
1002
{
1000
BEHIND
1070
     0
1002
}
1002
{
1000
OTHER
1070
     0
1002
}
1002
{
1000
REACTOR
1002
}
1001
GENIUS_GENOBJ-N-HTC_13
1002
{
1000
OWNER
1000
GEN
1002
}
1001
GENIUS_GENHATCH_13
1002
{
1000
DATA
1040
45.0
1042
1.5
1000
_U
1070
     0
1011
179.8608813916426
1021
170.3966559433108
1031
0.0
1002
}
1002
{
1000
UCS
1010
0.0
1020
0.0
1030
0.0
1010
1.0
1020
0.0
1030
0.0
1010
0.0
1020
1.0
1030
0.0
1002
}
  0
HATCH
  5
1F23
330
1F
100
AcDbEntity
  8
AM_8
100
AcDbHatch
 10
0.0
 20
0.0
 30
0.0
210
0.0
220
0.0
230
1.0
  2
_U
 70
     0
 71
     0
 91
        1
 92
        1
 93
        7
 72
     1
 10
217.3106108543887
 20
185.6095927681532
 11
209.1106108543887
 21
185.6095927681532
 72
     1
 10
209.1106108543887
 20
185.6095927681532
 11
209.1106108543887
 21
186.4095927681532
 72
     1
 10
209.1106108543887
 20
186.4095927681532
 11
204.1106108543886
 21
185.6095927681532
 72
     1
 10
204.1106108543886
 20
185.6095927681532
 11
195.7106108543887
 21
185.6095927681532
 72
     1
 10
195.7106108543887
 20
185.6095927681532
 11
195.7106108543885
 21
184.1095927681532
 72
     1
 10
195.7106108543885
 20
184.1095927681532
 11
217.3106108543887
 21
184.1095927681532
 72
     1
 10
217.3106108543887
 20
184.1095927681532
 11
217.3106108543887
 21
185.6095927681532
 97
        0
 75
     0
 76
     0
 52
45.0
 41
3.0
 77
     0
 78
     1
 53
45.0
 43
-37.21220004354177
 44
8.185208782726249
 45
-2.121320343559642
 46
2.121320343559642
 79
     0
 98
        1
 10
-38.21220004354177
 20
8.185208782726249
1001
GENIUS_GENODEF_13
1002
{
1000
HIER
1070
     0
1002
}
1002
{
1000
MANEDIT
1070
     0
1002
}
1002
{
1000
NOSEL
1070
     0
1002
}
1002
{
1000
BEHIND
1070
     0
1002
}
1002
{
1000
OTHER
1070
     0
1002
}
1002
{
1000
REACTOR
1002
}
1001
GENIUS_GENOBJ-N-HTC_13
1002
{
1000
OWNER
1000
GEN
1002
}
1001
GENIUS_GENHATCH_13
1002
{
1000
DATA
1040
45.0
1042
1.5
1000
_U
1070
     0
1011
208.015339899456
1021
184.9290562393264
1031
0.0
1002
}
1002
{
1000
UCS
1010
0.0
1020
0.0
1030
0.0
1010
1.0
1020
0.0
1030
0.0
1010
0.0
1020
1.0
1030
0.0
1002
}
  0
HATCH
  5
1F27
330
1F
100
AcDbEntity
  8
AM_8
100
AcDbHatch
 10
0.0
 20
0.0
 30
0.0
210
0.0
220
0.0
230
1.0
  2
_U
 70
     0
 71
     0
 91
        1
 92
        1
 93
       10
 72
     1
 10
216.2106108543885
 20
194.4095927681532
 11
214.7106108543886
 21
193.4095927681531
 72
     1
 10
214.7106108543886
 20
193.4095927681531
 11
214.7106108543886
 21
191.7095927681531
 72
     1
 10
214.7106108543886
 20
191.7095927681531
 11
215.8106108543887
 21
191.7095927681531
 72
     1
 10
215.8106108543887
 20
191.7095927681531
 11
215.8106108543887
 21
187.5095927681531
 72
     1
 10
215.8106108543887
 20
187.5095927681531
 11
217.3106108543887
 21
187.5095927681533
 72
     1
 10
217.3106108543887
 20
187.5095927681533
 11
217.3106108543887
 21
192.1095927681532
 72
     1
 10
217.3106108543887
 20
192.1095927681532
 11
227.3106108543887
 21
192.1095927681532
 72
     1
 10
227.3106108543887
 20
192.1095927681532
 11
227.3106108543887
 21
193.6095927681532
 72
     1
 10
227.3106108543887
 20
193.6095927681532
 11
216.2106108543885
 21
193.6095927681532
 72
     1
 10
216.2106108543885
 20
193.6095927681532
 11
216.2106108543885
 21
194.4095927681532
 97
        0
 75
     0
 76
     0
 52
45.0
 41
3.0
 77
     0
 78
     1
 53
45.0
 43
-37.21220004354177
 44
8.185208782726249
 45
-2.121320343559642
 46
2.121320343559642
 79
     0
 98
        1
 10
-38.21220004354177
 20
8.185208782726249
1001
GENIUS_GENOBJ-N-HTC_13
1002
{
1000
OWNER
1000
GEN
1002
}
1001
GENIUS_GENODEF_13
1002
{
1000
HIER
1070
     0
1002
}
1002
{
1000
MANEDIT
1070
     0
1002
}
1002
{
1000
NOSEL
1070
     0
1002
}
1002
{
1000
BEHIND
1070
     0
1002
}
1002
{
1000
OTHER
1070
     0
1002
}
1002
{
1000
REACTOR
1002
}
1001
GENIUS_GENHATCH_13
1002
{
1000
DATA
1040
45.0
1042
1.5
1000
_U
1070
     0
1011
216.8200064564883
1021
192.8093010540235
1031
0.0
1002
}
1002
{
1000
UCS
1010
0.0
1020
0.0
1030
0.0
1010
1.0
1020
0.0
1030
0.0
1010
0.0
1020
1.0
1030
0.0
1002
}
  0
LINE
  5
1F58
330
1F
100
AcDbEntity
  8
ﾎﾞﾃﾞｨｰ
100
AcDbLine
 10
605.1474300127335
 20
245.1095927681497
 30
0.0
 11
605.1474300127339
 21
259.6595927681497
 31
0.0
  0
LINE
  5
1F60
330
1F
100
AcDbEntity
  8
ﾎﾞﾃﾞｨｰ
100
AcDbLine
 10
630.3474300127325
 20
253.2595927681494
 30
0.0
 11
630.3474300127325
 21
247.7595927681494
 31
0.0
  0
LINE
  5
1F61
330
1F
100
AcDbEntity
  8
ﾎﾞﾃﾞｨｰ
100
AcDbLine
 10
630.3474300127325
 20
253.2595927681494
 30
0.0
 11
624.4474300127325
 21
253.4595927681493
 31
0.0
  0
LINE
  5
1F62
330
1F
100
AcDbEntity
  8
ﾎﾞﾃﾞｨｰ
100
AcDbLine
 10
630.3474300127325
 20
247.7595927681494
 30
0.0
 11
624.4474300127324
 21
247.5595927681494
 31
0.0
  0
LINE
  5
1F70
330
1F
100
AcDbEntity
  8
ﾎﾞﾃﾞｨｰ
100
AcDbLine
 10
573.4474300127321
 20
237.1095927681503
 30
0.0
 11
573.4474300127313
 21
192.1095927681502
 31
0.0
  0
LINE
  5
1F72
330
1F
100
AcDbEntity
  8
ﾎﾞﾃﾞｨｰ
100
AcDbLine
 10
583.4474300127322
 20
237.1095927681501
 30
0.0
 11
573.4474300127321
 21
237.1095927681503
 31
0.0
1001
GENIUS_GENODEF_13
1002
{
1000
HIER
1070
     0
1002
}
1002
{
1000
MANEDIT
1070
     0
1002
}
1002
{
1000
NOSEL
1070
     0
1002
}
1002
{
1000
BEHIND
1070
     0
1002
}
1002
{
1000
REACTOR
1002
}
1001
GENIUS_GENOBJ-N-CEN_13
1002
{
1000
OWNER
1000
GEN
1002
}
  0
LINE
  5
1F73
330
1F
100
AcDbEntity
  8
ﾎﾞﾃﾞｨｰ
100
AcDbLine
 10
605.1474300127335
 20
245.1095927681497
 30
0.0
 11
583.4474300127323
 21
245.1095927681501
 31
0.0
1001
GENIUS_GENODEF_13
1002
{
1000
HIER
1070
     0
1002
}
1002
{
1000
MANEDIT
1070
     0
1002
}
1002
{
1000
NOSEL
1070
     0
1002
}
1002
{
1000
BEHIND
1070
     0
1002
}
1002
{
1000
REACTOR
1002
}
1001
GENIUS_GENOBJ-N-CEN_13
1002
{
1000
OWNER
1000
GEN
1002
}
  0
LINE
  5
1F75
330
1F
100
AcDbEntity
  8
ﾎﾞﾃﾞｨｰ
100
AcDbLine
 10
583.4474300127323
 20
245.1095927681501
 30
0.0
 11
583.4474300127322
 21
237.1095927681501
 31
0.0
  0
LINE
  5
1F77
330
1F
100
AcDbEntity
  8
ﾎﾞﾃﾞｨｰ
100
AcDbLine
 10
624.4474300127326
 20
259.6595927681494
 30
0.0
 11
605.1474300127339
 21
259.6595927681497
 31
0.0
  0
LINE
  5
1F78
330
1F
100
AcDbEntity
  8
ﾎﾞﾃﾞｨｰ
100
AcDbLine
 10
624.4474300127326
 20
259.6595927681494
 30
0.0
 11
624.4474300127325
 21
253.4595927681493
 31
0.0
  0
LINE
  5
1F7A
330
1F
100
AcDbEntity
  8
ﾍﾞｰｽ
100
AcDbLine
 10
624.4474300127312
 20
181.9095927681494
 30
0.0
 11
624.4474300127325
 21
247.3095927681494
 31
0.0
  0
LINE
  5
1F7B
330
1F
100
AcDbEntity
  8
ﾍﾞｰｽ
100
AcDbLine
 10
631.447430012732
 20
229.7095927681492
 30
0.0
 11
631.4474300127328
 21
259.4095927681493
 31
0.0
  0
LINE
  5
1F7C
330
1F
100
AcDbEntity
  8
ﾍﾞｰｽ
100
AcDbLine
 10
628.1474300127325
 20
247.3095927681494
 30
0.0
 11
628.1474300127324
 21
247.6850164969629
 31
0.0
  0
LINE
  5
1F7D
330
1F
100
AcDbEntity
  8
ﾍﾞｰｽ
100
AcDbLine
 10
624.4474300127326
 20
253.9095927681493
 30
0.0
 11
631.4474300127326
 21
253.9095927681493
 31
0.0
  0
LINE
  5
1F7E
330
1F
100
AcDbEntity
  8
ﾍﾞｰｽ
100
AcDbLine
 10
624.4474300127327
 20
259.4095927681494
 30
0.0
 11
631.4474300127328
 21
259.4095927681493
 31
0.0
  0
LINE
  5
1F7F
330
1F
100
AcDbEntity
  8
ﾍﾞｰｽ
100
AcDbLine
 10
624.4474300127326
 20
253.9095927681493
 30
0.0
 11
624.4474300127327
 21
259.4095927681494
 31
0.0
  0
LINE
  5
1F80
330
1F
100
AcDbEntity
  8
ﾍﾞｰｽ
100
AcDbLine
 10
624.4474300127325
 20
247.3095927681494
 30
0.0
 11
631.4474300127325
 21
247.3095927681494
 31
0.0
  0
LINE
  5
1F81
330
1F
100
AcDbEntity
  8
ﾍﾞｰｽ
100
AcDbLine
 10
631.447430012731
 20
169.8095927681493
 30
0.0
 11
631.4474300127315
 21
195.0095927681494
 31
0.0
  0
LINE
  5
1F82
330
1F
100
AcDbEntity
  8
ﾍﾞｰｽ
100
AcDbLine
 10
626.5474300127322
 20
232.4095927681493
 30
0.0
 11
631.4474300127321
 21
232.4095927681493
 31
0.0
  0
LINE
  5
1F83
330
1F
100
AcDbEntity
  8
ﾍﾞｰｽ
100
AcDbLine
 10
629.4474300127322
 20
229.7095927681493
 30
0.0
 11
627.4474300127321
 21
232.4095927681493
 31
0.0
  0
LINE
  5
1F85
330
1F
100
AcDbEntity
  8
ﾍﾞｰｽ
100
AcDbLine
 10
629.4474300127322
 20
229.7095927681493
 30
0.0
 11
631.4474300127321
 21
229.7095927681492
 31
0.0
  0
LINE
  5
1F86
330
1F
100
AcDbEntity
  8
ﾍﾞｰｽ
100
AcDbLine
 10
626.5474300127315
 20
196.1095927681493
 30
0.0
 11
631.4474300127315
 21
195.0095927681494
 31
0.0
  0
LINE
  5
1F88
330
1F
100
AcDbEntity
  8
ﾍﾞｰｽ
100
AcDbLine
 10
627.9474300127312
 20
181.9095927681493
 30
0.0
 11
627.9474300127312
 21
181.5409487003523
 31
0.0
  0
LINE
  5
1F89
330
1F
100
AcDbEntity
  8
ﾍﾞｰｽ
100
AcDbLine
 10
624.4474300127312
 20
181.9095927681494
 30
0.0
 11
631.4474300127312
 21
181.9095927681492
 31
0.0
  0
LINE
  5
1F8A
330
1F
100
AcDbEntity
  8
ﾍﾞｰｽ
100
AcDbLine
 10
624.447430012731
 20
175.4095927681493
 30
0.0
 11
631.447430012731
 21
175.4095927681492
 31
0.0
  0
LINE
  5
1F8C
330
1F
100
AcDbEntity
  8
ﾍﾞｰｽ
100
AcDbLine
 10
624.447430012731
 20
169.8095927681494
 30
0.0
 11
624.447430012731
 21
175.4095927681493
 31
0.0
  0
LINE
  5
1F8E
330
1F
100
AcDbEntity
  8
ﾍﾞｰｽ
100
AcDbLine
 10
631.447430012731
 20
169.8095927681493
 30
0.0
 11
624.447430012731
 21
169.8095927681494
 31
0.0
  0
LINE
  5
1F8F
330
1F
100
AcDbEntity
  8
ﾎﾞﾃﾞｨｰ
100
AcDbLine
 10
624.4474300127324
 20
247.5595927681494
 30
0.0
 11
624.4474300127315
 21
181.659592768149
 31
0.0
  0
LINE
  5
1F90
330
1F
100
AcDbEntity
  8
ﾍﾞｰｽ
100
AcDbLine
 10
628.1474300127326
 20
253.3341690393359
 30
0.0
 11
628.1474300127326
 21
253.9095927681493
 31
0.0
  0
LINE
  5
1FB0
330
1F
100
AcDbEntity
  8
ﾀｰﾐﾅﾙｶﾊﾞｰ
100
AcDbLine
 10
598.4474300127325
 20
245.5595927681498
 30
0.0
 11
598.4474300127327
 21
259.1595927681498
 31
0.0
  0
LINE
  5
1FB1
330
1F
100
AcDbEntity
  8
ﾀｰﾐﾅﾙｶﾊﾞｰ
100
AcDbLine
 10
605.1474300127335
 20
245.3595927681497
 30
0.0
 11
598.4474300127325
 21
245.5595927681498
 31
0.0
  0
LINE
  5
1FB2
330
1F
100
AcDbEntity
  8
ﾀｰﾐﾅﾙｶﾊﾞｰ
100
AcDbLine
 10
598.4474300127327
 20
259.1595927681498
 30
0.0
 11
604.9474300127338
 21
259.3595927681497
 31
0.0
  0
LINE
  5
1FB3
330
1F
100
AcDbEntity
  8
ﾀｰﾐﾅﾙｶﾊﾞｰ
100
AcDbLine
 10
605.1474300127339
 20
259.3595927681497
 30
0.0
 11
604.9474300127338
 21
259.3595927681497
 31
0.0
  0
LINE
  5
1FB4
330
1F
100
AcDbEntity
  8
ﾎｯｸ
100
AcDbLine
 10
629.0474300127311
 20
169.8095927681493
 30
0.0
 11
629.0474300127309
 21
165.3095927681494
 31
0.0
  0
LINE
  5
1FB5
330
1F
100
AcDbEntity
  8
ﾎｯｸ
100
AcDbLine
 10
625.547430012731
 20
165.3095927681494
 30
0.0
 11
625.547430012731
 21
169.8095927681494
 31
0.0
  0
LINE
  5
1FB6
330
1F
100
AcDbEntity
  8
ﾎｯｸ
100
AcDbLine
 10
630.9474300127314
 20
195.1218376661084
 30
0.0
 11
630.9474300127314
 21
197.3095927681493
 31
0.0
  0
LINE
  5
1FB7
330
1F
100
AcDbEntity
  8
ﾎｯｸ
100
AcDbLine
 10
630.9474300127314
 20
197.3095927681493
 30
0.0
 11
628.9474300127316
 21
199.3095927681493
 31
0.0
  0
LINE
  5
1FB8
330
1F
100
AcDbEntity
  8
ﾎｯｸ
100
AcDbLine
 10
628.9474300127316
 20
199.3095927681493
 30
0.0
 11
627.9474300127316
 21
197.3095927681494
 31
0.0
  0
LINE
  5
1FB9
330
1F
100
AcDbEntity
  8
ﾎｯｸ
100
AcDbLine
 10
627.9474300127316
 20
197.3095927681494
 30
0.0
 11
626.5474300127315
 21
197.3095927681494
 31
0.0
  0
LINE
  5
1FBA
330
1F
100
AcDbEntity
  8
ﾍﾞｰｽ
100
AcDbLine
 10
626.5474300127315
 20
196.1095927681493
 30
0.0
 11
626.5474300127322
 21
232.4095927681493
 31
0.0
  0
LINE
  5
1FBB
330
1F
100
AcDbEntity
  8
ﾎｯｸ
100
AcDbLine
 10
629.0474300127309
 20
165.3095927681494
 30
0.0
 11
625.547430012731
 21
165.3095927681494
 31
0.0
  0
LINE
  5
2061
330
1F
100
AcDbEntity
  8
ﾎﾞﾃﾞｨｰ
100
AcDbLine
 10
176.3106108543885
 20
259.659592768153
 30
0.0
 11
176.3106108543885
 21
257.7595927681532
 31
0.0
  0
HATCH
  5
2062
330
1F
100
AcDbEntity
  8
AM_8
100
AcDbHatch
 10
0.0
 20
0.0
 30
0.0
210
0.0
220
0.0
230
1.0
  2
_USER
 70
     0
 71
     0
 91
        1
 92
        1
 93
       17
 72
     1
 10
192.3106108543885
 20
245.3595927681533
 11
194.0106108543886
 21
245.3595927681532
 72
     1
 10
194.0106108543886
 20
245.3595927681532
 11
195.7106108543887
 21
244.6595927681532
 72
     1
 10
195.7106108543887
 20
244.6595927681532
 11
195.7106108543887
 21
245.3595927681532
 72
     1
 10
195.7106108543887
 20
245.3595927681532
 11
195.8106108543879
 21
245.3595927681532
 72
     1
 10
195.8106108543878
 20
245.3595927681532
 11
202.3106108543886
 21
245.5595927681532
 72
     1
 10
202.3106108543886
 20
245.5595927681532
 11
202.3106108543886
 21
246.5595927681532
 72
     1
 10
202.3106108543886
 20
246.5595927681532
 11
202.0106108543886
 21
246.5595927681532
 72
     1
 10
202.0106108543885
 20
246.5595927681532
 11
202.0106108543884
 21
258.1595927681531
 72
     1
 10
202.0106108543885
 20
258.1595927681531
 11
202.3106108543886
 21
258.1595927681531
 72
     1
 10
202.3106108543885
 20
258.1595927681531
 11
202.3106108543885
 21
259.1595927681531
 72
     1
 10
202.3106108543885
 20
259.1595927681531
 11
195.8106108543873
 21
259.3595927681532
 72
     1
 10
195.8106108543873
 20
259.3595927681532
 11
182.3106108543884
 21
259.3595927681531
 72
     1
 10
182.3106108543884
 20
259.3595927681531
 11
182.3106108543884
 21
257.859592768153
 72
     1
 10
182.3106108543884
 20
257.859592768153
 11
200.7106108543884
 21
257.8595927681532
 72
     1
 10
200.7106108543884
 20
257.8595927681532
 11
200.7106108543884
 21
246.5595927681532
 72
     1
 10
200.7106108543886
 20
246.5595927681532
 11
192.3106108543885
 21
246.5595927681532
 72
     1
 10
192.3106108543885
 20
246.5595927681532
 11
192.3106108543885
 21
245.3595927681533
 97
        0
 75
     0
 76
     0
 52
135.0
 41
5.0
 77
     0
 78
     1
 53
135.0
 43
43.07833664872762
 44
-163.0551147716687
 45
-3.535533905932737
 46
-3.535533905932737
 79
     0
 98
        1
 10
42.07833664872763
 20
-163.0551147716687
1001
GENIUS_GENOBJ-N-HTC_13
1002
{
1000
OWNER
1000
GEN
1002
}
1001
GENIUS_GENODEF_13
1002
{
1000
HIER
1070
     0
1002
}
1002
{
1000
MANEDIT
1070
     0
1002
}
1002
{
1000
NOSEL
1070
     0
1002
}
1002
{
1000
BEHIND
1070
     0
1002
}
1002
{
1000
OTHER
1070
     0
1002
}
1002
{
1000
REACTOR
1002
}
1001
GENIUS_GENHATCH_13
1002
{
1000
DATA
1040
45.0
1042
2.5
1000
_U
1070
     0
1011
194.7509393772716
1021
245.8629104871938
1031
0.0
1002
}
1002
{
1000
UCS
1010
0.0
1020
0.0
1030
0.0
1010
1.0
1020
0.0
1030
0.0
1010
0.0
1020
1.0
1030
0.0
1002
}
  0
HATCH
  5
2063
330
1F
100
AcDbEntity
  8
AM_8
100
AcDbHatch
 10
0.0
 20
0.0
 30
0.0
210
0.0
220
0.0
230
1.0
  2
_U
 70
     0
 71
     0
 91
        1
 92
        1
 93
        7
 72
     1
 10
217.3106108543886
 20
243.6095927681532
 11
217.3106108543886
 21
245.1095927681533
 72
     1
 10
217.3106108543886
 20
245.1095927681533
 11
195.7106108543885
 21
245.1095927681533
 72
     1
 10
195.7106108543885
 20
245.1095927681533
 11
195.7106108543887
 21
243.6095927681531
 72
     1
 10
195.7106108543887
 20
243.6095927681531
 11
204.1106108543886
 21
243.6095927681531
 72
     1
 10
204.1106108543886
 20
243.6095927681531
 11
209.1106108543885
 21
242.8095927681533
 72
     1
 10
209.1106108543885
 20
242.8095927681533
 11
209.1106108543885
 21
243.6095927681532
 72
     1
 10
209.1106108543885
 20
243.6095927681532
 11
217.3106108543886
 21
243.6095927681532
 97
        0
 75
     0
 76
     0
 52
135.0
 41
3.0
 77
     0
 78
     1
 53
135.0
 43
43.07833664872762
 44
-163.3051147716686
 45
-2.121320343559642
 46
-2.121320343559642
 79
     0
 98
        1
 10
42.07833664872763
 20
-163.3051147716686
1001
GENIUS_GENOBJ-N-HTC_13
1002
{
1000
OWNER
1000
GEN
1002
}
1001
GENIUS_GENODEF_13
1002
{
1000
HIER
1070
     0
1002
}
1002
{
1000
MANEDIT
1070
     0
1002
}
1002
{
1000
NOSEL
1070
     0
1002
}
1002
{
1000
BEHIND
1070
     0
1002
}
1002
{
1000
OTHER
1070
     0
1002
}
1002
{
1000
REACTOR
1002
}
1001
GENIUS_GENHATCH_13
1002
{
1000
DATA
1040
45.0
1042
2.5
1000
_U
1070
     0
1011
209.0632164130439
1021
244.3300320588568
1031
0.0
1002
}
1002
{
1000
UCS
1010
0.0
1020
0.0
1030
0.0
1010
1.0
1020
0.0
1030
0.0
1010
0.0
1020
1.0
1030
0.0
1002
}
  0
HATCH
  5
2064
330
1F
100
AcDbEntity
  8
AM_8
100
AcDbHatch
 10
0.0
 20
0.0
 30
0.0
210
0.0
220
0.0
230
1.0
  2
_U
 70
     0
 71
     0
 91
        1
 92
        1
 93
       10
 72
     1
 10
227.3106108543886
 20
237.1095927681533
 11
217.3106108543886
 21
237.1095927681532
 72
     1
 10
217.3106108543886
 20
237.1095927681532
 11
217.3106108543886
 21
241.7095927681533
 72
     1
 10
217.3106108543886
 20
241.7095927681533
 11
215.8106108543886
 21
241.7095927681534
 72
     1
 10
215.8106108543886
 20
241.7095927681534
 11
215.8106108543886
 21
237.5095927681533
 72
     1
 10
215.8106108543886
 20
237.5095927681533
 11
214.7106108543884
 21
237.5095927681533
 72
     1
 10
214.7106108543884
 20
237.5095927681533
 11
214.7106108543884
 21
235.8095927681532
 72
     1
 10
214.7106108543886
 20
235.8095927681532
 11
216.2106108543885
 21
234.8095927681534
 72
     1
 10
216.2106108543885
 20
234.8095927681534
 11
216.2106108543885
 21
235.6095927681533
 72
     1
 10
216.2106108543885
 20
235.6095927681533
 11
227.3106108543886
 21
235.6095927681534
 72
     1
 10
227.3106108543886
 20
235.6095927681534
 11
227.3106108543886
 21
237.1095927681533
 97
        0
 75
     0
 76
     0
 52
135.0
 41
2.0
 77
     0
 78
     1
 53
135.0
 43
43.07833664872762
 44
-163.3051147716686
 45
-1.414213562373095
 46
-1.414213562373094
 79
     0
 98
        1
 10
42.07833664872763
 20
-163.3051147716686
1001
GENIUS_GENODEF_13
1002
{
1000
HIER
1070
     0
1002
}
1002
{
1000
MANEDIT
1070
     0
1002
}
1002
{
1000
NOSEL
1070
     0
1002
}
1002
{
1000
BEHIND
1070
     0
1002
}
1002
{
1000
OTHER
1070
     0
1002
}
1002
{
1000
REACTOR
1002
}
1001
GENIUS_GENOBJ-N-HTC_13
1002
{
1000
OWNER
1000
GEN
1002
}
1001
GENIUS_GENHATCH_13
1002
{
1000
DATA
1040
45.0
1042
2.5
1000
_U
1070
     0
1011
216.8205846513859
1021
236.395632915382
1031
0.0
1002
}
1002
{
1000
UCS
1010
0.0
1020
0.0
1030
0.0
1010
1.0
1020
0.0
1030
0.0
1010
0.0
1020
1.0
1030
0.0
1002
}
  0
LINE
  5
2065
330
1F
100
AcDbEntity
  8
ﾎﾞﾃﾞｨｰ
100
AcDbLine
 10
176.3106108543885
 20
259.659592768153
 30
0.0
 11
195.6106108543881
 21
259.6595927681531
 31
0.0
  0
LINE
  5
2066
330
1F
100
AcDbEntity
  8
ﾎﾞﾃﾞｨｰ
100
AcDbLine
 10
176.3106108543885
 20
257.7595927681532
 30
0.0
 11
182.3106108543884
 21
257.7595927681532
 31
0.0
  0
LINE
  5
2067
330
1F
100
AcDbEntity
  8
ﾎﾞﾃﾞｨｰ
100
AcDbLine
 10
195.7106108543885
 20
245.1095927681533
 30
0.0
 11
217.3106108543886
 21
245.1095927681533
 31
0.0
1001
GENIUS_GENODEF_13
1002
{
1000
HIER
1070
     0
1002
}
1002
{
1000
MANEDIT
1070
     0
1002
}
1002
{
1000
NOSEL
1070
     0
1002
}
1002
{
1000
BEHIND
1070
     0
1002
}
1002
{
1000
REACTOR
1002
}
1001
GENIUS_GENOBJ-N-CEN_13
1002
{
1000
OWNER
1000
GEN
1002
}
  0
LINE
  5
2068
330
1F
100
AcDbEntity
  8
ﾀｰﾐﾅﾙｶﾊﾞｰ
100
AcDbLine
 10
194.0106108543886
 20
245.3595927681533
 30
0.0
 11
191.5106108543885
 21
245.3595927681532
 31
0.0
  0
LINE
  5
2069
330
1F
100
AcDbEntity
  8
ﾀｰﾐﾅﾙｶﾊﾞｰ
100
AcDbLine
 10
195.7106108543887
 20
244.6595927681532
 30
0.0
 11
194.0106108543886
 21
245.3595927681532
 31
0.0
  0
LINE
  5
206A
330
1F
100
AcDbEntity
  8
ﾀｰﾐﾅﾙｶﾊﾞｰ
100
AcDbLine
 10
195.7106108543887
 20
245.3595927681532
 30
0.0
 11
195.7106108543887
 21
244.6595927681532
 31
0.0
  0
LINE
  5
206B
330
1F
100
AcDbEntity
  8
ﾀｰﾐﾅﾙｶﾊﾞｰ
100
AcDbLine
 10
200.7106108543886
 20
246.5595927681532
 30
0.0
 11
200.7106108543884
 21
257.8595927681532
 31
0.0
  0
LINE
  5
206C
330
1F
100
AcDbEntity
  8
ﾀｰﾐﾅﾙｶﾊﾞｰ
100
AcDbLine
 10
192.3106108543885
 20
246.5595927681532
 30
0.0
 11
200.7106108543886
 21
246.5595927681532
 31
0.0
  0
LINE
  5
206D
330
1F
100
AcDbEntity
  8
ﾀｰﾐﾅﾙｶﾊﾞｰ
100
AcDbLine
 10
192.3106108543885
 20
245.3595927681533
 30
0.0
 11
192.3106108543885
 21
246.5595927681532
 31
0.0
  0
LINE
  5
206E
330
1F
100
AcDbEntity
  8
ﾀｰﾐﾅﾙｶﾊﾞｰ
100
AcDbLine
 10
202.0106108543885
 20
258.1595927681531
 30
0.0
 11
202.3106108543886
 21
258.1595927681531
 31
0.0
  0
LINE
  5
206F
330
1F
100
AcDbEntity
  8
ﾀｰﾐﾅﾙｶﾊﾞｰ
100
AcDbLine
 10
202.0106108543885
 20
246.5595927681532
 30
0.0
 11
202.0106108543885
 21
258.1595927681531
 31
0.0
  0
LINE
  5
2070
330
1F
100
AcDbEntity
  8
ﾀｰﾐﾅﾙｶﾊﾞｰ
100
AcDbLine
 10
202.3106108543886
 20
246.5595927681532
 30
0.0
 11
202.0106108543885
 21
246.5595927681532
 31
0.0
  0
LINE
  5
2071
330
1F
100
AcDbEntity
  8
ﾀｰﾐﾅﾙｶﾊﾞｰ
100
AcDbLine
 10
202.3106108543886
 20
245.5595927681532
 30
0.0
 11
202.3106108543885
 21
259.1595927681531
 31
0.0
  0
LINE
  5
2072
330
1F
100
AcDbEntity
  8
ﾀｰﾐﾅﾙｶﾊﾞｰ
100
AcDbLine
 10
182.3106108543884
 20
257.859592768153
 30
0.0
 11
182.3106108543884
 21
259.3595927681531
 31
0.0
  0
LINE
  5
2073
330
1F
100
AcDbEntity
  8
ﾀｰﾐﾅﾙｶﾊﾞｰ
100
AcDbLine
 10
195.8106108543873
 20
259.3595927681532
 30
0.0
 11
182.3106108543884
 21
259.3595927681531
 31
0.0
  0
LINE
  5
2074
330
1F
100
AcDbEntity
  8
ﾀｰﾐﾅﾙｶﾊﾞｰ
100
AcDbLine
 10
195.8106108543878
 20
245.3595927681532
 30
0.0
 11
202.3106108543886
 21
245.5595927681532
 31
0.0
  0
LINE
  5
2075
330
1F
100
AcDbEntity
  8
ﾀｰﾐﾅﾙｶﾊﾞｰ
100
AcDbLine
 10
202.3106108543885
 20
259.1595927681531
 30
0.0
 11
195.8106108543873
 21
259.3595927681532
 31
0.0
  0
LINE
  5
2076
330
1F
100
AcDbEntity
  8
ﾀｰﾐﾅﾙｶﾊﾞｰ
100
AcDbLine
 10
191.0106108543885
 20
245.8595927681531
 30
0.0
 11
191.0106108543885
 21
257.3595927681531
 31
0.0
  0
LINE
  5
2077
330
1F
100
AcDbEntity
  8
ﾀｰﾐﾅﾙｶﾊﾞｰ
100
AcDbLine
 10
195.8106108543878
 20
245.3595927681532
 30
0.0
 11
195.7106108543887
 21
245.3595927681533
 31
0.0
  0
LINE
  5
2078
330
1F
100
AcDbEntity
  8
ﾀｰﾐﾅﾙｶﾊﾞｰ
100
AcDbLine
 10
200.7106108543884
 20
257.8595927681532
 30
0.0
 11
182.3106108543884
 21
257.859592768153
 31
0.0
  0
ARC
  5
2079
330
1F
100
AcDbEntity
  8
ﾀｰﾐﾅﾙｶﾊﾞｰ
100
AcDbCircle
 10
191.5106108543885
 20
245.8595927681531
 30
0.0
 40
0.5
100
AcDbArc
 50
180.0
 51
270.0
1001
GENIUS_GENODEF_13
1002
{
1000
HIER
1070
     0
1002
}
1002
{
1000
MANEDIT
1070
     0
1002
}
1002
{
1000
NOSEL
1070
     0
1002
}
1002
{
1000
BEHIND
1070
     0
1002
}
1002
{
1000
REACTOR
1002
}
1001
GENIUS_GENOBJ-N-FIL_13
1002
{
1000
OWNER
1000
GEN
1002
}
  0
ARC
  5
207A
330
1F
100
AcDbEntity
  8
ﾀｰﾐﾅﾙｶﾊﾞｰ
100
AcDbCircle
 10
191.5106108543885
 20
257.3595927681531
 30
0.0
 40
0.5
100
AcDbArc
 50
90.0
 51
180.0
1001
GENIUS_GENODEF_13
1002
{
1000
HIER
1070
     0
1002
}
1002
{
1000
MANEDIT
1070
     0
1002
}
1002
{
1000
NOSEL
1070
     0
1002
}
1002
{
1000
BEHIND
1070
     0
1002
}
1002
{
1000
REACTOR
1002
}
1001
GENIUS_GENOBJ-N-FIL_13
1002
{
1000
OWNER
1000
GEN
1002
}
  0
LINE
  5
207C
330
1F
100
AcDbEntity
  8
前面ﾊﾟﾈﾙ
100
AcDbLine
 10
227.0106108543875
 20
234.9095927681536
 30
0.0
 11
227.3106108543886
 21
234.9095927681536
 31
0.0
  0
LINE
  5
2080
330
1F
100
AcDbEntity
  8
前面ﾊﾟﾈﾙ
100
AcDbLine
 10
224.8106108543887
 20
216.9345927681533
 30
0.0
 11
222.3106108543887
 21
216.7595927681534
 31
0.0
  0
LINE
  5
2083
330
1F
100
AcDbEntity
  8
前面ﾊﾟﾈﾙ
100
AcDbLine
 10
224.8106108543886
 20
235.6095927681534
 30
0.0
 11
227.3106108543881
 21
235.6095927681535
 31
0.0
  0
LINE
  5
2085
330
1F
100
AcDbEntity
  8
ﾎﾞﾃﾞｨｰ
100
AcDbLine
 10
180.8106108543885
 20
245.1095927681532
 30
0.0
 11
194.6177537115315
 21
245.1095927681533
 31
0.0
1001
GENIUS_GENODEF_13
1002
{
1000
HIER
1070
     0
1002
}
1002
{
1000
MANEDIT
1070
     0
1002
}
1002
{
1000
NOSEL
1070
     0
1002
}
1002
{
1000
BEHIND
1070
     0
1002
}
1002
{
1000
REACTOR
1002
}
1001
GENIUS_GENOBJ-N-CEN_13
1002
{
1000
OWNER
1000
GEN
1002
}
  0
LINE
  5
2086
330
1F
100
AcDbEntity
  8
ﾎﾞﾃﾞｨｰ
100
AcDbLine
 10
217.3106108543886
 20
237.1095927681532
 30
0.0
 11
227.3106108543886
 21
237.1095927681533
 31
0.0
1001
GENIUS_GENODEF_13
1002
{
1000
HIER
1070
     0
1002
}
1002
{
1000
MANEDIT
1070
     0
1002
}
1002
{
1000
NOSEL
1070
     0
1002
}
1002
{
1000
BEHIND
1070
     0
1002
}
1002
{
1000
REACTOR
1002
}
1001
GENIUS_GENOBJ-N-CEN_13
1002
{
1000
OWNER
1000
GEN
1002
}
  0
LINE
  5
2088
330
1F
100
AcDbEntity
  8
ﾎﾞﾃﾞｨｰ
100
AcDbLine
 10
217.3106108543886
 20
237.1095927681532
 30
0.0
 11
217.3106108543886
 21
245.1095927681533
 31
0.0
  0
LINE
  5
2089
330
1F
100
AcDbEntity
  8
ﾎﾞﾃﾞｨｰ
100
AcDbLine
 10
215.8106108543886
 20
241.7095927681534
 30
0.0
 11
217.3106108543886
 21
241.7095927681533
 31
0.0
  0
LINE
  5
208A
330
1F
100
AcDbEntity
  8
ﾎﾞﾃﾞｨｰ
100
AcDbLine
 10
216.2106108543885
 20
235.6095927681533
 30
0.0
 11
227.3106108543886
 21
235.6095927681534
 31
0.0
  0
LINE
  5
208B
330
1F
100
AcDbEntity
  8
ﾎﾞﾃﾞｨｰ
100
AcDbLine
 10
180.8106108543885
 20
243.6095927681531
 30
0.0
 11
204.1106108543886
 21
243.6095927681531
 31
0.0
  0
LINE
  5
208C
330
1F
100
AcDbEntity
  8
ﾎﾞﾃﾞｨｰ
100
AcDbLine
 10
215.8106108543886
 20
243.6095927681532
 30
0.0
 11
215.8106108543886
 21
237.5095927681533
 31
0.0
  0
LINE
  5
208D
330
1F
100
AcDbEntity
  8
ﾎﾞﾃﾞｨｰ
100
AcDbLine
 10
209.1106108543885
 20
243.6095927681532
 30
0.0
 11
209.1106108543885
 21
242.8095927681533
 31
0.0
  0
LINE
  5
208E
330
1F
100
AcDbEntity
  8
ﾎﾞﾃﾞｨｰ
100
AcDbLine
 10
209.1106108543885
 20
243.6095927681532
 30
0.0
 11
217.3106108543886
 21
243.6095927681532
 31
0.0
  0
LINE
  5
208F
330
1F
100
AcDbEntity
  8
ﾎﾞﾃﾞｨｰ
100
AcDbLine
 10
223.4106108543887
 20
233.9095927681533
 30
0.0
 11
224.8106108543886
 21
233.9095927681533
 31
0.0
  0
LINE
  5
2090
330
1F
100
AcDbEntity
  8
ﾎﾞﾃﾞｨｰ
100
AcDbLine
 10
223.4106108543887
 20
233.9095927681533
 30
0.0
 11
223.4106108543887
 21
235.6095927681534
 31
0.0
  0
LINE
  5
2091
330
1F
100
AcDbEntity
  8
ﾎﾞﾃﾞｨｰ
100
AcDbLine
 10
224.8106108543886
 20
233.9095927681533
 30
0.0
 11
224.8106108543886
 21
235.6095927681534
 31
0.0
  0
LINE
  5
2092
330
1F
100
AcDbEntity
  8
ﾎﾞﾃﾞｨｰ
100
AcDbLine
 10
224.8106108543886
 20
216.9345927681533
 30
0.0
 11
224.8106108543886
 21
233.9095927681533
 31
0.0
  0
LINE
  5
2093
330
1F
100
AcDbEntity
  8
ﾎﾞﾃﾞｨｰ
100
AcDbLine
 10
223.4106108543887
 20
216.8365927681534
 30
0.0
 11
223.4106108543887
 21
231.6095927681534
 31
0.0
  0
LINE
  5
2094
330
1F
100
AcDbEntity
  8
ﾎﾞﾃﾞｨｰ
100
AcDbLine
 10
224.8106108543886
 20
217.6595927681534
 30
0.0
 11
223.4106108543887
 21
217.6595927681534
 31
0.0
  0
LINE
  5
2095
330
1F
100
AcDbEntity
  8
ﾎﾞﾃﾞｨｰ
100
AcDbLine
 10
217.9106108543886
 20
231.6095927681534
 30
0.0
 11
224.8106108543886
 21
231.6095927681534
 31
0.0
  0
LINE
  5
2096
330
1F
100
AcDbEntity
  8
ﾎﾞﾃﾞｨｰ
100
AcDbLine
 10
217.9106108543885
 20
234.6095927681533
 30
0.0
 11
217.9106108543886
 21
231.6095927681534
 31
0.0
  0
LINE
  5
2097
330
1F
100
AcDbEntity
  8
ﾎﾞﾃﾞｨｰ
100
AcDbLine
 10
217.9106108543885
 20
234.6095927681533
 30
0.0
 11
223.4106108543886
 21
234.6095927681534
 31
0.0
  0
LINE
  5
2098
330
1F
100
AcDbEntity
  8
ﾎﾞﾃﾞｨｰ
100
AcDbLine
 10
210.8106108543886
 20
242.6095927681533
 30
0.0
 11
210.8106108543886
 21
240.1095927681534
 31
0.0
  0
LINE
  5
2099
330
1F
100
AcDbEntity
  8
ﾎﾞﾃﾞｨｰ
100
AcDbLine
 10
210.8106108543886
 20
240.1095927681534
 30
0.0
 11
215.8106108543886
 21
239.9595927681533
 31
0.0
  0
LINE
  5
209A
330
1F
100
AcDbEntity
  8
ﾎﾞﾃﾞｨｰ
100
AcDbLine
 10
210.8106108543886
 20
242.6095927681533
 30
0.0
 11
215.8106108543886
 21
242.7595927681533
 31
0.0
  0
LINE
  5
209B
330
1F
100
AcDbEntity
  8
ﾎﾞﾃﾞｨｰ
100
AcDbLine
 10
195.6106108543881
 20
259.6595927681531
 30
0.0
 11
195.6106108543881
 21
259.3595927681532
 31
0.0
  0
LINE
  5
209C
330
1F
100
AcDbEntity
  8
ﾎﾞﾃﾞｨｰ
100
AcDbLine
 10
195.7106108543887
 20
245.1095927681533
 30
0.0
 11
195.7106108543887
 21
243.6095927681531
 31
0.0
  0
LINE
  5
209D
330
1F
100
AcDbEntity
  8
ﾎﾞﾃﾞｨｰ
100
AcDbLine
 10
180.8106108543885
 20
245.1095927681532
 30
0.0
 11
180.8106108543885
 21
243.6095927681531
 31
0.0
  0
LINE
  5
209E
330
1F
100
AcDbEntity
  8
ﾎﾞﾃﾞｨｰ
100
AcDbLine
 10
182.3106108543884
 20
259.659592768153
 30
0.0
 11
182.3106108543884
 21
257.7595927681532
 31
0.0
  0
LINE
  5
209F
330
1F
100
AcDbEntity
  8
ﾎﾞﾃﾞｨｰ
100
AcDbLine
 10
214.7106108543886
 20
235.8095927681532
 30
0.0
 11
216.2106108543885
 21
234.8095927681534
 31
0.0
  0
LINE
  5
20A0
330
1F
100
AcDbEntity
  8
ﾎﾞﾃﾞｨｰ
100
AcDbLine
 10
214.7106108543884
 20
237.5095927681533
 30
0.0
 11
215.8106108543886
 21
237.5095927681533
 31
0.0
  0
LINE
  5
20A1
330
1F
100
AcDbEntity
  8
ﾎﾞﾃﾞｨｰ
100
AcDbLine
 10
214.7106108543884
 20
237.5095927681533
 30
0.0
 11
214.7106108543886
 21
235.8095927681532
 31
0.0
  0
LINE
  5
20A2
330
1F
100
AcDbEntity
  8
ﾎﾞﾃﾞｨｰ
100
AcDbLine
 10
216.2106108543885
 20
235.6095927681533
 30
0.0
 11
216.2106108543885
 21
234.8095927681534
 31
0.0
  0
LINE
  5
20A3
330
1F
100
AcDbEntity
  8
ﾎﾞﾃﾞｨｰ
100
AcDbLine
 10
209.1106108543885
 20
242.8095927681533
 30
0.0
 11
204.1106108543886
 21
243.6095927681531
 31
0.0
  0
LINE
  5
20C1
330
1F
100
AcDbEntity
  8
ﾍﾞｰｽ
100
AcDbLine
 10
169.3106108543886
 20
229.7095927681531
 30
0.0
 11
169.3106108543885
 21
259.4095927681532
 31
0.0
  0
LINE
  5
20C2
330
1F
100
AcDbEntity
  8
ﾍﾞｰｽ
100
AcDbLine
 10
172.6106108543885
 20
247.3095927681533
 30
0.0
 11
172.6106108543885
 21
253.9095927681531
 31
0.0
  0
LINE
  5
20C3
330
1F
100
AcDbEntity
  8
ﾍﾞｰｽ
100
AcDbLine
 10
176.3106108543885
 20
253.9095927681532
 30
0.0
 11
169.3106108543885
 21
253.9095927681532
 31
0.0
  0
LINE
  5
20C4
330
1F
100
AcDbEntity
  8
ﾍﾞｰｽ
100
AcDbLine
 10
176.3106108543885
 20
259.4095927681532
 30
0.0
 11
169.3106108543885
 21
259.4095927681532
 31
0.0
  0
LINE
  5
20C5
330
1F
100
AcDbEntity
  8
ﾍﾞｰｽ
100
AcDbLine
 10
176.3106108543885
 20
253.9095927681532
 30
0.0
 11
176.3106108543885
 21
259.4095927681532
 31
0.0
  0
LINE
  5
20C6
330
1F
100
AcDbEntity
  8
ﾍﾞｰｽ
100
AcDbLine
 10
176.3106108543885
 20
247.3095927681533
 30
0.0
 11
169.3106108543885
 21
247.3095927681533
 31
0.0
  0
LINE
  5
20C8
330
1F
100
AcDbEntity
  8
ﾍﾞｰｽ
100
AcDbLine
 10
174.2106108543886
 20
232.4095927681532
 30
0.0
 11
169.3106108543886
 21
232.4095927681532
 31
0.0
  0
LINE
  5
20C9
330
1F
100
AcDbEntity
  8
ﾍﾞｰｽ
100
AcDbLine
 10
171.3106108543887
 20
229.7095927681531
 30
0.0
 11
173.3106108543887
 21
232.4095927681532
 31
0.0
  0
LINE
  5
20CB
330
1F
100
AcDbEntity
  8
ﾍﾞｰｽ
100
AcDbLine
 10
171.3106108543887
 20
229.7095927681531
 30
0.0
 11
169.3106108543886
 21
229.7095927681531
 31
0.0
  0
HATCH
  5
20E9
330
1F
100
AcDbEntity
  8
AM_8
100
AcDbHatch
 10
0.0
 20
0.0
 30
0.0
210
0.0
220
0.0
230
1.0
  2
_U
 70
     0
 71
     0
 91
        1
 92
        1
 93
        4
 72
     1
 10
176.3106108543885
 20
257.7595927681532
 11
182.3106108543884
 21
257.7595927681532
 72
     1
 10
182.3106108543884
 20
257.7595927681532
 11
182.3106108543884
 21
259.659592768153
 72
     1
 10
182.3106108543884
 20
259.659592768153
 11
176.3106108543885
 21
259.659592768153
 72
     1
 10
176.3106108543885
 20
259.659592768153
 11
176.3106108543885
 21
257.7595927681532
 97
        0
 75
     0
 76
     0
 52
45.0
 41
5.0
 77
     0
 78
     1
 53
45.0
 43
-123.1340201768295
 44
-37.08134145568403
 45
-3.535533905932737
 46
3.535533905932737
 79
     0
 98
        1
 10
-63.21220004354171
 20
8.185208782724316
1001
GENIUS_GENOBJ-N-HTC_13
1002
{
1000
OWNER
1000
GEN
1002
}
1001
GENIUS_GENODEF_13
1002
{
1000
HIER
1070
     0
1002
}
1002
{
1000
MANEDIT
1070
     0
1002
}
1002
{
1000
NOSEL
1070
     0
1002
}
1002
{
1000
BEHIND
1070
     0
1002
}
1002
{
1000
OTHER
1070
     0
1002
}
1002
{
1000
REACTOR
1002
}
1001
GENIUS_GENHATCH_13
1002
{
1000
DATA
1040
45.0
1042
2.5
1000
_U
1070
     0
1011
179.3160619194612
1021
258.8357831698653
1031
0.0
1002
}
1002
{
1000
UCS
1010
0.0
1020
0.0
1030
0.0
1010
1.0
1020
0.0
1030
0.0
1010
0.0
1020
1.0
1030
0.0
1002
}
  0
HATCH
  5
20ED
330
1F
100
AcDbEntity
  8
AM_8
100
AcDbHatch
 10
0.0
 20
0.0
 30
0.0
210
0.0
220
0.0
230
1.0
  2
_U
 70
     0
 71
     0
 91
        1
 92
        1
 93
        8
 72
     1
 10
227.3106108543886
 20
234.9095927681536
 11
227.3106108543887
 21
235.6095927681535
 72
     1
 10
227.3106108543887
 20
235.6095927681535
 11
224.8106108543886
 21
235.6095927681534
 72
     1
 10
224.8106108543886
 20
235.6095927681534
 11
224.8106108543887
 21
193.6095927681532
 72
     1
 10
224.8106108543887
 20
193.6095927681532
 11
227.3106108543887
 21
193.609592768153
 72
     1
 10
227.3106108543887
 20
193.609592768153
 11
227.3106108543887
 21
194.309592768153
 72
     1
 10
227.3106108543887
 20
194.309592768153
 11
227.0106108543874
 21
194.309592768153
 72
     1
 10
227.0106108543874
 20
194.309592768153
 11
227.0106108543897
 21
234.9095927681536
 72
     1
 10
227.0106108543897
 20
234.9095927681536
 11
227.3106108543886
 21
234.9095927681536
 97
        0
 75
     0
 76
     0
 52
45.0
 41
5.0
 77
     0
 78
     1
 53
45.0
 43
-141.5050606146528
 44
484.3660744259508
 45
-3.535533905932737
 46
3.535533905932737
 79
     0
 98
        1
 10
-38.21220004354177
 20
8.185208782726249
1001
GENIUS_GENODEF_13
1002
{
1000
HIER
1070
     0
1002
}
1002
{
1000
MANEDIT
1070
     0
1002
}
1002
{
1000
NOSEL
1070
     0
1002
}
1002
{
1000
BEHIND
1070
     0
1002
}
1002
{
1000
OTHER
1070
     0
1002
}
1002
{
1000
REACTOR
1002
}
1001
GENIUS_GENOBJ-N-HTC_13
1002
{
1000
OWNER
1000
GEN
1002
}
1001
GENIUS_GENHATCH_13
1002
{
1000
DATA
1040
45.0
1042
2.5
1000
_U
1070
     0
1011
226.1428358303767
1021
210.2846655531644
1031
0.0
1002
}
1002
{
1000
UCS
1010
0.0
1020
0.0
1030
0.0
1010
1.0
1020
0.0
1030
0.0
1010
0.0
1020
1.0
1030
0.0
1002
}
  0
LINE
  5
20EE
330
1F
100
AcDbEntity
  8
ﾎﾞﾃﾞｨｰ
100
AcDbLine
 10
605.1474300127322
 20
184.1095927681496
 30
0.0
 11
605.1474300127321
 21
169.5595927681496
 31
0.0
  0
LINE
  5
20EF
330
1F
100
AcDbEntity
  8
ﾎﾞﾃﾞｨｰ
100
AcDbLine
 10
630.3474300127309
 20
175.9595927681489
 30
0.0
 11
630.3474300127311
 21
181.4595927681489
 31
0.0
  0
LINE
  5
20F0
330
1F
100
AcDbEntity
  8
ﾎﾞﾃﾞｨｰ
100
AcDbLine
 10
630.3474300127309
 20
175.9595927681489
 30
0.0
 11
624.4474300127309
 21
175.7595927681492
 31
0.0
  0
LINE
  5
20F1
330
1F
100
AcDbEntity
  8
ﾎﾞﾃﾞｨｰ
100
AcDbLine
 10
630.3474300127311
 20
181.4595927681489
 30
0.0
 11
624.447430012731
 21
181.659592768149
 31
0.0
  0
LINE
  5
20F2
330
1F
100
AcDbEntity
  8
ﾎﾞﾃﾞｨｰ
100
AcDbLine
 10
583.4474300127312
 20
192.10959276815
 30
0.0
 11
573.4474300127312
 21
192.1095927681503
 31
0.0
1001
GENIUS_GENODEF_13
1002
{
1000
HIER
1070
     0
1002
}
1002
{
1000
MANEDIT
1070
     0
1002
}
1002
{
1000
NOSEL
1070
     0
1002
}
1002
{
1000
BEHIND
1070
     0
1002
}
1002
{
1000
REACTOR
1002
}
1001
GENIUS_GENOBJ-N-CEN_13
1002
{
1000
OWNER
1000
GEN
1002
}
  0
LINE
  5
20F3
330
1F
100
AcDbEntity
  8
ﾎﾞﾃﾞｨｰ
100
AcDbLine
 10
605.1474300127322
 20
184.1095927681496
 30
0.0
 11
583.447430012731
 21
184.10959276815
 31
0.0
1001
GENIUS_GENODEF_13
1002
{
1000
HIER
1070
     0
1002
}
1002
{
1000
MANEDIT
1070
     0
1002
}
1002
{
1000
NOSEL
1070
     0
1002
}
1002
{
1000
BEHIND
1070
     0
1002
}
1002
{
1000
REACTOR
1002
}
1001
GENIUS_GENOBJ-N-CEN_13
1002
{
1000
OWNER
1000
GEN
1002
}
  0
LINE
  5
20F4
330
1F
100
AcDbEntity
  8
ﾎﾞﾃﾞｨｰ
100
AcDbLine
 10
583.447430012731
 20
184.10959276815
 30
0.0
 11
583.4474300127312
 21
192.10959276815
 31
0.0
  0
LINE
  5
20F5
330
1F
100
AcDbEntity
  8
ﾎﾞﾃﾞｨｰ
100
AcDbLine
 10
624.4474300127308
 20
169.5595927681491
 30
0.0
 11
605.1474300127321
 21
169.5595927681496
 31
0.0
  0
LINE
  5
20F6
330
1F
100
AcDbEntity
  8
ﾎﾞﾃﾞｨｰ
100
AcDbLine
 10
624.4474300127308
 20
169.5595927681491
 30
0.0
 11
624.4474300127309
 21
175.7595927681492
 31
0.0
  0
LINE
  5
20F7
330
1F
100
AcDbEntity
  8
ﾀｰﾐﾅﾙｶﾊﾞｰ
100
AcDbLine
 10
598.4474300127312
 20
183.6595927681497
 30
0.0
 11
598.4474300127309
 21
170.0595927681498
 31
0.0
  0
LINE
  5
20F8
330
1F
100
AcDbEntity
  8
ﾀｰﾐﾅﾙｶﾊﾞｰ
100
AcDbLine
 10
605.1474300127322
 20
183.8595927681496
 30
0.0
 11
598.4474300127312
 21
183.6595927681497
 31
0.0
  0
LINE
  5
20F9
330
1F
100
AcDbEntity
  8
ﾀｰﾐﾅﾙｶﾊﾞｰ
100
AcDbLine
 10
598.4474300127309
 20
170.0595927681498
 30
0.0
 11
604.9474300127321
 21
169.8595927681496
 31
0.0
  0
LINE
  5
20FA
330
1F
100
AcDbEntity
  8
ﾀｰﾐﾅﾙｶﾊﾞｰ
100
AcDbLine
 10
605.1474300127321
 20
169.8595927681496
 30
0.0
 11
604.9474300127321
 21
169.8595927681496
 31
0.0
  0
LINE
  5
20FB
330
1F
100
AcDbEntity
  8
ﾍﾞｰｽ
100
AcDbLine
 10
627.9474300127311
 20
175.8782368359456
 30
0.0
 11
627.9474300127311
 21
175.4095927681493
 31
0.0
  0
LINE
  5
2118
330
1F
100
AcDbEntity
  8
ﾀｰﾐﾅﾙｶﾊﾞｰ
100
AcDbLine
 10
400.3790232457434
 20
401.1845343447958
 30
0.0
 11
374.1290204335602
 21
401.1845343447958
 31
0.0
  0
LINE
  5
2119
330
1F
100
AcDbEntity
  8
ﾀｰﾐﾅﾙｶﾊﾞｰ
100
AcDbLine
 10
373.9790204335604
 20
407.8845343447958
 30
0.0
 11
377.0290204335595
 21
407.8845343447958
 31
0.0
  0
LINE
  5
211A
330
1F
100
AcDbEntity
  8
ﾀｰﾐﾅﾙｶﾊﾞｰ
100
AcDbLine
 10
374.1290204335602
 20
401.1845343447958
 30
0.0
 11
373.9790204335604
 21
407.8845343447958
 31
0.0
  0
VIEWPORT
  5
178
102
{ACAD_XDICTIONARY
360
248A
102
}
330
1B
100
AcDbEntity
 67
     1
  8
0
100
AcDbViewport
 10
133.3499908447266
 20
123.6089706563676
 30
0.0
 40
370.2266912936524
 41
272.4401407679965
 68
     1
 69
     1
 12
133.3499908447266
 22
123.6089706563676
 13
0.0
 23
0.0
 14
10.0
 24
10.0
 15
10.0
 25
10.0
 16
0.0
 26
0.0
 36
1.0
 17
0.0
 27
0.0
 37
0.0
 42
50.0
 43
0.0
 44
0.0
 45
272.4401407679965
 50
0.0
 51
0.0
 72
   100
 90
    32800
  1

281
     0
 71
     1
 74
     0
110
0.0
120
0.0
130
0.0
111
1.0
121
0.0
131
0.0
112
0.0
122
1.0
132
0.0
 79
     0
146
0.0
  0
ENDSEC
  0
SECTION
  2
OBJECTS
  0
DICTIONARY
  5
C
330
0
100
AcDbDictionary
281
     1
  3
ACAD_CIP_PREVIOUS_PRODUCT_INFO
350
22AF
  3
ACAD_COLOR
350
BE
  3
ACAD_GROUP
350
D
  3
ACAD_LAYOUT
350
1A
  3
ACAD_MATERIAL
350
BD
  3
ACAD_MLEADERSTYLE
350
22A1
  3
ACAD_MLINESTYLE
350
17
  3
ACAD_PLOTSETTINGS
350
19
  3
ACAD_PLOTSTYLENAME
350
E
  3
ACAD_SCALELIST
350
228F
  3
ACAD_TABLESTYLE
350
931
  3
ACAD_VISUALSTYLE
350
2276
  3
ACDB_RECOMPOSE_DATA
350
2482
  3
AcDbVariableDictionary
350
94
  3
AcmDictionary
350
5B
  3
AMG
350
41
  3
AMGSNAPSETTINGS
350
1E5
  3
DWGPROPS
350
2483
  0
DICTIONARY
  5
2EE
330
2
100
AcDbDictionary
280
     1
281
     1
  3
ACAD_LAYERFILTERS
360
2233
  3
ACAD_LAYERSTATES
360
4DB
  3
ACLYDICTIONARY
360
2232
  3
AMLAYER_GROUPCOLORS
360
2EF
  0
DICTIONARY
  5
2460
330
10
100
AcDbDictionary
280
     1
281
     1
  3
ADSK_XREC_LAYER_RECONCILED
360
2461
  0
DICTIONARY
  5
2462
330
2F0
100
AcDbDictionary
280
     1
281
     1
  3
ADSK_XREC_LAYER_RECONCILED
360
2463
  0
DICTIONARY
  5
2464
330
2F1
100
AcDbDictionary
280
     1
281
     1
  3
ADSK_XREC_LAYER_RECONCILED
360
2465
  0
DICTIONARY
  5
2466
330
33C
100
AcDbDictionary
280
     1
281
     1
  3
ADSK_XREC_LAYER_RECONCILED
360
2467
  0
DICTIONARY
  5
2468
330
33D
100
AcDbDictionary
280
     1
281
     1
  3
ADSK_XREC_LAYER_RECONCILED
360
2469
  0
DICTIONARY
  5
246A
330
45E
100
AcDbDictionary
280
     1
281
     1
  3
ADSK_XREC_LAYER_RECONCILED
360
246B
  0
DICTIONARY
  5
246C
330
45F
100
AcDbDictionary
280
     1
281
     1
  3
ADSK_XREC_LAYER_RECONCILED
360
246D
  0
DICTIONARY
  5
246E
330
4D5
100
AcDbDictionary
280
     1
281
     1
  3
ADSK_XREC_LAYER_RECONCILED
360
246F
  0
DICTIONARY
  5
2470
330
1751
100
AcDbDictionary
280
     1
281
     1
  3
ADSK_XREC_LAYER_RECONCILED
360
2471
  0
DICTIONARY
  5
2472
330
1752
100
AcDbDictionary
280
     1
281
     1
  3
ADSK_XREC_LAYER_RECONCILED
360
2473
  0
DICTIONARY
  5
2474
330
1753
100
AcDbDictionary
280
     1
281
     1
  3
ADSK_XREC_LAYER_RECONCILED
360
2475
  0
DICTIONARY
  5
2476
330
1754
100
AcDbDictionary
280
     1
281
     1
  3
ADSK_XREC_LAYER_RECONCILED
360
2477
  0
DICTIONARY
  5
2478
330
1755
100
AcDbDictionary
280
     1
281
     1
  3
ADSK_XREC_LAYER_RECONCILED
360
2479
  0
DICTIONARY
  5
8F
330
1F
100
AcDbDictionary
280
     1
281
     1
  3
ACAD_SORTENTS
360
1F1F
  0
DICTIONARY
  5
330
330
327
100
AcDbDictionary
280
     1
281
     1
  0
DICTIONARY
  5
395
330
340
100
AcDbDictionary
280
     1
281
     1
  0
DICTIONARY
  5
1AE6
330
1ADE
100
AcDbDictionary
280
     1
281
     1
  0
DICTIONARY
  5
1B45
330
1AEC
100
AcDbDictionary
280
     1
281
     1
  0
DICTIONARY
  5
248C
330
17C
100
AcDbDictionary
280
     1
281
     1
  3
ACAD_XREC_ROUNDTRIP
360
248D
  0
DICTIONARY
  5
18E0
330
18DF
100
AcDbDictionary
280
     1
281
     1
  3
ACAD_DIMASSOC
360
18E1
  0
DICTIONARY
  5
18E3
330
18E2
100
AcDbDictionary
280
     1
281
     1
  3
ACAD_DIMASSOC
360
18E4
  0
DICTIONARY
  5
1A60
330
1A5F
100
AcDbDictionary
280
     1
281
     1
  3
ACAD_DIMASSOC
360
1A61
  0
DICTIONARY
  5
248A
330
178
100
AcDbDictionary
280
     1
281
     1
  3
ACAD_XREC_ROUNDTRIP
360
248B
  0
XRECORD
  5
22AF
102
{ACAD_REACTORS
330
C
102
}
330
C
100
AcDbXrecord
280
     1
300
AMECH_PP
300
2012
300
PDSP_F_S
  0
DICTIONARY
  5
BE
102
{ACAD_REACTORS
330
C
102
}
330
C
100
AcDbDictionary
281
     1
  0
DICTIONARY
  5
D
102
{ACAD_REACTORS
330
C
102
}
330
C
100
AcDbDictionary
281
     1
  0
DICTIONARY
  5
1A
102
{ACAD_REACTORS
330
C
102
}
330
C
100
AcDbDictionary
281
     1
  3
Model
350
22
  3
レイアウト1
350
1E
  3
レイアウト2
350
26
  0
DICTIONARY
  5
BD
102
{ACAD_REACTORS
330
C
102
}
330
C
100
AcDbDictionary
281
     1
  3
ByBlock
350
2266
  3
ByLayer
350
225E
  3
Global
350
226E
  0
DICTIONARY
  5
22A1
102
{ACAD_REACTORS
330
C
102
}
330
C
100
AcDbDictionary
281
     1
  3
Standard
350
22A2
  0
DICTIONARY
  5
17
102
{ACAD_REACTORS
330
C
102
}
330
C
100
AcDbDictionary
281
     1
  3
Standard
350
18
  0
DICTIONARY
  5
19
102
{ACAD_REACTORS
330
C
102
}
330
C
100
AcDbDictionary
281
     1
  0
ACDBDICTIONARYWDFLT
  5
E
102
{ACAD_REACTORS
330
C
102
}
330
C
100
AcDbDictionary
281
     1
  3
Normal
350
F
100
AcDbDictionaryWithDefault
340
F
  0
DICTIONARY
  5
228F
102
{ACAD_REACTORS
330
C
102
}
330
C
100
AcDbDictionary
281
     1
  3
A0
350
2290
  3
A1
350
2291
  3
A2
350
2292
  3
A3
350
2293
  3
A4
350
2294
  3
A5
350
2295
  3
A6
350
2296
  3
A7
350
2297
  3
A8
350
2298
  3
A9
350
2299
  3
B0
350
229A
  3
B1
350
229B
  3
B2
350
229C
  3
B3
350
229D
  3
B4
350
229E
  3
B5
350
229F
  3
B6
350
22A0
  0
DICTIONARY
  5
931
102
{ACAD_REACTORS
330
C
102
}
330
C
100
AcDbDictionary
281
     1
  3
Standard
350
932
  0
DICTIONARY
  5
2276
102
{ACAD_REACTORS
330
C
102
}
330
C
100
AcDbDictionary
281
     1
  3
2dWireframe
350
227C
  3
Basic
350
227B
  3
Brighten
350
2282
  3
ColorChange
350
2286
  3
Conceptual
350
227F
  3
Dim
350
2281
  3
EdgeColorOff
350
228E
  3
Facepattern
350
2285
  3
Flat
350
2277
  3
FlatWithEdges
350
2278
  3
Gouraud
350
2279
  3
GouraudWithEdges
350
227A
  3
Hidden
350
227E
  3
JitterOff
350
228C
  3
Linepattern
350
2284
  3
OverhangOff
350
228D
  3
Realistic
350
2280
  3
Shaded
350
228B
  3
Shaded with edges
350
228A
  3
Shades of Gray
350
2287
  3
Sketchy
350
2288
  3
Thicken
350
2283
  3
Wireframe
350
227D
  3
X-Ray
350
2289
  0
XRECORD
  5
2482
102
{ACAD_REACTORS
330
C
102
}
330
C
100
AcDbXrecord
280
     1
 90
        1
330
932
  0
DICTIONARY
  5
94
102
{ACAD_REACTORS
330
C
102
}
330
C
100
AcDbDictionary
281
     1
  3
CANNOSCALE
350
247B
  3
CMLEADERSTYLE
350
247A
  3
CTABLESTYLE
350
9AD
  3
DIMASSOC
350
96
  3
INDEXCTL
350
95
  3
SORTENTS
350
247C
  3
XCLIPFRAME
350
247D
  0
DICTIONARY
  5
5B
102
{ACAD_REACTORS
330
C
102
}
330
C
100
AcDbDictionary
281
     1
  3
AcmBOM
350
1E2
  3
AcmStdDictionary
350
61
  3
AMDTSECTSYM_ARROWCOLOR
350
94D
  0
DICTIONARY
  5
41
102
{ACAD_REACTORS
330
C
102
}
330
C
100
AcDbDictionary
281
     1
  0
DICTIONARY
  5
1E5
102
{ACAD_REACTORS
330
C
102
}
330
C
100
AcDbDictionary
281
     1
  0
XRECORD
  5
2483
102
{ACAD_REACTORS
330
C
102
}
330
C
100
AcDbXrecord
280
     1
  1
DWGPROPS COOKIE
  2

  3

  4

  6

  7

  8
TAKACHI
  9

300
AmdtFileType=84
301
=
302
=
303
=
304
=
305
=
306
=
307
=
308
=
309
=
 40
0.0999731481481482
 41
2453825.766918936
 42
2456939.57917353
  1

 90
        1
  0
DICTIONARY
  5
2233
102
{ACAD_REACTORS
330
2EE
102
}
330
2EE
100
AcDbDictionary
281
     1
  0
DICTIONARY
  5
4DB
102
{ACAD_REACTORS
330
2EE
102
}
330
2EE
100
AcDbDictionary
281
     1
  0
DICTIONARY
  5
2232
102
{ACAD_REACTORS
330
2EE
102
}
330
2EE
100
AcDbDictionary
281
     1
1001
ACAD
1000
<All
  0
DICTIONARY
  5
2EF
102
{ACAD_REACTORS
330
2EE
102
}
330
2EE
100
AcDbDictionary
280
     1
281
     1
  0
XRECORD
  5
2461
102
{ACAD_REACTORS
330
2460
102
}
330
2460
100
AcDbXrecord
280
     1
290
     1
  0
XRECORD
  5
2463
102
{ACAD_REACTORS
330
2462
102
}
330
2462
100
AcDbXrecord
280
     1
290
     1
  0
XRECORD
  5
2465
102
{ACAD_REACTORS
330
2464
102
}
330
2464
100
AcDbXrecord
280
     1
290
     1
  0
XRECORD
  5
2467
102
{ACAD_REACTORS
330
2466
102
}
330
2466
100
AcDbXrecord
280
     1
290
     1
  0
XRECORD
  5
2469
102
{ACAD_REACTORS
330
2468
102
}
330
2468
100
AcDbXrecord
280
     1
290
     1
  0
XRECORD
  5
246B
102
{ACAD_REACTORS
330
246A
102
}
330
246A
100
AcDbXrecord
280
     1
290
     1
  0
XRECORD
  5
246D
102
{ACAD_REACTORS
330
246C
102
}
330
246C
100
AcDbXrecord
280
     1
290
     1
  0
XRECORD
  5
246F
102
{ACAD_REACTORS
330
246E
102
}
330
246E
100
AcDbXrecord
280
     1
290
     1
  0
XRECORD
  5
2471
102
{ACAD_REACTORS
330
2470
102
}
330
2470
100
AcDbXrecord
280
     1
290
     1
  0
XRECORD
  5
2473
102
{ACAD_REACTORS
330
2472
102
}
330
2472
100
AcDbXrecord
280
     1
290
     1
  0
XRECORD
  5
2475
102
{ACAD_REACTORS
330
2474
102
}
330
2474
100
AcDbXrecord
280
     1
290
     1
  0
XRECORD
  5
2477
102
{ACAD_REACTORS
330
2476
102
}
330
2476
100
AcDbXrecord
280
     1
290
     1
  0
XRECORD
  5
2479
102
{ACAD_REACTORS
330
2478
102
}
330
2478
100
AcDbXrecord
280
     1
290
     1
  0
SORTENTSTABLE
  5
1F1F
102
{ACAD_REACTORS
330
8F
102
}
330
8F
100
AcDbSortentsTable
330
1F
331
20F5
  5
20F6
331
2086
  5
2088
331
1F8F
  5
1F90
331
20F1
  5
20F2
331
20ED
  5
20EE
331
20E9
  5
20EC
331
1934
  5
1934
331
18F5
  5
18F5
331
19AE
  5
19AE
331
1930
  5
1930
331
196F
  5
196F
331
19AA
  5
19AA
331
192C
  5
192C
331
196B
  5
196B
331
1A24
  5
1A24
331
18F1
  5
18F1
331
1A5F
  5
1A5F
331
1A20
  5
1A20
331
19A6
  5
19A6
331
19E5
  5
19E5
331
1928
  5
1928
331
19A2
  5
19A2
331
19E1
  5
19E1
331
1A1C
  5
1A1C
331
1A5B
  5
1A5B
331
1A18
  5
1A18
331
1EE8
  5
1EE8
331
207A
  5
207C
331
1F83
  5
1F83
331
2076
  5
2077
331
1F7F
  5
1F7F
331
20C9
  5
20CA
331
2072
  5
2073
331
20C5
  5
20C6
331
1F7B
  5
1F7B
331
20C1
  5
20C2
331
18ED
  5
18ED
331
1967
  5
1967
331
1924
  5
1924
331
1963
  5
1963
331
18E9
  5
18E9
331
18E5
  5
18E5
331
1A57
  5
1A57
331
199E
  5
199E
331
19DD
  5
19DD
331
1920
  5
1920
331
195F
  5
195F
331
85B
  5
85B
331
199A
  5
199A
331
191C
  5
191C
331
195B
  5
195B
331
1A14
  5
1A14
331
1A53
  5
1A53
331
1A10
  5
1A10
331
1996
  5
1996
331
19D5
  5
19D5
331
1918
  5
1918
331
1992
  5
1992
331
19D1
  5
19D1
331
1A0C
  5
1A0C
331
1A4B
  5
1A4B
331
1A08
  5
1A08
331
206E
  5
206F
331
1F77
  5
1F77
331
206A
  5
206B
331
1F73
  5
1F73
331
2066
  5
2067
331
20A1
  5
20A2
331
209D
  5
209E
331
2062
  5
2063
331
2099
  5
209A
331
1957
  5
1957
331
1914
  5
1914
331
1953
  5
1953
331
84F
  5
84F
331
1A47
  5
1A47
331
198E
  5
198E
331
19CD
  5
19CD
331
1910
  5
1910
331
194F
  5
194F
331
198A
  5
198A
331
190C
  5
190C
331
194B
  5
194B
331
1A43
  5
1A43
331
19C5
  5
19C5
331
1A3F
  5
1A3F
331
1A00
  5
1A00
331
1986
  5
1986
331
1908
  5
1908
331
1982
  5
1982
331
1A3B
  5
1A3B
331
19F8
  5
19F8
331
2095
  5
2096
331
1FBA
  5
1FBB
331
1FB6
  5
1FB7
331
1F27
  5
1F26
331
2091
  5
2092
331
1FB2
  5
1FB3
331
208D
  5
208E
331
1F23
  5
1F22
331
2089
  5
208A
331
20F8
  5
20F9
331
847
  5
847
331
1904
  5
1904
331
1943
  5
1943
331
193F
  5
193F
331
19BD
  5
19BD
331
1A37
  5
1A37
331
197E
  5
197E
331
1900
  5
1900
331
19B9
  5
19B9
331
197A
  5
197A
331
18FC
  5
18FC
331
1A33
  5
1A33
331
19B5
  5
19B5
331
19F0
  5
19F0
331
1A2F
  5
1A2F
331
1976
  5
1976
331
1972
  5
1972
331
19B1
  5
19B1
331
19E8
  5
19E8
331
20F4
  5
20F5
331
1F8E
  5
1F8F
331
2085
  5
2086
331
20F0
  5
20F1
331
1F8A
  5
1F8C
331
1937
  5
1937
331
1933
  5
1933
331
79F
  5
79F
331
1A27
  5
1A27
331
19AD
  5
19AD
331
192F
  5
192F
331
196E
  5
196E
331
19A9
  5
19A9
331
192B
  5
192B
331
196A
  5
196A
331
1A23
  5
1A23
331
18F0
  5
18F0
331
1A1F
  5
1A1F
331
19A5
  5
19A5
331
19E4
  5
19E4
331
19A1
  5
19A1
331
19E0
  5
19E0
331
1A5A
  5
1A5A
331
1A1B
  5
1A1B
331
1F86
  5
1F86
331
2079
  5
207A
331
1F82
  5
1F82
331
1F7E
  5
1F7E
331
2075
  5
2076
331
20C8
  5
20C9
331
1BB3
  5
1BB3
331
2071
  5
2072
331
20C4
  5
20C5
331
1F7A
  5
1F7A
331
18EC
  5
18EC
331
1966
  5
1966
331
85E
  5
85E
331
1923
  5
1923
331
1962
  5
1962
331
18E8
  5
18E8
331
1A17
  5
1A17
331
199D
  5
199D
331
19DC
  5
19DC
331
191F
  5
191F
331
195E
  5
195E
331
1999
  5
1999
331
191B
  5
191B
331
195A
  5
195A
331
1A52
  5
1A52
331
1A13
  5
1A13
331
1A0F
  5
1A0F
331
1995
  5
1995
331
19D4
  5
19D4
331
1991
  5
1991
331
19D0
  5
19D0
331
1A4A
  5
1A4A
331
1A0B
  5
1A0B
331
206D
  5
206E
331
2069
  5
206A
331
1F72
  5
1F72
331
2065
  5
2066
331
20A0
  5
20A1
331
2061
  5
2062
331
209C
  5
209D
331
1F62
  5
1F62
331
2098
  5
2099
331
856
  5
856
331
1917
  5
1917
331
1956
  5
1956
331
1913
  5
1913
331
1952
  5
1952
331
1A46
  5
1A46
331
198D
  5
198D
331
19CC
  5
19CC
331
190F
  5
190F
331
194E
  5
194E
331
84A
  5
84A
331
1989
  5
1989
331
190B
  5
190B
331
194A
  5
194A
331
1A42
  5
1A42
331
1A03
  5
1A03
331
1A3E
  5
1A3E
331
19FF
  5
19FF
331
1985
  5
1985
331
19C4
  5
19C4
331
1981
  5
1981
331
19C0
  5
19C0
331
1A3A
  5
1A3A
331
2094
  5
2095
331
1FB9
  5
1FBA
331
1FB5
  5
1FB6
331
2090
  5
2091
331
208C
  5
208D
331
20FB
  5
1F89
331
1FB1
  5
1FB2
331
2088
  5
2089
331
1907
  5
1907
331
842
  5
842
331
1903
  5
1903
331
1942
  5
1942
331
1A36
  5
1A36
331
197D
  5
197D
331
19BC
  5
19BC
331
18FF
  5
18FF
331
1979
  5
1979
331
19B8
  5
19B8
331
193A
  5
193A
331
1A32
  5
1A32
331
1A2E
  5
1A2E
331
1975
  5
1975
331
19B4
  5
19B4
331
1971
  5
1971
331
19B0
  5
19B0
331
19EB
  5
19EB
331
20F7
  5
20F8
331
20F3
  5
20F4
331
1F1E
  5
1F1C
331
20EF
  5
20F0
331
2080
  5
2083
331
1F89
  5
1F8A
331
1936
  5
1936
331
18F7
  5
18F7
331
18F3
  5
18F3
331
1A26
  5
1A26
331
19AC
  5
19AC
331
192E
  5
192E
331
196D
  5
196D
331
19A8
  5
19A8
331
19E7
  5
19E7
331
192A
  5
192A
331
1969
  5
1969
331
1A22
  5
1A22
331
1A5D
  5
1A5D
331
1A1E
  5
1A1E
331
19A4
  5
19A4
331
19E3
  5
19E3
331
19A0
  5
19A0
331
1A59
  5
1A59
331
1A1A
  5
1A1A
331
207C
  5
2080
331
1F85
  5
1F85
331
2078
  5
2079
331
20CB
  5
20E9
331
1F81
  5
1F81
331
2074
  5
2075
331
1F7D
  5
1F7D
331
20C3
  5
20C4
331
2070
  5
2071
331
18EF
  5
18EF
331
18EB
  5
18EB
331
1926
  5
1926
331
1965
  5
1965
331
19DF
  5
19DF
331
1922
  5
1922
331
1961
  5
1961
331
18E7
  5
18E7
331
859
  5
859
331
1A55
  5
1A55
331
1A16
  5
1A16
331
199C
  5
199C
331
19DB
  5
19DB
331
191E
  5
191E
331
195D
  5
195D
331
1998
  5
1998
331
191A
  5
191A
331
1959
  5
1959
331
1A51
  5
1A51
331
1A4D
  5
1A4D
331
1A0E
  5
1A0E
331
1994
  5
1994
331
19D3
  5
19D3
331
1990
  5
1990
331
1A49
  5
1A49
331
1A0A
  5
1A0A
331
206C
  5
206D
331
1F75
  5
1F75
331
20A3
  5
20C1
331
2068
  5
2069
331
2064
  5
2065
331
209F
  5
20A0
331
209B
  5
209C
331
1F61
  5
1F61
331
18DF
  5
18DF
331
851
  5
851
331
1916
  5
1916
331
1955
  5
1955
331
1912
  5
1912
331
1951
  5
1951
331
1A45
  5
1A45
331
198C
  5
198C
331
19CB
  5
19CB
331
190E
  5
190E
331
194D
  5
194D
331
1988
  5
1988
331
19C7
  5
19C7
331
190A
  5
190A
331
1949
  5
1949
331
1A41
  5
1A41
331
1A02
  5
1A02
331
1A3D
  5
1A3D
331
1984
  5
1984
331
1980
  5
1980
331
1A39
  5
1A39
331
2097
  5
2098
331
2093
  5
2094
331
1FB8
  5
1FB9
331
1FB4
  5
1FB5
331
208F
  5
2090
331
208B
  5
208C
331
20FA
  5
20FB
331
1FB0
  5
1FB1
331
1945
  5
1945
331
19BF
  5
19BF
331
1902
  5
1902
331
1941
  5
1941
331
19BB
  5
19BB
331
1A35
  5
1A35
331
197C
  5
197C
331
18FE
  5
18FE
331
19B7
  5
19B7
331
1978
  5
1978
331
1939
  5
1939
331
1A31
  5
1A31
331
1A2D
  5
1A2D
331
1974
  5
1974
331
19B3
  5
19B3
331
1970
  5
1970
331
20F6
  5
20F7
331
1F90
  5
1FB0
331
20F2
  5
20F3
331
2083
  5
2085
331
20EE
  5
20EF
331
1F8C
  5
1F8D
331
1F88
  5
1F88
331
7A1
  5
7A1
331
1935
  5
1935
331
19AF
  5
19AF
331
1931
  5
1931
331
18F6
  5
18F6
331
18F2
  5
18F2
331
1A25
  5
1A25
331
19AB
  5
19AB
331
192D
  5
192D
331
196C
  5
196C
331
19A7
  5
19A7
331
19E6
  5
19E6
331
1929
  5
1929
331
1968
  5
1968
331
1A21
  5
1A21
331
1A1D
  5
1A1D
331
1A5C
  5
1A5C
331
19A3
  5
19A3
331
19E2
  5
19E2
331
1A19
  5
1A19
331
2077
  5
2078
331
1F80
  5
1F80
331
2073
  5
2074
331
20C6
  5
20C8
331
1F7C
  5
1F7C
331
1F78
  5
1F78
331
20C2
  5
20C3
331
18EE
  5
18EE
331
18EA
  5
18EA
331
1925
  5
1925
331
1964
  5
1964
331
199F
  5
199F
331
19DE
  5
19DE
331
1921
  5
1921
331
1960
  5
1960
331
18E6
  5
18E6
331
18E2
  5
18E2
331
1A15
  5
1A15
331
1A54
  5
1A54
331
199B
  5
199B
331
19DA
  5
19DA
331
191D
  5
191D
331
195C
  5
195C
331
1997
  5
1997
331
19D6
  5
19D6
331
1919
  5
1919
331
1958
  5
1958
331
1A50
  5
1A50
331
1A0D
  5
1A0D
331
1A4C
  5
1A4C
331
1993
  5
1993
331
19D2
  5
19D2
331
1A48
  5
1A48
331
1A09
  5
1A09
331
206F
  5
2070
331
206B
  5
206C
331
2067
  5
2068
331
1F70
  5
1F70
331
20A2
  5
20A3
331
209E
  5
209F
331
2063
  5
2064
331
1F60
  5
1F60
331
209A
  5
209B
331
854
  5
854
331
1915
  5
1915
331
1954
  5
1954
331
198F
  5
198F
331
19CE
  5
19CE
331
1911
  5
1911
331
1950
  5
1950
331
1A05
  5
1A05
331
1A44
  5
1A44
331
198B
  5
198B
331
190D
  5
190D
331
194C
  5
194C
331
1987
  5
1987
331
19C6
  5
19C6
331
1909
  5
1909
331
1948
  5
1948
331
1A40
  5
1A40
331
1A01
  5
1A01
331
19FD
  5
19FD
331
1A3C
  5
1A3C
331
1983
  5
1983
331
19C2
  5
19C2
331
1A38
  5
1A38
331
2096
  5
2097
331
1FBB
  5
1FBC
331
1F58
  5
1F58
331
1FB7
  5
1FB8
331
2092
  5
2093
331
208E
  5
208F
331
1FB3
  5
1FB4
331
208A
  5
208B
331
20F9
  5
20FA
331
1905
  5
1905
331
1944
  5
1944
331
197F
  5
197F
331
19BE
  5
19BE
331
1901
  5
1901
331
1940
  5
1940
331
1A34
  5
1A34
331
197B
  5
197B
331
19BA
  5
19BA
331
1977
  5
1977
331
19B6
  5
19B6
331
18F9
  5
18F9
331
1938
  5
1938
331
19F1
  5
19F1
331
1A30
  5
1A30
331
1A2C
  5
1A2C
331
19ED
  5
19ED
331
1973
  5
1973
331
19B2
  5
19B2
  0
XRECORD
  5
248D
102
{ACAD_REACTORS
330
248C
102
}
330
248C
100
AcDbXrecord
280
     1
102
SHADEPLOT
 70
     0
  0
DIMASSOC
  5
18E1
102
{ACAD_REACTORS
330
18E0
102
}
330
18E0
100
AcDbDimAssoc
330
18DF
 90
        2
 70
     0
 71
     0
  1
AcDbOsnapPointRef
 72
    13
331
19E7
 73
     0
 91
        0
 40
0.0
 10
0.0
 20
0.0
 30
2.000000000000000E+50
 75
     0
  0
DIMASSOC
  5
18E4
102
{ACAD_REACTORS
330
18E3
102
}
330
18E3
100
AcDbDimAssoc
330
18E2
 90
        2
 70
     0
 71
     0
  1
AcDbOsnapPointRef
 72
    13
331
1938
 73
     0
 91
        0
 40
0.0
 10
0.0
 20
0.0
 30
2.000000000000000E+50
 75
     0
  0
DIMASSOC
  5
1A61
102
{ACAD_REACTORS
330
1A60
102
}
330
1A60
100
AcDbDimAssoc
330
1A5F
 90
        1
 70
     0
 71
     0
  1
AcDbOsnapPointRef
 72
    13
331
1A05
 73
     0
 91
        0
 40
0.0
 10
0.0
 20
0.0
 30
2.000000000000000E+50
 75
     0
  0
XRECORD
  5
248B
102
{ACAD_REACTORS
330
248A
102
}
330
248A
100
AcDbXrecord
280
     1
102
SHADEPLOT
 70
     0
  0
LAYOUT
  5
22
102
{ACAD_XDICTIONARY
360
2486
102
}
102
{ACAD_REACTORS
330
1A
102
}
330
1A
100
AcDbPlotSettings
  1

  2

  4

  6

 40
0.0
 41
0.0
 42
0.0
 43
0.0
 44
0.0
 45
0.0
 46
0.0
 47
0.0
 48
0.0
 49
0.0
140
0.0
141
0.0
142
1.0
143
1.0
 70
  1712
 72
     0
 73
     0
 74
     0
  7

 75
     0
147
1.0
148
0.0
149
0.0
100
AcDbLayout
  1
Model
 70
     1
 71
     0
 10
0.0
 20
0.0
 11
12.0
 21
9.0
 12
0.0
 22
0.0
 32
0.0
 14
0.0
 24
0.0
 34
0.0
 15
0.0
 25
0.0
 35
0.0
146
0.0
 13
0.0
 23
0.0
 33
0.0
 16
1.0
 26
0.0
 36
0.0
 17
0.0
 27
1.0
 37
0.0
 76
     0
330
1F
331
225C
  0
LAYOUT
  5
1E
102
{ACAD_XDICTIONARY
360
2484
102
}
102
{ACAD_REACTORS
330
1A
102
}
330
1A
100
AcDbPlotSettings
  1

  2
none_device
  4
Letter_(8.50_x_11.00_Inches)
  6

 40
6.349999904632568
 41
6.349999904632568
 42
6.350006103515625
 43
6.350006103515625
 44
215.8999938964844
 45
279.3999938964844
 46
0.0
 47
0.0
 48
0.0
 49
0.0
140
0.0
141
0.0
142
1.0
143
1.0
 70
   688
 72
     1
 73
     1
 74
     5
  7

 75
    16
147
1.0
148
0.0
149
0.0
100
AcDbLayout
  1
レイアウト1
 70
     1
 71
     1
 10
-6.350006103515625
 20
-6.349999904632568
 11
273.0499877929688
 21
209.5499939918518
 12
0.0
 22
0.0
 32
0.0
 14
1.000000000000000E+20
 24
1.000000000000000E+20
 34
1.000000000000000E+20
 15
-1.000000000000000E+20
 25
-1.000000000000000E+20
 35
-1.000000000000000E+20
146
0.0
 13
0.0
 23
0.0
 33
0.0
 16
1.0
 26
0.0
 36
0.0
 17
0.0
 27
1.0
 37
0.0
 76
     0
330
1B
331
178
  0
LAYOUT
  5
26
102
{ACAD_XDICTIONARY
360
2488
102
}
102
{ACAD_REACTORS
330
1A
102
}
330
1A
100
AcDbPlotSettings
  1

  2
none_device
  4
Letter_(8.50_x_11.00_Inches)
  6

 40
6.349999904632568
 41
6.349999904632568
 42
6.350006103515625
 43
6.350006103515625
 44
215.8999938964844
 45
279.3999938964844
 46
0.0
 47
0.0
 48
0.0
 49
0.0
140
0.0
141
0.0
142
1.0
143
1.0
 70
   688
 72
     1
 73
     1
 74
     5
  7

 75
    16
147
1.0
148
0.0
149
0.0
100
AcDbLayout
  1
レイアウト2
 70
     1
 71
     2
 10
-6.350006103515625
 20
-6.349999904632568
 11
273.0499877929688
 21
209.5499939918518
 12
0.0
 22
0.0
 32
0.0
 14
1.000000000000000E+20
 24
1.000000000000000E+20
 34
1.000000000000000E+20
 15
-1.000000000000000E+20
 25
-1.000000000000000E+20
 35
-1.000000000000000E+20
146
0.0
 13
0.0
 23
0.0
 33
0.0
 16
1.0
 26
0.0
 36
0.0
 17
0.0
 27
1.0
 37
0.0
 76
     0
330
23
331
17C
  0
MATERIAL
  5
2266
102
{ACAD_XDICTIONARY
360
2267
102
}
102
{ACAD_REACTORS
330
BD
102
}
330
BD
100
AcDbMaterial
  1
ByBlock
 72
     0
 43
0.0008202099737533
 43
0.0
 43
0.0
 43
0.0
 43
0.0
 43
0.0008202099737533
 43
0.0
 43
0.0
 43
0.0
 43
0.0
 43
1.0
 43
0.0
 43
0.0
 43
0.0
 43
0.0
 43
1.0
 77
     0
 47
0.0008202099737533
 47
0.0
 47
0.0
 47
0.0
 47
0.0
 47
0.0008202099737533
 47
0.0
 47
0.0
 47
0.0
 47
0.0
 47
1.0
 47
0.0
 47
0.0
 47
0.0
 47
0.0
 47
1.0
171
     0
 49
0.0008202099737533
 49
0.0
 49
0.0
 49
0.0
 49
0.0
 49
0.0008202099737533
 49
0.0
 49
0.0
 49
0.0
 49
0.0
 49
1.0
 49
0.0
 49
0.0
 49
0.0
 49
0.0
 49
1.0
175
     0
142
0.0008202099737533
142
0.0
142
0.0
142
0.0
142
0.0
142
0.0008202099737533
142
0.0
142
0.0
142
0.0
142
0.0
142
1.0
142
0.0
142
0.0
142
0.0
142
0.0
142
1.0
179
     0
144
0.0008202099737533
144
0.0
144
0.0
144
0.0
144
0.0
144
0.0008202099737533
144
0.0
144
0.0
144
0.0
144
0.0
144
1.0
144
0.0
144
0.0
144
0.0
144
0.0
144
1.0
147
0.0008202099737533
147
0.0
147
0.0
147
0.0
147
0.0
147
0.0008202099737533
147
0.0
147
0.0
147
0.0
147
0.0
147
1.0
147
0.0
147
0.0
147
0.0
147
0.0
147
1.0
  0
MATERIAL
  5
225E
102
{ACAD_XDICTIONARY
360
225F
102
}
102
{ACAD_REACTORS
330
BD
102
}
330
BD
100
AcDbMaterial
  1
ByLayer
 72
     0
 43
0.0008202099737533
 43
0.0
 43
0.0
 43
0.0
 43
0.0
 43
0.0008202099737533
 43
0.0
 43
0.0
 43
0.0
 43
0.0
 43
1.0
 43
0.0
 43
0.0
 43
0.0
 43
0.0
 43
1.0
 77
     0
 47
0.0008202099737533
 47
0.0
 47
0.0
 47
0.0
 47
0.0
 47
0.0008202099737533
 47
0.0
 47
0.0
 47
0.0
 47
0.0
 47
1.0
 47
0.0
 47
0.0
 47
0.0
 47
0.0
 47
1.0
171
     0
 49
0.0008202099737533
 49
0.0
 49
0.0
 49
0.0
 49
0.0
 49
0.0008202099737533
 49
0.0
 49
0.0
 49
0.0
 49
0.0
 49
1.0
 49
0.0
 49
0.0
 49
0.0
 49
0.0
 49
1.0
175
     0
142
0.0008202099737533
142
0.0
142
0.0
142
0.0
142
0.0
142
0.0008202099737533
142
0.0
142
0.0
142
0.0
142
0.0
142
1.0
142
0.0
142
0.0
142
0.0
142
0.0
142
1.0
179
     0
144
0.0008202099737533
144
0.0
144
0.0
144
0.0
144
0.0
144
0.0008202099737533
144
0.0
144
0.0
144
0.0
144
0.0
144
1.0
144
0.0
144
0.0
144
0.0
144
0.0
144
1.0
147
0.0008202099737533
147
0.0
147
0.0
147
0.0
147
0.0
147
0.0008202099737533
147
0.0
147
0.0
147
0.0
147
0.0
147
1.0
147
0.0
147
0.0
147
0.0
147
0.0
147
1.0
  0
MATERIAL
  5
226E
102
{ACAD_XDICTIONARY
360
226F
102
}
102
{ACAD_REACTORS
330
BD
102
}
330
BD
100
AcDbMaterial
  1
Global
 72
     0
 43
0.0008202099737533
 43
0.0
 43
0.0
 43
0.0
 43
0.0
 43
0.0008202099737533
 43
0.0
 43
0.0
 43
0.0
 43
0.0
 43
1.0
 43
0.0
 43
0.0
 43
0.0
 43
0.0
 43
1.0
 77
     0
 47
0.0008202099737533
 47
0.0
 47
0.0
 47
0.0
 47
0.0
 47
0.0008202099737533
 47
0.0
 47
0.0
 47
0.0
 47
0.0
 47
1.0
 47
0.0
 47
0.0
 47
0.0
 47
0.0
 47
1.0
171
     0
 49
0.0008202099737533
 49
0.0
 49
0.0
 49
0.0
 49
0.0
 49
0.0008202099737533
 49
0.0
 49
0.0
 49
0.0
 49
0.0
 49
1.0
 49
0.0
 49
0.0
 49
0.0
 49
0.0
 49
1.0
175
     0
142
0.0008202099737533
142
0.0
142
0.0
142
0.0
142
0.0
142
0.0008202099737533
142
0.0
142
0.0
142
0.0
142
0.0
142
1.0
142
0.0
142
0.0
142
0.0
142
0.0
142
1.0
179
     0
144
0.0008202099737533
144
0.0
144
0.0
144
0.0
144
0.0
144
0.0008202099737533
144
0.0
144
0.0
144
0.0
144
0.0
144
1.0
144
0.0
144
0.0
144
0.0
144
0.0
144
1.0
147
0.0008202099737533
147
0.0
147
0.0
147
0.0
147
0.0
147
0.0008202099737533
147
0.0
147
0.0
147
0.0
147
0.0
147
1.0
147
0.0
147
0.0
147
0.0
147
0.0
147
1.0
  0
MLEADERSTYLE
  5
22A2
102
{ACAD_XDICTIONARY
360
2480
102
}
102
{ACAD_REACTORS
330
22A1
102
}
330
22A1
100
AcDbMLeaderStyle
170
     2
171
     1
172
     0
 90
        2
 40
0.0
 41
0.0
173
     1
 91
-1056964608
340
14
 92
       -2
290
     1
 42
2.0
291
     1
 43
0.36
  3
Standard
 44
4.0
300

342
11
174
     1
178
     6
175
     1
176
     0
 93
-1056964608
 45
4.0
292
     0
297
     0
 46
4.0
 94
-1056964608
 47
1.0
 49
1.0
140
1.0
293
     1
141
0.0
294
     1
177
     0
142
1.0
295
     0
296
     0
143
0.125
1001
ACAD_MLEADERVER
1070
     2
  0
MLINESTYLE
  5
18
102
{ACAD_REACTORS
330
17
102
}
330
17
100
AcDbMlineStyle
  2
STANDARD
 70
     0
  3

 62
   256
 51
90.0
 52
90.0
 71
     2
 49
0.5
 62
   256
  6
BYLAYER
 49
-0.5
 62
   256
  6
BYLAYER
  0
ACDBPLACEHOLDER
  5
F
102
{ACAD_REACTORS
330
E
102
}
330
E
  0
SCALE
  5
2290
102
{ACAD_REACTORS
330
228F
102
}
330
228F
100
AcDbScale
 70
     0
300
1:1
140
1.0
141
1.0
290
     1
  0
SCALE
  5
2291
102
{ACAD_REACTORS
330
228F
102
}
330
228F
100
AcDbScale
 70
     0
300
1:2
140
1.0
141
2.0
290
     0
  0
SCALE
  5
2292
102
{ACAD_REACTORS
330
228F
102
}
330
228F
100
AcDbScale
 70
     0
300
1:4
140
1.0
141
4.0
290
     0
  0
SCALE
  5
2293
102
{ACAD_REACTORS
330
228F
102
}
330
228F
100
AcDbScale
 70
     0
300
1:5
140
1.0
141
5.0
290
     0
  0
SCALE
  5
2294
102
{ACAD_REACTORS
330
228F
102
}
330
228F
100
AcDbScale
 70
     0
300
1:8
140
1.0
141
8.0
290
     0
  0
SCALE
  5
2295
102
{ACAD_REACTORS
330
228F
102
}
330
228F
100
AcDbScale
 70
     0
300
1:10
140
1.0
141
10.0
290
     0
  0
SCALE
  5
2296
102
{ACAD_REACTORS
330
228F
102
}
330
228F
100
AcDbScale
 70
     0
300
1:16
140
1.0
141
16.0
290
     0
  0
SCALE
  5
2297
102
{ACAD_REACTORS
330
228F
102
}
330
228F
100
AcDbScale
 70
     0
300
1:20
140
1.0
141
20.0
290
     0
  0
SCALE
  5
2298
102
{ACAD_REACTORS
330
228F
102
}
330
228F
100
AcDbScale
 70
     0
300
1:30
140
1.0
141
30.0
290
     0
  0
SCALE
  5
2299
102
{ACAD_REACTORS
330
228F
102
}
330
228F
100
AcDbScale
 70
     0
300
1:40
140
1.0
141
40.0
290
     0
  0
SCALE
  5
229A
102
{ACAD_REACTORS
330
228F
102
}
330
228F
100
AcDbScale
 70
     0
300
1:50
140
1.0
141
50.0
290
     0
  0
SCALE
  5
229B
102
{ACAD_REACTORS
330
228F
102
}
330
228F
100
AcDbScale
 70
     0
300
1:100
140
1.0
141
100.0
290
     0
  0
SCALE
  5
229C
102
{ACAD_REACTORS
330
228F
102
}
330
228F
100
AcDbScale
 70
     0
300
2:1
140
2.0
141
1.0
290
     0
  0
SCALE
  5
229D
102
{ACAD_REACTORS
330
228F
102
}
330
228F
100
AcDbScale
 70
     0
300
4:1
140
4.0
141
1.0
290
     0
  0
SCALE
  5
229E
102
{ACAD_REACTORS
330
228F
102
}
330
228F
100
AcDbScale
 70
     0
300
8:1
140
8.0
141
1.0
290
     0
  0
SCALE
  5
229F
102
{ACAD_REACTORS
330
228F
102
}
330
228F
100
AcDbScale
 70
     0
300
10:1
140
10.0
141
1.0
290
     0
  0
SCALE
  5
22A0
102
{ACAD_REACTORS
330
228F
102
}
330
228F
100
AcDbScale
 70
     0
300
100:1
140
100.0
141
1.0
290
     0
  0
TABLESTYLE
  5
932
102
{ACAD_XDICTIONARY
360
247E
102
}
102
{ACAD_REACTORS
330
931
102
}
330
931
100
AcDbTableStyle
  3
Standard
 70
     0
 71
     0
 40
1.5
 41
1.5
280
     0
281
     0
  7
STANDARD
140
4.5
170
     2
 62
     0
 63
     7
283
     0
274
    -2
284
     1
 64
     0
275
    -2
285
     1
 65
     0
276
    -2
286
     1
 66
     0
277
    -2
287
     1
 67
     0
278
    -2
288
     1
 68
     0
279
    -2
289
     1
 69
     0
  7
STANDARD
140
6.0
170
     5
 62
     0
 63
     7
283
     0
274
    -2
284
     1
 64
     0
275
    -2
285
     1
 65
     0
276
    -2
286
     1
 66
     0
277
    -2
287
     1
 67
     0
278
    -2
288
     1
 68
     0
279
    -2
289
     1
 69
     0
  7
STANDARD
140
4.5
170
     5
 62
     0
 63
     7
283
     0
274
    -2
284
     1
 64
     0
275
    -2
285
     1
 65
     0
276
    -2
286
     1
 66
     0
277
    -2
287
     1
 67
     0
278
    -2
288
     1
 68
     0
279
    -2
289
     1
 69
     0
  0
VISUALSTYLE
  5
227C
102
{ACAD_XDICTIONARY
360
249C
102
}
102
{ACAD_REACTORS
330
2276
102
}
330
2276
100
AcDbVisualStyle
  2
2dWireframe
 70
     4
 71
     0
 72
     2
 73
     0
 90
        0
 40
-0.6
 41
-30.0
 62
     5
 63
     7
 74
     1
 91
        4
 64
     7
 65
   257
 75
     1
175
     1
 42
1.0
 92
        0
 66
   257
 43
1.0
 76
     1
 77
     6
 78
     2
 67
     7
 79
     5
170
     0
171
     0
290
     0
174
     0
 93
        1
 44
0.0
173
     0
291
     0
 45
0.0
1001
ACAD
1000
AcDbSavedByObjectVersion
1070
     0
  0
VISUALSTYLE
  5
227B
102
{ACAD_XDICTIONARY
360
249A
102
}
102
{ACAD_REACTORS
330
2276
102
}
330
2276
100
AcDbVisualStyle
  2
Basic
 70
     7
 71
     1
 72
     0
 73
     1
 90
        0
 40
-0.6
 41
-30.0
 62
     5
 63
     7
 74
     0
 91
        4
 64
     7
 65
   257
 75
     1
175
     1
 42
1.0
 92
        8
 66
     7
 43
1.0
 76
     1
 77
     6
 78
     2
 67
     7
 79
     5
170
     0
171
     0
290
     0
174
     0
 93
        1
 44
0.0
173
     0
291
     1
 45
0.0
1001
ACAD
1000
AcDbSavedByObjectVersion
1070
     0
  0
VISUALSTYLE
  5
2282
102
{ACAD_XDICTIONARY
360
24A8
102
}
102
{ACAD_REACTORS
330
2276
102
}
330
2276
100
AcDbVisualStyle
  2
Brighten
 70
    12
 71
     2
 72
     2
 73
     0
 90
        0
 40
-0.6
 41
-30.0
 62
     5
 63
     7
 74
     1
 91
        4
 64
     7
 65
   257
 75
     1
175
     1
 42
1.0
 92
        8
 66
     7
 43
1.0
 76
     1
 77
     6
 78
     2
 67
     7
 79
     5
170
     0
171
     0
290
     0
174
     0
 93
        1
 44
50.0
173
     0
291
     1
 45
0.0
1001
ACAD
1000
AcDbSavedByObjectVersion
1070
     0
  0
VISUALSTYLE
  5
2286
102
{ACAD_XDICTIONARY
360
24B0
102
}
102
{ACAD_REACTORS
330
2276
102
}
330
2276
100
AcDbVisualStyle
  2
ColorChange
 70
    16
 71
     2
 72
     2
 73
     3
 90
        0
 40
-0.6
 41
-30.0
 62
     5
 63
     8
 74
     1
 91
        4
 64
     7
 65
   257
 75
     1
175
     1
 42
1.0
 92
        8
 66
     8
 43
1.0
 76
     1
 77
     6
 78
     2
 67
     7
 79
     5
170
     0
171
     0
290
     0
174
     0
 93
        1
 44
0.0
173
     0
291
     1
 45
0.0
1001
ACAD
1000
AcDbSavedByObjectVersion
1070
     0
  0
VISUALSTYLE
  5
227F
102
{ACAD_XDICTIONARY
360
24A2
102
}
102
{ACAD_REACTORS
330
2276
102
}
330
2276
100
AcDbVisualStyle
  2
Conceptual
 70
     9
 71
     3
 72
     2
 73
     0
 90
        0
 40
-0.6
 41
-30.0
 62
     5
 63
     7
 74
     2
 91
        2
 64
     7
 65
   257
 75
     1
175
     1
 42
179.0
 92
        8
 66
     7
 43
1.0
 76
     1
 77
     6
 78
     2
 67
     7
 79
     3
170
     0
171
     0
290
     0
174
     0
 93
        1
 44
0.0
173
     0
291
     0
 45
0.0
1001
ACAD
1000
AcDbSavedByObjectVersion
1070
     0
  0
VISUALSTYLE
  5
2281
102
{ACAD_XDICTIONARY
360
24A6
102
}
102
{ACAD_REACTORS
330
2276
102
}
330
2276
100
AcDbVisualStyle
  2
Dim
 70
    11
 71
     2
 72
     2
 73
     0
 90
        0
 40
-0.6
 41
-30.0
 62
     5
 63
     7
 74
     1
 91
        4
 64
     7
 65
   257
 75
     1
175
     1
 42
1.0
 92
        8
 66
     7
 43
1.0
 76
     1
 77
     6
 78
     2
 67
     7
 79
     5
170
     0
171
     0
290
     0
174
     0
 93
        1
 44
-50.0
173
     0
291
     1
 45
0.0
1001
ACAD
1000
AcDbSavedByObjectVersion
1070
     0
  0
VISUALSTYLE
  5
228E
102
{ACAD_XDICTIONARY
360
24C0
102
}
102
{ACAD_REACTORS
330
2276
102
}
330
2276
100
AcDbVisualStyle
  2
EdgeColorOff
 70
    22
 71
     2
 72
     2
 73
     0
 90
        0
 40
-0.6
 41
-30.0
 62
     5
 63
     7
 74
     1
 91
        4
 64
     7
 65
   257
 75
     1
175
     1
 42
1.0
 92
        8
 66
     7
 43
1.0
 76
     1
 77
     6
 78
     2
 67
     7
 79
     5
170
     0
171
     0
290
     0
174
     0
 93
        1
 44
0.0
173
     0
291
     1
 45
0.0
1001
ACAD
1000
AcDbSavedByObjectVersion
1070
     0
  0
VISUALSTYLE
  5
2285
102
{ACAD_XDICTIONARY
360
24AE
102
}
102
{ACAD_REACTORS
330
2276
102
}
330
2276
100
AcDbVisualStyle
  2
Facepattern
 70
    15
 71
     2
 72
     2
 73
     0
 90
        0
 40
-0.6
 41
-30.0
 62
     5
 63
     7
 74
     1
 91
        4
 64
     7
 65
   257
 75
     1
175
     1
 42
1.0
 92
        8
 66
     7
 43
1.0
 76
     1
 77
     6
 78
     2
 67
     7
 79
     5
170
     0
171
     0
290
     0
174
     0
 93
        1
 44
0.0
173
     0
291
     1
 45
0.0
1001
ACAD
1000
AcDbSavedByObjectVersion
1070
     0
  0
VISUALSTYLE
  5
2277
102
{ACAD_XDICTIONARY
360
2492
102
}
102
{ACAD_REACTORS
330
2276
102
}
330
2276
100
AcDbVisualStyle
  2
Flat
 70
     0
 71
     2
 72
     1
 73
     1
 90
        2
 40
-0.6
 41
30.0
 62
     5
 63
     7
 74
     0
 91
        0
 64
     7
 65
   257
 75
     1
175
     1
 42
1.0
 92
        8
 66
     7
 43
1.0
 76
     1
 77
     6
 78
     2
 67
     7
 79
     5
170
     0
171
     0
290
     0
174
     0
 93
       13
 44
0.0
173
     0
291
     1
 45
0.0
1001
ACAD
1000
AcDbSavedByObjectVersion
1070
     0
  0
VISUALSTYLE
  5
2278
102
{ACAD_XDICTIONARY
360
2494
102
}
102
{ACAD_REACTORS
330
2276
102
}
330
2276
100
AcDbVisualStyle
  2
FlatWithEdges
 70
     1
 71
     2
 72
     1
 73
     1
 90
        2
 40
-0.6
 41
30.0
 62
     5
 63
     7
 74
     1
 91
        0
 64
     7
 65
   257
 75
     1
175
     1
 42
1.0
 92
        0
 66
   257
 43
1.0
 76
     1
 77
     6
 78
     2
 67
     7
 79
     5
170
     0
171
     0
290
     0
174
     0
 93
       13
 44
0.0
173
     0
291
     1
 45
0.0
1001
ACAD
1000
AcDbSavedByObjectVersion
1070
     0
  0
VISUALSTYLE
  5
2279
102
{ACAD_XDICTIONARY
360
2496
102
}
102
{ACAD_REACTORS
330
2276
102
}
330
2276
100
AcDbVisualStyle
  2
Gouraud
 70
     2
 71
     2
 72
     2
 73
     1
 90
        2
 40
-0.6
 41
30.0
 62
     5
 63
     7
 74
     0
 91
        0
 64
     7
 65
   257
 75
     1
175
     1
 42
1.0
 92
        0
 66
     7
 43
1.0
 76
     1
 77
     6
 78
     2
 67
     7
 79
     5
170
     0
171
     0
290
     0
174
     0
 93
       13
 44
0.0
173
     0
291
     1
 45
0.0
1001
ACAD
1000
AcDbSavedByObjectVersion
1070
     0
  0
VISUALSTYLE
  5
227A
102
{ACAD_XDICTIONARY
360
2498
102
}
102
{ACAD_REACTORS
330
2276
102
}
330
2276
100
AcDbVisualStyle
  2
GouraudWithEdges
 70
     3
 71
     2
 72
     2
 73
     1
 90
        2
 40
-0.6
 41
30.0
 62
     5
 63
     7
 74
     1
 91
        0
 64
     7
 65
   257
 75
     1
175
     1
 42
1.0
 92
        0
 66
   257
 43
1.0
 76
     1
 77
     6
 78
     2
 67
     7
 79
     5
170
     0
171
     0
290
     0
174
     0
 93
       13
 44
0.0
173
     0
291
     1
 45
0.0
1001
ACAD
1000
AcDbSavedByObjectVersion
1070
     0
  0
VISUALSTYLE
  5
227E
102
{ACAD_XDICTIONARY
360
24A0
102
}
102
{ACAD_REACTORS
330
2276
102
}
330
2276
100
AcDbVisualStyle
  2
Hidden
 70
     6
 71
     1
 72
     2
 73
     2
 90
        0
 40
-0.6
 41
-30.0
 62
     5
 63
     7
 74
     2
 91
        2
 64
     7
 65
   257
 75
     2
175
     1
 42
40.0
 92
        0
 66
   257
 43
1.0
 76
     1
 77
     6
 78
     2
 67
     7
 79
     3
170
     0
171
     0
290
     0
174
     0
 93
        1
 44
0.0
173
     0
291
     0
 45
0.0
1001
ACAD
1000
AcDbSavedByObjectVersion
1070
     0
  0
VISUALSTYLE
  5
228C
102
{ACAD_XDICTIONARY
360
24BC
102
}
102
{ACAD_REACTORS
330
2276
102
}
330
2276
100
AcDbVisualStyle
  2
JitterOff
 70
    20
 71
     2
 72
     2
 73
     0
 90
        0
 40
-0.6
 41
-30.0
 62
     5
 63
     7
 74
     1
 91
        4
 64
     7
 65
   257
 75
     1
175
     1
 42
1.0
 92
       10
 66
     7
 43
1.0
 76
     1
 77
     6
 78
     2
 67
     7
 79
     5
170
     0
171
     0
290
     0
174
     0
 93
        1
 44
0.0
173
     0
291
     1
 45
0.0
1001
ACAD
1000
AcDbSavedByObjectVersion
1070
     0
  0
VISUALSTYLE
  5
2284
102
{ACAD_XDICTIONARY
360
24AC
102
}
102
{ACAD_REACTORS
330
2276
102
}
330
2276
100
AcDbVisualStyle
  2
Linepattern
 70
    14
 71
     2
 72
     2
 73
     0
 90
        0
 40
-0.6
 41
-30.0
 62
     5
 63
     7
 74
     1
 91
        4
 64
     7
 65
   257
 75
     7
175
     7
 42
1.0
 92
        8
 66
     7
 43
1.0
 76
     1
 77
     6
 78
     2
 67
     7
 79
     5
170
     0
171
     0
290
     0
174
     0
 93
        1
 44
0.0
173
     0
291
     1
 45
0.0
1001
ACAD
1000
AcDbSavedByObjectVersion
1070
     0
  0
VISUALSTYLE
  5
228D
102
{ACAD_XDICTIONARY
360
24BE
102
}
102
{ACAD_REACTORS
330
2276
102
}
330
2276
100
AcDbVisualStyle
  2
OverhangOff
 70
    21
 71
     2
 72
     2
 73
     0
 90
        0
 40
-0.6
 41
-30.0
 62
     5
 63
     7
 74
     1
 91
        4
 64
     7
 65
   257
 75
     1
175
     1
 42
1.0
 92
        9
 66
     7
 43
1.0
 76
     1
 77
     6
 78
     2
 67
     7
 79
     5
170
     0
171
     0
290
     0
174
     0
 93
        1
 44
0.0
173
     0
291
     1
 45
0.0
1001
ACAD
1000
AcDbSavedByObjectVersion
1070
     0
  0
VISUALSTYLE
  5
2280
102
{ACAD_XDICTIONARY
360
24A4
102
}
102
{ACAD_REACTORS
330
2276
102
}
330
2276
100
AcDbVisualStyle
  2
Realistic
 70
     8
 71
     2
 72
     3
 73
     0
 90
        2
 40
-0.6
 41
30.0
 62
     5
 63
     7
 74
     0
 91
        0
 64
     7
 65
   257
 75
     1
175
     1
 42
1.0
 92
        8
 66
   257
 43
1.0
 76
     1
 77
     6
 78
     2
 67
     7
 79
     3
170
     0
171
     0
290
     0
174
     0
 93
       13
 44
0.0
173
     0
291
     0
 45
0.0
1001
ACAD
1000
AcDbSavedByObjectVersion
1070
     0
  0
VISUALSTYLE
  5
228B
102
{ACAD_XDICTIONARY
360
24BA
102
}
102
{ACAD_REACTORS
330
2276
102
}
330
2276
100
AcDbVisualStyle
  2
Shaded
 70
    27
 71
     2
 72
     2
 73
     1
 90
        2
 40
-0.6
 41
30.0
 62
     5
 63
     7
 74
     0
 91
        4
 64
     7
 65
   257
 75
     1
175
     1
 42
1.0
 92
        8
 66
   257
 43
1.0
 76
     1
 77
     6
 78
     2
 67
     8
 79
     3
170
     0
171
     0
290
     0
174
     0
 93
        5
 44
0.0
173
     0
291
     0
 45
0.0
1001
ACAD
1000
AcDbSavedByObjectVersion
1070
     0
  0
VISUALSTYLE
  5
228A
102
{ACAD_XDICTIONARY
360
24B8
102
}
102
{ACAD_REACTORS
330
2276
102
}
330
2276
100
AcDbVisualStyle
  2
Shaded with edges
 70
    26
 71
     2
 72
     2
 73
     1
 90
        2
 40
-0.6
 41
30.0
 62
     5
 63
     7
 74
     1
 91
       10
 64
     7
 65
   257
 75
     2
175
     1
 42
1.0
 92
        8
 66
   257
 43
1.0
 76
     1
 77
     6
 78
     2
 67
     7
 79
     3
170
     0
171
     0
290
     0
174
     0
 93
        5
 44
0.0
173
     0
291
     0
 45
0.0
1001
ACAD
1000
AcDbSavedByObjectVersion
1070
     0
  0
VISUALSTYLE
  5
2287
102
{ACAD_XDICTIONARY
360
24B2
102
}
102
{ACAD_REACTORS
330
2276
102
}
330
2276
100
AcDbVisualStyle
  2
Shades of Gray
 70
    23
 71
     2
 72
     2
 73
     3
 90
        0
 40
-0.6
 41
-30.0
 62
     5
 63
     7
 74
     2
 91
        2
 64
     7
 65
     7
 75
     1
175
     1
 42
40.0
 92
        8
 66
     7
 43
1.0
 76
     1
 77
     6
 78
     2
 67
     7
 79
     3
170
     0
171
     0
290
     0
174
     0
 93
        1
 44
0.0
173
     0
291
     0
 45
0.0
1001
ACAD
1000
AcDbSavedByObjectVersion
1070
     0
  0
VISUALSTYLE
  5
2288
102
{ACAD_XDICTIONARY
360
24B4
102
}
102
{ACAD_REACTORS
330
2276
102
}
330
2276
100
AcDbVisualStyle
  2
Sketchy
 70
    24
 71
     1
 72
     2
 73
     2
 90
        0
 40
-0.6
 41
-30.0
 62
     5
 63
     7
 74
     2
 91
        2
 64
     7
 65
     7
 75
     1
175
     1
 42
40.0
 92
       11
 66
     7
 43
1.0
 76
     1
 77
     6
 78
     2
 67
     7
 79
     6
170
     0
171
     0
290
     0
174
     0
 93
        1
 44
0.0
173
     0
291
     0
 45
0.0
1001
ACAD
1000
AcDbSavedByObjectVersion
1070
     0
  0
VISUALSTYLE
  5
2283
102
{ACAD_XDICTIONARY
360
24AA
102
}
102
{ACAD_REACTORS
330
2276
102
}
330
2276
100
AcDbVisualStyle
  2
Thicken
 70
    13
 71
     2
 72
     2
 73
     0
 90
        0
 40
-0.6
 41
-30.0
 62
     5
 63
     7
 74
     1
 91
        4
 64
     7
 65
   257
 75
     1
175
     1
 42
1.0
 92
       12
 66
     7
 43
1.0
 76
     1
 77
     6
 78
     2
 67
     7
 79
     5
170
     0
171
     0
290
     0
174
     0
 93
        1
 44
0.0
173
     0
291
     1
 45
0.0
1001
ACAD
1000
AcDbSavedByObjectVersion
1070
     0
  0
VISUALSTYLE
  5
227D
102
{ACAD_XDICTIONARY
360
249E
102
}
102
{ACAD_REACTORS
330
2276
102
}
330
2276
100
AcDbVisualStyle
  2
Wireframe
 70
     5
 71
     0
 72
     2
 73
     0
 90
        0
 40
-0.6
 41
-30.0
 62
     5
 63
     7
 74
     1
 91
        4
 64
     7
 65
   257
 75
     1
175
     1
 42
1.0
 92
        0
 66
   257
 43
1.0
 76
     1
 77
     6
 78
     2
 67
     7
 79
     3
170
     0
171
     0
290
     0
174
     0
 93
        1
 44
0.0
173
     0
291
     0
 45
0.0
1001
ACAD
1000
AcDbSavedByObjectVersion
1070
     0
  0
VISUALSTYLE
  5
2289
102
{ACAD_XDICTIONARY
360
24B6
102
}
102
{ACAD_REACTORS
330
2276
102
}
330
2276
100
AcDbVisualStyle
  2
X-Ray
 70
    25
 71
     2
 72
     2
 73
     1
 90
        1
 40
0.5
 41
-30.0
 62
     5
 63
     7
 74
     1
 91
        0
 64
     7
 65
   257
 75
     1
175
     1
 42
1.0
 92
        8
 66
     7
 43
1.0
 76
     1
 77
     6
 78
     2
 67
     7
 79
     3
170
     0
171
     0
290
     0
174
     0
 93
       13
 44
0.0
173
     0
291
     0
 45
0.0
1001
ACAD
1000
AcDbSavedByObjectVersion
1070
     0
  0
DICTIONARYVAR
  5
247B
102
{ACAD_REACTORS
330
94
102
}
330
94
100
DictionaryVariables
280
     0
  1
1:1
  0
DICTIONARYVAR
  5
247A
102
{ACAD_REACTORS
330
94
102
}
330
94
100
DictionaryVariables
280
     0
  1
STANDARD
  0
DICTIONARYVAR
  5
9AD
102
{ACAD_REACTORS
330
94
102
}
330
94
100
DictionaryVariables
280
     0
  1
STANDARD
  0
DICTIONARYVAR
  5
96
102
{ACAD_REACTORS
330
94
102
}
330
94
100
DictionaryVariables
280
     0
  1
2
  0
DICTIONARYVAR
  5
95
102
{ACAD_REACTORS
330
94
102
}
330
94
100
DictionaryVariables
280
     0
  1
0
  0
DICTIONARYVAR
  5
247C
102
{ACAD_REACTORS
330
94
102
}
330
94
100
DictionaryVariables
280
     0
  1
127
  0
DICTIONARYVAR
  5
247D
102
{ACAD_REACTORS
330
94
102
}
330
94
100
DictionaryVariables
280
     0
  1
0
  0
DICTIONARY
  5
1E2
102
{ACAD_REACTORS
330
5B
102
}
330
5B
100
AcDbDictionary
281
     1
  0
DICTIONARY
  5
61
102
{ACAD_REACTORS
330
5B
102
}
330
5B
100
AcDbDictionary
281
     1
  0
XRECORD
  5
94D
102
{ACAD_REACTORS
330
5B
102
}
330
5B
100
AcDbXrecord
280
     1
 90
-1023410169
  0
DICTIONARY
  5
2486
330
22
100
AcDbDictionary
280
     1
281
     1
  3
ACAD_XREC_ROUNDTRIP
360
2487
  0
DICTIONARY
  5
2484
330
1E
100
AcDbDictionary
280
     1
281
     1
  3
ACAD_XREC_ROUNDTRIP
360
2485
  0
DICTIONARY
  5
2488
330
26
100
AcDbDictionary
280
     1
281
     1
  3
ACAD_XREC_ROUNDTRIP
360
2489
  0
DICTIONARY
  5
2267
330
2266
100
AcDbDictionary
280
     1
281
     1
  3
ACAD_XREC_ROUNDTRIP
360
2490
  3
BUMPTILE
360
2269
  3
DIFFUSETILE
360
2268
  3
OPACITYTILE
360
226C
  3
REFLECTIONTILE
360
226B
  3
REFRACTIONTILE
360
226D
  3
SPECULARTILE
360
226A
  0
DICTIONARY
  5
225F
330
225E
100
AcDbDictionary
280
     1
281
     1
  3
ACAD_XREC_ROUNDTRIP
360
248F
  3
BUMPTILE
360
2261
  3
DIFFUSETILE
360
2260
  3
OPACITYTILE
360
2264
  3
REFLECTIONTILE
360
2263
  3
REFRACTIONTILE
360
2265
  3
SPECULARTILE
360
2262
  0
DICTIONARY
  5
226F
330
226E
100
AcDbDictionary
280
     1
281
     1
  3
ACAD_XREC_ROUNDTRIP
360
2491
  3
BUMPTILE
360
2271
  3
DIFFUSETILE
360
2270
  3
OPACITYTILE
360
2274
  3
REFLECTIONTILE
360
2273
  3
REFRACTIONTILE
360
2275
  3
SPECULARTILE
360
2272
  0
DICTIONARY
  5
2480
330
22A2
100
AcDbDictionary
280
     1
281
     1
  3
ACAD_XREC_ROUNDTRIP
360
2481
  0
DICTIONARY
  5
247E
330
932
100
AcDbDictionary
280
     1
281
     1
  3
ACAD_ROUNDTRIP_2008_TABLESTYLE_CELLSTYLEMAP
360
247F
  3
ACAD_XREC_ROUNDTRIP
360
248E
  0
DICTIONARY
  5
249C
330
227C
100
AcDbDictionary
280
     1
281
     1
  3
ACAD_XREC_ROUNDTRIP
360
249D
  0
DICTIONARY
  5
249A
330
227B
100
AcDbDictionary
280
     1
281
     1
  3
ACAD_XREC_ROUNDTRIP
360
249B
  0
DICTIONARY
  5
24A8
330
2282
100
AcDbDictionary
280
     1
281
     1
  3
ACAD_XREC_ROUNDTRIP
360
24A9
  0
DICTIONARY
  5
24B0
330
2286
100
AcDbDictionary
280
     1
281
     1
  3
ACAD_XREC_ROUNDTRIP
360
24B1
  0
DICTIONARY
  5
24A2
330
227F
100
AcDbDictionary
280
     1
281
     1
  3
ACAD_XREC_ROUNDTRIP
360
24A3
  0
DICTIONARY
  5
24A6
330
2281
100
AcDbDictionary
280
     1
281
     1
  3
ACAD_XREC_ROUNDTRIP
360
24A7
  0
DICTIONARY
  5
24C0
330
228E
100
AcDbDictionary
280
     1
281
     1
  3
ACAD_XREC_ROUNDTRIP
360
24C1
  0
DICTIONARY
  5
24AE
330
2285
100
AcDbDictionary
280
     1
281
     1
  3
ACAD_XREC_ROUNDTRIP
360
24AF
  0
DICTIONARY
  5
2492
330
2277
100
AcDbDictionary
280
     1
281
     1
  3
ACAD_XREC_ROUNDTRIP
360
2493
  0
DICTIONARY
  5
2494
330
2278
100
AcDbDictionary
280
     1
281
     1
  3
ACAD_XREC_ROUNDTRIP
360
2495
  0
DICTIONARY
  5
2496
330
2279
100
AcDbDictionary
280
     1
281
     1
  3
ACAD_XREC_ROUNDTRIP
360
2497
  0
DICTIONARY
  5
2498
330
227A
100
AcDbDictionary
280
     1
281
     1
  3
ACAD_XREC_ROUNDTRIP
360
2499
  0
DICTIONARY
  5
24A0
330
227E
100
AcDbDictionary
280
     1
281
     1
  3
ACAD_XREC_ROUNDTRIP
360
24A1
  0
DICTIONARY
  5
24BC
330
228C
100
AcDbDictionary
280
     1
281
     1
  3
ACAD_XREC_ROUNDTRIP
360
24BD
  0
DICTIONARY
  5
24AC
330
2284
100
AcDbDictionary
280
     1
281
     1
  3
ACAD_XREC_ROUNDTRIP
360
24AD
  0
DICTIONARY
  5
24BE
330
228D
100
AcDbDictionary
280
     1
281
     1
  3
ACAD_XREC_ROUNDTRIP
360
24BF
  0
DICTIONARY
  5
24A4
330
2280
100
AcDbDictionary
280
     1
281
     1
  3
ACAD_XREC_ROUNDTRIP
360
24A5
  0
DICTIONARY
  5
24BA
330
228B
100
AcDbDictionary
280
     1
281
     1
  3
ACAD_XREC_ROUNDTRIP
360
24BB
  0
DICTIONARY
  5
24B8
330
228A
100
AcDbDictionary
280
     1
281
     1
  3
ACAD_XREC_ROUNDTRIP
360
24B9
  0
DICTIONARY
  5
24B2
330
2287
100
AcDbDictionary
280
     1
281
     1
  3
ACAD_XREC_ROUNDTRIP
360
24B3
  0
DICTIONARY
  5
24B4
330
2288
100
AcDbDictionary
280
     1
281
     1
  3
ACAD_XREC_ROUNDTRIP
360
24B5
  0
DICTIONARY
  5
24AA
330
2283
100
AcDbDictionary
280
     1
281
     1
  3
ACAD_XREC_ROUNDTRIP
360
24AB
  0
DICTIONARY
  5
249E
330
227D
100
AcDbDictionary
280
     1
281
     1
  3
ACAD_XREC_ROUNDTRIP
360
249F
  0
DICTIONARY
  5
24B6
330
2289
100
AcDbDictionary
280
     1
281
     1
  3
ACAD_XREC_ROUNDTRIP
360
24B7
  0
XRECORD
  5
2487
102
{ACAD_REACTORS
330
2486
102
}
330
2486
100
AcDbXrecord
280
     1
102
SHADEPLOT
 70
     0
102
SHADEPLOTRESLEVEL
 70
     2
102
SHADEPLOTCUSTOMDPI
 70
   300
  0
XRECORD
  5
2485
102
{ACAD_REACTORS
330
2484
102
}
330
2484
100
AcDbXrecord
280
     1
102
SHADEPLOT
 70
     1
102
SHADEPLOTRESLEVEL
 70
     2
102
SHADEPLOTCUSTOMDPI
 70
   300
  0
XRECORD
  5
2489
102
{ACAD_REACTORS
330
2488
102
}
330
2488
100
AcDbXrecord
280
     1
102
SHADEPLOT
 70
     1
102
SHADEPLOTRESLEVEL
 70
     2
102
SHADEPLOTCUSTOMDPI
 70
   300
  0
XRECORD
  5
2490
102
{ACAD_REACTORS
330
2267
102
}
330
2267
100
AcDbXrecord
280
     1
102
MATERIAL
148
0.0
149
0.0
149
0.0
 93
        0
 94
      127
282
     0
 72
     0
 77
     0
171
     0
175
     0
179
     0
273
     0
  0
XRECORD
  5
2269
102
{ACAD_REACTORS
330
2267
102
}
330
2267
100
AcDbXrecord
280
     1
270
     1
271
     1
  0
XRECORD
  5
2268
102
{ACAD_REACTORS
330
2267
102
}
330
2267
100
AcDbXrecord
280
     1
270
     1
271
     1
  0
XRECORD
  5
226C
102
{ACAD_REACTORS
330
2267
102
}
330
2267
100
AcDbXrecord
280
     1
270
     1
271
     1
  0
XRECORD
  5
226B
102
{ACAD_REACTORS
330
2267
102
}
330
2267
100
AcDbXrecord
280
     1
270
     1
271
     1
  0
XRECORD
  5
226D
102
{ACAD_REACTORS
330
2267
102
}
330
2267
100
AcDbXrecord
280
     1
270
     1
271
     1
  0
XRECORD
  5
226A
102
{ACAD_REACTORS
330
2267
102
}
330
2267
100
AcDbXrecord
280
     1
270
     1
271
     1
  0
XRECORD
  5
248F
102
{ACAD_REACTORS
330
225F
102
}
330
225F
100
AcDbXrecord
280
     1
102
MATERIAL
148
0.0
149
0.0
149
0.0
 93
        0
 94
      127
282
     0
 72
     0
 77
     0
171
     0
175
     0
179
     0
273
     0
  0
XRECORD
  5
2261
102
{ACAD_REACTORS
330
225F
102
}
330
225F
100
AcDbXrecord
280
     1
270
     1
271
     1
  0
XRECORD
  5
2260
102
{ACAD_REACTORS
330
225F
102
}
330
225F
100
AcDbXrecord
280
     1
270
     1
271
     1
  0
XRECORD
  5
2264
102
{ACAD_REACTORS
330
225F
102
}
330
225F
100
AcDbXrecord
280
     1
270
     1
271
     1
  0
XRECORD
  5
2263
102
{ACAD_REACTORS
330
225F
102
}
330
225F
100
AcDbXrecord
280
     1
270
     1
271
     1
  0
XRECORD
  5
2265
102
{ACAD_REACTORS
330
225F
102
}
330
225F
100
AcDbXrecord
280
     1
270
     1
271
     1
  0
XRECORD
  5
2262
102
{ACAD_REACTORS
330
225F
102
}
330
225F
100
AcDbXrecord
280
     1
270
     1
271
     1
  0
XRECORD
  5
2491
102
{ACAD_REACTORS
330
226F
102
}
330
226F
100
AcDbXrecord
280
     1
102
MATERIAL
148
0.0
149
0.0
149
0.0
 93
        0
 94
      127
282
     0
 72
     0
 77
     0
171
     0
175
     0
179
     0
273
     0
  0
XRECORD
  5
2271
102
{ACAD_REACTORS
330
226F
102
}
330
226F
100
AcDbXrecord
280
     1
270
     1
271
     1
  0
XRECORD
  5
2270
102
{ACAD_REACTORS
330
226F
102
}
330
226F
100
AcDbXrecord
280
     1
270
     1
271
     1
  0
XRECORD
  5
2274
102
{ACAD_REACTORS
330
226F
102
}
330
226F
100
AcDbXrecord
280
     1
270
     1
271
     1
  0
XRECORD
  5
2273
102
{ACAD_REACTORS
330
226F
102
}
330
226F
100
AcDbXrecord
280
     1
270
     1
271
     1
  0
XRECORD
  5
2275
102
{ACAD_REACTORS
330
226F
102
}
330
226F
100
AcDbXrecord
280
     1
270
     1
271
     1
  0
XRECORD
  5
2272
102
{ACAD_REACTORS
330
226F
102
}
330
226F
100
AcDbXrecord
280
     1
270
     1
271
     1
  0
XRECORD
  5
2481
102
{ACAD_REACTORS
330
2480
102
}
330
2480
100
AcDbXrecord
280
     1
102
ACAD_ROUNDTRIP_2012_MLEADER_STYLE
298
     1
  0
CELLSTYLEMAP
  5
247F
102
{ACAD_REACTORS
330
247E
102
}
330
247E
100
AcDbCellStyleMap
 90
        3
300
CELLSTYLE
  1
TABLEFORMAT_BEGIN
 90
        5
170
     1
 91
        0
 92
    32768
 62
   257
 93
        1
300
CONTENTFORMAT
  1
CONTENTFORMAT_BEGIN
 90
        0
 91
        0
 92
        4
 93
        0
300

 40
0.0
140
1.0
 94
        5
 62
     0
340
11
144
6.0
309
CONTENTFORMAT_END
171
     1
301
MARGIN
  1
CELLMARGIN_BEGIN
 40
1.5
 40
1.5
 40
1.5
 40
1.5
 40
0.18
 40
0.18
309
CELLMARGIN_END
 94
        6
 95
        1
302
GRIDFORMAT
  1
GRIDFORMAT_BEGIN
 90
        0
 91
        1
 62
     0
 92
       -2
340
0
 93
        0
 40
0.045
309
GRIDFORMAT_END
 95
        2
302
GRIDFORMAT
  1
GRIDFORMAT_BEGIN
 90
        0
 91
        1
 62
     0
 92
       -2
340
0
 93
        0
 40
0.045
309
GRIDFORMAT_END
 95
        4
302
GRIDFORMAT
  1
GRIDFORMAT_BEGIN
 90
        0
 91
        1
 62
     0
 92
       -2
340
0
 93
        0
 40
0.045
309
GRIDFORMAT_END
 95
        8
302
GRIDFORMAT
  1
GRIDFORMAT_BEGIN
 90
        0
 91
        1
 62
     0
 92
       -2
340
0
 93
        0
 40
0.045
309
GRIDFORMAT_END
 95
       16
302
GRIDFORMAT
  1
GRIDFORMAT_BEGIN
 90
        0
 91
        1
 62
     0
 92
       -2
340
0
 93
        0
 40
0.045
309
GRIDFORMAT_END
 95
       32
302
GRIDFORMAT
  1
GRIDFORMAT_BEGIN
 90
        0
 91
        1
 62
     0
 92
       -2
340
0
 93
        0
 40
0.045
309
GRIDFORMAT_END
309
TABLEFORMAT_END
  1
CELLSTYLE_BEGIN
 90
        1
 91
        1
300
_TITLE
309
CELLSTYLE_END
300
CELLSTYLE
  1
TABLEFORMAT_BEGIN
 90
        5
170
     1
 91
        0
 92
        0
 62
   257
 93
        1
300
CONTENTFORMAT
  1
CONTENTFORMAT_BEGIN
 90
        0
 91
        0
 92
        4
 93
        0
300

 40
0.0
140
1.0
 94
        5
 62
     0
340
11
144
4.5
309
CONTENTFORMAT_END
171
     1
301
MARGIN
  1
CELLMARGIN_BEGIN
 40
1.5
 40
1.5
 40
1.5
 40
1.5
 40
0.18
 40
0.18
309
CELLMARGIN_END
 94
        6
 95
        1
302
GRIDFORMAT
  1
GRIDFORMAT_BEGIN
 90
        0
 91
        1
 62
     0
 92
       -2
340
0
 93
        0
 40
0.045
309
GRIDFORMAT_END
 95
        2
302
GRIDFORMAT
  1
GRIDFORMAT_BEGIN
 90
        0
 91
        1
 62
     0
 92
       -2
340
0
 93
        0
 40
0.045
309
GRIDFORMAT_END
 95
        4
302
GRIDFORMAT
  1
GRIDFORMAT_BEGIN
 90
        0
 91
        1
 62
     0
 92
       -2
340
0
 93
        0
 40
0.045
309
GRIDFORMAT_END
 95
        8
302
GRIDFORMAT
  1
GRIDFORMAT_BEGIN
 90
        0
 91
        1
 62
     0
 92
       -2
340
0
 93
        0
 40
0.045
309
GRIDFORMAT_END
 95
       16
302
GRIDFORMAT
  1
GRIDFORMAT_BEGIN
 90
        0
 91
        1
 62
     0
 92
       -2
340
0
 93
        0
 40
0.045
309
GRIDFORMAT_END
 95
       32
302
GRIDFORMAT
  1
GRIDFORMAT_BEGIN
 90
        0
 91
        1
 62
     0
 92
       -2
340
0
 93
        0
 40
0.045
309
GRIDFORMAT_END
309
TABLEFORMAT_END
  1
CELLSTYLE_BEGIN
 90
        2
 91
        1
300
_HEADER
309
CELLSTYLE_END
300
CELLSTYLE
  1
TABLEFORMAT_BEGIN
 90
        5
170
     1
 91
        0
 92
        0
 62
   257
 93
        1
300
CONTENTFORMAT
  1
CONTENTFORMAT_BEGIN
 90
        0
 91
        0
 92
        4
 93
        0
300

 40
0.0
140
1.0
 94
        2
 62
     0
340
11
144
4.5
309
CONTENTFORMAT_END
171
     1
301
MARGIN
  1
CELLMARGIN_BEGIN
 40
1.5
 40
1.5
 40
1.5
 40
1.5
 40
0.18
 40
0.18
309
CELLMARGIN_END
 94
        6
 95
        1
302
GRIDFORMAT
  1
GRIDFORMAT_BEGIN
 90
        0
 91
        1
 62
     0
 92
       -2
340
0
 93
        0
 40
0.045
309
GRIDFORMAT_END
 95
        2
302
GRIDFORMAT
  1
GRIDFORMAT_BEGIN
 90
        0
 91
        1
 62
     0
 92
       -2
340
0
 93
        0
 40
0.045
309
GRIDFORMAT_END
 95
        4
302
GRIDFORMAT
  1
GRIDFORMAT_BEGIN
 90
        0
 91
        1
 62
     0
 92
       -2
340
0
 93
        0
 40
0.045
309
GRIDFORMAT_END
 95
        8
302
GRIDFORMAT
  1
GRIDFORMAT_BEGIN
 90
        0
 91
        1
 62
     0
 92
       -2
340
0
 93
        0
 40
0.045
309
GRIDFORMAT_END
 95
       16
302
GRIDFORMAT
  1
GRIDFORMAT_BEGIN
 90
        0
 91
        1
 62
     0
 92
       -2
340
0
 93
        0
 40
0.045
309
GRIDFORMAT_END
 95
       32
302
GRIDFORMAT
  1
GRIDFORMAT_BEGIN
 90
        0
 91
        1
 62
     0
 92
       -2
340
0
 93
        0
 40
0.045
309
GRIDFORMAT_END
309
TABLEFORMAT_END
  1
CELLSTYLE_BEGIN
 90
        3
 91
        2
300
_DATA
309
CELLSTYLE_END
  0
XRECORD
  5
248E
102
{ACAD_REACTORS
330
247E
102
}
330
247E
100
AcDbXrecord
280
     1
102
ACAD_ROUNDTRIP_PRE2007_TABLESTYLE
 90
        4
 91
        0
  1

 92
        4
 93
        0
  2

 94
        4
 95
        0
  3

  0
XRECORD
  5
249D
102
{ACAD_REACTORS
330
249C
102
}
330
249C
100
AcDbXrecord
280
     1
102
RTVSPropertyOp0
 70
     1
102
RTVSPropertyOp1
 70
     1
102
RTVSPropertyOp2
 70
     1
102
RTVSPropertyOp3
 70
     1
102
RTVSPropertyOp4
 70
     1
102
RTVSPropertyOp5
 70
     1
102
RTVSPropertyOp6
 70
     1
102
RTVSPropertyOp7
 70
     1
102
RTVSPropertyOp8
 70
     1
102
RTVSPropertyOp9
 70
     1
102
RTVSPropertyOp10
 70
     1
102
RTVSPropertyOp11
 70
     1
102
RTVSPropertyOp12
 70
     1
102
RTVSPropertyOp13
 70
     1
102
RTVSPropertyOp14
 70
     1
102
RTVSPropertyOp15
 70
     1
102
RTVSPropertyOp16
 70
     1
102
RTVSPropertyOp17
 70
     1
102
RTVSPropertyOp18
 70
     1
102
RTVSPropertyOp19
 70
     1
102
RTVSPropertyOp20
 70
     1
102
RTVSPropertyOp21
 70
     1
102
RTVSPropertyOp22
 70
     1
102
RTVSPropertyOp23
 70
     1
102
RTVSPropertyOp24
 70
     1
102
RTVSPropertyOp25
 70
     1
102
RTVSPropertyOp26
 70
     1
102
RTVSPropertyOp27
 70
     1
102
RTVSPropertyOp28
 70
     1
102
RTVSPropertyOp29
 70
     1
102
RTVSPropertyOp30
 70
     1
102
RTVSPropertyOp31
 70
     1
102
RTVSPropertyOp32
 70
     1
  0
XRECORD
  5
249B
102
{ACAD_REACTORS
330
249A
102
}
330
249A
100
AcDbXrecord
280
     1
102
RTVSPropertyOp0
 70
     1
102
RTVSPropertyOp1
 70
     1
102
RTVSPropertyOp2
 70
     1
102
RTVSPropertyOp3
 70
     1
102
RTVSPropertyOp4
 70
     1
102
RTVSPropertyOp5
 70
     1
102
RTVSPropertyOp6
 70
     1
102
RTVSPropertyOp7
 70
     1
102
RTVSPropertyOp8
 70
     1
102
RTVSPropertyOp9
 70
     1
102
RTVSPropertyOp10
 70
     1
102
RTVSPropertyOp11
 70
     1
102
RTVSPropertyOp12
 70
     1
102
RTVSPropertyOp13
 70
     1
102
RTVSPropertyOp14
 70
     1
102
RTVSPropertyOp15
 70
     1
102
RTVSPropertyOp16
 70
     1
102
RTVSPropertyOp17
 70
     1
102
RTVSPropertyOp18
 70
     1
102
RTVSPropertyOp19
 70
     1
102
RTVSPropertyOp20
 70
     1
102
RTVSPropertyOp21
 70
     1
102
RTVSPropertyOp22
 70
     1
102
RTVSPropertyOp23
 70
     1
102
RTVSPropertyOp24
 70
     1
102
RTVSPropertyOp25
 70
     1
102
RTVSPropertyOp26
 70
     1
102
RTVSPropertyOp27
 70
     1
102
RTVSPropertyOp28
 70
     1
102
RTVSPropertyOp29
 70
     1
102
RTVSPropertyOp30
 70
     1
102
RTVSPropertyOp31
 70
     1
102
RTVSPropertyOp32
 70
     1
  0
XRECORD
  5
24A9
102
{ACAD_REACTORS
330
24A8
102
}
330
24A8
100
AcDbXrecord
280
     1
102
RTVSPropertyOp0
 70
     1
102
RTVSPropertyOp1
 70
     1
102
RTVSPropertyOp2
 70
     1
102
RTVSPropertyOp3
 70
     1
102
RTVSPropertyOp4
 70
     1
102
RTVSPropertyOp5
 70
     1
102
RTVSPropertyOp6
 70
     1
102
RTVSPropertyOp7
 70
     1
102
RTVSPropertyOp8
 70
     1
102
RTVSPropertyOp9
 70
     1
102
RTVSPropertyOp10
 70
     1
102
RTVSPropertyOp11
 70
     1
102
RTVSPropertyOp12
 70
     1
102
RTVSPropertyOp13
 70
     1
102
RTVSPropertyOp14
 70
     1
102
RTVSPropertyOp15
 70
     1
102
RTVSPropertyOp16
 70
     1
102
RTVSPropertyOp17
 70
     1
102
RTVSPropertyOp18
 70
     1
102
RTVSPropertyOp19
 70
     1
102
RTVSPropertyOp20
 70
     1
102
RTVSPropertyOp21
 70
     1
102
RTVSPropertyOp22
 70
     1
102
RTVSPropertyOp23
 70
     1
102
RTVSPropertyOp24
 70
     1
102
RTVSPropertyOp25
 70
     1
102
RTVSPropertyOp26
 70
     1
102
RTVSPropertyOp27
 70
     1
102
RTVSPropertyOp28
 70
     1
102
RTVSPropertyOp29
 70
     1
102
RTVSPropertyOp30
 70
     1
102
RTVSPropertyOp31
 70
     1
102
RTVSPropertyOp32
 70
     1
  0
XRECORD
  5
24B1
102
{ACAD_REACTORS
330
24B0
102
}
330
24B0
100
AcDbXrecord
280
     1
102
RTVSPropertyOp0
 70
     1
102
RTVSPropertyOp1
 70
     1
102
RTVSPropertyOp2
 70
     1
102
RTVSPropertyOp3
 70
     1
102
RTVSPropertyOp4
 70
     1
102
RTVSPropertyOp5
 70
     1
102
RTVSPropertyOp6
 70
     1
102
RTVSPropertyOp7
 70
     1
102
RTVSPropertyOp8
 70
     1
102
RTVSPropertyOp9
 70
     1
102
RTVSPropertyOp10
 70
     1
102
RTVSPropertyOp11
 70
     1
102
RTVSPropertyOp12
 70
     1
102
RTVSPropertyOp13
 70
     1
102
RTVSPropertyOp14
 70
     1
102
RTVSPropertyOp15
 70
     1
102
RTVSPropertyOp16
 70
     1
102
RTVSPropertyOp17
 70
     1
102
RTVSPropertyOp18
 70
     1
102
RTVSPropertyOp19
 70
     1
102
RTVSPropertyOp20
 70
     1
102
RTVSPropertyOp21
 70
     1
102
RTVSPropertyOp22
 70
     1
102
RTVSPropertyOp23
 70
     1
102
RTVSPropertyOp24
 70
     1
102
RTVSPropertyOp25
 70
     1
102
RTVSPropertyOp26
 70
     1
102
RTVSPropertyOp27
 70
     1
102
RTVSPropertyOp28
 70
     1
102
RTVSPropertyOp29
 70
     1
102
RTVSPropertyOp30
 70
     1
102
RTVSPropertyOp31
 70
     1
102
RTVSPropertyOp32
 70
     1
  0
XRECORD
  5
24A3
102
{ACAD_REACTORS
330
24A2
102
}
330
24A2
100
AcDbXrecord
280
     1
102
RTVSPropertyOp0
 70
     1
102
RTVSPropertyOp1
 70
     1
102
RTVSPropertyOp2
 70
     1
102
RTVSPropertyOp3
 70
     1
102
RTVSPropertyOp4
 70
     1
102
RTVSPropertyOp5
 70
     1
102
RTVSPropertyOp6
 70
     1
102
RTVSPropertyOp7
 70
     1
102
RTVSPropertyOp8
 70
     1
102
RTVSPropertyOp9
 70
     1
102
RTVSPropertyOp10
 70
     1
102
RTVSPropertyOp11
 70
     1
102
RTVSPropertyOp12
 70
     1
102
RTVSPropertyOp13
 70
     1
102
RTVSPropertyOp14
 70
     1
102
RTVSPropertyOp15
 70
     1
102
RTVSPropertyOp16
 70
     1
102
RTVSPropertyOp17
 70
     1
102
RTVSPropertyOp18
 70
     1
102
RTVSPropertyOp19
 70
     1
102
RTVSPropertyOp20
 70
     1
102
RTVSPropertyOp21
 70
     1
102
RTVSPropertyOp22
 70
     1
102
RTVSPropertyOp23
 70
     1
102
RTVSPropertyOp24
 70
     1
102
RTVSPropertyOp25
 70
     1
102
RTVSPropertyOp26
 70
     1
102
RTVSPropertyOp27
 70
     1
102
RTVSPropertyOp28
 70
     1
102
RTVSPropertyOp29
 70
     1
102
RTVSPropertyOp30
 70
     1
102
RTVSPropertyOp31
 70
     1
102
RTVSPropertyOp32
 70
     1
  0
XRECORD
  5
24A7
102
{ACAD_REACTORS
330
24A6
102
}
330
24A6
100
AcDbXrecord
280
     1
102
RTVSPropertyOp0
 70
     1
102
RTVSPropertyOp1
 70
     1
102
RTVSPropertyOp2
 70
     1
102
RTVSPropertyOp3
 70
     1
102
RTVSPropertyOp4
 70
     1
102
RTVSPropertyOp5
 70
     1
102
RTVSPropertyOp6
 70
     1
102
RTVSPropertyOp7
 70
     1
102
RTVSPropertyOp8
 70
     1
102
RTVSPropertyOp9
 70
     1
102
RTVSPropertyOp10
 70
     1
102
RTVSPropertyOp11
 70
     1
102
RTVSPropertyOp12
 70
     1
102
RTVSPropertyOp13
 70
     1
102
RTVSPropertyOp14
 70
     1
102
RTVSPropertyOp15
 70
     1
102
RTVSPropertyOp16
 70
     1
102
RTVSPropertyOp17
 70
     1
102
RTVSPropertyOp18
 70
     1
102
RTVSPropertyOp19
 70
     1
102
RTVSPropertyOp20
 70
     1
102
RTVSPropertyOp21
 70
     1
102
RTVSPropertyOp22
 70
     1
102
RTVSPropertyOp23
 70
     1
102
RTVSPropertyOp24
 70
     1
102
RTVSPropertyOp25
 70
     1
102
RTVSPropertyOp26
 70
     1
102
RTVSPropertyOp27
 70
     1
102
RTVSPropertyOp28
 70
     1
102
RTVSPropertyOp29
 70
     1
102
RTVSPropertyOp30
 70
     1
102
RTVSPropertyOp31
 70
     1
102
RTVSPropertyOp32
 70
     1
  0
XRECORD
  5
24C1
102
{ACAD_REACTORS
330
24C0
102
}
330
24C0
100
AcDbXrecord
280
     1
102
RTVSPropertyOp0
 70
     0
102
RTVSPropertyOp1
 70
     0
102
RTVSPropertyOp2
 70
     0
102
RTVSPropertyOp3
 70
     0
102
RTVSPropertyOp4
 70
     0
102
RTVSPropertyOp5
 70
     0
102
RTVSPropertyOp6
 70
     0
102
RTVSPropertyOp7
 70
     0
102
RTVSPropertyOp8
 70
     0
102
RTVSPropertyOp9
 70
     0
102
RTVSPropertyOp10
 70
     0
102
RTVSPropertyOp11
 70
     0
102
RTVSPropertyOp12
 70
     0
102
RTVSPropertyOp13
 70
     0
102
RTVSPropertyOp14
 70
     2
102
RTVSPropertyOp15
 70
     0
102
RTVSPropertyOp16
 70
     0
102
RTVSPropertyOp17
 70
     0
102
RTVSPropertyOp18
 70
     0
102
RTVSPropertyOp19
 70
     0
102
RTVSPropertyOp20
 70
     0
102
RTVSPropertyOp21
 70
     0
102
RTVSPropertyOp22
 70
     0
102
RTVSPropertyOp23
 70
     0
102
RTVSPropertyOp24
 70
     0
102
RTVSPropertyOp25
 70
     0
102
RTVSPropertyOp26
 70
     0
102
RTVSPropertyOp27
 70
     0
102
RTVSPropertyOp28
 70
     0
102
RTVSPropertyOp29
 70
     0
102
RTVSPropertyOp30
 70
     0
102
RTVSPropertyOp31
 70
     0
102
RTVSPropertyOp32
 70
     0
  0
XRECORD
  5
24AF
102
{ACAD_REACTORS
330
24AE
102
}
330
24AE
100
AcDbXrecord
280
     1
102
RTVSPropertyOp0
 70
     1
102
RTVSPropertyOp1
 70
     1
102
RTVSPropertyOp2
 70
     1
102
RTVSPropertyOp3
 70
     1
102
RTVSPropertyOp4
 70
     1
102
RTVSPropertyOp5
 70
     1
102
RTVSPropertyOp6
 70
     1
102
RTVSPropertyOp7
 70
     1
102
RTVSPropertyOp8
 70
     1
102
RTVSPropertyOp9
 70
     1
102
RTVSPropertyOp10
 70
     1
102
RTVSPropertyOp11
 70
     1
102
RTVSPropertyOp12
 70
     1
102
RTVSPropertyOp13
 70
     1
102
RTVSPropertyOp14
 70
     1
102
RTVSPropertyOp15
 70
     1
102
RTVSPropertyOp16
 70
     1
102
RTVSPropertyOp17
 70
     1
102
RTVSPropertyOp18
 70
     1
102
RTVSPropertyOp19
 70
     1
102
RTVSPropertyOp20
 70
     1
102
RTVSPropertyOp21
 70
     1
102
RTVSPropertyOp22
 70
     1
102
RTVSPropertyOp23
 70
     1
102
RTVSPropertyOp24
 70
     1
102
RTVSPropertyOp25
 70
     1
102
RTVSPropertyOp26
 70
     1
102
RTVSPropertyOp27
 70
     1
102
RTVSPropertyOp28
 70
     1
102
RTVSPropertyOp29
 70
     1
102
RTVSPropertyOp30
 70
     1
102
RTVSPropertyOp31
 70
     1
102
RTVSPropertyOp32
 70
     1
  0
XRECORD
  5
2493
102
{ACAD_REACTORS
330
2492
102
}
330
2492
100
AcDbXrecord
280
     1
102
RTVSPropertyOp0
 70
     1
102
RTVSPropertyOp1
 70
     1
102
RTVSPropertyOp2
 70
     1
102
RTVSPropertyOp3
 70
     1
102
RTVSPropertyOp4
 70
     1
102
RTVSPropertyOp5
 70
     1
102
RTVSPropertyOp6
 70
     1
102
RTVSPropertyOp7
 70
     1
102
RTVSPropertyOp8
 70
     1
102
RTVSPropertyOp9
 70
     1
102
RTVSPropertyOp10
 70
     1
102
RTVSPropertyOp11
 70
     1
102
RTVSPropertyOp12
 70
     1
102
RTVSPropertyOp13
 70
     1
102
RTVSPropertyOp14
 70
     1
102
RTVSPropertyOp15
 70
     1
102
RTVSPropertyOp16
 70
     1
102
RTVSPropertyOp17
 70
     1
102
RTVSPropertyOp18
 70
     1
102
RTVSPropertyOp19
 70
     1
102
RTVSPropertyOp20
 70
     1
102
RTVSPropertyOp21
 70
     1
102
RTVSPropertyOp22
 70
     1
102
RTVSPropertyOp23
 70
     1
102
RTVSPropertyOp24
 70
     1
102
RTVSPropertyOp25
 70
     1
102
RTVSPropertyOp26
 70
     1
102
RTVSPropertyOp27
 70
     1
102
RTVSPropertyOp28
 70
     1
102
RTVSPropertyOp29
 70
     1
102
RTVSPropertyOp30
 70
     1
102
RTVSPropertyOp31
 70
     1
102
RTVSPropertyOp32
 70
     1
  0
XRECORD
  5
2495
102
{ACAD_REACTORS
330
2494
102
}
330
2494
100
AcDbXrecord
280
     1
102
RTVSPropertyOp0
 70
     1
102
RTVSPropertyOp1
 70
     1
102
RTVSPropertyOp2
 70
     1
102
RTVSPropertyOp3
 70
     1
102
RTVSPropertyOp4
 70
     1
102
RTVSPropertyOp5
 70
     1
102
RTVSPropertyOp6
 70
     1
102
RTVSPropertyOp7
 70
     1
102
RTVSPropertyOp8
 70
     1
102
RTVSPropertyOp9
 70
     1
102
RTVSPropertyOp10
 70
     1
102
RTVSPropertyOp11
 70
     1
102
RTVSPropertyOp12
 70
     1
102
RTVSPropertyOp13
 70
     1
102
RTVSPropertyOp14
 70
     1
102
RTVSPropertyOp15
 70
     1
102
RTVSPropertyOp16
 70
     1
102
RTVSPropertyOp17
 70
     1
102
RTVSPropertyOp18
 70
     1
102
RTVSPropertyOp19
 70
     1
102
RTVSPropertyOp20
 70
     1
102
RTVSPropertyOp21
 70
     1
102
RTVSPropertyOp22
 70
     1
102
RTVSPropertyOp23
 70
     1
102
RTVSPropertyOp24
 70
     1
102
RTVSPropertyOp25
 70
     1
102
RTVSPropertyOp26
 70
     1
102
RTVSPropertyOp27
 70
     1
102
RTVSPropertyOp28
 70
     1
102
RTVSPropertyOp29
 70
     1
102
RTVSPropertyOp30
 70
     1
102
RTVSPropertyOp31
 70
     1
102
RTVSPropertyOp32
 70
     1
  0
XRECORD
  5
2497
102
{ACAD_REACTORS
330
2496
102
}
330
2496
100
AcDbXrecord
280
     1
102
RTVSPropertyOp0
 70
     1
102
RTVSPropertyOp1
 70
     1
102
RTVSPropertyOp2
 70
     1
102
RTVSPropertyOp3
 70
     1
102
RTVSPropertyOp4
 70
     1
102
RTVSPropertyOp5
 70
     1
102
RTVSPropertyOp6
 70
     1
102
RTVSPropertyOp7
 70
     1
102
RTVSPropertyOp8
 70
     1
102
RTVSPropertyOp9
 70
     1
102
RTVSPropertyOp10
 70
     1
102
RTVSPropertyOp11
 70
     1
102
RTVSPropertyOp12
 70
     1
102
RTVSPropertyOp13
 70
     1
102
RTVSPropertyOp14
 70
     1
102
RTVSPropertyOp15
 70
     1
102
RTVSPropertyOp16
 70
     1
102
RTVSPropertyOp17
 70
     1
102
RTVSPropertyOp18
 70
     1
102
RTVSPropertyOp19
 70
     1
102
RTVSPropertyOp20
 70
     1
102
RTVSPropertyOp21
 70
     1
102
RTVSPropertyOp22
 70
     1
102
RTVSPropertyOp23
 70
     1
102
RTVSPropertyOp24
 70
     1
102
RTVSPropertyOp25
 70
     1
102
RTVSPropertyOp26
 70
     1
102
RTVSPropertyOp27
 70
     1
102
RTVSPropertyOp28
 70
     1
102
RTVSPropertyOp29
 70
     1
102
RTVSPropertyOp30
 70
     1
102
RTVSPropertyOp31
 70
     1
102
RTVSPropertyOp32
 70
     1
  0
XRECORD
  5
2499
102
{ACAD_REACTORS
330
2498
102
}
330
2498
100
AcDbXrecord
280
     1
102
RTVSPropertyOp0
 70
     1
102
RTVSPropertyOp1
 70
     1
102
RTVSPropertyOp2
 70
     1
102
RTVSPropertyOp3
 70
     1
102
RTVSPropertyOp4
 70
     1
102
RTVSPropertyOp5
 70
     1
102
RTVSPropertyOp6
 70
     1
102
RTVSPropertyOp7
 70
     1
102
RTVSPropertyOp8
 70
     1
102
RTVSPropertyOp9
 70
     1
102
RTVSPropertyOp10
 70
     1
102
RTVSPropertyOp11
 70
     1
102
RTVSPropertyOp12
 70
     1
102
RTVSPropertyOp13
 70
     1
102
RTVSPropertyOp14
 70
     1
102
RTVSPropertyOp15
 70
     1
102
RTVSPropertyOp16
 70
     1
102
RTVSPropertyOp17
 70
     1
102
RTVSPropertyOp18
 70
     1
102
RTVSPropertyOp19
 70
     1
102
RTVSPropertyOp20
 70
     1
102
RTVSPropertyOp21
 70
     1
102
RTVSPropertyOp22
 70
     1
102
RTVSPropertyOp23
 70
     1
102
RTVSPropertyOp24
 70
     1
102
RTVSPropertyOp25
 70
     1
102
RTVSPropertyOp26
 70
     1
102
RTVSPropertyOp27
 70
     1
102
RTVSPropertyOp28
 70
     1
102
RTVSPropertyOp29
 70
     1
102
RTVSPropertyOp30
 70
     1
102
RTVSPropertyOp31
 70
     1
102
RTVSPropertyOp32
 70
     1
  0
XRECORD
  5
24A1
102
{ACAD_REACTORS
330
24A0
102
}
330
24A0
100
AcDbXrecord
280
     1
102
RTVSPropertyOp0
 70
     1
102
RTVSPropertyOp1
 70
     1
102
RTVSPropertyOp2
 70
     1
102
RTVSPropertyOp3
 70
     1
102
RTVSPropertyOp4
 70
     1
102
RTVSPropertyOp5
 70
     1
102
RTVSPropertyOp6
 70
     1
102
RTVSPropertyOp7
 70
     1
102
RTVSPropertyOp8
 70
     1
102
RTVSPropertyOp9
 70
     1
102
RTVSPropertyOp10
 70
     1
102
RTVSPropertyOp11
 70
     1
102
RTVSPropertyOp12
 70
     1
102
RTVSPropertyOp13
 70
     1
102
RTVSPropertyOp14
 70
     1
102
RTVSPropertyOp15
 70
     1
102
RTVSPropertyOp16
 70
     1
102
RTVSPropertyOp17
 70
     1
102
RTVSPropertyOp18
 70
     1
102
RTVSPropertyOp19
 70
     1
102
RTVSPropertyOp20
 70
     1
102
RTVSPropertyOp21
 70
     1
102
RTVSPropertyOp22
 70
     1
102
RTVSPropertyOp23
 70
     1
102
RTVSPropertyOp24
 70
     1
102
RTVSPropertyOp25
 70
     1
102
RTVSPropertyOp26
 70
     1
102
RTVSPropertyOp27
 70
     1
102
RTVSPropertyOp28
 70
     1
102
RTVSPropertyOp29
 70
     1
102
RTVSPropertyOp30
 70
     1
102
RTVSPropertyOp31
 70
     1
102
RTVSPropertyOp32
 70
     1
  0
XRECORD
  5
24BD
102
{ACAD_REACTORS
330
24BC
102
}
330
24BC
100
AcDbXrecord
280
     1
102
RTVSPropertyOp0
 70
     0
102
RTVSPropertyOp1
 70
     0
102
RTVSPropertyOp2
 70
     0
102
RTVSPropertyOp3
 70
     0
102
RTVSPropertyOp4
 70
     0
102
RTVSPropertyOp5
 70
     0
102
RTVSPropertyOp6
 70
     0
102
RTVSPropertyOp7
 70
     0
102
RTVSPropertyOp8
 70
     0
102
RTVSPropertyOp9
 70
     0
102
RTVSPropertyOp10
 70
     0
102
RTVSPropertyOp11
 70
     0
102
RTVSPropertyOp12
 70
     0
102
RTVSPropertyOp13
 70
     0
102
RTVSPropertyOp14
 70
     2
102
RTVSPropertyOp15
 70
     0
102
RTVSPropertyOp16
 70
     0
102
RTVSPropertyOp17
 70
     0
102
RTVSPropertyOp18
 70
     0
102
RTVSPropertyOp19
 70
     0
102
RTVSPropertyOp20
 70
     0
102
RTVSPropertyOp21
 70
     0
102
RTVSPropertyOp22
 70
     0
102
RTVSPropertyOp23
 70
     0
102
RTVSPropertyOp24
 70
     0
102
RTVSPropertyOp25
 70
     0
102
RTVSPropertyOp26
 70
     0
102
RTVSPropertyOp27
 70
     0
102
RTVSPropertyOp28
 70
     0
102
RTVSPropertyOp29
 70
     0
102
RTVSPropertyOp30
 70
     0
102
RTVSPropertyOp31
 70
     0
102
RTVSPropertyOp32
 70
     0
  0
XRECORD
  5
24AD
102
{ACAD_REACTORS
330
24AC
102
}
330
24AC
100
AcDbXrecord
280
     1
102
RTVSPropertyOp0
 70
     1
102
RTVSPropertyOp1
 70
     1
102
RTVSPropertyOp2
 70
     1
102
RTVSPropertyOp3
 70
     1
102
RTVSPropertyOp4
 70
     1
102
RTVSPropertyOp5
 70
     1
102
RTVSPropertyOp6
 70
     1
102
RTVSPropertyOp7
 70
     1
102
RTVSPropertyOp8
 70
     1
102
RTVSPropertyOp9
 70
     1
102
RTVSPropertyOp10
 70
     1
102
RTVSPropertyOp11
 70
     1
102
RTVSPropertyOp12
 70
     1
102
RTVSPropertyOp13
 70
     1
102
RTVSPropertyOp14
 70
     1
102
RTVSPropertyOp15
 70
     1
102
RTVSPropertyOp16
 70
     1
102
RTVSPropertyOp17
 70
     1
102
RTVSPropertyOp18
 70
     1
102
RTVSPropertyOp19
 70
     1
102
RTVSPropertyOp20
 70
     1
102
RTVSPropertyOp21
 70
     1
102
RTVSPropertyOp22
 70
     1
102
RTVSPropertyOp23
 70
     1
102
RTVSPropertyOp24
 70
     1
102
RTVSPropertyOp25
 70
     1
102
RTVSPropertyOp26
 70
     1
102
RTVSPropertyOp27
 70
     1
102
RTVSPropertyOp28
 70
     1
102
RTVSPropertyOp29
 70
     1
102
RTVSPropertyOp30
 70
     1
102
RTVSPropertyOp31
 70
     1
102
RTVSPropertyOp32
 70
     1
  0
XRECORD
  5
24BF
102
{ACAD_REACTORS
330
24BE
102
}
330
24BE
100
AcDbXrecord
280
     1
102
RTVSPropertyOp0
 70
     0
102
RTVSPropertyOp1
 70
     0
102
RTVSPropertyOp2
 70
     0
102
RTVSPropertyOp3
 70
     0
102
RTVSPropertyOp4
 70
     0
102
RTVSPropertyOp5
 70
     0
102
RTVSPropertyOp6
 70
     0
102
RTVSPropertyOp7
 70
     0
102
RTVSPropertyOp8
 70
     0
102
RTVSPropertyOp9
 70
     0
102
RTVSPropertyOp10
 70
     0
102
RTVSPropertyOp11
 70
     0
102
RTVSPropertyOp12
 70
     0
102
RTVSPropertyOp13
 70
     0
102
RTVSPropertyOp14
 70
     2
102
RTVSPropertyOp15
 70
     0
102
RTVSPropertyOp16
 70
     0
102
RTVSPropertyOp17
 70
     0
102
RTVSPropertyOp18
 70
     0
102
RTVSPropertyOp19
 70
     0
102
RTVSPropertyOp20
 70
     0
102
RTVSPropertyOp21
 70
     0
102
RTVSPropertyOp22
 70
     0
102
RTVSPropertyOp23
 70
     0
102
RTVSPropertyOp24
 70
     0
102
RTVSPropertyOp25
 70
     0
102
RTVSPropertyOp26
 70
     0
102
RTVSPropertyOp27
 70
     0
102
RTVSPropertyOp28
 70
     0
102
RTVSPropertyOp29
 70
     0
102
RTVSPropertyOp30
 70
     0
102
RTVSPropertyOp31
 70
     0
102
RTVSPropertyOp32
 70
     0
  0
XRECORD
  5
24A5
102
{ACAD_REACTORS
330
24A4
102
}
330
24A4
100
AcDbXrecord
280
     1
102
RTVSPropertyOp0
 70
     1
102
RTVSPropertyOp1
 70
     1
102
RTVSPropertyOp2
 70
     1
102
RTVSPropertyOp3
 70
     1
102
RTVSPropertyOp4
 70
     1
102
RTVSPropertyOp5
 70
     1
102
RTVSPropertyOp6
 70
     1
102
RTVSPropertyOp7
 70
     1
102
RTVSPropertyOp8
 70
     1
102
RTVSPropertyOp9
 70
     1
102
RTVSPropertyOp10
 70
     1
102
RTVSPropertyOp11
 70
     1
102
RTVSPropertyOp12
 70
     1
102
RTVSPropertyOp13
 70
     1
102
RTVSPropertyOp14
 70
     1
102
RTVSPropertyOp15
 70
     1
102
RTVSPropertyOp16
 70
     1
102
RTVSPropertyOp17
 70
     1
102
RTVSPropertyOp18
 70
     1
102
RTVSPropertyOp19
 70
     1
102
RTVSPropertyOp20
 70
     1
102
RTVSPropertyOp21
 70
     1
102
RTVSPropertyOp22
 70
     1
102
RTVSPropertyOp23
 70
     1
102
RTVSPropertyOp24
 70
     1
102
RTVSPropertyOp25
 70
     1
102
RTVSPropertyOp26
 70
     1
102
RTVSPropertyOp27
 70
     1
102
RTVSPropertyOp28
 70
     1
102
RTVSPropertyOp29
 70
     1
102
RTVSPropertyOp30
 70
     1
102
RTVSPropertyOp31
 70
     1
102
RTVSPropertyOp32
 70
     1
  0
XRECORD
  5
24BB
102
{ACAD_REACTORS
330
24BA
102
}
330
24BA
100
AcDbXrecord
280
     1
102
RTVSPropertyOp0
 70
     1
102
RTVSPropertyOp1
 70
     1
102
RTVSPropertyOp2
 70
     1
102
RTVSPropertyOp3
 70
     1
102
RTVSPropertyOp4
 70
     1
102
RTVSPropertyOp5
 70
     1
102
RTVSPropertyOp6
 70
     1
102
RTVSPropertyOp7
 70
     1
102
RTVSPropertyOp8
 70
     1
102
RTVSPropertyOp9
 70
     1
102
RTVSPropertyOp10
 70
     1
102
RTVSPropertyOp11
 70
     1
102
RTVSPropertyOp12
 70
     1
102
RTVSPropertyOp13
 70
     1
102
RTVSPropertyOp14
 70
     1
102
RTVSPropertyOp15
 70
     1
102
RTVSPropertyOp16
 70
     1
102
RTVSPropertyOp17
 70
     1
102
RTVSPropertyOp18
 70
     1
102
RTVSPropertyOp19
 70
     1
102
RTVSPropertyOp20
 70
     1
102
RTVSPropertyOp21
 70
     1
102
RTVSPropertyOp22
 70
     1
102
RTVSPropertyOp23
 70
     1
102
RTVSPropertyOp24
 70
     1
102
RTVSPropertyOp25
 70
     1
102
RTVSPropertyOp26
 70
     1
102
RTVSPropertyOp27
 70
     1
102
RTVSPropertyOp28
 70
     1
102
RTVSPropertyOp29
 70
     1
102
RTVSPropertyOp30
 70
     1
102
RTVSPropertyOp31
 70
     1
102
RTVSPropertyOp32
 70
     1
  0
XRECORD
  5
24B9
102
{ACAD_REACTORS
330
24B8
102
}
330
24B8
100
AcDbXrecord
280
     1
102
RTVSPropertyOp0
 70
     1
102
RTVSPropertyOp1
 70
     1
102
RTVSPropertyOp2
 70
     1
102
RTVSPropertyOp3
 70
     1
102
RTVSPropertyOp4
 70
     1
102
RTVSPropertyOp5
 70
     1
102
RTVSPropertyOp6
 70
     1
102
RTVSPropertyOp7
 70
     1
102
RTVSPropertyOp8
 70
     1
102
RTVSPropertyOp9
 70
     1
102
RTVSPropertyOp10
 70
     1
102
RTVSPropertyOp11
 70
     1
102
RTVSPropertyOp12
 70
     1
102
RTVSPropertyOp13
 70
     1
102
RTVSPropertyOp14
 70
     1
102
RTVSPropertyOp15
 70
     1
102
RTVSPropertyOp16
 70
     1
102
RTVSPropertyOp17
 70
     1
102
RTVSPropertyOp18
 70
     1
102
RTVSPropertyOp19
 70
     1
102
RTVSPropertyOp20
 70
     1
102
RTVSPropertyOp21
 70
     1
102
RTVSPropertyOp22
 70
     1
102
RTVSPropertyOp23
 70
     1
102
RTVSPropertyOp24
 70
     1
102
RTVSPropertyOp25
 70
     1
102
RTVSPropertyOp26
 70
     1
102
RTVSPropertyOp27
 70
     1
102
RTVSPropertyOp28
 70
     1
102
RTVSPropertyOp29
 70
     1
102
RTVSPropertyOp30
 70
     1
102
RTVSPropertyOp31
 70
     1
102
RTVSPropertyOp32
 70
     1
  0
XRECORD
  5
24B3
102
{ACAD_REACTORS
330
24B2
102
}
330
24B2
100
AcDbXrecord
280
     1
102
RTVSPropertyOp0
 70
     1
102
RTVSPropertyOp1
 70
     1
102
RTVSPropertyOp2
 70
     1
102
RTVSPropertyOp3
 70
     1
102
RTVSPropertyOp4
 70
     1
102
RTVSPropertyOp5
 70
     1
102
RTVSPropertyOp6
 70
     1
102
RTVSPropertyOp7
 70
     1
102
RTVSPropertyOp8
 70
     1
102
RTVSPropertyOp9
 70
     1
102
RTVSPropertyOp10
 70
     1
102
RTVSPropertyOp11
 70
     1
102
RTVSPropertyOp12
 70
     1
102
RTVSPropertyOp13
 70
     1
102
RTVSPropertyOp14
 70
     1
102
RTVSPropertyOp15
 70
     1
102
RTVSPropertyOp16
 70
     1
102
RTVSPropertyOp17
 70
     1
102
RTVSPropertyOp18
 70
     1
102
RTVSPropertyOp19
 70
     1
102
RTVSPropertyOp20
 70
     1
102
RTVSPropertyOp21
 70
     1
102
RTVSPropertyOp22
 70
     1
102
RTVSPropertyOp23
 70
     1
102
RTVSPropertyOp24
 70
     1
102
RTVSPropertyOp25
 70
     1
102
RTVSPropertyOp26
 70
     1
102
RTVSPropertyOp27
 70
     1
102
RTVSPropertyOp28
 70
     1
102
RTVSPropertyOp29
 70
     1
102
RTVSPropertyOp30
 70
     1
102
RTVSPropertyOp31
 70
     1
102
RTVSPropertyOp32
 70
     1
  0
XRECORD
  5
24B5
102
{ACAD_REACTORS
330
24B4
102
}
330
24B4
100
AcDbXrecord
280
     1
102
RTVSPropertyOp0
 70
     1
102
RTVSPropertyOp1
 70
     1
102
RTVSPropertyOp2
 70
     1
102
RTVSPropertyOp3
 70
     1
102
RTVSPropertyOp4
 70
     1
102
RTVSPropertyOp5
 70
     1
102
RTVSPropertyOp6
 70
     1
102
RTVSPropertyOp7
 70
     1
102
RTVSPropertyOp8
 70
     1
102
RTVSPropertyOp9
 70
     1
102
RTVSPropertyOp10
 70
     1
102
RTVSPropertyOp11
 70
     1
102
RTVSPropertyOp12
 70
     1
102
RTVSPropertyOp13
 70
     1
102
RTVSPropertyOp14
 70
     1
102
RTVSPropertyOp15
 70
     1
102
RTVSPropertyOp16
 70
     1
102
RTVSPropertyOp17
 70
     1
102
RTVSPropertyOp18
 70
     1
102
RTVSPropertyOp19
 70
     1
102
RTVSPropertyOp20
 70
     1
102
RTVSPropertyOp21
 70
     1
102
RTVSPropertyOp22
 70
     1
102
RTVSPropertyOp23
 70
     1
102
RTVSPropertyOp24
 70
     1
102
RTVSPropertyOp25
 70
     1
102
RTVSPropertyOp26
 70
     1
102
RTVSPropertyOp27
 70
     1
102
RTVSPropertyOp28
 70
     1
102
RTVSPropertyOp29
 70
     1
102
RTVSPropertyOp30
 70
     1
102
RTVSPropertyOp31
 70
     1
102
RTVSPropertyOp32
 70
     1
  0
XRECORD
  5
24AB
102
{ACAD_REACTORS
330
24AA
102
}
330
24AA
100
AcDbXrecord
280
     1
102
RTVSPropertyOp0
 70
     1
102
RTVSPropertyOp1
 70
     1
102
RTVSPropertyOp2
 70
     1
102
RTVSPropertyOp3
 70
     1
102
RTVSPropertyOp4
 70
     1
102
RTVSPropertyOp5
 70
     1
102
RTVSPropertyOp6
 70
     1
102
RTVSPropertyOp7
 70
     1
102
RTVSPropertyOp8
 70
     1
102
RTVSPropertyOp9
 70
     1
102
RTVSPropertyOp10
 70
     1
102
RTVSPropertyOp11
 70
     1
102
RTVSPropertyOp12
 70
     1
102
RTVSPropertyOp13
 70
     1
102
RTVSPropertyOp14
 70
     1
102
RTVSPropertyOp15
 70
     1
102
RTVSPropertyOp16
 70
     1
102
RTVSPropertyOp17
 70
     1
102
RTVSPropertyOp18
 70
     1
102
RTVSPropertyOp19
 70
     1
102
RTVSPropertyOp20
 70
     1
102
RTVSPropertyOp21
 70
     1
102
RTVSPropertyOp22
 70
     1
102
RTVSPropertyOp23
 70
     1
102
RTVSPropertyOp24
 70
     1
102
RTVSPropertyOp25
 70
     1
102
RTVSPropertyOp26
 70
     1
102
RTVSPropertyOp27
 70
     1
102
RTVSPropertyOp28
 70
     1
102
RTVSPropertyOp29
 70
     1
102
RTVSPropertyOp30
 70
     1
102
RTVSPropertyOp31
 70
     1
102
RTVSPropertyOp32
 70
     1
  0
XRECORD
  5
249F
102
{ACAD_REACTORS
330
249E
102
}
330
249E
100
AcDbXrecord
280
     1
102
RTVSPropertyOp0
 70
     1
102
RTVSPropertyOp1
 70
     1
102
RTVSPropertyOp2
 70
     1
102
RTVSPropertyOp3
 70
     1
102
RTVSPropertyOp4
 70
     1
102
RTVSPropertyOp5
 70
     1
102
RTVSPropertyOp6
 70
     1
102
RTVSPropertyOp7
 70
     1
102
RTVSPropertyOp8
 70
     1
102
RTVSPropertyOp9
 70
     1
102
RTVSPropertyOp10
 70
     1
102
RTVSPropertyOp11
 70
     1
102
RTVSPropertyOp12
 70
     1
102
RTVSPropertyOp13
 70
     1
102
RTVSPropertyOp14
 70
     1
102
RTVSPropertyOp15
 70
     1
102
RTVSPropertyOp16
 70
     1
102
RTVSPropertyOp17
 70
     1
102
RTVSPropertyOp18
 70
     1
102
RTVSPropertyOp19
 70
     1
102
RTVSPropertyOp20
 70
     1
102
RTVSPropertyOp21
 70
     1
102
RTVSPropertyOp22
 70
     1
102
RTVSPropertyOp23
 70
     1
102
RTVSPropertyOp24
 70
     1
102
RTVSPropertyOp25
 70
     1
102
RTVSPropertyOp26
 70
     1
102
RTVSPropertyOp27
 70
     1
102
RTVSPropertyOp28
 70
     1
102
RTVSPropertyOp29
 70
     1
102
RTVSPropertyOp30
 70
     1
102
RTVSPropertyOp31
 70
     1
102
RTVSPropertyOp32
 70
     1
  0
XRECORD
  5
24B7
102
{ACAD_REACTORS
330
24B6
102
}
330
24B6
100
AcDbXrecord
280
     1
102
RTVSPropertyOp0
 70
     1
102
RTVSPropertyOp1
 70
     1
102
RTVSPropertyOp2
 70
     1
102
RTVSPropertyOp3
 70
     1
102
RTVSPropertyOp4
 70
     1
102
RTVSPropertyOp5
 70
     1
102
RTVSPropertyOp6
 70
     1
102
RTVSPropertyOp7
 70
     1
102
RTVSPropertyOp8
 70
     1
102
RTVSPropertyOp9
 70
     1
102
RTVSPropertyOp10
 70
     1
102
RTVSPropertyOp11
 70
     1
102
RTVSPropertyOp12
 70
     1
102
RTVSPropertyOp13
 70
     1
102
RTVSPropertyOp14
 70
     1
102
RTVSPropertyOp15
 70
     1
102
RTVSPropertyOp16
 70
     1
102
RTVSPropertyOp17
 70
     1
102
RTVSPropertyOp18
 70
     1
102
RTVSPropertyOp19
 70
     1
102
RTVSPropertyOp20
 70
     1
102
RTVSPropertyOp21
 70
     1
102
RTVSPropertyOp22
 70
     1
102
RTVSPropertyOp23
 70
     1
102
RTVSPropertyOp24
 70
     1
102
RTVSPropertyOp25
 70
     1
102
RTVSPropertyOp26
 70
     1
102
RTVSPropertyOp27
 70
     1
102
RTVSPropertyOp28
 70
     1
102
RTVSPropertyOp29
 70
     1
102
RTVSPropertyOp30
 70
     1
102
RTVSPropertyOp31
 70
     1
102
RTVSPropertyOp32
 70
     1
  0
ENDSEC
  0
EOF
