  0
SECTION
  2
HEADER
  9
$ACADVER
  1
AC1015
  9
$ACADMAINTVER
 70
    20
  9
$DWGCODEPAGE
  3
ANSI_932
  9
$INSBASE
 10
0.0
 20
0.0
 30
0.0
  9
$EXTMIN
 10
0.0
 20
-0.0000000000001066
 30
0.0
  9
$EXTMAX
 10
806.0000000000002
 20
560.0000000000001
 30
0.0
  9
$LIMMIN
 10
0.0
 20
0.0
  9
$LIMMAX
 10
806.0
 20
560.0000000000001
  9
$ORTHOMODE
 70
     0
  9
$REGENMODE
 70
     1
  9
$FILLMODE
 70
     1
  9
$QTEXTMODE
 70
     0
  9
$MIRRTEXT
 70
     1
  9
$LTSCALE
 40
2.0
  9
$ATTMODE
 70
     1
  9
$TEXTSIZE
 40
1.0
  9
$TRACEWID
 40
1.0
  9
$TEXTSTYLE
  7
ACISOTS
  9
$CLAYER
  8
0
  9
$CELTYPE
  6
ByLayer
  9
$CECOLOR
 62
   256
  9
$CELTSCALE
 40
1.0
  9
$DISPSILH
 70
     0
  9
$DIMSCALE
 40
1.0
  9
$DIMASZ
 40
2.5
  9
$DIMEXO
 40
1.0
  9
$DIMDLI
 40
10.0
  9
$DIMRND
 40
0.0
  9
$DIMDLE
 40
0.0
  9
$DIMEXE
 40
1.0
  9
$DIMTP
 40
0.1
  9
$DIMTM
 40
0.1
  9
$DIMTXT
 40
3.5
  9
$DIMCEN
 40
0.0
  9
$DIMTSZ
 40
0.0
  9
$DIMTOL
 70
     0
  9
$DIMLIM
 70
     0
  9
$DIMTIH
 70
     0
  9
$DIMTOH
 70
     0
  9
$DIMSE1
 70
     0
  9
$DIMSE2
 70
     0
  9
$DIMTAD
 70
     1
  9
$DIMZIN
 70
     8
  9
$DIMBLK
  1

  9
$DIMASO
 70
     1
  9
$DIMSHO
 70
     1
  9
$DIMPOST
  1

  9
$DIMAPOST
  1
"
  9
$DIMALT
 70
     0
  9
$DIMALTD
 70
     2
  9
$DIMALTF
 40
0.0393701
  9
$DIMLFAC
 40
1.0
  9
$DIMTOFL
 70
     1
  9
$DIMTVP
 40
0.0
  9
$DIMTIX
 70
     0
  9
$DIMSOXD
 70
     0
  9
$DIMSAH
 70
     0
  9
$DIMBLK1
  1

  9
$DIMBLK2
  1

  9
$DIMSTYLE
  2
AM_ISO
  9
$DIMCLRD
 70
   256
  9
$DIMCLRE
 70
   256
  9
$DIMCLRT
 70
     2
  9
$DIMTFAC
 40
0.71
  9
$DIMGAP
 40
1.5
  9
$DIMJUST
 70
     0
  9
$DIMSD1
 70
     0
  9
$DIMSD2
 70
     0
  9
$DIMTOLJ
 70
     0
  9
$DIMTZIN
 70
     8
  9
$DIMALTZ
 70
     0
  9
$DIMALTTZ
 70
     0
  9
$DIMUPT
 70
     0
  9
$DIMDEC
 70
     2
  9
$DIMTDEC
 70
     3
  9
$DIMALTU
 70
     2
  9
$DIMALTTD
 70
     4
  9
$DIMTXSTY
  7
STANDARD
  9
$DIMAUNIT
 70
     0
  9
$DIMADEC
 70
     0
  9
$DIMALTRND
 40
0.0
  9
$DIMAZIN
 70
     2
  9
$DIMDSEP
 70
    46
  9
$DIMATFIT
 70
     3
  9
$DIMFRAC
 70
     0
  9
$DIMLDRBLK
  1

  9
$DIMLUNIT
 70
     2
  9
$DIMLWD
 70
    -1
  9
$DIMLWE
 70
    -1
  9
$DIMTMOVE
 70
     0
  9
$LUNITS
 70
     2
  9
$LUPREC
 70
     2
  9
$SKETCHINC
 40
1.0
  9
$FILLETRAD
 40
5.0
  9
$AUNITS
 70
     0
  9
$AUPREC
 70
     0
  9
$MENU
  1
.
  9
$ELEVATION
 40
0.0
  9
$PELEVATION
 40
0.0
  9
$THICKNESS
 40
0.0
  9
$LIMCHECK
 70
     0
  9
$CHAMFERA
 40
5.0
  9
$CHAMFERB
 40
5.0
  9
$CHAMFERC
 40
20.0
  9
$CHAMFERD
 40
0.0
  9
$SKPOLY
 70
     0
  9
$TDCREATE
 40
2453825.766918936
  9
$TDUCREATE
 40
2453825.391918936
  9
$TDUPDATE
 40
2456939.579595046
  9
$TDUUPDATE
 40
2456939.204595046
  9
$TDINDWG
 40
0.1161935995
  9
$TDUSRTIMER
 40
0.1161935995
  9
$USRTIMER
 70
     1
  9
$ANGBASE
 50
0.0
  9
$ANGDIR
 70
     0
  9
$PDMODE
 70
     0
  9
$PDSIZE
 40
0.0
  9
$PLINEWID
 40
0.0
  9
$SPLFRAME
 70
     0
  9
$SPLINETYPE
 70
     6
  9
$SPLINESEGS
 70
     8
  9
$HANDSEED
  5
29E1
  9
$SURFTAB1
 70
     6
  9
$SURFTAB2
 70
     6
  9
$SURFTYPE
 70
     6
  9
$SURFU
 70
     6
  9
$SURFV
 70
     6
  9
$UCSBASE
  2

  9
$UCSNAME
  2

  9
$UCSORG
 10
0.0
 20
0.0
 30
0.0
  9
$UCSXDIR
 10
1.0
 20
0.0
 30
0.0
  9
$UCSYDIR
 10
0.0
 20
1.0
 30
0.0
  9
$UCSORTHOREF
  2

  9
$UCSORTHOVIEW
 70
     0
  9
$UCSORGTOP
 10
0.0
 20
0.0
 30
0.0
  9
$UCSORGBOTTOM
 10
0.0
 20
0.0
 30
0.0
  9
$UCSORGLEFT
 10
0.0
 20
0.0
 30
0.0
  9
$UCSORGRIGHT
 10
0.0
 20
0.0
 30
0.0
  9
$UCSORGFRONT
 10
0.0
 20
0.0
 30
0.0
  9
$UCSORGBACK
 10
0.0
 20
0.0
 30
0.0
  9
$PUCSBASE
  2

  9
$PUCSNAME
  2

  9
$PUCSORG
 10
0.0
 20
0.0
 30
0.0
  9
$PUCSXDIR
 10
1.0
 20
0.0
 30
0.0
  9
$PUCSYDIR
 10
0.0
 20
1.0
 30
0.0
  9
$PUCSORTHOREF
  2

  9
$PUCSORTHOVIEW
 70
     0
  9
$PUCSORGTOP
 10
0.0
 20
0.0
 30
0.0
  9
$PUCSORGBOTTOM
 10
0.0
 20
0.0
 30
0.0
  9
$PUCSORGLEFT
 10
0.0
 20
0.0
 30
0.0
  9
$PUCSORGRIGHT
 10
0.0
 20
0.0
 30
0.0
  9
$PUCSORGFRONT
 10
0.0
 20
0.0
 30
0.0
  9
$PUCSORGBACK
 10
0.0
 20
0.0
 30
0.0
  9
$USERI1
 70
     0
  9
$USERI2
 70
     0
  9
$USERI3
 70
     0
  9
$USERI4
 70
     0
  9
$USERI5
 70
     0
  9
$USERR1
 40
0.0
  9
$USERR2
 40
0.0
  9
$USERR3
 40
0.0
  9
$USERR4
 40
0.0
  9
$USERR5
 40
0.0
  9
$WORLDVIEW
 70
     1
  9
$SHADEDGE
 70
     3
  9
$SHADEDIF
 70
    70
  9
$TILEMODE
 70
     1
  9
$MAXACTVP
 70
    64
  9
$PINSBASE
 10
0.0
 20
0.0
 30
0.0
  9
$PLIMCHECK
 70
     0
  9
$PEXTMIN
 10
1.000000000000000E+20
 20
1.000000000000000E+20
 30
1.000000000000000E+20
  9
$PEXTMAX
 10
-1.000000000000000E+20
 20
-1.000000000000000E+20
 30
-1.000000000000000E+20
  9
$PLIMMIN
 10
-6.350006103515625
 20
-6.349999904632568
  9
$PLIMMAX
 10
273.0499877929688
 20
209.5499939918518
  9
$UNITMODE
 70
     0
  9
$VISRETAIN
 70
     1
  9
$PLINEGEN
 70
     0
  9
$PSLTSCALE
 70
     1
  9
$TREEDEPTH
 70
  3020
  9
$CMLSTYLE
  2
Standard
  9
$CMLJUST
 70
     0
  9
$CMLSCALE
 40
20.0
  9
$PROXYGRAPHICS
 70
     1
  9
$MEASUREMENT
 70
     1
  9
$CELWEIGHT
370
    -1
  9
$ENDCAPS
280
     0
  9
$JOINSTYLE
280
     0
  9
$LWDISPLAY
290
     0
  9
$INSUNITS
 70
     4
  9
$HYPERLINKBASE
  1

  9
$STYLESHEET
  1

  9
$XEDIT
290
     1
  9
$CEPSNTYPE
380
     0
  9
$PSTYLEMODE
290
     1
  9
$FINGERPRINTGUID
  2
{FDEAD578-A652-11D2-9A35-0060089B3A3F}
  9
$VERSIONGUID
  2
{27750AC7-ECCA-4260-A3AF-68CD4AA5CCF7}
  9
$EXTNAMES
290
     1
  9
$PSVPSCALE
 40
0.0
  9
$OLESTARTUP
290
     0
  0
ENDSEC
  0
SECTION
  2
CLASSES
  0
CLASS
  1
ACDBDICTIONARYWDFLT
  2
AcDbDictionaryWithDefault
  3
ObjectDBX Classes
 90
        0
280
     0
281
     0
  0
CLASS
  1
ACDBPLACEHOLDER
  2
AcDbPlaceHolder
  3
ObjectDBX Classes
 90
        0
280
     0
281
     0
  0
CLASS
  1
LAYOUT
  2
AcDbLayout
  3
ObjectDBX Classes
 90
        0
280
     0
281
     0
  0
CLASS
  1
ACME_DOCUMENT
  2
AcMeDbDoc
  3
AcMeServices
 90
     1024
280
     0
281
     0
  0
CLASS
  1
AMGSETTINGSOBJ
  2
AmgSettingsObj
  3
"AcadM|Product Description: AutoCAD Mechanical|Company: Autodesk, Inc."
 90
     1024
280
     0
281
     0
  0
CLASS
  1
ACMESCOPE
  2
AcMeScope
  3
AcMeServices
 90
     1024
280
     0
281
     0
  0
CLASS
  1
ACMECOMMANDHISTORY
  2
AcMeCommandHistory
  3
AcMeServices
 90
     1024
280
     0
281
     0
  0
CLASS
  1
ACIMSYSVARMAN
  2
AcImSysVarManager
  3
AcMeServices
 90
     1024
280
     0
281
     0
  0
CLASS
  1
ACIMREALSYSVAR
  2
AcImRealSysVar
  3
AcMeServices
 90
    33792
280
     0
281
     0
  0
CLASS
  1
ACIMINTSYSVAR
  2
AcImIntSysVar
  3
AcMeServices
 90
     1024
280
     0
281
     0
  0
CLASS
  1
ACMEDRAWINGMAN
  2
AcMeDrawingMan
  3
AcMeServices
 90
    33792
280
     0
281
     0
  0
CLASS
  1
ACMEVIEW
  2
AcMeView
  3
AcMeServices
 90
    33792
280
     0
281
     0
  0
CLASS
  1
ACDBENTITYCACHE
  2
AcMeEntityCache
  3
AcMeServices
 90
     1024
280
     0
281
     0
  0
CLASS
  1
GSMANAGER
  2
AcMeGSManager
  3
AcMeServices
 90
    32768
280
     0
281
     0
  0
CLASS
  1
AMDTINTERNALREACTOR
  2
AmdtInternalReactor
  3
AcMeServices
 90
    33792
280
     0
281
     0
  0
CLASS
  1
ACMESTATEMGR
  2
AcMeStateMgr
  3
AcMeServices
 90
     1024
280
     0
281
     0
  0
CLASS
  1
ACGREFMASTER
  2
AcGrefMaster
  3
AcAttribServices
 90
     1024
280
     0
281
     0
  0
CLASS
  1
ACME_DATABASE
  2
AcMeDbDatabase
  3
AcMeServices
 90
     1024
280
     0
281
     0
  0
CLASS
  1
ACRFINSADJUSTERMGR
  2
AcRfInsAdjusterMgr
  3
AcMeServices
 90
     1024
280
     0
281
     0
  0
CLASS
  1
ACGREFACADMASTER
  2
AcGrefacadMaster
  3
AcGrefServices
 90
     1024
280
     0
281
     0
  0
CLASS
  1
AMIMASTER
  2
AmiMaster
  3
AmiServices
 90
     1024
280
     0
281
     0
  0
CLASS
  1
ACMDATADICTIONARY
  2
AcmDataDictionary
  3
"AcmSymBB|Product Description: AutoCAD Mechanical|Company: Autodesk, Inc."
 90
     1024
280
     0
281
     0
  0
CLASS
  1
ACMDATAENTRYBLOCK
  2
AcmDataEntryBlock
  3
AcmSymBB|Product Description: AutoCAD Mechanical|Company: Autodesk, Inc.
 90
    33792
280
     0
281
     0
  0
CLASS
  1
ACIMSTRSYSVAR
  2
AcImStrSysVar
  3
AcMeServices
 90
     1024
280
     0
281
     0
  0
CLASS
  1
ACMSTANDARDISO
  2
AcmStandardISO
  3
"Amdt_StdImp|Product Description: AutoCAD Mechanical|Company: Autodesk, Inc."
 90
     1024
280
     0
281
     0
  0
CLASS
  1
AMGOBJPROPCFG
  2
AmgObjPropCfg
  3
"AmgLay|Product Description: AutoCAD Mechanical|Company: Autodesk, Inc."
 90
     1025
280
     0
281
     0
  0
CLASS
  1
AMDTEDGESTANDARDISO
  2
AmdtEdgeStdISO
  3
"Amdt_StdImp|Product Description: AutoCAD Mechanical|Company: Autodesk, Inc."
 90
    33792
280
     0
281
     0
  0
CLASS
  1
ACMSURFSTANDARDISO
  2
AcmSurfTextStdISO
  3
"Amdt_StdImp|Product Description: AutoCAD Mechanical|Company: Autodesk, Inc."
 90
    33792
280
     0
281
     0
  0
CLASS
  1
ACMFCFSTANDARDISO
  2
AcmFCFStdISO
  3
"Amdt_StdImp|Product Description: AutoCAD Mechanical|Company: Autodesk, Inc."
 90
    33792
280
     0
281
     0
  0
CLASS
  1
ACMWELDSTANDARDISO
  2
AcmWeldingStdISO
  3
"Amdt_StdImp|Product Description: AutoCAD Mechanical|Company: Autodesk, Inc."
 90
     1024
280
     0
281
     0
  0
CLASS
  1
ACMIDSTANDARDISO
  2
AcmIdStdISO
  3
"Amdt_StdImp|Product Description: AutoCAD Mechanical|Company: Autodesk, Inc."
 90
    33792
280
     0
281
     0
  0
CLASS
  1
ACMDATUMSTANDARDISO
  2
AcmDatumStdISO
  3
"Amdt_StdImp|Product Description: AutoCAD Mechanical|Company: Autodesk, Inc."
 90
     1024
280
     0
281
     0
  0
CLASS
  1
ACMBOMSTANDARDISO
  2
AcmBOMStdISO
  3
"Amdt_StdImp|Product Description: AutoCAD Mechanical|Company: Autodesk, Inc."
 90
     1024
280
     0
281
     0
  0
CLASS
  1
ACMDETAILSTANDARDISO
  2
AmdtDetailSymStdISO
  3
"Amdt_StdImp|Product Description: AutoCAD Mechanical|Company: Autodesk, Inc."
 90
     1024
280
     0
281
     0
  0
CLASS
  1
ACMSECTIONSTANDARDISO
  2
AmdtSectionSymStdISO
  3
"Amdt_StdImp|Product Description: AutoCAD Mechanical|Company: Autodesk, Inc."
 90
    33792
280
     0
281
     0
  0
CLASS
  1
ACMCENTERLINESTANDARDISO
  2
AmdtCenterLineStdISO
  3
"Amdt_StdImp|Product Description: AutoCAD Mechanical|Company: Autodesk, Inc."
 90
     1024
280
     0
281
     0
  0
CLASS
  1
ACMNOTESTANDARDISO
  2
AmdtNoteStdISO
  3
"Amdt_StdImp|Product Description: AutoCAD Mechanical|Company: Autodesk, Inc."
 90
     1024
280
     0
281
     0
  0
CLASS
  1
ACAMGLAYSTD
  2
AcAmgLayStd
  3
"AmgLay|Product Description: AutoCAD Mechanical|Company: Autodesk, Inc."
 90
     1024
280
     0
281
     0
  0
CLASS
  1
ACAMGDIMSTD
  2
AcAmgDimStd
  3
"AmgDim|Product Description: AutoCAD Mechanical|Company: Autodesk, Inc."
 90
     1024
280
     0
281
     0
  0
CLASS
  1
ACAMGHOLECHARTSTDISO
  2
AcAmgHoleChartStdISO
  3
AmgDim|Product Description: AutoCAD Mechanical|Company: Autodesk, Inc.
 90
     1024
280
     0
281
     0
  0
CLASS
  1
ACAMGTITLESTD
  2
AcAmgTitleStd
  3
"AmgTitle|Product Description: AutoCAD Mechanical|Company: Autodesk, Inc."
 90
     4095
280
     0
281
     0
  0
CLASS
  1
LAYER_INDEX
  2
AcDbLayerIndex
  3
ObjectDBX Classes
 90
    32768
280
     0
281
     0
  0
CLASS
  1
IDBUFFER
  2
AcDbIdBuffer
  3
ObjectDBX Classes
 90
    32768
280
     0
281
     0
  0
CLASS
  1
DICTIONARYVAR
  2
AcDbDictionaryVar
  3
ObjectDBX Classes
 90
        0
280
     0
281
     0
  0
CLASS
  1
AM_DRAWING_MGR
  2
AcDmDwgMgr
  3
AcMechDwgViewMgmt
 90
    33792
280
     0
281
     0
  0
CLASS
  1
AM_DWG_DOCUMENT
  2
AcDmDwgDocument
  3
AcMechDwgViewMgmt
 90
    33792
280
     0
281
     0
  0
CLASS
  1
AM_DWG_SHEET
  2
AcDmSheet
  3
AcMechDwgViewMgmt
 90
    33792
280
     0
281
     0
  0
CLASS
  1
AM_VIEWDIMPARMAP
  2
AcDmViewDimParMap
  3
AcMechDwgViewMgmt
 90
    33792
280
     0
281
     0
  0
CLASS
  1
AM_DWGMGR_NAME
  2
AcDmDwgMgrName
  3
AcMechDwgViewMgmt
 90
    33792
280
     0
281
     0
  0
CLASS
  1
AMDTMENUSTATEMGR
  2
AmdtMenuStateMgr
  3
McadcomServices
 90
     1024
280
     0
281
     0
  0
CLASS
  1
AMDTMCOMMENUSTATE
  2
AmdtMcomMenuState
  3
McadcomServices
 90
     1024
280
     0
281
     0
  0
CLASS
  1
MAPIAMMOUDLE
  2
MApiAmModule
  3
MApiAmServices
 90
     1024
280
     0
281
     0
  0
CLASS
  1
AMDTADMENUSTATE
  2
AmdtAdMenuState
  3
DesignerServices
 90
    32768
280
     0
281
     0
  0
CLASS
  1
ADAPPL
  2
AcAdAppl
  3
DesignerAssemblies
 90
    33792
280
     0
281
     0
  0
CLASS
  1
DEPMGR
  2
AcAdDepMgr
  3
DesignerAssemblies
 90
    33792
280
     0
281
     0
  0
CLASS
  1
PARAMMGR
  2
AcAdParamMgr
  3
DesignerAssemblies
 90
    33792
280
     0
281
     0
  0
CLASS
  1
PARAMSCOPE
  2
AcAdParamScope
  3
DesignerAssemblies
 90
    33792
280
     0
281
     0
  0
CLASS
  1
NAMEDAPPL
  2
AcAdNamedAppl
  3
DesignerAssemblies
 90
    33792
280
     0
281
     0
  0
CLASS
  1
AMDTDMMENUSTATE
  2
AmdtDmMenuState
  3
AcMechDwgViewMgmt
 90
    32768
280
     0
281
     0
  0
CLASS
  1
AMDTAMMENUSTATE
  2
AmdtAmMenuState
  3
DesignerAssemblies
 90
     1024
280
     0
281
     0
  0
CLASS
  1
ACAMPROJECT
  2
AcAmProject
  3
DesignerAssemblies
 90
     1024
280
     0
281
     0
  0
CLASS
  1
ACAMGRCOMPDEF
  2
AcAmGrCompDef
  3
DesignerAssemblies
 90
     1024
280
     0
281
     0
  0
CLASS
  1
ACCMCONTEXT
  2
AcCmContext
  3
DesignerAssemblies
 90
    33792
280
     0
281
     0
  0
CLASS
  1
ACAMCOMPDEF
  2
AcAmCompDef
  3
DesignerAssemblies
 90
     1024
280
     0
281
     0
  0
CLASS
  1
ACAMCOMPDEFMGR
  2
AcAmCompDefMgr
  3
DesignerAssemblies
 90
     1024
280
     0
281
     0
  0
CLASS
  1
AMCONTEXTMGR
  2
AcAmContextMgr
  3
DesignerAssemblies
 90
     1024
280
     0
281
     0
  0
CLASS
  1
ACAMCONTEXTMODELER
  2
AcAmContextModeler
  3
DesignerAssemblies
 90
     1024
280
     0
281
     0
  0
CLASS
  1
ACMTHREADLINESTANDARDISO
  2
AmdtThreadLineStdISO
  3
"Amdt_StdImp|Product Description: AutoCAD Mechanical|Company: Autodesk, Inc."
 90
     1024
280
     0
281
     0
  0
CLASS
  1
CATALOGSTATE
  2
AcAmCatalogState
  3
DesignerAssemblies
 90
    33792
280
     0
281
     0
  0
CLASS
  1
ACAMGRCOMPDEFSET
  2
AcAmGrCompDefSet
  3
DesignerAssemblies
 90
     1024
280
     0
281
     0
  0
CLASS
  1
AMDTBROWSERDBTAB
  2
AmdtBrowserDbTab
  3
McadcomServices
 90
     1024
280
     0
281
     0
  0
CLASS
  1
CBROWSERAPPOBJECT
  2
CBrowserAppObject
  3
McadcomServices
 90
     1024
280
     0
281
     0
  0
CLASS
  1
DM_PLACEHOLDER
  2
AcDmSelsetPlaceholder
  3
McadcomServices
 90
     1024
280
     0
281
     0
  0
CLASS
  1
AMDTNOTETEMPLATEDB
  2
AmdtNoteTemplateDB
  3
AcmSymBB|Product Description: AutoCAD Mechanical|Company: Autodesk, Inc.
 90
     1024
280
     0
281
     0
  0
CLASS
  1
ACMBOM
  2
AcmBom
  3
"AcmSymBB|Product Description: AutoCAD Mechanical|Company: Autodesk, Inc."
 90
    33792
280
     0
281
     0
  0
CLASS
  1
AMDTFORMULAUPDATEDISPATCHER
  2
AmdtFormulaUpdateDispatcher
  3
AcMeServices
 90
    33792
280
     0
281
     0
  0
CLASS
  1
ACAMGFILTERDAT
  2
AcAmgFilterDat
  3
"AcadM|Product Description: AutoCAD Mechanical|Company: Autodesk, Inc."
 90
    33792
280
     0
281
     0
  0
CLASS
  1
ACMDATAENTRYPART
  2
AcmDataEntryPart
  3
AcmSymBB|Product Description: AutoCAD Mechanical|Company: Autodesk, Inc.
 90
    33792
280
     0
281
     0
  0
CLASS
  1
ACMPARTREF
  2
AcmPartRef
  3
"AcmSymBB|Product Description: AutoCAD Mechanical|Company: Autodesk, Inc."
 90
    36863
280
     0
281
     1
  0
CLASS
  1
ACMBOMROW
  2
AcmBomRow
  3
"AcmSymBB|Product Description: AutoCAD Mechanical|Company: Autodesk, Inc."
 90
    33792
280
     0
281
     0
  0
CLASS
  1
ACMDATAENTRY
  2
AcmDataEntry
  3
AcmSymBB|Product Description: AutoCAD Mechanical|Company: Autodesk, Inc.
 90
    33792
280
     0
281
     0
  0
CLASS
  1
ACMBALLOON
  2
AcmBalloon
  3
"AcmSymBB|Product Description: AutoCAD Mechanical|Company: Autodesk, Inc."
 90
    36863
280
     0
281
     1
  0
CLASS
  1
ACMPARTLIST
  2
AcmPartList
  3
"AcmSymBB|Product Description: AutoCAD Mechanical|Company: Autodesk, Inc."
 90
    36863
280
     0
281
     1
  0
CLASS
  1
ACDBLINERES
  2
AcDbLineRes
  3
AcGrefServices
 90
    33792
280
     0
281
     0
  0
CLASS
  1
ACRFINSADJ
  2
AcRfInsAdjuster
  3
AcMeServices
 90
    33792
280
     0
281
     0
  0
CLASS
  1
DIMASSOC
  2
AcDbDimAssoc
  3
"AcDbDimAssoc|Product Desc:     AcDim ARX App For Dimension|Company:          Autodesk, Inc.|WEB Address:      www.autodesk.com"
 90
    32768
280
     0
281
     0
  0
CLASS
  1
AMDTACMWBLOCKBOMENTITY
  2
AmdtAcmWblockBomEntity
  3
"AcmSymBB|Product Description: AutoCAD Mechanical|Company: Autodesk, Inc."
 90
    36863
280
     0
281
     1
  0
CLASS
  1
SORTENTSTABLE
  2
AcDbSortentsTable
  3
ObjectDBX Classes
 90
        0
280
     0
281
     0
  0
CLASS
  1
ACMPICKOBJ
  2
AcmPickEnt
  3
"AcmSymBB|Product Description: AutoCAD Mechanical|Company: Autodesk, Inc."
 90
    33792
280
     0
281
     1
  0
CLASS
  1
ACDBOPPOLYLINERES
  2
AcDbOpPolylineRes
  3
AcGrefServices
 90
    33792
280
     0
281
     0
  0
CLASS
  1
ACRFATTGENMGR
  2
AcRfAttGeneralMgr
  3
AcAttribServices
 90
    33792
280
     0
281
     0
  0
CLASS
  1
TABLESTYLE
  2
AcDbTableStyle
  3
ObjectDBX Classes
 90
     4095
280
     0
281
     0
  0
CLASS
  1
VAACXREFPANELOBJECT
  2
VaAcXREFPanelObject
  3
VAAC_ADDIN
 90
    32768
280
     0
281
     0
  0
CLASS
  1
VAACIMAGEINVENTORY
  2
VaAcImageInventory
  3
VAAC_ADDIN
 90
    32768
280
     0
281
     0
  0
CLASS
  1
MATERIAL
  2
AcDbMaterial
  3
ObjectDBX Classes
 90
     1153
280
     0
281
     0
  0
CLASS
  1
VISUALSTYLE
  2
AcDbVisualStyle
  3
ObjectDBX Classes
 90
     4095
280
     0
281
     0
  0
CLASS
  1
SCALE
  2
AcDbScale
  3
ObjectDBX Classes
 90
     1153
280
     0
281
     0
  0
CLASS
  1
MLEADERSTYLE
  2
AcDbMLeaderStyle
  3
ACDB_MLEADERSTYLE_CLASS
 90
     4095
280
     0
281
     0
  0
CLASS
  1
ACRFOBJATTMGR
  2
AcRfObjAttGroupMgr
  3
AcAttribServices
 90
    33792
280
     0
281
     0
  0
CLASS
  1
ACRFMCADAPIATTHOLDER
  2
AcRfMCADAPIAttHolder
  3
AcAttribServices
 90
    33792
280
     0
281
     0
  0
CLASS
  1
AMDTSYSATTR
  2
AmdtSystemAttribute
  3
AcAttribServices
 90
    33792
280
     0
281
     0
  0
CLASS
  1
ACMTAPERSTANDARDISO
  2
AcmTaperStdISO
  3
"Amdt_StdImp|Product Description: AutoCAD Mechanical|Company: Autodesk, Inc."
 90
     1024
280
     0
281
     0
  0
CLASS
  1
ACMANOOTATIONVIEWSTANDARDISO
  2
AmdtAnViewStdISO
  3
"Amdt_StdImp|Product Description: AutoCAD Mechanical|Company: Autodesk, Inc."
 90
     1024
280
     0
281
     0
  0
CLASS
  1
EXACXREFPANELOBJECT
  2
ExAcXREFPanelObject
  3
EXAC_ESW
 90
     1025
280
     0
281
     0
  0
CLASS
  1
NPOCOLLECTION
  2
AcDbImpNonPersistentObjectsCollection
  3
ObjectDBX Classes
 90
     1153
280
     0
281
     0
  0
CLASS
  1
CELLSTYLEMAP
  2
AcDbCellStyleMap
  3
ObjectDBX Classes
 90
     1152
280
     0
281
     0
  0
CLASS
  1
AMDTEDGESTANDARDISO13715
  2
AmdtEdgeStdISO13715
  3
"Amdt_StdImp|Product Description: AutoCAD Mechanical|Company: Autodesk, Inc."
 90
     1024
280
     0
281
     0
  0
CLASS
  1
ACMSURFSTANDARDISO2002
  2
AcmSurfTextStdISO2002
  3
"Amdt_StdImp|Product Description: AutoCAD Mechanical|Company: Autodesk, Inc."
 90
     1024
280
     0
281
     0
  0
CLASS
  1
ACMFCFSTANDARDISO2004
  2
AcmFCFStdISO2004
  3
"Amdt_StdImp|Product Description: AutoCAD Mechanical|Company: Autodesk, Inc."
 90
     1024
280
     0
281
     0
  0
CLASS
  1
ACMIDSTANDARDISO2004
  2
AcmIdStdISO2004
  3
"Amdt_StdImp|Product Description: AutoCAD Mechanical|Company: Autodesk, Inc."
 90
     1024
280
     0
281
     0
  0
CLASS
  1
ACMSECTIONSTANDARDISO2001
  2
AmdtSectionSymStdISO2001
  3
"Amdt_StdImp|Product Description: AutoCAD Mechanical|Company: Autodesk, Inc."
 90
     1024
280
     0
281
     0
  0
ENDSEC
  0
SECTION
  2
TABLES
  0
TABLE
  2
VPORT
  5
8
102
{ACAD_XDICTIONARY
360
2820
102
}
330
0
100
AcDbSymbolTable
 70
     1
  0
VPORT
  5
25F1
330
8
100
AcDbSymbolTableRecord
100
AcDbViewportTableRecord
  2
*Active
 70
     0
 10
0.0
 20
0.0
 11
1.0
 21
1.0
 12
403.0000018766152
 22
280.0000013038515
 13
0.0
 23
0.0
 14
5.0
 24
5.0
 15
20.0
 25
20.0
 16
0.0
 26
0.0
 36
1.0
 17
0.0
 27
0.0
 37
0.0
 40
566.172694806696
 41
2.219454329774614
 42
50.0
 43
0.0
 44
0.0
 50
0.0
 51
0.0
 71
    16
 72
   100
 73
     1
 74
     3
 75
     0
 76
     0
 77
     0
 78
     0
281
     0
 65
     1
110
0.0
120
0.0
130
0.0
111
1.0
121
0.0
131
0.0
112
0.0
122
1.0
132
0.0
 79
     0
146
0.0
1001
ACAD_NAV_VCDISPLAY
1070
     3
  0
ENDTAB
  0
TABLE
  2
LTYPE
  5
5
330
0
100
AcDbSymbolTable
 70
    24
  0
LTYPE
  5
14
330
5
100
AcDbSymbolTableRecord
100
AcDbLinetypeTableRecord
  2
ByBlock
 70
     0
  3

 72
    65
 73
     0
 40
0.0
  0
LTYPE
  5
15
330
5
100
AcDbSymbolTableRecord
100
AcDbLinetypeTableRecord
  2
ByLayer
 70
     0
  3

 72
    65
 73
     0
 40
0.0
  0
LTYPE
  5
16
330
5
100
AcDbSymbolTableRecord
100
AcDbLinetypeTableRecord
  2
Continuous
 70
     0
  3
Solid line
 72
    65
 73
     0
 40
0.0
  0
LTYPE
  5
64
330
5
100
AcDbSymbolTableRecord
100
AcDbLinetypeTableRecord
  2
AM_ISO02W050
 70
     0
  3
__ __ __ __ __ __ __ __ __ __ __ __ __ __ __
 72
    65
 73
     2
 40
7.5
 49
6.0
 74
     0
 49
-1.5
 74
     0
  0
LTYPE
  5
65
330
5
100
AcDbSymbolTableRecord
100
AcDbLinetypeTableRecord
  2
AM_ISO08W050
 70
     0
  3
____ . ____ . ____ . ____ . ____ . ____ . ____
 72
    65
 73
     4
 40
18.0
 49
12.0
 74
     0
 49
-1.5
 74
     0
 49
3.0
 74
     0
 49
-1.5
 74
     0
  0
LTYPE
  5
66
330
5
100
AcDbSymbolTableRecord
100
AcDbLinetypeTableRecord
  2
AM_ISO09W050
 70
     0
  3
_____ . . _____ . . _____ . . ____ .. ____
 72
    65
 73
     6
 40
22.5
 49
12.0
 74
     0
 49
-1.5
 74
     0
 49
3.0
 74
     0
 49
-1.5
 74
     0
 49
3.0
 74
     0
 49
-1.5
 74
     0
  0
LTYPE
  5
67
330
5
100
AcDbSymbolTableRecord
100
AcDbLinetypeTableRecord
  2
Amconstr
 70
     0
  3
_______________________
 72
    65
 73
     2
 40
9999.0
 49
9999.0
 74
     0
 49
0.0
 74
     0
  0
LTYPE
  5
68
330
5
100
AcDbSymbolTableRecord
100
AcDbLinetypeTableRecord
  2
AM_ISO08W050x2
 70
     0
  3
__ . __ . __ . __ . __ . __
 72
    65
 73
     4
 40
9.0
 49
6.0
 74
     0
 49
-0.75
 74
     0
 49
1.5
 74
     0
 49
-0.75
 74
     0
  0
LTYPE
  5
69
330
5
100
AcDbSymbolTableRecord
100
AcDbLinetypeTableRecord
  2
AM_ISO02W050x2
 70
     0
  3
 _ _ _ _ _ _ _ _ _ _ _ _
 72
    65
 73
     2
 40
3.75
 49
3.0
 74
     0
 49
-0.75
 74
     0
  0
LTYPE
  5
6C
330
5
100
AcDbSymbolTableRecord
100
AcDbLinetypeTableRecord
  2
Amzigzag
 70
     0
  3
/\/-/\/-/\/-/\/-/\/-/\/
 72
    65
 73
     2
 40
11.0001
 49
0.0001
 74
     4
 75
   135
340
6B
 46
0.04
 50
0.0
 44
0.0
 45
0.0
 49
-11.0
 74
     0
  0
LTYPE
  5
7A
330
5
100
AcDbSymbolTableRecord
100
AcDbLinetypeTableRecord
  2
ACISOWELD
 70
     0
  3
_ _ _ _ _
 72
    65
 73
     2
 40
2.0
 49
2.0
 74
     0
 49
-1.0
 74
     0
  0
LTYPE
  5
7B
330
5
100
AcDbSymbolTableRecord
100
AcDbLinetypeTableRecord
  2
ACISOTGB
 70
     0
  3
__ . . __ . .
 72
    65
 73
     6
 40
9.0
 49
4.0
 74
     0
 49
-1.0
 74
     0
 49
1.0
 74
     0
 49
-1.0
 74
     0
 49
1.0
 74
     0
 49
-1.0
 74
     0
  0
LTYPE
  5
7C
330
5
100
AcDbSymbolTableRecord
100
AcDbLinetypeTableRecord
  2
ACISOTGL
 70
     0
  3
_ _ _ _ _
 72
    65
 73
     2
 40
3.0
 49
2.0
 74
     0
 49
-1.0
 74
     0
  0
LTYPE
  5
7E
330
5
100
AcDbSymbolTableRecord
100
AcDbLinetypeTableRecord
  2
CENTER
 70
     0
  3
__ . __
 72
    65
 73
     4
 40
7.0
 49
4.0
 74
     0
 49
-1.0
 74
     0
 49
1.0
 74
     0
 49
-1.0
 74
     0
  0
LTYPE
  5
D8
330
5
100
AcDbSymbolTableRecord
100
AcDbLinetypeTableRecord
  2
HIDDEN
 70
     0
  3
Hidden __ __ __ __ __ __ __ __ __ __ __ __ __ _
 72
    65
 73
     2
 40
9.524999999999998
 49
6.349999999999999
 74
     0
 49
-3.174999999999999
 74
     0
  0
LTYPE
  5
D9
330
5
100
AcDbSymbolTableRecord
100
AcDbLinetypeTableRecord
  2
PHANTOM2
 70
     0
  3
Phantom (.5x) ___ _ _ ___ _ _ ___ _ _ ___ _ _
 72
    65
 73
     6
 40
31.75
 49
15.875
 74
     0
 49
-3.174999999999999
 74
     0
 49
3.174999999999999
 74
     0
 49
-3.174999999999999
 74
     0
 49
3.174999999999999
 74
     0
 49
-3.174999999999999
 74
     0
  0
LTYPE
  5
301
330
5
100
AcDbSymbolTableRecord
100
AcDbLinetypeTableRecord
  2
gen3
 70
     0
  3
-- -- -- -- -- -- -- -- -- -- -- -- -- -- --
 72
    65
 73
     2
 40
6.25
 49
4.75
 74
     0
 49
-1.5
 74
     0
  0
LTYPE
  5
302
330
5
100
AcDbSymbolTableRecord
100
AcDbLinetypeTableRecord
  2
gen7
 70
     0
  3
____ . ____ . ____ . ____ . ____ . ____ . ____
 72
    65
 73
     4
 40
13.75
 49
9.75
 74
     0
 49
-1.5
 74
     0
 49
1.0
 74
     0
 49
-1.5
 74
     0
  0
LTYPE
  5
303
330
5
100
AcDbSymbolTableRecord
100
AcDbLinetypeTableRecord
  2
gen3a
 70
     0
  3
 - - - - -
 72
    65
 73
     2
 40
3.125
 49
2.25
 74
     0
 49
-0.875
 74
     0
  0
LTYPE
  5
304
330
5
100
AcDbSymbolTableRecord
100
AcDbLinetypeTableRecord
  2
gen7a
 70
     0
  3
__ . __ . __
 72
    65
 73
     4
 40
6.875
 49
4.75
 74
     0
 49
-0.875
 74
     0
 49
0.375
 74
     0
 49
-0.875
 74
     0
  0
LTYPE
  5
305
330
5
100
AcDbSymbolTableRecord
100
AcDbLinetypeTableRecord
  2
gen4a
 70
     0
  3
_____ . . _____ . . _____ . . ____ .. ____
 72
    65
 73
     6
 40
16.25
 49
9.75
 74
     0
 49
-1.5
 74
     0
 49
1.0
 74
     0
 49
-1.5
 74
     0
 49
1.0
 74
     0
 49
-1.5
 74
     0
  0
LTYPE
  5
306
330
5
100
AcDbSymbolTableRecord
100
AcDbLinetypeTableRecord
  2
genzigzag
 70
     0
  3
/\/-/\/-/\/-/\/-/\/-/\/
 72
    65
 73
     2
 40
12.0001
 49
0.0001
 74
     4
 75
   135
340
6B
 46
2.0
 50
0.0
 44
0.0
 45
0.0
 49
-12.0
 74
     0
  0
LTYPE
  5
4D4
330
5
100
AcDbSymbolTableRecord
100
AcDbLinetypeTableRecord
  2
TRATTOPUNTO
 70
     0
  3
Tratto punto__ . __ . __ . __ . __ . __ . __ . 
 72
    65
 73
     4
 40
25.4
 49
12.7
 74
     0
 49
-6.349999999999998
 74
     0
 49
0.0
 74
     0
 49
-6.349999999999998
 74
     0
  0
LTYPE
  5
265F
330
5
100
AcDbSymbolTableRecord
100
AcDbLinetypeTableRecord
  2
DASHED
 70
     0
  3
Dashed __ __ __ __ __ __ __ __ __ __ __ __ __ _
 72
    65
 73
     2
 40
0.75
 49
0.5
 74
     0
 49
-0.25
 74
     0
  0
LTYPE
  5
2660
330
5
100
AcDbSymbolTableRecord
100
AcDbLinetypeTableRecord
  2
DOT
 70
     0
  3
Dot . . . . . . . . . . . . . . . . . . . . . .
 72
    65
 73
     2
 40
0.25
 49
0.0
 74
     0
 49
-0.25
 74
     0
  0
ENDTAB
  0
TABLE
  2
LAYER
  5
2
102
{ACAD_XDICTIONARY
360
2EE
102
}
330
0
100
AcDbSymbolTable
 70
    16
  0
LAYER
  5
10
102
{ACAD_XDICTIONARY
360
27F6
102
}
330
2
100
AcDbSymbolTableRecord
100
AcDbLayerTableRecord
  2
0
 70
     0
 62
     7
  6
Continuous
370
    -3
390
F
  0
LAYER
  5
2F0
102
{ACAD_XDICTIONARY
360
27F8
102
}
330
2
100
AcDbSymbolTableRecord
100
AcDbLayerTableRecord
  2
AM_5
 70
     0
 62
     3
  6
Continuous
370
    13
390
F
  0
LAYER
  5
2F1
102
{ACAD_XDICTIONARY
360
27FA
102
}
330
2
100
AcDbSymbolTableRecord
100
AcDbLayerTableRecord
  2
AM_7
 70
     0
 62
     4
  6
AM_ISO08W050
370
    13
390
F
  0
LAYER
  5
307
330
2
100
AcDbSymbolTableRecord
100
AcDbLayerTableRecord
  2
Defpoints
 70
     0
 62
     7
  6
Continuous
290
     0
370
    -3
390
F
  0
LAYER
  5
33C
102
{ACAD_XDICTIONARY
360
27FC
102
}
330
2
100
AcDbSymbolTableRecord
100
AcDbLayerTableRecord
  2
7A
 70
     0
 62
     4
  6
gen7a
370
    -3
390
F
  0
LAYER
  5
33D
102
{ACAD_XDICTIONARY
360
27FE
102
}
330
2
100
AcDbSymbolTableRecord
100
AcDbLayerTableRecord
  2
RAHM2
 70
     0
 62
     1
  6
Continuous
370
    -3
390
F
  0
LAYER
  5
45E
102
{ACAD_XDICTIONARY
360
2800
102
}
330
2
100
AcDbSymbolTableRecord
100
AcDbLayerTableRecord
  2
AM_12
 70
     0
 62
     7
  6
Continuous
290
     0
370
    50
390
F
  0
LAYER
  5
45F
102
{ACAD_XDICTIONARY
360
2802
102
}
330
2
100
AcDbSymbolTableRecord
100
AcDbLayerTableRecord
  2
AM_PAREF
 70
     0
 62
     4
  6
Continuous
290
     0
370
    25
390
F
  0
LAYER
  5
4D5
102
{ACAD_XDICTIONARY
360
2804
102
}
330
2
100
AcDbSymbolTableRecord
100
AcDbLayerTableRecord
  2
AM_8
 70
     0
 62
     1
  6
Continuous
370
    25
390
F
  0
LAYER
  5
1751
102
{ACAD_XDICTIONARY
360
2806
102
}
330
2
100
AcDbSymbolTableRecord
100
AcDbLayerTableRecord
  2
ﾎﾞﾃﾞｨｰ
 70
     0
 62
     7
  6
Continuous
370
    25
390
F
  0
LAYER
  5
1752
102
{ACAD_XDICTIONARY
360
2808
102
}
330
2
100
AcDbSymbolTableRecord
100
AcDbLayerTableRecord
  2
ﾍﾞｰｽ
 70
     0
 62
     2
  6
Continuous
370
    25
390
F
  0
LAYER
  5
1753
102
{ACAD_XDICTIONARY
360
280A
102
}
330
2
100
AcDbSymbolTableRecord
100
AcDbLayerTableRecord
  2
ﾀｰﾐﾅﾙｶﾊﾞｰ
 70
     0
 62
     5
  6
Continuous
370
    25
390
F
  0
LAYER
  5
1754
102
{ACAD_XDICTIONARY
360
280C
102
}
330
2
100
AcDbSymbolTableRecord
100
AcDbLayerTableRecord
  2
前面ﾊﾟﾈﾙ
 70
     0
 62
     3
  6
Continuous
370
    25
390
F
  0
LAYER
  5
1755
102
{ACAD_XDICTIONARY
360
280E
102
}
330
2
100
AcDbSymbolTableRecord
100
AcDbLayerTableRecord
  2
ﾎｯｸ
 70
     0
 62
     4
  6
Continuous
370
    25
390
F
  0
LAYER
  5
24D0
102
{ACAD_XDICTIONARY
360
2810
102
}
330
2
100
AcDbSymbolTableRecord
100
AcDbLayerTableRecord
  2
AM_CL
 70
     0
 62
     1
  6
Amconstr
370
    25
390
F
  0
ENDTAB
  0
TABLE
  2
STYLE
  5
3
330
0
100
AcDbSymbolTable
 70
     8
  0
STYLE
  5
11
330
3
100
AcDbSymbolTableRecord
100
AcDbTextStyleTableRecord
  2
STANDARD
 70
     0
 40
0.0
 41
1.0
 50
0.0
 71
     0
 42
1.0
  3
ISOCP.SHX
  4
EXTFONT.SHX
  0
STYLE
  5
6B
330
3
100
AcDbSymbolTableRecord
100
AcDbTextStyleTableRecord
  2

 70
     1
 40
0.0
 41
1.0
 50
0.0
 71
     0
 42
2.5
  3
ltypeshp.shx
  4

  0
STYLE
  5
6D
330
3
100
AcDbSymbolTableRecord
100
AcDbTextStyleTableRecord
  2
ACISOTS
 70
     0
 40
1.0
 41
1.0
 50
0.0
 71
     0
 42
1.0
  3
isocp.shx
  4
bigfont.shx
  0
STYLE
  5
79
330
3
100
AcDbSymbolTableRecord
100
AcDbTextStyleTableRecord
  2
ACISOGDT
 70
     0
 40
0.0
 41
1.0
 50
0.0
 71
     0
 42
2.5
  3
amgdt.shx
  4

  0
STYLE
  5
133
330
3
100
AcDbSymbolTableRecord
100
AcDbTextStyleTableRecord
  2
USER1
 70
     0
 40
0.0
 41
1.0
 50
0.0
 71
     0
 42
2.5
  3
TXT.SHX
  4

  0
STYLE
  5
134
330
3
100
AcDbSymbolTableRecord
100
AcDbTextStyleTableRecord
  2
USER2
 70
     0
 40
0.0
 41
1.0
 50
0.0
 71
     0
 42
2.5
  3
SIMPLEX.SHX
  4

  0
STYLE
  5
135
330
3
100
AcDbSymbolTableRecord
100
AcDbTextStyleTableRecord
  2
USER3
 70
     0
 40
0.0
 41
1.0
 50
0.0
 71
     0
 42
2.5
  3
ITALIC.SHX
  4

  0
STYLE
  5
33F
330
3
100
AcDbSymbolTableRecord
100
AcDbTextStyleTableRecord
  2

 70
     1
 40
0.0
 41
1.0
 50
0.0
 71
     0
 42
3.0
  3
genltshp.shx
  4

  0
ENDTAB
  0
TABLE
  2
VIEW
  5
6
330
0
100
AcDbSymbolTable
 70
     6
  0
VIEW
  5
3A4
330
6
100
AcDbSymbolTableRecord
100
AcDbViewTableRecord
  2
AM_VIEW1
 70
     0
 40
280.0000000000001
 10
204.3288996372431
 20
420.0000000000001
 41
408.6577992744861
 11
0.0
 21
0.0
 31
1.0
 12
0.0
 22
0.0
 32
0.0
 42
50.0
 43
0.0
 44
0.0
 50
0.0
 71
    16
281
     0
 72
     0
  0
VIEW
  5
3A5
330
6
100
AcDbSymbolTableRecord
100
AcDbViewTableRecord
  2
AM_VIEW2
 70
     0
 40
280.0000000000001
 10
601.671100362757
 20
420.0000000000001
 41
408.6577992744861
 11
0.0
 21
0.0
 31
1.0
 12
0.0
 22
0.0
 32
0.0
 42
50.0
 43
0.0
 44
0.0
 50
0.0
 71
    16
281
     0
 72
     0
  0
VIEW
  5
3A6
330
6
100
AcDbSymbolTableRecord
100
AcDbViewTableRecord
  2
AM_VIEW3
 70
     0
 40
280.0000000000001
 10
204.3288996372431
 20
140.0
 41
408.6577992744861
 11
0.0
 21
0.0
 31
1.0
 12
0.0
 22
0.0
 32
0.0
 42
50.0
 43
0.0
 44
0.0
 50
0.0
 71
    16
281
     0
 72
     0
  0
VIEW
  5
3A7
330
6
100
AcDbSymbolTableRecord
100
AcDbViewTableRecord
  2
AM_VIEW4
 70
     0
 40
280.0000000000001
 10
601.671100362757
 20
140.0
 41
408.6577992744861
 11
0.0
 21
0.0
 31
1.0
 12
0.0
 22
0.0
 32
0.0
 42
50.0
 43
0.0
 44
0.0
 50
0.0
 71
    16
281
     0
 72
     0
  0
VIEW
  5
3A8
330
6
100
AcDbSymbolTableRecord
100
AcDbViewTableRecord
  2
AM_VIEW5
 70
     0
 40
280.0000000000001
 10
403.0
 20
280.0000000000001
 41
408.657799274486
 11
0.0
 21
0.0
 31
1.0
 12
0.0
 22
0.0
 32
0.0
 42
50.0
 43
0.0
 44
0.0
 50
0.0
 71
    16
281
     0
 72
     0
  0
VIEW
  5
3A9
330
6
100
AcDbSymbolTableRecord
100
AcDbViewTableRecord
  2
AM_VIEW6
 70
     0
 40
559.9944000000001
 10
403.0
 20
280.0000000000001
 41
817.3074253929867
 11
0.0
 21
0.0
 31
1.0
 12
0.0
 22
0.0
 32
0.0
 42
50.0
 43
0.0
 44
0.0
 50
0.0
 71
    16
281
     0
 72
     0
  0
ENDTAB
  0
TABLE
  2
UCS
  5
7
330
0
100
AcDbSymbolTable
 70
     0
  0
ENDTAB
  0
TABLE
  2
APPID
  5
9
330
0
100
AcDbSymbolTable
 70
    40
  0
APPID
  5
12
330
9
100
AcDbSymbolTableRecord
100
AcDbRegAppTableRecord
  2
ACAD
 70
     0
  0
APPID
  5
46
330
9
100
AcDbSymbolTableRecord
100
AcDbRegAppTableRecord
  2
MCAD_NO_VIS
 70
     0
  0
APPID
  5
47
330
9
100
AcDbSymbolTableRecord
100
AcDbRegAppTableRecord
  2
ACAD_TEMP_GRAPHIC
 70
     0
  0
APPID
  5
58
330
9
100
AcDbSymbolTableRecord
100
AcDbRegAppTableRecord
  2
ACATTRIBSERVICES
 70
     0
  0
APPID
  5
EE
330
9
100
AcDbSymbolTableRecord
100
AcDbRegAppTableRecord
  2
AD_DRAW
 70
     0
  0
APPID
  5
10C
330
9
100
AcDbSymbolTableRecord
100
AcDbRegAppTableRecord
  2
DESIGNERASSEMBLIES
 70
     0
  0
APPID
  5
111
330
9
100
AcDbSymbolTableRecord
100
AcDbRegAppTableRecord
  2
ACADM_DIM_EDIT
 70
     0
  0
APPID
  5
112
330
9
100
AcDbSymbolTableRecord
100
AcDbRegAppTableRecord
  2
AMDT_DM_ADJ
 70
     0
  0
APPID
  5
30F
330
9
100
AcDbSymbolTableRecord
100
AcDbRegAppTableRecord
  2
GENIUS_GENREC_14
 70
     0
  0
APPID
  5
310
330
9
100
AcDbSymbolTableRecord
100
AcDbRegAppTableRecord
  2
GENIUS_GENODEF_13
 70
     0
  0
APPID
  5
311
330
9
100
AcDbSymbolTableRecord
100
AcDbRegAppTableRecord
  2
GENIUS_GENOBJ-N-REC_13
 70
     0
  0
APPID
  5
312
330
9
100
AcDbSymbolTableRecord
100
AcDbRegAppTableRecord
  2
GENIUS_GENCFG_13
 70
     0
  0
APPID
  5
313
330
9
100
AcDbSymbolTableRecord
100
AcDbRegAppTableRecord
  2
GENIUS_GENCFG0_13
 70
     0
  0
APPID
  5
314
330
9
100
AcDbSymbolTableRecord
100
AcDbRegAppTableRecord
  2
GENIUS_GENCFG1_13
 70
     0
  0
APPID
  5
315
330
9
100
AcDbSymbolTableRecord
100
AcDbRegAppTableRecord
  2
GENIUS_GENCFG2_13
 70
     0
  0
APPID
  5
316
330
9
100
AcDbSymbolTableRecord
100
AcDbRegAppTableRecord
  2
GENIUS_GENCFG3_13
 70
     0
  0
APPID
  5
317
330
9
100
AcDbSymbolTableRecord
100
AcDbRegAppTableRecord
  2
GENIUS_GENCFG4_13
 70
     0
  0
APPID
  5
318
330
9
100
AcDbSymbolTableRecord
100
AcDbRegAppTableRecord
  2
GENIUS_GEVCFG0_13
 70
     0
  0
APPID
  5
319
330
9
100
AcDbSymbolTableRecord
100
AcDbRegAppTableRecord
  2
GENIUS_GENOENT_13
 70
     0
  0
APPID
  5
31A
330
9
100
AcDbSymbolTableRecord
100
AcDbRegAppTableRecord
  2
GENIUS_GENDIMSH_14
 70
     0
  0
APPID
  5
31B
330
9
100
AcDbSymbolTableRecord
100
AcDbRegAppTableRecord
  2
GENIUS_GENOBJ-N-CRS_13
 70
     0
  0
APPID
  5
31C
330
9
100
AcDbSymbolTableRecord
100
AcDbRegAppTableRecord
  2
GENIUS_GENOREF_13
 70
     0
  0
APPID
  5
31D
330
9
100
AcDbSymbolTableRecord
100
AcDbRegAppTableRecord
  2
GENIUS_GENOLIS_13
 70
     0
  0
APPID
  5
31E
330
9
100
AcDbSymbolTableRecord
100
AcDbRegAppTableRecord
  2
GENIUS_GENOBJ-N-TIT_13
 70
     0
  0
APPID
  5
31F
330
9
100
AcDbSymbolTableRecord
100
AcDbRegAppTableRecord
  2
GENIUS_GENTITLE_13
 70
     0
  0
APPID
  5
320
330
9
100
AcDbSymbolTableRecord
100
AcDbRegAppTableRecord
  2
GENIUS_GENSCREG_15
 70
     0
  0
APPID
  5
321
330
9
100
AcDbSymbolTableRecord
100
AcDbRegAppTableRecord
  2
GENIUS_GENOBJ-N-SDF_13
 70
     0
  0
APPID
  5
322
330
9
100
AcDbSymbolTableRecord
100
AcDbRegAppTableRecord
  2
GENIUS_GENOBJ-N-CEN_13
 70
     0
  0
APPID
  5
323
330
9
100
AcDbSymbolTableRecord
100
AcDbRegAppTableRecord
  2
GENIUS_GENOBJ-N-HTC_13
 70
     0
  0
APPID
  5
324
330
9
100
AcDbSymbolTableRecord
100
AcDbRegAppTableRecord
  2
GENIUS_GENHATCH_13
 70
     0
  0
APPID
  5
325
330
9
100
AcDbSymbolTableRecord
100
AcDbRegAppTableRecord
  2
GENIUS_GENOBJ-N-ZOO_13
 70
     0
  0
APPID
  5
326
330
9
100
AcDbSymbolTableRecord
100
AcDbRegAppTableRecord
  2
GENIUS_GENZOO_17
 70
     0
  0
APPID
  5
A49
330
9
100
AcDbSymbolTableRecord
100
AcDbRegAppTableRecord
  2
GENIUS_GENOBJ-N-FIL_13
 70
     0
  0
APPID
  5
A4A
330
9
100
AcDbSymbolTableRecord
100
AcDbRegAppTableRecord
  2
ACAD_PSEXT
 70
     0
  0
APPID
  5
1BB4
330
9
100
AcDbSymbolTableRecord
100
AcDbRegAppTableRecord
  2
GENIUS_GENCEN_19
 70
     0
  0
APPID
  5
2661
330
9
100
AcDbSymbolTableRecord
100
AcDbRegAppTableRecord
  2
ACAD_NAV_VCDISPLAY
 70
     0
  0
APPID
  5
2866
330
9
100
AcDbSymbolTableRecord
100
AcDbRegAppTableRecord
  2
ACAD_MLEADERVER
 70
     0
  0
APPID
  5
28B5
330
9
100
AcDbSymbolTableRecord
100
AcDbRegAppTableRecord
  2
ACAD_DSTYLE_DIMBREAK
 70
     0
  0
APPID
  5
28B6
330
9
100
AcDbSymbolTableRecord
100
AcDbRegAppTableRecord
  2
ACAD_DSTYLE_DIMJAG
 70
     0
  0
APPID
  5
2908
330
9
100
AcDbSymbolTableRecord
100
AcDbRegAppTableRecord
  2
ACAD_EXEMPT_FROM_CAD_STANDARDS
 70
     0
  0
ENDTAB
  0
TABLE
  2
DIMSTYLE
  5
A
330
0
100
AcDbSymbolTable
 70
    16
100
AcDbDimStyleTable
 71
     1
340
81
  0
DIMSTYLE
105
27
330
A
100
AcDbSymbolTableRecord
100
AcDbDimStyleTableRecord
  2
ISO-25
 70
     0
 41
2.5
 42
0.625
 43
3.75
 44
1.25
 73
     0
 74
     0
 77
     1
 78
     8
140
2.5
141
2.5
143
0.03937007874016
147
0.625
171
     3
172
     1
271
     2
272
     2
274
     3
278
    44
283
     0
284
     8
340
11
  0
DIMSTYLE
105
81
102
{ACAD_REACTORS
330
18DF
330
18E2
330
1A5F
330
28A4
102
}
330
A
100
AcDbSymbolTableRecord
100
AcDbDimStyleTableRecord
  2
AM_ISO
 70
     0
  4
"
 41
2.5
 42
1.0
 43
10.0
 44
1.0
 47
0.1
 48
0.1
 73
     0
 74
     0
 77
     1
 78
     8
 79
     2
140
3.5
141
0.0
143
0.0393701
146
0.71
147
1.5
172
     1
176
   256
177
   256
178
     2
271
     2
272
     3
274
     4
283
     0
284
     8
340
11
371
    -1
372
    -1
  0
DIMSTYLE
105
82
330
A
100
AcDbSymbolTableRecord
100
AcDbDimStyleTableRecord
  2
AM_ISO$3
 70
     0
  4
"
 41
2.5
 42
1.0
 43
10.0
 44
1.0
 47
0.1
 48
0.1
 73
     0
 77
     1
 78
     8
 79
     2
140
3.5
141
0.0
143
0.0393701
146
0.71
147
1.5
176
   256
177
   256
178
     2
271
     2
272
     3
274
     4
283
     0
284
     8
288
     1
289
     0
340
11
371
    -1
372
    -1
  0
DIMSTYLE
105
83
330
A
100
AcDbSymbolTableRecord
100
AcDbDimStyleTableRecord
  2
AM_ISO$4
 70
     0
  4
"
 41
2.5
 42
1.0
 43
10.0
 44
1.0
 47
0.1
 48
0.1
 73
     0
 77
     1
 78
     8
 79
     2
140
3.5
141
0.0
143
0.0393701
146
0.71
147
1.5
176
   256
177
   256
178
     2
271
     2
272
     3
274
     4
283
     0
284
     8
288
     1
289
     0
340
11
371
    -1
372
    -1
  0
DIMSTYLE
105
84
330
A
100
AcDbSymbolTableRecord
100
AcDbDimStyleTableRecord
  2
AM_ISO$6
 70
     0
  4
"
 41
2.5
 42
1.0
 43
10.0
 44
1.0
 47
0.1
 48
0.1
 73
     0
 74
     0
 78
     8
 79
     2
140
3.5
141
0.0
143
0.0393701
146
0.71
147
1.5
172
     1
176
   256
177
   256
178
     2
271
     2
272
     3
274
     4
283
     0
284
     8
340
11
371
    -1
372
    -1
  0
DIMSTYLE
105
85
330
A
100
AcDbSymbolTableRecord
100
AcDbDimStyleTableRecord
  2
AM_ISO$7
 70
     0
  4
"
 41
2.5
 42
1.0
 43
10.0
 44
1.0
 47
0.1
 48
0.1
 73
     0
 74
     0
 77
     1
 78
     8
 79
     2
140
5.0
141
0.0
143
0.0393701
146
0.71
147
1.5
172
     1
176
   256
177
   256
178
     2
271
     2
272
     3
274
     4
283
     0
284
     8
340
11
371
    -1
372
    -1
  0
DIMSTYLE
105
86
330
A
100
AcDbSymbolTableRecord
100
AcDbDimStyleTableRecord
  2
AM_ISO$SF
 70
     0
  4
"
 41
2.5
 42
1.0
 43
10.0
 44
1.0
 47
0.1
 48
0.1
 73
     0
 74
     0
 75
     1
 76
     1
 77
     1
 78
     8
 79
     2
140
3.5
141
0.0
143
0.0393701
146
0.71
147
1.5
172
     1
176
   256
177
   256
178
     2
271
     2
272
     3
274
     4
283
     0
284
     8
340
11
371
    -1
372
    -1
  0
DIMSTYLE
105
8B
330
A
100
AcDbSymbolTableRecord
100
AcDbDimStyleTableRecord
  2
AM_ISO$SH
 70
     0
  4
"
 41
2.5
 42
1.0
 43
10.0
 44
1.0
 47
0.1
 48
0.1
 73
     0
 74
     0
 75
     1
 76
     1
 77
     1
 78
     8
 79
     2
140
3.5
141
0.0
143
0.0393701
144
2.0
146
0.71
147
1.5
172
     1
173
     1
176
   256
177
   256
178
     2
271
     2
272
     3
274
     4
283
     0
284
     8
340
11
343
87
371
    -1
372
    -1
  0
DIMSTYLE
105
308
330
A
100
AcDbSymbolTableRecord
100
AcDbDimStyleTableRecord
  2
GEN-ISO
 70
     0
  4
"
 41
2.5
 42
1.0
 43
10.0
 44
1.0
 47
0.1
 48
0.1
 73
     0
 74
     0
 77
     1
 78
     8
140
3.5
141
0.0
143
0.0393701
146
0.71
147
1.5
172
     1
176
   256
177
   256
178
     2
271
     2
272
     3
274
     4
283
     0
340
11
  0
DIMSTYLE
105
309
330
A
100
AcDbSymbolTableRecord
100
AcDbDimStyleTableRecord
  2
GEN-ISO$3
 70
     0
  4
"
 41
2.5
 42
1.0
 43
10.0
 44
1.0
 47
0.1
 48
0.1
 73
     0
 77
     1
 78
     8
140
3.5
141
0.0
143
0.0393701
146
0.71
147
1.5
176
   256
177
   256
178
     2
271
     2
272
     3
274
     4
283
     0
288
     1
289
     0
340
11
  0
DIMSTYLE
105
30A
330
A
100
AcDbSymbolTableRecord
100
AcDbDimStyleTableRecord
  2
GEN-ISO$4
 70
     0
  4
"
 41
2.5
 42
1.0
 43
10.0
 44
1.0
 47
0.1
 48
0.1
 73
     0
 77
     1
 78
     8
140
3.5
141
0.0
143
0.0393701
146
0.71
147
1.5
176
   256
177
   256
178
     2
271
     2
272
     3
274
     4
283
     0
288
     1
289
     0
340
11
  0
DIMSTYLE
105
30B
330
A
100
AcDbSymbolTableRecord
100
AcDbDimStyleTableRecord
  2
GEN-ISO$6
 70
     0
  4
"
 41
2.5
 42
1.0
 43
10.0
 44
1.0
 47
0.1
 48
0.1
 73
     0
 74
     0
 78
     8
140
3.5
141
0.0
143
0.0393701
146
0.71
147
1.5
176
   256
177
   256
178
     2
271
     2
272
     3
274
     4
283
     0
340
11
  0
DIMSTYLE
105
30C
330
A
100
AcDbSymbolTableRecord
100
AcDbDimStyleTableRecord
  2
GEN-ISO-POS
 70
     0
  4
"
 41
2.5
 42
1.0
 43
10.0
 44
1.0
 47
0.1
 48
0.1
 73
     0
 74
     0
 78
     8
140
5.0
141
0.0
143
0.0393701
146
0.71
147
1.5
176
   256
177
   256
178
     2
271
     2
272
     3
274
     4
283
     0
340
11
  0
DIMSTYLE
105
30D
330
A
100
AcDbSymbolTableRecord
100
AcDbDimStyleTableRecord
  2
GEN-ISO-AXE-F
 70
     0
  4
"
 41
2.5
 42
1.0
 43
10.0
 44
1.0
 47
0.1
 48
0.1
 73
     0
 74
     0
 75
     1
 76
     1
 77
     1
 78
     8
140
3.5
141
0.0
143
0.0393701
146
0.71
147
1.5
172
     1
176
   256
177
   256
178
     2
271
     2
272
     3
274
     4
283
     0
340
11
  0
DIMSTYLE
105
30E
330
A
100
AcDbSymbolTableRecord
100
AcDbDimStyleTableRecord
  2
GEN-ISO-AXE-H
 70
     0
  4
"
 41
2.5
 42
1.0
 43
10.0
 44
1.0
 47
0.1
 48
0.1
 73
     0
 74
     0
 75
     1
 76
     1
 77
     1
 78
     8
140
3.5
141
0.0
143
0.0393701
144
2.0
146
0.71
147
1.5
172
     1
173
     1
176
   256
177
   256
178
     2
271
     2
272
     3
274
     4
283
     0
340
11
  0
DIMSTYLE
105
1ADD
330
A
100
AcDbSymbolTableRecord
100
AcDbDimStyleTableRecord
  2
AM_ANSI
 70
     0
  4
mm
 41
0.1
 42
0.05
 43
0.5
 44
0.1
 47
0.1
 48
0.1
 78
     7
 79
     2
140
0.12
141
0.0
146
0.71
147
0.06
176
   256
177
   256
178
     2
274
     4
284
     7
340
11
371
    -1
372
    -1
  0
ENDTAB
  0
TABLE
  2
BLOCK_RECORD
  5
1
330
0
100
AcDbSymbolTable
 70
    22
  0
BLOCK_RECORD
  5
1F
102
{ACAD_XDICTIONARY
360
8F
102
}
330
1
100
AcDbSymbolTableRecord
100
AcDbBlockTableRecord
  2
*Model_Space
340
22
  0
BLOCK_RECORD
  5
1B
330
1
100
AcDbSymbolTableRecord
100
AcDbBlockTableRecord
  2
*Paper_Space
340
1E
  0
BLOCK_RECORD
  5
23
330
1
100
AcDbSymbolTableRecord
100
AcDbBlockTableRecord
  2
*Paper_Space0
340
26
  0
BLOCK_RECORD
  5
87
330
1
100
AcDbSymbolTableRecord
100
AcDbBlockTableRecord
  2
GENAXEH
340
0
  0
BLOCK_RECORD
  5
2FB
330
1
100
AcDbSymbolTableRecord
100
AcDbBlockTableRecord
  2
_Open30
340
0
  0
BLOCK_RECORD
  5
327
102
{ACAD_XDICTIONARY
360
330
102
}
330
1
100
AcDbSymbolTableRecord
100
AcDbBlockTableRecord
  2
TAKACHI-A3
340
0
102
{BLKREFS
331
79F
102
}
  0
BLOCK_RECORD
  5
340
102
{ACAD_XDICTIONARY
360
395
102
}
330
1
100
AcDbSymbolTableRecord
100
AcDbBlockTableRecord
  2
TAKACHI-TITLE
340
0
102
{BLKREFS
331
7A1
102
}
  0
BLOCK_RECORD
  5
1A62
330
1
100
AcDbSymbolTableRecord
100
AcDbBlockTableRecord
  2
*D5
340
0
  0
BLOCK_RECORD
  5
1A6E
330
1
100
AcDbSymbolTableRecord
100
AcDbBlockTableRecord
  2
*D6
340
0
  0
BLOCK_RECORD
  5
1A7A
330
1
100
AcDbSymbolTableRecord
100
AcDbBlockTableRecord
  2
*D7
340
0
  0
BLOCK_RECORD
  5
1ADE
102
{ACAD_XDICTIONARY
360
1AE6
102
}
330
1
100
AcDbSymbolTableRecord
100
AcDbBlockTableRecord
  2
TK-A3
340
0
102
{BLKREFS
331
79F
102
}
  0
BLOCK_RECORD
  5
1AEC
102
{ACAD_XDICTIONARY
360
1B45
102
}
330
1
100
AcDbSymbolTableRecord
100
AcDbBlockTableRecord
  2
TK-TITLE
340
0
102
{BLKREFS
331
7A1
102
}
  0
BLOCK_RECORD
  5
2766
330
1
100
AcDbSymbolTableRecord
100
AcDbBlockTableRecord
  2
*S10
340
0
102
{BLKREFS
331
842
102
}
  0
BLOCK_RECORD
  5
276D
330
1
100
AcDbSymbolTableRecord
100
AcDbBlockTableRecord
  2
*S11
340
0
102
{BLKREFS
331
847
102
}
  0
BLOCK_RECORD
  5
2775
330
1
100
AcDbSymbolTableRecord
100
AcDbBlockTableRecord
  2
*S12
340
0
102
{BLKREFS
331
84A
102
}
  0
BLOCK_RECORD
  5
277C
330
1
100
AcDbSymbolTableRecord
100
AcDbBlockTableRecord
  2
*S13
340
0
102
{BLKREFS
331
84F
102
}
  0
BLOCK_RECORD
  5
2784
330
1
100
AcDbSymbolTableRecord
100
AcDbBlockTableRecord
  2
*S14
340
0
102
{BLKREFS
331
851
102
}
  0
BLOCK_RECORD
  5
278B
330
1
100
AcDbSymbolTableRecord
100
AcDbBlockTableRecord
  2
*S15
340
0
102
{BLKREFS
331
854
102
}
  0
BLOCK_RECORD
  5
2793
330
1
100
AcDbSymbolTableRecord
100
AcDbBlockTableRecord
  2
*S16
340
0
102
{BLKREFS
331
856
102
}
  0
BLOCK_RECORD
  5
279A
330
1
100
AcDbSymbolTableRecord
100
AcDbBlockTableRecord
  2
*S17
340
0
102
{BLKREFS
331
859
102
}
  0
BLOCK_RECORD
  5
27A2
330
1
100
AcDbSymbolTableRecord
100
AcDbBlockTableRecord
  2
*S18
340
0
102
{BLKREFS
331
85B
102
}
  0
BLOCK_RECORD
  5
27A9
330
1
100
AcDbSymbolTableRecord
100
AcDbBlockTableRecord
  2
*S19
340
0
102
{BLKREFS
331
85E
102
}
  0
BLOCK_RECORD
  5
27B1
102
{ACAD_XDICTIONARY
360
294B
102
}
330
1
100
AcDbSymbolTableRecord
100
AcDbBlockTableRecord
  2
*S20
340
0
102
{BLKREFS
331
1EE8
102
}
  0
ENDTAB
  0
ENDSEC
  0
SECTION
  2
BLOCKS
  0
BLOCK
  5
20
330
1F
100
AcDbEntity
  8
0
100
AcDbBlockBegin
  2
*Model_Space
 70
     0
 10
0.0
 20
0.0
 30
0.0
  3
*Model_Space
  1

  0
ENDBLK
  5
21
330
1F
100
AcDbEntity
  8
0
100
AcDbBlockEnd
  0
BLOCK
  5
1C
330
1B
100
AcDbEntity
 67
     1
  8
0
100
AcDbBlockBegin
  2
*Paper_Space
 70
     0
 10
0.0
 20
0.0
 30
0.0
  3
*Paper_Space
  1

  0
ENDBLK
  5
1D
330
1B
100
AcDbEntity
 67
     1
  8
0
100
AcDbBlockEnd
  0
BLOCK
  5
24
330
23
100
AcDbEntity
 67
     1
  8
0
100
AcDbBlockBegin
  2
*Paper_Space0
 70
     0
 10
0.0
 20
0.0
 30
0.0
  3
*Paper_Space0
  1

  0
VIEWPORT
  5
17C
102
{ACAD_XDICTIONARY
360
29AB
102
}
330
23
100
AcDbEntity
 67
     1
  8
0
100
AcDbViewport
 10
133.3499908447266
 20
123.6089706563676
 30
0.0
 40
370.2266912936524
 41
272.4401407679965
 68
     0
 69
     0
 12
133.3499908447266
 22
123.6089706563676
 13
0.0
 23
0.0
 14
10.0
 24
10.0
 15
10.0
 25
10.0
 16
0.0
 26
0.0
 36
1.0
 17
0.0
 27
0.0
 37
0.0
 42
50.0
 43
0.0
 44
0.0
 45
272.4401407679965
 50
0.0
 51
0.0
 72
   100
 90
    32800
  1

281
     0
 71
     1
 74
     0
110
0.0
120
0.0
130
0.0
111
1.0
121
0.0
131
0.0
112
0.0
122
1.0
132
0.0
 79
     0
146
0.0
1001
GENIUS_GENSCREG_15
1000
PF
1040
1.0
1000
DF
1040
1.0
1000
MIN
1011
-51.76335480209963
1021
-12.61109972763063
1031
0.0
1000
MAX
1011
318.4633364915528
1021
259.8290410403659
1031
0.0
1000
FLAGS
1070
     4
1001
GENIUS_GENOBJ-N-SDF_13
1002
{
1000
OWNER
1000
GEN
1002
}
1001
GENIUS_GENODEF_13
1002
{
1000
HIER
1070
     0
1002
}
1002
{
1000
MANEDIT
1070
     0
1002
}
1002
{
1000
NOSEL
1070
     0
1002
}
1002
{
1000
BEHIND
1070
     0
1002
}
1002
{
1000
OTHER
1070
     0
1002
}
1002
{
1000
REACTOR
1002
}
  0
ENDBLK
  5
25
330
23
100
AcDbEntity
 67
     1
  8
0
100
AcDbBlockEnd
  0
BLOCK
  5
89
330
87
100
AcDbEntity
  8
0
100
AcDbBlockBegin
  2
GENAXEH
 70
     0
 10
0.0
 20
0.0
 30
0.0
  3
GENAXEH
  1

  0
LINE
  5
88
330
87
100
AcDbEntity
  8
0
100
AcDbLine
 10
-1.0
 20
0.0
 30
0.0
 11
1.0
 21
0.0
 31
0.0
  0
ENDBLK
  5
8A
330
87
100
AcDbEntity
  8
0
100
AcDbBlockEnd
  0
BLOCK
  5
2FC
330
2FB
100
AcDbEntity
  8
0
100
AcDbBlockBegin
  2
_Open30
 70
     0
 10
0.0
 20
0.0
 30
0.0
  3
_Open30
  1

  0
LINE
  5
2FD
330
2FB
100
AcDbEntity
  8
0
  6
ByBlock
 62
     0
370
    -2
100
AcDbLine
 10
-1.0
 20
0.26794919
 30
0.0
 11
0.0
 21
0.0
 31
0.0
  0
LINE
  5
2FE
330
2FB
100
AcDbEntity
  8
0
  6
ByBlock
 62
     0
370
    -2
100
AcDbLine
 10
0.0
 20
0.0
 30
0.0
 11
-1.0
 21
-0.26794919
 31
0.0
  0
LINE
  5
2FF
330
2FB
100
AcDbEntity
  8
0
  6
ByBlock
 62
     0
370
    -2
100
AcDbLine
 10
0.0
 20
0.0
 30
0.0
 11
-1.0
 21
0.0
 31
0.0
  0
ENDBLK
  5
300
330
2FB
100
AcDbEntity
  8
0
100
AcDbBlockEnd
  0
BLOCK
  5
331
330
327
100
AcDbEntity
  8
0
100
AcDbBlockBegin
  2
TAKACHI-A3
 70
     0
 10
0.0
 20
0.0
 30
0.0
  3
TAKACHI-A3
  1

  0
LWPOLYLINE
  5
328
330
327
100
AcDbEntity
  8
0
100
AcDbPolyline
 90
        4
 70
     1
 43
0.0
 10
10.0
 20
0.0
 10
410.0
 20
0.0
 10
410.0
 20
280.0
 10
10.00000000000003
 20
280.0
1001
GENIUS_GENREC_14
1002
{
1000
PYDIR
1011
10.00000000000001
1021
280.0
1031
0.0
1002
}
1002
{
1000
PXDIR
1011
410.0
1021
0.0
1031
0.0
1002
}
1002
{
1000
PORI
1011
10.0
1021
0.0
1031
0.0
1002
}
1002
{
1000
PINS
1011
210.0
1021
139.9999999999999
1031
0.0
1002
}
1002
{
1000
HVAL
1000
280
1002
}
1002
{
1000
H
1070
     2
1002
}
1002
{
1000
WVAL
1000
400
1002
}
1002
{
1000
W
1070
     2
1002
}
1002
{
1000
C
1070
     4
1002
}
1001
GENIUS_GENODEF_13
1002
{
1000
HIER
1070
     0
1002
}
1002
{
1000
MANEDIT
1070
     0
1002
}
1002
{
1000
NOSEL
1070
     0
1002
}
1002
{
1000
BEHIND
1070
     0
1002
}
1002
{
1000
REACTOR
1002
}
1001
GENIUS_GENOBJ-N-REC_13
1002
{
1000
OWNER
1000
GEN
1002
}
  0
TEXT
  5
329
330
327
100
AcDbEntity
  8
0
 60
     1
100
AcDbText
 10
15.00000000000003
 20
50.0
 30
0.0
 40
2.5
  1
!GENTITLE-LL
100
AcDbText
  0
TEXT
  5
32A
330
327
100
AcDbEntity
  8
0
 60
     1
100
AcDbText
 10
410.0
 20
0.0
 30
0.0
 40
2.5
  1
!GENTITLE-INSERT
100
AcDbText
  0
TEXT
  5
32B
330
327
100
AcDbEntity
  8
0
 60
     1
100
AcDbText
 10
405.0
 20
275.0
 30
0.0
 40
2.5
  1
!GENTITLE-RU
100
AcDbText
  0
TEXT
  5
32C
330
327
100
AcDbEntity
  8
0
 60
     1
100
AcDbText
 10
410.0
 20
280.0
 30
0.0
 40
2.5
  1
!GENTITLE-MAX
100
AcDbText
  0
LINE
  5
32D
330
327
100
AcDbEntity
  8
0
100
AcDbLine
 10
366.0
 20
275.0
 30
0.0
 11
410.0
 21
275.0
 31
0.0
  0
MTEXT
  5
32E
330
327
100
AcDbEntity
  8
0
100
AcDbMText
 10
409.3592953827348
 20
276.108542987227
 30
0.0
 40
2.5
 41
43.07840397728298
 71
     9
 72
     5
  1
(文書番号：TY-34)2004.10.29
 73
     1
 44
1.0
1001
ACAD
1000
MTEXTBEGIN
1070
    73
1070
     1
1070
    44
1040
1.0
1070
    74
1070
     0
1000
MTEXTEND
  0
LINE
  5
32F
330
327
100
AcDbEntity
  8
0
100
AcDbLine
 10
366.0
 20
280.0
 30
0.0
 11
366.0
 21
275.0
 31
0.0
  0
ENDBLK
  5
332
330
327
100
AcDbEntity
  8
0
100
AcDbBlockEnd
  0
BLOCK
  5
396
330
340
100
AcDbEntity
  8
0
100
AcDbBlockBegin
  2
TAKACHI-TITLE
 70
     2
 10
0.0
 20
0.0
 30
0.0
  3
TAKACHI-TITLE
  1

  0
LINE
  5
341
330
340
100
AcDbEntity
  8
RAHM2
100
AcDbLine
 10
-195.0
 20
30.00000000000003
 30
0.0
 11
-94.0
 21
30.00000000000003
 31
0.0
  0
LINE
  5
342
330
340
100
AcDbEntity
  8
RAHM2
100
AcDbLine
 10
-195.0
 20
35.00000000000003
 30
0.0
 11
-94.0
 21
35.00000000000003
 31
0.0
  0
LINE
  5
343
330
340
100
AcDbEntity
  8
RAHM2
100
AcDbLine
 10
-195.0
 20
40.00000000000002
 30
0.0
 11
-94.0
 21
40.00000000000002
 31
0.0
  0
LINE
  5
344
330
340
100
AcDbEntity
  8
RAHM2
100
AcDbLine
 10
-195.0
 20
45.00000000000002
 30
0.0
 11
-94.0
 21
45.00000000000002
 31
0.0
  0
LINE
  5
345
330
340
100
AcDbEntity
  8
0
100
AcDbLine
 10
-195.0
 20
7.0
 30
0.0
 11
-94.0
 21
7.0
 31
0.0
  0
LINE
  5
346
330
340
100
AcDbEntity
  8
0
100
AcDbLine
 10
-195.0
 20
19.99999999999997
 30
0.0
 11
-94.0
 21
19.99999999999997
 31
0.0
  0
ATTDEF
  5
347
330
340
100
AcDbEntity
  8
0
100
AcDbText
 10
-183.2438527145607
 20
8.617517191094748
 30
0.0
 40
2.5
  1

 11
-183.2438527145607
 21
8.617517191094748
 31
0.0
100
AcDbAttributeDefinition
  3
サブタイトル
  2
GEN-TITLE-DES2
 70
     0
 74
     1
  0
ATTDEF
  5
348
330
340
100
AcDbEntity
  8
0
100
AcDbText
 10
-183.2438527145607
 20
1.617517191094748
 30
0.0
 40
3.0
  1

 11
-183.2438527145607
 21
1.617517191094748
 31
0.0
100
AcDbAttributeDefinition
  3
図番
  2
GEN-TITLE-NR
 70
     0
 74
     1
  0
MTEXT
  5
349
330
340
100
AcDbEntity
  8
RAHM2
100
AcDbMText
 10
-193.8002551371314
 20
5.801035407279641
 30
0.0
 40
2.5
 41
90.0
 71
     1
 72
     5
  1
図番
 73
     1
 44
1.0
1001
ACAD
1000
MTEXTBEGIN
1070
    73
1070
     1
1070
    44
1040
1.0
1070
    74
1070
     0
1000
MTEXTEND
  0
ATTDEF
  5
34A
330
340
100
AcDbEntity
  8
0
100
AcDbText
 10
-183.2438527145607
 20
13.87395286168501
 30
0.0
 40
4.0
  1

 11
-183.2438527145607
 21
13.87395286168501
 31
0.0
100
AcDbAttributeDefinition
  3
品名
  2
GEN-TITLE-DES1
 70
     0
 74
     1
  0
LINE
  5
34B
330
340
100
AcDbEntity
  8
RAHM2
100
AcDbLine
 10
-187.5751288694036
 20
30.40000000000004
 30
0.0
 11
-190.0
 21
34.60000000000003
 31
0.0
  0
LINE
  5
34C
330
340
100
AcDbEntity
  8
RAHM2
100
AcDbLine
 10
-190.0
 20
34.60000000000003
 30
0.0
 11
-192.4248711305964
 21
30.40000000000004
 31
0.0
  0
LINE
  5
34D
330
340
100
AcDbEntity
  8
RAHM2
100
AcDbLine
 10
-185.0
 20
50.00000000000003
 30
0.0
 11
-185.0
 21
19.99999999999994
 31
0.0
  0
LINE
  5
34E
330
340
100
AcDbEntity
  8
RAHM2
100
AcDbLine
 10
-192.4248711305964
 20
30.40000000000004
 30
0.0
 11
-187.5751288694036
 21
30.40000000000004
 31
0.0
  0
MTEXT
  5
34F
330
340
100
AcDbEntity
  8
RAHM2
100
AcDbMText
 10
-190.0
 20
22.49999999999997
 30
0.0
 40
2.5
 41
10.0
 71
     5
 72
     5
  1
符号
 73
     1
 44
1.0
1001
ACAD
1000
MTEXTBEGIN
1070
    73
1070
     1
1070
    44
1040
1.0
1070
    74
1070
     0
1000
MTEXTEND
  0
MTEXT
  5
350
330
340
100
AcDbEntity
  8
RAHM2
100
AcDbMText
 10
-193.8002551371314
 20
18.80103540727961
 30
0.0
 40
2.5
 41
90.0
 71
     1
 72
     5
  1
品名
 73
     1
 44
1.0
1001
ACAD
1000
MTEXTBEGIN
1070
    73
1070
     1
1070
    44
1040
1.0
1070
    74
1070
     0
1000
MTEXTEND
  0
LINE
  5
351
330
340
100
AcDbEntity
  8
RAHM2
100
AcDbLine
 10
-192.4248711305964
 20
45.40000000000003
 30
0.0
 11
-187.5751288694036
 21
45.40000000000003
 31
0.0
  0
LINE
  5
352
330
340
100
AcDbEntity
  8
RAHM2
100
AcDbLine
 10
-187.5751288694036
 20
45.40000000000003
 30
0.0
 11
-190.0
 21
49.60000000000002
 31
0.0
  0
LINE
  5
353
330
340
100
AcDbEntity
  8
RAHM2
100
AcDbLine
 10
-192.4248711305964
 20
40.40000000000003
 30
0.0
 11
-187.5751288694036
 21
40.40000000000003
 31
0.0
  0
LINE
  5
354
330
340
100
AcDbEntity
  8
RAHM2
100
AcDbLine
 10
-187.5751288694036
 20
40.40000000000003
 30
0.0
 11
-190.0
 21
44.60000000000002
 31
0.0
  0
LINE
  5
355
330
340
100
AcDbEntity
  8
RAHM2
100
AcDbLine
 10
-192.4248711305964
 20
35.40000000000004
 30
0.0
 11
-187.5751288694036
 21
35.40000000000004
 31
0.0
  0
LINE
  5
356
330
340
100
AcDbEntity
  8
RAHM2
100
AcDbLine
 10
-187.5751288694036
 20
35.40000000000004
 30
0.0
 11
-190.0
 21
39.60000000000002
 31
0.0
  0
LINE
  5
357
330
340
100
AcDbEntity
  8
RAHM2
100
AcDbLine
 10
-190.0
 20
39.60000000000002
 30
0.0
 11
-192.4248711305964
 21
35.40000000000004
 31
0.0
  0
LINE
  5
358
330
340
100
AcDbEntity
  8
RAHM2
100
AcDbLine
 10
-190.0
 20
44.60000000000002
 30
0.0
 11
-192.4248711305964
 21
40.40000000000003
 31
0.0
  0
LINE
  5
359
330
340
100
AcDbEntity
  8
RAHM2
100
AcDbLine
 10
-190.0
 20
49.60000000000002
 30
0.0
 11
-192.4248711305964
 21
45.40000000000003
 31
0.0
  0
LINE
  5
35A
330
340
100
AcDbEntity
  8
RAHM2
100
AcDbLine
 10
-129.0
 20
50.00000000000003
 30
0.0
 11
-129.0
 21
19.99999999999994
 31
0.0
  0
MTEXT
  5
35B
330
340
100
AcDbEntity
  8
RAHM2
100
AcDbMText
 10
-157.1448171868856
 20
22.49999999999997
 30
0.0
 40
2.5
 41
45.0
 71
     5
 72
     5
  1
変更記事
 73
     1
 44
1.0
1001
ACAD
1000
MTEXTBEGIN
1070
    73
1070
     1
1070
    44
1040
1.0
1070
    74
1070
     0
1000
MTEXTEND
  0
LINE
  5
35C
330
340
100
AcDbEntity
  8
0
100
AcDbLine
 10
-34.0
 20
50.0
 30
0.0
 11
-34.0
 21
0.0
 31
0.0
  0
LINE
  5
35D
330
340
100
AcDbEntity
  8
0
100
AcDbLine
 10
-94.0
 20
50.0
 30
0.0
 11
-94.0
 21
0.0
 31
0.0
  0
MTEXT
  5
35E
330
340
100
AcDbEntity
  8
0
100
AcDbMText
 10
-64.0
 20
5.0
 30
0.0
 40
3.5
 41
60.0
 71
     5
 72
     5
  1
\fＭＳ ゴシック|b0|i0|c128|p49;株式会社タカチ電機工業
 73
     1
 44
1.0
1001
ACAD
1000
MTEXTBEGIN
1070
    73
1070
     1
1070
    44
1040
1.0
1070
    74
1070
     0
1000
MTEXTEND
  0
LINE
  5
35F
330
340
100
AcDbEntity
  8
0
100
AcDbLine
 10
-94.0
 20
10.0
 30
0.0
 11
-34.0
 21
10.0
 31
0.0
  0
ATTDEF
  5
360
330
340
100
AcDbEntity
  8
0
100
AcDbText
 10
-58.01405119799745
 20
39.25500556178349
 30
0.0
 40
3.0
  1

 72
     2
 11
-58.01405119799745
 21
39.25500556178349
 31
0.0
100
AcDbAttributeDefinition
  3
尺度
  2
GEN-TITLE-SCA
 70
     0
  0
ATTDEF
  5
361
330
340
100
AcDbEntity
  8
0
100
AcDbText
 10
-77.00284966649007
 20
30.62180787943475
 30
0.0
 40
3.0
  1

 11
-77.00284966649007
 21
30.62180787943475
 31
0.0
100
AcDbAttributeDefinition
  3
材質
  2
GEN-TITLE-MAT1
 70
     0
 74
     1
  0
ATTDEF
  5
362
330
340
100
AcDbEntity
  8
0
100
AcDbText
 10
-77.00284966649007
 20
20.62180787943475
 30
0.0
 40
3.0
  1

 11
-77.00284966649007
 21
20.62180787943475
 31
0.0
100
AcDbAttributeDefinition
  3
表面処理
  2
GEN-TITLE-MAT2
 70
     0
 74
     1
  0
ATTDEF
  5
363
330
340
100
AcDbEntity
  8
0
100
AcDbText
 10
-77.00284966649007
 20
11.61751719109475
 30
0.0
 40
3.0
  1

 11
-77.00284966649007
 21
11.61751719109475
 31
0.0
100
AcDbAttributeDefinition
  3
日付
  2
GEN-TITLE-DAT
 70
     0
 74
     1
  0
LINE
  5
364
330
340
100
AcDbEntity
  8
0
100
AcDbLine
 10
-94.0
 20
37.5
 30
0.0
 11
-34.0
 21
37.5
 31
0.0
  0
LINE
  5
365
330
340
100
AcDbEntity
  8
0
100
AcDbLine
 10
-94.0
 20
27.5
 30
0.0
 11
-34.0
 21
27.5
 31
0.0
  0
LINE
  5
366
330
340
100
AcDbEntity
  8
0
100
AcDbLine
 10
-94.0
 20
17.5
 30
0.0
 11
-34.0
 21
17.5
 31
0.0
  0
LINE
  5
367
330
340
100
AcDbEntity
  8
RAHM2
100
AcDbLine
 10
-109.0
 20
50.00000000000003
 30
0.0
 11
-109.0
 21
19.99999999999994
 31
0.0
  0
MTEXT
  5
368
330
340
100
AcDbEntity
  8
RAHM2
100
AcDbMText
 10
-119.4582894723942
 20
32.50000000000003
 30
0.0
 40
2.5
 41
20.0
 71
     5
 72
     5
  1
・  ・   
 73
     1
 44
1.0
1001
ACAD
1000
MTEXTBEGIN
1070
    73
1070
     1
1070
    44
1040
1.0
1070
    74
1070
     0
1000
MTEXTEND
  0
MTEXT
  5
369
330
340
100
AcDbEntity
  8
RAHM2
100
AcDbMText
 10
-118.738119805002
 20
22.49999999999997
 30
0.0
 40
2.5
 41
20.0
 71
     5
 72
     5
  1
年・月・日
 73
     1
 44
1.0
1001
ACAD
1000
MTEXTBEGIN
1070
    73
1070
     1
1070
    44
1040
1.0
1070
    74
1070
     0
1000
MTEXTEND
  0
MTEXT
  5
36A
330
340
100
AcDbEntity
  8
RAHM2
100
AcDbMText
 10
-101.5
 20
22.49999999999997
 30
0.0
 40
2.5
 41
15.0
 71
     5
 72
     5
  1
担当
 73
     1
 44
1.0
1001
ACAD
1000
MTEXTBEGIN
1070
    73
1070
     1
1070
    44
1040
1.0
1070
    74
1070
     0
1000
MTEXTEND
  0
MTEXT
  5
36B
330
340
100
AcDbEntity
  8
RAHM2
100
AcDbMText
 10
-119.4582894723942
 20
42.50000000000002
 30
0.0
 40
2.5
 41
20.0
 71
     5
 72
     5
  1
・  ・   
 73
     1
 44
1.0
1001
ACAD
1000
MTEXTBEGIN
1070
    73
1070
     1
1070
    44
1040
1.0
1070
    74
1070
     0
1000
MTEXTEND
  0
MTEXT
  5
36C
330
340
100
AcDbEntity
  8
RAHM2
100
AcDbMText
 10
-119.4582894723942
 20
37.50000000000003
 30
0.0
 40
2.5
 41
20.0
 71
     5
 72
     5
  1
・  ・   
 73
     1
 44
1.0
1001
ACAD
1000
MTEXTBEGIN
1070
    73
1070
     1
1070
    44
1040
1.0
1070
    74
1070
     0
1000
MTEXTEND
  0
MTEXT
  5
36D
330
340
100
AcDbEntity
  8
RAHM2
100
AcDbMText
 10
-119.4582894723942
 20
47.50000000000002
 30
0.0
 40
2.5
 41
20.0
 71
     5
 72
     5
  1
・  ・   
 73
     1
 44
1.0
1001
ACAD
1000
MTEXTBEGIN
1070
    73
1070
     1
1070
    44
1040
1.0
1070
    74
1070
     0
1000
MTEXTEND
  0
MTEXT
  5
36E
330
340
100
AcDbEntity
  8
RAHM2
100
AcDbMText
 10
-92.80025513713145
 20
16.30103540727964
 30
0.0
 40
2.5
 41
60.0
 71
     1
 72
     5
  1
日付
 73
     1
 44
1.0
1001
ACAD
1000
MTEXTBEGIN
1070
    73
1070
     1
1070
    44
1040
1.0
1070
    74
1070
     0
1000
MTEXTEND
  0
MTEXT
  5
36F
330
340
100
AcDbEntity
  8
RAHM2
100
AcDbMText
 10
-92.80025513713145
 20
26.30103540727964
 30
0.0
 40
2.5
 41
60.0
 71
     1
 72
     5
  1
表面処理
 73
     1
 44
1.0
1001
ACAD
1000
MTEXTBEGIN
1070
    73
1070
     1
1070
    44
1040
1.0
1070
    74
1070
     0
1000
MTEXTEND
  0
LINE
  5
370
330
340
100
AcDbEntity
  8
7A
100
AcDbLine
 10
-89.0
 20
43.75
 30
0.0
 11
-75.2186915997147
 21
43.75
 31
0.0
1001
GENIUS_GENOREF_13
1005
383
  0
LINE
  5
371
330
340
100
AcDbEntity
  8
0
100
AcDbLine
 10
-84.0
 20
45.75
 30
0.0
 11
-76.0
 21
46.74999999999999
 31
0.0
  0
LINE
  5
372
330
340
100
AcDbEntity
  8
0
100
AcDbLine
 10
-76.0
 20
40.75
 30
0.0
 11
-84.0
 21
41.74999999999999
 31
0.0
  0
LINE
  5
373
330
340
100
AcDbEntity
  8
7A
100
AcDbLine
 10
-89.0
 20
43.75
 30
0.0
 11
-89.0
 21
47.32478664473148
 31
0.0
1001
GENIUS_GENOREF_13
1005
383
  0
CIRCLE
  5
374
330
340
100
AcDbEntity
  8
0
100
AcDbCircle
 10
-89.0
 20
43.75
 30
0.0
 40
2.0
  0
CIRCLE
  5
375
330
340
100
AcDbEntity
  8
0
100
AcDbCircle
 10
-89.0
 20
43.75
 30
0.0
 40
3.0
  0
LINE
  5
376
330
340
100
AcDbEntity
  8
0
100
AcDbLine
 10
-84.0
 20
41.74999999999999
 30
0.0
 11
-84.0
 21
45.75
 31
0.0
  0
MTEXT
  5
377
330
340
100
AcDbEntity
  8
RAHM2
100
AcDbMText
 10
-92.80025513713145
 20
36.30103540727964
 30
0.0
 40
2.5
 41
60.0
 71
     1
 72
     5
  1
材質
 73
     1
 44
1.0
1001
ACAD
1000
MTEXTBEGIN
1070
    73
1070
     1
1070
    44
1040
1.0
1070
    74
1070
     0
1000
MTEXTEND
  0
LINE
  5
378
330
340
100
AcDbEntity
  8
7A
100
AcDbLine
 10
-89.0
 20
43.75
 30
0.0
 11
-92.72303737125117
 21
43.75
 31
0.0
1001
GENIUS_GENOREF_13
1005
383
  0
LINE
  5
379
330
340
100
AcDbEntity
  8
7A
100
AcDbLine
 10
-89.0
 20
43.75
 30
0.0
 11
-89.0
 21
40.03991724228479
 31
0.0
1001
GENIUS_GENOREF_13
1005
383
  0
LINE
  5
37A
330
340
100
AcDbEntity
  8
0
100
AcDbLine
 10
-76.0
 20
46.74999999999999
 30
0.0
 11
-76.0
 21
40.75
 31
0.0
  0
LINE
  5
37B
330
340
100
AcDbEntity
  8
0
100
AcDbLine
 10
-74.0
 20
50.0
 30
0.0
 11
-74.0
 21
37.5
 31
0.0
  0
MTEXT
  5
37C
330
340
100
AcDbEntity
  8
RAHM2
100
AcDbMText
 10
-72.80025513713145
 20
48.80103540727964
 30
0.0
 40
2.5
 41
20.0
 71
     1
 72
     5
  1
尺度
 73
     1
 44
1.0
1001
ACAD
1000
MTEXTBEGIN
1070
    73
1070
     1
1070
    44
1040
1.0
1070
    74
1070
     0
1000
MTEXTEND
  0
ATTDEF
  5
37D
330
340
100
AcDbEntity
  8
0
100
AcDbText
 10
-37.76317379391503
 20
39.25500556178349
 30
0.0
 40
3.0
  1

 72
     2
 11
-37.76317379391503
 21
39.25500556178349
 31
0.0
100
AcDbAttributeDefinition
  3
数量
  2
GEN-TITLE-QTY
 70
     0
  0
LINE
  5
37E
330
340
100
AcDbEntity
  8
0
100
AcDbLine
 10
-34.0
 20
25.0
 30
0.0
 11
0.0
 21
25.0
 31
0.0
  0
LINE
  5
37F
330
340
100
AcDbEntity
  8
0
100
AcDbLine
 10
-54.0
 20
50.0
 30
0.0
 11
-54.0
 21
37.5
 31
0.0
  0
MTEXT
  5
380
330
340
100
AcDbEntity
  8
RAHM2
100
AcDbMText
 10
-52.80025513713145
 20
48.80103540727964
 30
0.0
 40
2.5
 41
20.0
 71
     1
 72
     5
  1
数量
 73
     1
 44
1.0
1001
ACAD
1000
MTEXTBEGIN
1070
    73
1070
     1
1070
    44
1040
1.0
1070
    74
1070
     0
1000
MTEXTEND
  0
MTEXT
  5
381
330
340
100
AcDbEntity
  8
RAHM2
100
AcDbMText
 10
-25.5
 20
23.80103540727964
 30
0.0
 40
2.5
 41
17.0
 71
     2
 72
     5
  1
承認
 73
     1
 44
1.0
1001
ACAD
1000
MTEXTBEGIN
1070
    73
1070
     1
1070
    44
1040
1.0
1070
    74
1070
     0
1000
MTEXTEND
  0
MTEXT
  5
382
330
340
100
AcDbEntity
  8
RAHM2
100
AcDbMText
 10
-25.5
 20
48.80103540727964
 30
0.0
 40
2.5
 41
17.0
 71
     2
 72
     5
  1
承認
 73
     1
 44
1.0
1001
ACAD
1000
MTEXTBEGIN
1070
    73
1070
     1
1070
    44
1040
1.0
1070
    74
1070
     0
1000
MTEXTEND
  0
POINT
  5
383
330
340
100
AcDbEntity
  8
0
 60
     1
100
AcDbPoint
 10
-320.5355579819676
 20
-138.1104841268254
 30
0.0
1001
GENIUS_GENODEF_13
1002
{
1000
HIER
1070
    10
1002
}
1002
{
1000
MANEDIT
1070
     0
1002
}
1002
{
1000
NOSEL
1070
     0
1002
}
1002
{
1000
BEHIND
1070
     0
1002
}
1002
{
1000
REACTOR
1002
}
1001
GENIUS_GENOBJ-N-CRS_13
1002
{
1000
OWNER
1000
GEN
1002
}
1001
GENIUS_GENOENT_13
1002
{
1000
MYREF
1005
383
1002
}
1002
{
1000
GRP
1005
0
1002
}
1001
GENIUS_GENOLIS_13
1002
{
1000
ENT
1005
379
1005
378
1005
373
1005
370
1002
}
  0
LINE
  5
384
330
340
100
AcDbEntity
  8
RAHM2
100
AcDbLine
 10
-190.0
 20
29.60000000000002
 30
0.0
 11
-192.4248711305964
 21
25.40000000000004
 31
0.0
  0
LINE
  5
385
330
340
100
AcDbEntity
  8
RAHM2
100
AcDbLine
 10
-187.5751288694036
 20
25.40000000000004
 30
0.0
 11
-190.0
 21
29.60000000000002
 31
0.0
  0
LINE
  5
386
330
340
100
AcDbEntity
  8
RAHM2
100
AcDbLine
 10
-192.4248711305964
 20
25.40000000000004
 30
0.0
 11
-187.5751288694036
 21
25.40000000000004
 31
0.0
  0
LINE
  5
387
330
340
100
AcDbEntity
  8
RAHM2
100
AcDbLine
 10
-195.0
 20
25.00000000000003
 30
0.0
 11
-94.0
 21
25.00000000000003
 31
0.0
  0
MTEXT
  5
388
330
340
100
AcDbEntity
  8
RAHM2
100
AcDbMText
 10
-119.4582894723942
 20
27.50000000000003
 30
0.0
 40
2.5
 41
20.0
 71
     5
 72
     5
  1
・  ・   
 73
     1
 44
1.0
1001
ACAD
1000
MTEXTBEGIN
1070
    73
1070
     1
1070
    44
1040
1.0
1070
    74
1070
     0
1000
MTEXTEND
  0
TEXT
  5
389
330
340
100
AcDbEntity
  8
RAHM2
100
AcDbText
 10
-190.8155863565801
 20
25.65000000000003
 30
0.0
 40
2.5
  1
1
 72
     1
 11
-190.1905863565802
 21
25.65000000000003
 31
0.0
100
AcDbText
 73
     1
  0
TEXT
  5
38A
330
340
100
AcDbEntity
  8
RAHM2
100
AcDbText
 10
-190.9183316929134
 20
30.65000000000003
 30
0.0
 40
2.5
  1
2
 72
     1
 11
-190.0
 21
30.65000000000003
 31
0.0
100
AcDbText
 73
     1
  0
TEXT
  5
38B
330
340
100
AcDbEntity
  8
RAHM2
100
AcDbText
 10
-190.9267766952966
 20
35.65000000000001
 30
0.0
 40
2.5
  1
3
 72
     1
 11
-190.0
 21
35.65000000000001
 31
0.0
100
AcDbText
 73
     1
  0
TEXT
  5
38C
330
340
100
AcDbEntity
  8
RAHM2
100
AcDbText
 10
-191.0
 20
40.65000000000003
 30
0.0
 40
2.5
  1
4
 72
     1
 11
-190.0
 21
40.65000000000003
 31
0.0
100
AcDbText
 73
     1
  0
TEXT
  5
38D
330
340
100
AcDbEntity
  8
RAHM2
100
AcDbText
 10
-190.9267766952966
 20
45.65000000000003
 30
0.0
 40
2.5
  1
5
 72
     1
 11
-190.0
 21
45.65000000000003
 31
0.0
100
AcDbText
 73
     1
  0
LINE
  5
38E
330
340
100
AcDbEntity
  8
0
100
AcDbLine
 10
-17.0
 20
50.0
 30
0.0
 11
-17.0
 21
0.0
 31
0.0
  0
LINE
  5
38F
330
340
100
AcDbEntity
  8
0
100
AcDbLine
 10
-195.0
 20
0.0
 30
0.0
 11
0.0
 21
0.0
 31
0.0
1001
GENIUS_GENREC_14
1002
{
1000
PYDIR
1011
-184.0
1021
50.0
1031
0.0
1002
}
1002
{
1000
PXDIR
1011
0.0
1021
0.0
1031
0.0
1002
}
1002
{
1000
PORI
1011
-184.0
1021
0.0
1031
0.0
1002
}
1002
{
1000
PINS
1011
-100.5
1021
25.0
1031
0.0
1002
}
1002
{
1000
HVAL
1000
50
1002
}
1002
{
1000
H
1070
     2
1002
}
1002
{
1000
WVAL
1000
167
1002
}
1002
{
1000
W
1070
     2
1002
}
1002
{
1000
C
1070
     4
1002
}
1001
GENIUS_GENODEF_13
1002
{
1000
HIER
1070
     0
1002
}
1002
{
1000
MANEDIT
1070
     0
1002
}
1002
{
1000
NOSEL
1070
     0
1002
}
1002
{
1000
BEHIND
1070
     0
1002
}
1002
{
1000
REACTOR
1002
}
1001
GENIUS_GENOBJ-N-REC_13
1002
{
1000
OWNER
1000
GEN
1002
}
  0
LINE
  5
390
330
340
100
AcDbEntity
  8
0
100
AcDbLine
 10
0.0
 20
0.0
 30
0.0
 11
0.0
 21
50.0
 31
0.0
1001
GENIUS_GENREC_14
1002
{
1000
PYDIR
1011
-184.0
1021
50.0
1031
0.0
1002
}
1002
{
1000
PXDIR
1011
0.0
1021
0.0
1031
0.0
1002
}
1002
{
1000
PORI
1011
-184.0
1021
0.0
1031
0.0
1002
}
1002
{
1000
PINS
1011
-100.5
1021
25.0
1031
0.0
1002
}
1002
{
1000
HVAL
1000
50
1002
}
1002
{
1000
H
1070
     2
1002
}
1002
{
1000
WVAL
1000
167
1002
}
1002
{
1000
W
1070
     2
1002
}
1002
{
1000
C
1070
     4
1002
}
1001
GENIUS_GENODEF_13
1002
{
1000
HIER
1070
     0
1002
}
1002
{
1000
MANEDIT
1070
     0
1002
}
1002
{
1000
NOSEL
1070
     0
1002
}
1002
{
1000
BEHIND
1070
     0
1002
}
1002
{
1000
REACTOR
1002
}
1001
GENIUS_GENOBJ-N-REC_13
1002
{
1000
OWNER
1000
GEN
1002
}
  0
LINE
  5
391
330
340
100
AcDbEntity
  8
0
100
AcDbLine
 10
0.0
 20
50.0
 30
0.0
 11
-195.0
 21
50.00000000000003
 31
0.0
1001
GENIUS_GENREC_14
1002
{
1000
PYDIR
1011
-184.0
1021
50.0
1031
0.0
1002
}
1002
{
1000
PXDIR
1011
0.0
1021
0.0
1031
0.0
1002
}
1002
{
1000
PORI
1011
-184.0
1021
0.0
1031
0.0
1002
}
1002
{
1000
PINS
1011
-100.5
1021
25.0
1031
0.0
1002
}
1002
{
1000
HVAL
1000
50
1002
}
1002
{
1000
H
1070
     2
1002
}
1002
{
1000
WVAL
1000
167
1002
}
1002
{
1000
W
1070
     2
1002
}
1002
{
1000
C
1070
     4
1002
}
1001
GENIUS_GENODEF_13
1002
{
1000
HIER
1070
     0
1002
}
1002
{
1000
MANEDIT
1070
     0
1002
}
1002
{
1000
NOSEL
1070
     0
1002
}
1002
{
1000
BEHIND
1070
     0
1002
}
1002
{
1000
REACTOR
1002
}
1001
GENIUS_GENOBJ-N-REC_13
1002
{
1000
OWNER
1000
GEN
1002
}
  0
LINE
  5
392
330
340
100
AcDbEntity
  8
0
100
AcDbLine
 10
-195.0
 20
50.00000000000003
 30
0.0
 11
-195.0
 21
0.0
 31
0.0
1001
GENIUS_GENREC_14
1002
{
1000
PYDIR
1011
-195.0
1021
50.0
1031
0.0
1002
}
1002
{
1000
PXDIR
1011
-11.0
1021
0.0
1031
0.0
1002
}
1002
{
1000
PORI
1011
-195.0
1021
0.0
1031
0.0
1002
}
1002
{
1000
PINS
1011
-111.5
1021
25.0
1031
0.0
1002
}
1002
{
1000
HVAL
1000
50
1002
}
1002
{
1000
H
1070
     2
1002
}
1002
{
1000
WVAL
1000
167
1002
}
1002
{
1000
W
1070
     2
1002
}
1002
{
1000
C
1070
     4
1002
}
1001
GENIUS_GENODEF_13
1002
{
1000
HIER
1070
     0
1002
}
1002
{
1000
MANEDIT
1070
     0
1002
}
1002
{
1000
NOSEL
1070
     0
1002
}
1002
{
1000
BEHIND
1070
     0
1002
}
1002
{
1000
REACTOR
1002
}
1001
GENIUS_GENOBJ-N-REC_13
1002
{
1000
OWNER
1000
GEN
1002
}
  0
MTEXT
  5
393
330
340
100
AcDbEntity
  8
RAHM2
100
AcDbMText
 10
-8.5
 20
48.80103540727964
 30
0.0
 40
2.5
 41
17.0
 71
     2
 72
     5
  1
検図
 73
     1
 44
1.0
1001
ACAD
1000
MTEXTBEGIN
1070
    73
1070
     1
1070
    44
1040
1.0
1070
    74
1070
     0
1000
MTEXTEND
  0
MTEXT
  5
394
330
340
100
AcDbEntity
  8
RAHM2
100
AcDbMText
 10
-8.5
 20
23.80103540727964
 30
0.0
 40
2.5
 41
17.0
 71
     2
 72
     5
  1
製図
 73
     1
 44
1.0
1001
ACAD
1000
MTEXTBEGIN
1070
    73
1070
     1
1070
    44
1040
1.0
1070
    74
1070
     0
1000
MTEXTEND
  0
ENDBLK
  5
397
330
340
100
AcDbEntity
  8
0
100
AcDbBlockEnd
  0
BLOCK
  5
1A6C
330
1A62
100
AcDbEntity
  8
0
100
AcDbBlockBegin
  2
*D5
 70
     1
 10
0.0
 20
0.0
 30
0.0
  3
*D5
  1

  0
LINE
  5
2556
330
1A62
100
AcDbEntity
  8
AM_5
100
AcDbLine
 10
196.0606136665738
 20
261.4095927681549
 30
0.0
 11
196.0606136665738
 21
285.6595937681532
 31
0.0
  0
LINE
  5
2557
330
1A62
100
AcDbEntity
  8
AM_5
100
AcDbLine
 10
254.0606136665739
 20
239.109592768155
 30
0.0
 11
254.0606136665739
 21
285.6595937681532
 31
0.0
  0
LINE
  5
2558
330
1A62
100
AcDbEntity
  8
AM_5
100
AcDbLine
 10
201.0606136665739
 20
283.6595937681532
 30
0.0
 11
249.0606136665739
 21
283.6595937681532
 31
0.0
  0
SOLID
  5
2559
330
1A62
100
AcDbEntity
  8
AM_5
100
AcDbTrace
 10
201.0606136665739
 20
284.4929271014865
 30
0.0
 11
201.0606136665739
 21
282.8262604348199
 31
0.0
 12
196.0606136665738
 22
283.6595937681532
 32
0.0
 13
196.0606136665738
 23
283.6595937681532
 33
0.0
  0
SOLID
  5
255A
330
1A62
100
AcDbEntity
  8
AM_5
100
AcDbTrace
 10
249.0606136665739
 20
284.4929271014865
 30
0.0
 11
249.0606136665739
 21
282.8262604348199
 31
0.0
 12
254.0606136665739
 22
283.6595937681532
 32
0.0
 13
254.0606136665739
 23
283.6595937681532
 33
0.0
  0
MTEXT
  5
255B
330
1A62
100
AcDbEntity
  8
AM_5
 62
     2
100
AcDbMText
 10
225.0606136665739
 20
290.1595937681532
 30
0.0
 40
7.0
 41
0.0
 71
     5
 72
     1
  1
58
 73
     1
 44
1.0
1001
ACAD
1000
MTEXTBEGIN
1070
    73
1070
     1
1070
    44
1040
1.0
1070
    74
1070
     0
1000
MTEXTEND
  0
POINT
  5
255C
330
1A62
100
AcDbEntity
  8
Defpoints
 62
     0
100
AcDbPoint
 10
196.0606136665738
 20
259.4095927681549
 30
0.0
  0
POINT
  5
255D
330
1A62
100
AcDbEntity
  8
Defpoints
 62
     0
100
AcDbPoint
 10
254.0606136665739
 20
237.109592768155
 30
0.0
  0
POINT
  5
255E
330
1A62
100
AcDbEntity
  8
Defpoints
 62
     0
100
AcDbPoint
 10
254.0606136665739
 20
283.6595937681532
 30
0.0
  0
ENDBLK
  5
1A6D
330
1A62
100
AcDbEntity
  8
0
100
AcDbBlockEnd
  0
BLOCK
  5
1A78
330
1A6E
100
AcDbEntity
  8
0
100
AcDbBlockBegin
  2
*D6
 70
     1
 10
0.0
 20
0.0
 30
0.0
  3
*D6
  1

  0
LINE
  5
2571
330
1A6E
100
AcDbEntity
  8
AM_5
100
AcDbLine
 10
347.3790232457438
 20
261.6595927681549
 30
0.0
 11
347.3790232457438
 21
285.6595927681526
 31
0.0
  0
LINE
  5
2572
330
1A6E
100
AcDbEntity
  8
AM_5
100
AcDbLine
 10
453.379023245744
 20
261.6595927681546
 30
0.0
 11
453.379023245744
 21
285.6595927681526
 31
0.0
  0
LINE
  5
2573
330
1A6E
100
AcDbEntity
  8
AM_5
100
AcDbLine
 10
352.3790232457439
 20
283.6595927681526
 30
0.0
 11
448.379023245744
 21
283.6595927681526
 31
0.0
  0
SOLID
  5
2574
330
1A6E
100
AcDbEntity
  8
AM_5
100
AcDbTrace
 10
352.3790232457439
 20
284.4929261014859
 30
0.0
 11
352.3790232457439
 21
282.8262594348193
 31
0.0
 12
347.3790232457438
 22
283.6595927681526
 32
0.0
 13
347.3790232457438
 23
283.6595927681526
 33
0.0
  0
SOLID
  5
2575
330
1A6E
100
AcDbEntity
  8
AM_5
100
AcDbTrace
 10
448.379023245744
 20
284.4929261014859
 30
0.0
 11
448.379023245744
 21
282.8262594348193
 31
0.0
 12
453.379023245744
 22
283.6595927681526
 32
0.0
 13
453.379023245744
 23
283.6595927681526
 33
0.0
  0
MTEXT
  5
2576
330
1A6E
100
AcDbEntity
  8
AM_5
 62
     2
100
AcDbMText
 10
400.3790232457439
 20
290.1595927681526
 30
0.0
 40
7.0
 41
0.0
 71
     5
 72
     1
  1
106
 73
     1
 44
1.0
1001
ACAD
1000
MTEXTBEGIN
1070
    73
1070
     1
1070
    44
1040
1.0
1070
    74
1070
     0
1000
MTEXTEND
  0
POINT
  5
2577
330
1A6E
100
AcDbEntity
  8
Defpoints
 62
     0
100
AcDbPoint
 10
347.3790232457438
 20
259.6595927681549
 30
0.0
  0
POINT
  5
2578
330
1A6E
100
AcDbEntity
  8
Defpoints
 62
     0
100
AcDbPoint
 10
453.379023245744
 20
259.6595927681546
 30
0.0
  0
POINT
  5
2579
330
1A6E
100
AcDbEntity
  8
Defpoints
 62
     0
100
AcDbPoint
 10
453.379023245744
 20
283.6595927681526
 30
0.0
  0
ENDBLK
  5
1A79
330
1A6E
100
AcDbEntity
  8
0
100
AcDbBlockEnd
  0
BLOCK
  5
1A84
330
1A7A
100
AcDbEntity
  8
0
100
AcDbBlockBegin
  2
*D7
 70
     1
 10
0.0
 20
0.0
 30
0.0
  3
*D7
  1

  0
LINE
  5
255F
330
1A7A
100
AcDbEntity
  8
AM_5
100
AcDbLine
 10
194.0606136665741
 20
169.8095927681548
 30
0.0
 11
169.3106098543885
 21
169.8095927681548
 31
0.0
  0
LINE
  5
2560
330
1A7A
100
AcDbEntity
  8
AM_5
100
AcDbLine
 10
194.060613666574
 20
259.4095927681548
 30
0.0
 11
169.3106098543885
 21
259.4095927681548
 31
0.0
  0
LINE
  5
2561
330
1A7A
100
AcDbEntity
  8
AM_5
100
AcDbLine
 10
171.3106098543885
 20
174.8095927681548
 30
0.0
 11
171.3106098543885
 21
254.4095927681548
 31
0.0
  0
SOLID
  5
2562
330
1A7A
100
AcDbEntity
  8
AM_5
100
AcDbTrace
 10
170.4772765210551
 20
174.8095927681548
 30
0.0
 11
172.1439431877218
 21
174.8095927681548
 31
0.0
 12
171.3106098543885
 22
169.8095927681548
 32
0.0
 13
171.3106098543885
 23
169.8095927681548
 33
0.0
  0
SOLID
  5
2563
330
1A7A
100
AcDbEntity
  8
AM_5
100
AcDbTrace
 10
170.4772765210552
 20
254.4095927681548
 30
0.0
 11
172.1439431877219
 21
254.4095927681548
 31
0.0
 12
171.3106098543885
 22
259.4095927681548
 32
0.0
 13
171.3106098543885
 23
259.4095927681548
 33
0.0
  0
MTEXT
  5
2564
330
1A7A
100
AcDbEntity
  8
AM_5
 62
     2
100
AcDbMText
 10
164.8106098543884
 20
214.6095927681549
 30
0.0
 40
7.0
 41
0.0
 71
     5
 72
     1
  1
89.6
 11
0.0000000000000001
 21
1.0
 31
0.0
 73
     1
 44
1.0
1001
ACAD
1000
MTEXTBEGIN
1070
    73
1070
     1
1070
    44
1040
1.0
1070
    74
1070
     0
1000
MTEXTEND
  0
POINT
  5
2565
330
1A7A
100
AcDbEntity
  8
Defpoints
 62
     0
100
AcDbPoint
 10
196.0606136665741
 20
169.8095927681548
 30
0.0
  0
POINT
  5
2566
330
1A7A
100
AcDbEntity
  8
Defpoints
 62
     0
100
AcDbPoint
 10
196.060613666574
 20
259.4095927681548
 30
0.0
  0
POINT
  5
2567
330
1A7A
100
AcDbEntity
  8
Defpoints
 62
     0
100
AcDbPoint
 10
171.3106098543885
 20
259.4095927681548
 30
0.0
  0
ENDBLK
  5
1A85
330
1A7A
100
AcDbEntity
  8
0
100
AcDbBlockEnd
  0
BLOCK
  5
1AE7
330
1ADE
100
AcDbEntity
  8
0
100
AcDbBlockBegin
  2
TK-A3
 70
     0
 10
0.0
 20
0.0
 30
0.0
  3
TK-A3
  1

  0
LINE
  5
1ADF
330
1ADE
100
AcDbEntity
  8
0
100
AcDbLine
 10
359.0
 20
280.0
 30
0.0
 11
359.0
 21
275.0
 31
0.0
  0
MTEXT
  5
1AE0
330
1ADE
100
AcDbEntity
  8
0
100
AcDbMText
 10
402.3592953827349
 20
276.108542987227
 30
0.0
 40
2.5
 41
43.07840397728298
 71
     9
 72
     5
  1
(文書番号：TY-34)2008.02.08
 73
     1
 44
1.0
1001
ACAD
1000
MTEXTBEGIN
1070
    73
1070
     1
1070
    44
1040
1.0
1070
    74
1070
     0
1000
MTEXTEND
  0
LINE
  5
1AE1
330
1ADE
100
AcDbEntity
  8
0
100
AcDbLine
 10
359.0
 20
275.0
 30
0.0
 11
403.0
 21
275.0
 31
0.0
  0
TEXT
  5
1AE2
330
1ADE
100
AcDbEntity
  8
0
 60
     1
100
AcDbText
 10
403.0
 20
0.0
 30
0.0
 40
2.5
  1
!GENTITLE-INSERT
100
AcDbText
  0
TEXT
  5
1AE3
330
1ADE
100
AcDbEntity
  8
0
 60
     1
100
AcDbText
 10
0.0
 20
0.0
 30
0.0
 40
2.5
  1
!GENTITLE-LL
100
AcDbText
  0
TEXT
  5
1AE4
330
1ADE
100
AcDbEntity
  8
0
 60
     1
100
AcDbText
 10
403.0
 20
280.0
 30
0.0
 40
2.5
  1
!GENTITLE-MAX
100
AcDbText
  0
LWPOLYLINE
  5
1AE5
330
1ADE
100
AcDbEntity
  8
0
100
AcDbPolyline
 90
        4
 70
     1
 43
0.0
 10
0.0
 20
0.0
 10
403.0
 20
0.0
 10
403.0
 20
280.0
 10
0.0
 20
280.0000000000001
1001
GENIUS_GENREC_14
1002
{
1000
PYDIR
1011
0.0000000000000178
1021
280.0
1031
0.0
1002
}
1002
{
1000
PXDIR
1011
403.0
1021
0.0
1031
0.0
1002
}
1002
{
1000
PORI
1011
0.0
1021
0.0
1031
0.0
1002
}
1002
{
1000
PINS
1011
0.0
1021
0.0
1031
0.0
1002
}
1002
{
1000
PINS2
1011
403.0
1021
280.0
1031
0.0
1002
}
1002
{
1000
C
1070
     1
1002
}
1001
GENIUS_GENODEF_13
1002
{
1000
HIER
1070
     0
1002
}
1002
{
1000
MANEDIT
1070
     0
1002
}
1002
{
1000
NOSEL
1070
     0
1002
}
1002
{
1000
BEHIND
1070
     0
1002
}
1002
{
1000
OTHER
1070
     0
1002
}
1002
{
1000
REACTOR
1002
}
1001
GENIUS_GENOBJ-N-REC_13
1002
{
1000
OWNER
1000
GEN
1002
}
  0
ENDBLK
  5
1AE8
330
1ADE
100
AcDbEntity
  8
0
100
AcDbBlockEnd
  0
BLOCK
  5
1B46
330
1AEC
100
AcDbEntity
  8
0
100
AcDbBlockBegin
  2
TK-TITLE
 70
     2
 10
0.0
 20
0.0
 30
0.0
  3
TK-TITLE
  1

  0
LINE
  5
1AED
330
1AEC
100
AcDbEntity
  8
0
100
AcDbLine
 10
-167.0
 20
12.49999999999996
 30
0.0
 11
-193.0000000000001
 21
12.49999999999996
 31
0.0
  0
LINE
  5
1AEE
330
1AEC
100
AcDbEntity
  8
0
100
AcDbLine
 10
-167.0
 20
37.49999999999998
 30
0.0
 11
-193.0000000000001
 21
37.49999999999998
 31
0.0
  0
ATTDEF
  5
1AEF
330
1AEC
100
AcDbEntity
  8
0
100
AcDbText
 10
-180.2171951662138
 20
3.588342537610664
 30
0.0
 40
3.0
  1

 72
     1
 11
-180.2171951662138
 21
3.588342537610664
 31
0.0
100
AcDbAttributeDefinition
  3
日付
  2
GEN-TITLE-DAT
 70
     0
 74
     1
  0
MTEXT
  5
1AF0
330
1AEC
100
AcDbEntity
  8
RAHM2
100
AcDbMText
 10
-191.8002551371315
 20
11.3010354072796
 30
0.0
 40
2.5
 41
60.0
 71
     1
 72
     5
  1
日付
 73
     1
 44
1.0
1001
ACAD
1000
MTEXTBEGIN
1070
    73
1070
     1
1070
    44
1040
1.0
1070
    74
1070
     0
1000
MTEXTEND
  0
ATTDEF
  5
1AF1
330
1AEC
100
AcDbEntity
  8
0
100
AcDbText
 10
-177.824739614424
 20
28.29999999999998
 30
0.0
 40
3.0
  1

 72
     2
 11
-177.824739614424
 21
28.29999999999998
 31
0.0
100
AcDbAttributeDefinition
  3
尺度
  2
GEN-TITLE-SCA
 70
     0
 74
     1
  0
MTEXT
  5
1AF2
330
1AEC
100
AcDbEntity
  8
RAHM2
100
AcDbMText
 10
-191.8002551371315
 20
36.30103540727966
 30
0.0
 40
2.5
 41
20.0
 71
     1
 72
     5
  1
尺度
 73
     1
 44
1.0
1001
ACAD
1000
MTEXTBEGIN
1070
    73
1070
     1
1070
    44
1040
1.0
1070
    74
1070
     0
1000
MTEXTEND
  0
MTEXT
  5
1AF3
330
1AEC
100
AcDbEntity
  8
RAHM2
100
AcDbMText
 10
-191.8002551371315
 20
23.80103540727963
 30
0.0
 40
2.5
 41
20.0
 71
     1
 72
     5
  1
数量
 73
     1
 44
1.0
1001
ACAD
1000
MTEXTBEGIN
1070
    73
1070
     1
1070
    44
1040
1.0
1070
    74
1070
     0
1000
MTEXTEND
  0
ATTDEF
  5
1AF4
330
1AEC
100
AcDbEntity
  8
0
100
AcDbText
 10
-175.6127409126095
 20
15.79999999999994
 30
0.0
 40
3.0
  1

 72
     2
 11
-175.6127409126095
 21
15.79999999999994
 31
0.0
100
AcDbAttributeDefinition
  3
数量
  2
GEN-TITLE-QTY
 70
     0
 74
     1
  0
LINE
  5
1AF5
330
1AEC
100
AcDbEntity
  8
0
100
AcDbLine
 10
-193.0000000000001
 20
49.99999999999999
 30
0.0
 11
-193.0000000000001
 21
-0.0000000000000142
 31
0.0
  0
LINE
  5
1AF6
330
1AEC
100
AcDbEntity
  8
7A
100
AcDbLine
 10
-184.7167418745796
 20
43.74999999999995
 30
0.0
 11
-170.9354334742943
 21
43.74999999999995
 31
0.0
1001
GENIUS_GENOREF_13
1005
1B44
  0
LINE
  5
1AF7
330
1AEC
100
AcDbEntity
  8
0
100
AcDbLine
 10
-179.7167418745796
 20
45.74999999999994
 30
0.0
 11
-171.7167418745796
 21
46.74999999999995
 31
0.0
  0
LINE
  5
1AF8
330
1AEC
100
AcDbEntity
  8
0
100
AcDbLine
 10
-171.7167418745796
 20
40.74999999999994
 30
0.0
 11
-179.7167418745796
 21
41.74999999999995
 31
0.0
  0
LINE
  5
1AF9
330
1AEC
100
AcDbEntity
  8
7A
100
AcDbLine
 10
-184.7167418745796
 20
43.74999999999995
 30
0.0
 11
-184.7167418745796
 21
47.32478664473144
 31
0.0
1001
GENIUS_GENOREF_13
1005
1B44
  0
CIRCLE
  5
1AFA
330
1AEC
100
AcDbEntity
  8
0
100
AcDbCircle
 10
-184.7167418745796
 20
43.74999999999995
 30
0.0
 40
2.0
  0
CIRCLE
  5
1AFB
330
1AEC
100
AcDbEntity
  8
0
100
AcDbCircle
 10
-184.7167418745796
 20
43.74999999999995
 30
0.0
 40
3.0
  0
LINE
  5
1AFC
330
1AEC
100
AcDbEntity
  8
0
100
AcDbLine
 10
-179.7167418745796
 20
41.74999999999995
 30
0.0
 11
-179.7167418745796
 21
45.74999999999994
 31
0.0
  0
LINE
  5
1AFD
330
1AEC
100
AcDbEntity
  8
7A
100
AcDbLine
 10
-184.7167418745796
 20
43.74999999999995
 30
0.0
 11
-188.4397792458307
 21
43.74999999999995
 31
0.0
1001
GENIUS_GENOREF_13
1005
1B44
  0
LINE
  5
1AFE
330
1AEC
100
AcDbEntity
  8
7A
100
AcDbLine
 10
-184.7167418745796
 20
43.74999999999995
 30
0.0
 11
-184.7167418745796
 21
40.03991724228473
 31
0.0
1001
GENIUS_GENOREF_13
1005
1B44
  0
LINE
  5
1AFF
330
1AEC
100
AcDbEntity
  8
0
100
AcDbLine
 10
-171.7167418745796
 20
46.74999999999995
 30
0.0
 11
-171.7167418745796
 21
40.74999999999994
 31
0.0
  0
LINE
  5
1B00
330
1AEC
100
AcDbEntity
  8
0
100
AcDbLine
 10
-167.0
 20
24.99999999999997
 30
0.0
 11
-193.0000000000001
 21
24.99999999999997
 31
0.0
  0
LINE
  5
1B01
330
1AEC
100
AcDbEntity
  8
0
100
AcDbLine
 10
-167.0
 20
39.99999999999991
 30
0.0
 11
-96.0
 21
39.99999999999992
 31
0.0
  0
MTEXT
  5
1B02
330
1AEC
100
AcDbEntity
  8
RAHM2
100
AcDbMText
 10
-165.8002551371314
 20
38.80103540727956
 30
0.0
 40
2.5
 41
60.0
 71
     1
 72
     5
  1
表面処理
 73
     1
 44
1.0
1001
ACAD
1000
MTEXTBEGIN
1070
    73
1070
     1
1070
    44
1040
1.0
1070
    74
1070
     0
1000
MTEXTEND
  0
MTEXT
  5
1B03
330
1AEC
100
AcDbEntity
  8
RAHM2
100
AcDbMText
 10
-165.8002551371314
 20
48.80103540727955
 30
0.0
 40
2.5
 41
60.0
 71
     1
 72
     5
  1
材質
 73
     1
 44
1.0
1001
ACAD
1000
MTEXTBEGIN
1070
    73
1070
     1
1070
    44
1040
1.0
1070
    74
1070
     0
1000
MTEXTEND
  0
ATTDEF
  5
1B04
330
1AEC
100
AcDbEntity
  8
0
100
AcDbText
 10
-148.9618675835291
 20
33.29999999999991
 30
0.0
 40
3.0
  1

100
AcDbAttributeDefinition
  3
表面処理
  2
GEN-TITLE-MAT2
 70
     0
  0
ATTDEF
  5
1B05
330
1AEC
100
AcDbEntity
  8
0
100
AcDbText
 10
-148.9618675835291
 20
43.29999999999991
 30
0.0
 40
3.0
  1

100
AcDbAttributeDefinition
  3
材質
  2
GEN-TITLE-MAT1
 70
     0
  0
MTEXT
  5
1B06
330
1AEC
100
AcDbEntity
  8
0
100
AcDbMText
 10
-131.5000000000001
 20
24.99999999999992
 30
0.0
 40
3.5
 41
60.0
 71
     5
 72
     5
  1
\fＭＳ ゴシック|b0|i0|c128|p49;株式会社タカチ電機工業
 73
     1
 44
1.0
1001
ACAD
1000
MTEXTBEGIN
1070
    73
1070
     1
1070
    44
1040
1.0
1070
    74
1070
     0
1000
MTEXTEND
  0
LINE
  5
1B07
330
1AEC
100
AcDbEntity
  8
0
100
AcDbLine
 10
-167.0
 20
29.99999999999992
 30
0.0
 11
-96.0
 21
29.99999999999992
 31
0.0
  0
MTEXT
  5
1B08
330
1AEC
100
AcDbEntity
  8
RAHM2
100
AcDbMText
 10
-158.1250000000001
 20
18.80103540727956
 30
0.0
 40
2.5
 41
17.0
 71
     2
 72
     5
  1
承認
 73
     1
 44
1.0
1001
ACAD
1000
MTEXTBEGIN
1070
    73
1070
     1
1070
    44
1040
1.0
1070
    74
1070
     0
1000
MTEXTEND
  0
MTEXT
  5
1B09
330
1AEC
100
AcDbEntity
  8
RAHM2
100
AcDbMText
 10
-140.3750000000001
 20
18.80103540727958
 30
0.0
 40
2.5
 41
17.0
 71
     2
 72
     5
  1
承認
 73
     1
 44
1.0
1001
ACAD
1000
MTEXTBEGIN
1070
    73
1070
     1
1070
    44
1040
1.0
1070
    74
1070
     0
1000
MTEXTEND
  0
LINE
  5
1B0A
330
1AEC
100
AcDbEntity
  8
0
100
AcDbLine
 10
-149.2500000000001
 20
19.99999999999993
 30
0.0
 11
-149.2500000000001
 21
-0.0000000000000462
 31
0.0
  0
LINE
  5
1B0B
330
1AEC
100
AcDbEntity
  8
0
100
AcDbLine
 10
-167.0
 20
49.99999999999995
 30
0.0
 11
-167.0
 21
-0.0000000000000497
 31
0.0
  0
MTEXT
  5
1B0C
330
1AEC
100
AcDbEntity
  8
RAHM2
100
AcDbMText
 10
-122.6250000000001
 20
18.80103540727958
 30
0.0
 40
2.5
 41
17.0
 71
     2
 72
     5
  1
検図
 73
     1
 44
1.0
1001
ACAD
1000
MTEXTBEGIN
1070
    73
1070
     1
1070
    44
1040
1.0
1070
    74
1070
     0
1000
MTEXTEND
  0
LINE
  5
1B0D
330
1AEC
100
AcDbEntity
  8
0
100
AcDbLine
 10
-131.5000000000001
 20
19.99999999999993
 30
0.0
 11
-131.5000000000001
 21
-0.0000000000000533
 31
0.0
  0
LINE
  5
1B0E
330
1AEC
100
AcDbEntity
  8
0
100
AcDbLine
 10
-113.75
 20
19.99999999999993
 30
0.0
 11
-113.75
 21
-0.0000000000000533
 31
0.0
  0
LINE
  5
1B0F
330
1AEC
100
AcDbEntity
  8
0
100
AcDbLine
 10
-167.0
 20
19.99999999999993
 30
0.0
 11
-96.0
 21
19.99999999999993
 31
0.0
  0
MTEXT
  5
1B10
330
1AEC
100
AcDbEntity
  8
RAHM2
100
AcDbMText
 10
-104.875
 20
18.80103540727957
 30
0.0
 40
2.5
 41
17.0
 71
     2
 72
     5
  1
製図
 73
     1
 44
1.0
1001
ACAD
1000
MTEXTBEGIN
1070
    73
1070
     1
1070
    44
1040
1.0
1070
    74
1070
     0
1000
MTEXTEND
  0
MTEXT
  5
1B11
330
1AEC
100
AcDbEntity
  8
RAHM2
100
AcDbMText
 10
-16.85742592933491
 20
3.434762466565985
 30
0.0
 40
2.5
 41
7.936478436748416
 71
     5
 72
     5
  1
Rev.
 73
     1
 44
1.0
1001
ACAD
1000
MTEXTBEGIN
1070
    73
1070
     1
1070
    44
1040
1.0
1070
    74
1070
     0
1000
MTEXTEND
  0
LINE
  5
1B12
330
1AEC
100
AcDbEntity
  8
0
100
AcDbLine
 10
-21.17541926625711
 20
0.0
 30
0.0
 11
-21.17541926625734
 21
7.0
 31
0.0
  0
LINE
  5
1B13
330
1AEC
100
AcDbEntity
  8
RAHM2
100
AcDbLine
 10
-96.0
 20
29.99999999999992
 30
0.0
 11
0.0000000000001137
 21
30.00000000000003
 31
0.0
  0
LINE
  5
1B14
330
1AEC
100
AcDbEntity
  8
RAHM2
100
AcDbLine
 10
-96.0
 20
35.00000000000003
 30
0.0
 11
0.0000000000001137
 21
35.00000000000003
 31
0.0
  0
LINE
  5
1B15
330
1AEC
100
AcDbEntity
  8
RAHM2
100
AcDbLine
 10
-96.0
 20
39.99999999999993
 30
0.0
 11
0.0000000000001137
 21
40.00000000000002
 31
0.0
  0
LINE
  5
1B16
330
1AEC
100
AcDbEntity
  8
RAHM2
100
AcDbLine
 10
-96.0
 20
45.00000000000002
 30
0.0
 11
0.0000000000001137
 21
45.00000000000002
 31
0.0
  0
LINE
  5
1B17
330
1AEC
100
AcDbEntity
  8
0
100
AcDbLine
 10
-96.0
 20
7.0
 30
0.0
 11
0.0000000000001137
 21
7.0
 31
0.0
  0
LINE
  5
1B18
330
1AEC
100
AcDbEntity
  8
0
100
AcDbLine
 10
-96.0
 20
19.99999999999997
 30
0.0
 11
0.0000000000001137
 21
19.99999999999997
 31
0.0
  0
MTEXT
  5
1B19
330
1AEC
100
AcDbEntity
  8
RAHM2
100
AcDbMText
 10
-94.80025513713144
 20
5.801035407279627
 30
0.0
 40
2.5
 41
90.0
 71
     1
 72
     5
  1
図番
 73
     1
 44
1.0
1001
ACAD
1000
MTEXTBEGIN
1070
    73
1070
     1
1070
    44
1040
1.0
1070
    74
1070
     0
1000
MTEXTEND
  0
LINE
  5
1B1A
330
1AEC
100
AcDbEntity
  8
RAHM2
100
AcDbLine
 10
-88.57512886940355
 20
30.40000000000002
 30
0.0
 11
-91.0
 21
34.60000000000001
 31
0.0
  0
LINE
  5
1B1B
330
1AEC
100
AcDbEntity
  8
RAHM2
100
AcDbLine
 10
-91.0
 20
34.60000000000001
 30
0.0
 11
-93.42487113059645
 21
30.40000000000002
 31
0.0
  0
LINE
  5
1B1C
330
1AEC
100
AcDbEntity
  8
RAHM2
100
AcDbLine
 10
-86.0
 20
50.00000000000001
 30
0.0
 11
-86.0
 21
19.99999999999993
 31
0.0
  0
LINE
  5
1B1D
330
1AEC
100
AcDbEntity
  8
RAHM2
100
AcDbLine
 10
-93.42487113059645
 20
30.40000000000002
 30
0.0
 11
-88.57512886940355
 21
30.40000000000002
 31
0.0
  0
MTEXT
  5
1B1E
330
1AEC
100
AcDbEntity
  8
RAHM2
100
AcDbMText
 10
-91.0
 20
22.49999999999996
 30
0.0
 40
2.5
 41
10.0
 71
     5
 72
     5
  1
符号
 73
     1
 44
1.0
1001
ACAD
1000
MTEXTBEGIN
1070
    73
1070
     1
1070
    44
1040
1.0
1070
    74
1070
     0
1000
MTEXTEND
  0
MTEXT
  5
1B1F
330
1AEC
100
AcDbEntity
  8
RAHM2
100
AcDbMText
 10
-94.80025513713144
 20
18.8010354072796
 30
0.0
 40
2.5
 41
90.0
 71
     1
 72
     5
  1
品名
 73
     1
 44
1.0
1001
ACAD
1000
MTEXTBEGIN
1070
    73
1070
     1
1070
    44
1040
1.0
1070
    74
1070
     0
1000
MTEXTEND
  0
LINE
  5
1B20
330
1AEC
100
AcDbEntity
  8
RAHM2
100
AcDbLine
 10
-93.42487113059645
 20
45.40000000000001
 30
0.0
 11
-88.57512886940355
 21
45.40000000000001
 31
0.0
  0
LINE
  5
1B21
330
1AEC
100
AcDbEntity
  8
RAHM2
100
AcDbLine
 10
-88.57512886940355
 20
45.40000000000001
 30
0.0
 11
-91.0
 21
49.6
 31
0.0
  0
LINE
  5
1B22
330
1AEC
100
AcDbEntity
  8
RAHM2
100
AcDbLine
 10
-93.42487113059645
 20
40.40000000000001
 30
0.0
 11
-88.57512886940355
 21
40.40000000000001
 31
0.0
  0
LINE
  5
1B23
330
1AEC
100
AcDbEntity
  8
RAHM2
100
AcDbLine
 10
-88.57512886940355
 20
40.40000000000001
 30
0.0
 11
-91.0
 21
44.6
 31
0.0
  0
LINE
  5
1B24
330
1AEC
100
AcDbEntity
  8
RAHM2
100
AcDbLine
 10
-93.42487113059645
 20
35.40000000000002
 30
0.0
 11
-88.57512886940355
 21
35.40000000000002
 31
0.0
  0
LINE
  5
1B25
330
1AEC
100
AcDbEntity
  8
RAHM2
100
AcDbLine
 10
-88.57512886940355
 20
35.40000000000002
 30
0.0
 11
-91.0
 21
39.60000000000001
 31
0.0
  0
LINE
  5
1B26
330
1AEC
100
AcDbEntity
  8
RAHM2
100
AcDbLine
 10
-91.0
 20
39.60000000000001
 30
0.0
 11
-93.42487113059645
 21
35.40000000000002
 31
0.0
  0
LINE
  5
1B27
330
1AEC
100
AcDbEntity
  8
RAHM2
100
AcDbLine
 10
-91.0
 20
44.6
 30
0.0
 11
-93.42487113059645
 21
40.40000000000001
 31
0.0
  0
LINE
  5
1B28
330
1AEC
100
AcDbEntity
  8
RAHM2
100
AcDbLine
 10
-91.0
 20
49.6
 30
0.0
 11
-93.42487113059645
 21
45.40000000000001
 31
0.0
  0
LINE
  5
1B29
330
1AEC
100
AcDbEntity
  8
RAHM2
100
AcDbLine
 10
-31.82081941068907
 20
50.00000000000003
 30
0.0
 11
-31.82081941068918
 21
19.99999999999994
 31
0.0
  0
MTEXT
  5
1B2A
330
1AEC
100
AcDbEntity
  8
RAHM2
100
AcDbMText
 10
-59.0
 20
22.49999999999996
 30
0.0
 40
2.5
 41
45.0
 71
     5
 72
     5
  1
変更記事
 73
     1
 44
1.0
1001
ACAD
1000
MTEXTBEGIN
1070
    73
1070
     1
1070
    44
1040
1.0
1070
    74
1070
     0
1000
MTEXTEND
  0
LINE
  5
1B2B
330
1AEC
100
AcDbEntity
  8
RAHM2
100
AcDbLine
 10
-11.82081941068907
 20
50.00000000000003
 30
0.0
 11
-11.82081941068907
 21
19.99999999999994
 31
0.0
  0
MTEXT
  5
1B2C
330
1AEC
100
AcDbEntity
  8
RAHM2
100
AcDbMText
 10
-22.27910888308327
 20
32.50000000000003
 30
0.0
 40
2.5
 41
20.0
 71
     5
 72
     5
  1
・  ・   
 73
     1
 44
1.0
1001
ACAD
1000
MTEXTBEGIN
1070
    73
1070
     1
1070
    44
1040
1.0
1070
    74
1070
     0
1000
MTEXTEND
  0
MTEXT
  5
1B2D
330
1AEC
100
AcDbEntity
  8
RAHM2
100
AcDbMText
 10
-21.55893921569111
 20
22.49999999999997
 30
0.0
 40
2.5
 41
20.0
 71
     5
 72
     5
  1
年・月・日
 73
     1
 44
1.0
1001
ACAD
1000
MTEXTBEGIN
1070
    73
1070
     1
1070
    44
1040
1.0
1070
    74
1070
     0
1000
MTEXTEND
  0
MTEXT
  5
1B2E
330
1AEC
100
AcDbEntity
  8
RAHM2
100
AcDbMText
 10
-5.910409705344477
 20
22.49999999999997
 30
0.0
 40
2.5
 41
15.0
 71
     5
 72
     5
  1
担当
 73
     1
 44
1.0
1001
ACAD
1000
MTEXTBEGIN
1070
    73
1070
     1
1070
    44
1040
1.0
1070
    74
1070
     0
1000
MTEXTEND
  0
MTEXT
  5
1B2F
330
1AEC
100
AcDbEntity
  8
RAHM2
100
AcDbMText
 10
-22.27910888308327
 20
42.50000000000002
 30
0.0
 40
2.5
 41
20.0
 71
     5
 72
     5
  1
・  ・   
 73
     1
 44
1.0
1001
ACAD
1000
MTEXTBEGIN
1070
    73
1070
     1
1070
    44
1040
1.0
1070
    74
1070
     0
1000
MTEXTEND
  0
MTEXT
  5
1B30
330
1AEC
100
AcDbEntity
  8
RAHM2
100
AcDbMText
 10
-22.27910888308327
 20
37.50000000000003
 30
0.0
 40
2.5
 41
20.0
 71
     5
 72
     5
  1
・  ・   
 73
     1
 44
1.0
1001
ACAD
1000
MTEXTBEGIN
1070
    73
1070
     1
1070
    44
1040
1.0
1070
    74
1070
     0
1000
MTEXTEND
  0
MTEXT
  5
1B31
330
1AEC
100
AcDbEntity
  8
RAHM2
100
AcDbMText
 10
-22.27910888308327
 20
47.50000000000002
 30
0.0
 40
2.5
 41
20.0
 71
     5
 72
     5
  1
・  ・   
 73
     1
 44
1.0
1001
ACAD
1000
MTEXTBEGIN
1070
    73
1070
     1
1070
    44
1040
1.0
1070
    74
1070
     0
1000
MTEXTEND
  0
LINE
  5
1B32
330
1AEC
100
AcDbEntity
  8
RAHM2
100
AcDbLine
 10
-91.0
 20
29.60000000000001
 30
0.0
 11
-93.42487113059645
 21
25.40000000000002
 31
0.0
  0
LINE
  5
1B33
330
1AEC
100
AcDbEntity
  8
RAHM2
100
AcDbLine
 10
-88.57512886940355
 20
25.40000000000002
 30
0.0
 11
-91.0
 21
29.60000000000001
 31
0.0
  0
LINE
  5
1B34
330
1AEC
100
AcDbEntity
  8
RAHM2
100
AcDbLine
 10
-93.42487113059645
 20
25.40000000000002
 30
0.0
 11
-88.57512886940355
 21
25.40000000000002
 31
0.0
  0
LINE
  5
1B35
330
1AEC
100
AcDbEntity
  8
RAHM2
100
AcDbLine
 10
-96.0
 20
25.0
 30
0.0
 11
0.0000000000001137
 21
25.00000000000003
 31
0.0
  0
MTEXT
  5
1B36
330
1AEC
100
AcDbEntity
  8
RAHM2
100
AcDbMText
 10
-22.27910888308327
 20
27.50000000000003
 30
0.0
 40
2.5
 41
20.0
 71
     5
 72
     5
  1
・  ・   
 73
     1
 44
1.0
1001
ACAD
1000
MTEXTBEGIN
1070
    73
1070
     1
1070
    44
1040
1.0
1070
    74
1070
     0
1000
MTEXTEND
  0
TEXT
  5
1B37
330
1AEC
100
AcDbEntity
  8
RAHM2
100
AcDbText
 10
-91.81558635658019
 20
25.65000000000002
 30
0.0
 40
2.5
  1
1
 72
     1
 11
-91.19058635658019
 21
25.65000000000002
 31
0.0
100
AcDbText
 73
     1
  0
TEXT
  5
1B38
330
1AEC
100
AcDbEntity
  8
RAHM2
100
AcDbText
 10
-91.91833169291339
 20
30.65000000000002
 30
0.0
 40
2.5
  1
2
 72
     1
 11
-91.0
 21
30.65000000000002
 31
0.0
100
AcDbText
 73
     1
  0
TEXT
  5
1B39
330
1AEC
100
AcDbEntity
  8
RAHM2
100
AcDbText
 10
-91.92677669529663
 20
35.64999999999999
 30
0.0
 40
2.5
  1
3
 72
     1
 11
-91.0
 21
35.64999999999999
 31
0.0
100
AcDbText
 73
     1
  0
TEXT
  5
1B3A
330
1AEC
100
AcDbEntity
  8
RAHM2
100
AcDbText
 10
-92.0
 20
40.65000000000002
 30
0.0
 40
2.5
  1
4
 72
     1
 11
-91.0
 21
40.65000000000002
 31
0.0
100
AcDbText
 73
     1
  0
TEXT
  5
1B3B
330
1AEC
100
AcDbEntity
  8
RAHM2
100
AcDbText
 10
-91.92677669529663
 20
45.65000000000002
 30
0.0
 40
2.5
  1
5
 72
     1
 11
-91.0
 21
45.65000000000002
 31
0.0
100
AcDbText
 73
     1
  0
LINE
  5
1B3C
330
1AEC
100
AcDbEntity
  8
0
100
AcDbLine
 10
-193.0000000000001
 20
0.0
 30
0.0
 11
0.0
 21
0.0
 31
0.0
1001
GENIUS_GENREC_14
1002
{
1000
PYDIR
1011
-184.0
1021
50.0
1031
0.0
1002
}
1002
{
1000
PXDIR
1011
0.0
1021
0.0
1031
0.0
1002
}
1002
{
1000
PORI
1011
-184.0
1021
0.0
1031
0.0
1002
}
1002
{
1000
PINS
1011
-100.5
1021
25.0
1031
0.0
1002
}
1002
{
1000
HVAL
1000
50
1002
}
1002
{
1000
H
1070
     2
1002
}
1002
{
1000
WVAL
1000
167
1002
}
1002
{
1000
W
1070
     2
1002
}
1002
{
1000
C
1070
     4
1002
}
1001
GENIUS_GENODEF_13
1002
{
1000
HIER
1070
     0
1002
}
1002
{
1000
MANEDIT
1070
     0
1002
}
1002
{
1000
NOSEL
1070
     0
1002
}
1002
{
1000
BEHIND
1070
     0
1002
}
1002
{
1000
REACTOR
1002
}
1001
GENIUS_GENOBJ-N-REC_13
1002
{
1000
OWNER
1000
GEN
1002
}
  0
LINE
  5
1B3D
330
1AEC
100
AcDbEntity
  8
0
100
AcDbLine
 10
0.0
 20
50.0
 30
0.0
 11
-193.0000000000001
 21
50.00000000000002
 31
0.0
1001
GENIUS_GENREC_14
1002
{
1000
PYDIR
1011
-184.0
1021
50.0
1031
0.0
1002
}
1002
{
1000
PXDIR
1011
0.0
1021
0.0
1031
0.0
1002
}
1002
{
1000
PORI
1011
-184.0
1021
0.0
1031
0.0
1002
}
1002
{
1000
PINS
1011
-100.5
1021
25.0
1031
0.0
1002
}
1002
{
1000
HVAL
1000
50
1002
}
1002
{
1000
H
1070
     2
1002
}
1002
{
1000
WVAL
1000
167
1002
}
1002
{
1000
W
1070
     2
1002
}
1002
{
1000
C
1070
     4
1002
}
1001
GENIUS_GENODEF_13
1002
{
1000
HIER
1070
     0
1002
}
1002
{
1000
MANEDIT
1070
     0
1002
}
1002
{
1000
NOSEL
1070
     0
1002
}
1002
{
1000
BEHIND
1070
     0
1002
}
1002
{
1000
REACTOR
1002
}
1001
GENIUS_GENOBJ-N-REC_13
1002
{
1000
OWNER
1000
GEN
1002
}
  0
LINE
  5
1B3E
330
1AEC
100
AcDbEntity
  8
0
100
AcDbLine
 10
-96.0
 20
50.00000000000001
 30
0.0
 11
-96.0
 21
-0.0000000000000142
 31
0.0
1001
GENIUS_GENREC_14
1002
{
1000
PYDIR
1011
-96.0
1021
49.99999999999999
1031
0.0
1002
}
1002
{
1000
PXDIR
1011
88.0
1021
-0.0000000000000142
1031
0.0
1002
}
1002
{
1000
PORI
1011
-96.0
1021
-0.0000000000000142
1031
0.0
1002
}
1002
{
1000
PINS
1011
-12.5
1021
24.99999999999999
1031
0.0
1002
}
1002
{
1000
HVAL
1000
50
1002
}
1002
{
1000
H
1070
     2
1002
}
1002
{
1000
WVAL
1000
167
1002
}
1002
{
1000
W
1070
     2
1002
}
1002
{
1000
C
1070
     4
1002
}
1001
GENIUS_GENODEF_13
1002
{
1000
HIER
1070
     0
1002
}
1002
{
1000
MANEDIT
1070
     0
1002
}
1002
{
1000
NOSEL
1070
     0
1002
}
1002
{
1000
BEHIND
1070
     0
1002
}
1002
{
1000
REACTOR
1002
}
1001
GENIUS_GENOBJ-N-REC_13
1002
{
1000
OWNER
1000
GEN
1002
}
  0
ATTDEF
  5
1B3F
330
1AEC
100
AcDbEntity
  8
0
100
AcDbText
 10
-84.0
 20
1.999999999999957
 30
0.0
 40
3.0
  1

100
AcDbAttributeDefinition
  3
図番
  2
GEN-TITLE-NR1
 70
     0
  0
ATTDEF
  5
1B40
330
1AEC
100
AcDbEntity
  8
0
100
AcDbText
 10
-84.0
 20
9.149999999999948
 30
0.0
 40
2.5
  1

100
AcDbAttributeDefinition
  3
サブタイトル
  2
GEN-TITLE-DES2
 70
     0
  0
LINE
  5
1B41
330
1AEC
100
AcDbEntity
  8
0
100
AcDbLine
 10
0.0
 20
0.0
 30
0.0
 11
0.0
 21
50.0
 31
0.0
1001
GENIUS_GENREC_14
1002
{
1000
PYDIR
1011
-414.0
1021
291.0
1031
0.0
1002
}
1002
{
1000
PXDIR
1011
6.0
1021
-6.0
1031
0.0
1002
}
1002
{
1000
PORI
1011
-414.0
1021
-6.0
1031
0.0
1002
}
1002
{
1000
PINS
1011
-414.0
1021
-6.0
1031
0.0
1002
}
1002
{
1000
HVAL
1000
297
1002
}
1002
{
1000
H
1070
     2
1002
}
1002
{
1000
WVAL
1000
420
1002
}
1002
{
1000
W
1070
     2
1002
}
1002
{
1000
C
1070
     1
1002
}
1001
GENIUS_GENODEF_13
1002
{
1000
HIER
1070
     0
1002
}
1002
{
1000
MANEDIT
1070
     0
1002
}
1002
{
1000
NOSEL
1070
     0
1002
}
1002
{
1000
BEHIND
1070
     0
1002
}
1002
{
1000
OTHER
1070
     0
1002
}
1002
{
1000
REACTOR
1002
}
1001
GENIUS_GENOBJ-N-REC_13
1002
{
1000
OWNER
1000
GEN
1002
}
  0
ATTDEF
  5
1B42
330
1AEC
100
AcDbEntity
  8
0
100
AcDbText
 10
-84.14251901585329
 20
12.82790432564377
 30
0.0
 40
3.5
  1

100
AcDbAttributeDefinition
  3
品名
  2
GEN-TITLE-DES1
 70
     0
  0
ATTDEF
  5
1B43
330
1AEC
100
AcDbEntity
  8
0
100
AcDbText
 10
-8.002309189545826
 20
1.705189434395036
 30
0.0
 40
2.5
  1

100
AcDbAttributeDefinition
  3
Rev.
  2
GEN-TITLE-NR2
 70
     0
  0
POINT
  5
1B44
330
1AEC
100
AcDbEntity
  8
0
 60
     1
100
AcDbPoint
 10
-418.5355579819675
 20
-138.1104841268254
 30
0.0
1001
GENIUS_GENODEF_13
1002
{
1000
HIER
1070
    10
1002
}
1002
{
1000
MANEDIT
1070
     0
1002
}
1002
{
1000
NOSEL
1070
     0
1002
}
1002
{
1000
BEHIND
1070
     0
1002
}
1002
{
1000
REACTOR
1002
}
1001
GENIUS_GENOBJ-N-CRS_13
1002
{
1000
OWNER
1000
GEN
1002
}
1001
GENIUS_GENOENT_13
1002
{
1000
MYREF
1005
1B44
1002
}
1002
{
1000
GRP
1005
0
1002
}
1001
GENIUS_GENOLIS_13
1002
{
1000
ENT
1005
1AFE
1005
1AFD
1005
1AF9
1005
1AF6
1002
}
  0
ENDBLK
  5
1B47
330
1AEC
100
AcDbEntity
  8
0
100
AcDbBlockEnd
  0
BLOCK
  5
276A
330
2766
100
AcDbEntity
  8
0
100
AcDbBlockBegin
  2
*S10
 70
     1
 10
0.0
 20
0.0
 30
0.0
  3
*S10
  1

  0
CIRCLE
  5
2767
330
2766
100
AcDbEntity
  8
AM_12
 62
     4
100
AcDbCircle
 10
243.1512035766472
 20
229.3239285995434
 30
0.0
 40
3.5
  0
LINE
  5
2768
330
2766
100
AcDbEntity
  8
AM_12
 62
     4
100
AcDbLine
 10
239.6512035766472
 20
225.8239285995434
 30
0.0
 11
246.6512035766472
 21
232.8239285995433
 31
0.0
  0
LINE
  5
2769
330
2766
100
AcDbEntity
  8
AM_12
 62
     4
100
AcDbLine
 10
239.6512035766472
 20
232.8239285995433
 30
0.0
 11
246.6512035766472
 21
225.8239285995434
 31
0.0
  0
ENDBLK
  5
276B
330
2766
100
AcDbEntity
  8
0
100
AcDbBlockEnd
  0
BLOCK
  5
2772
330
276D
100
AcDbEntity
  8
0
100
AcDbBlockBegin
  2
*S11
 70
     1
 10
0.0
 20
0.0
 30
0.0
  3
*S11
  1

  0
LINE
  5
276E
330
276D
100
AcDbEntity
  8
AM_5
100
AcDbLine
 10
283.69126304027
 20
273.7111150697694
 30
0.0
 11
247.8718910248894
 21
234.4925947733264
 31
0.0
  0
TRACE
  5
276F
330
276D
100
AcDbEntity
  8
AM_5
  6
Continuous
100
AcDbTrace
 10
247.1914232169514
 20
235.114085063444
 30
0.0
 11
248.5523588328273
 21
233.8711044832088
 31
0.0
 12
243.1512035766472
 22
229.3239285995434
 32
0.0
 13
243.1512035766472
 23
229.3239285995434
 33
0.0
  0
MTEXT
  5
2770
330
276D
100
AcDbEntity
  8
AM_5
 62
     7
100
AcDbMText
 10
291.9524660746938
 20
282.7562808738898
 30
0.0
 40
7.0
 41
0.0
 71
     5
 72
     5
  1
1
  7
ACISOTS
 73
     1
 44
1.0
1001
ACAD
1000
MTEXTBEGIN
1070
    73
1070
     1
1070
    44
1040
1.0
1070
    74
1070
     0
1000
MTEXTEND
  0
CIRCLE
  5
2771
330
276D
100
AcDbEntity
  8
AM_5
 62
     3
100
AcDbCircle
 10
291.9524660746938
 20
282.7562808738898
 30
0.0
 40
12.25
  0
ENDBLK
  5
2773
330
276D
100
AcDbEntity
  8
0
100
AcDbBlockEnd
  0
BLOCK
  5
2779
330
2775
100
AcDbEntity
  8
0
100
AcDbBlockBegin
  2
*S12
 70
     1
 10
0.0
 20
0.0
 30
0.0
  3
*S12
  1

  0
CIRCLE
  5
2776
330
2775
100
AcDbEntity
  8
AM_12
 62
     4
100
AcDbCircle
 10
199.1184405349657
 20
240.8434169895021
 30
0.0
 40
3.5
  0
LINE
  5
2777
330
2775
100
AcDbEntity
  8
AM_12
 62
     4
100
AcDbLine
 10
195.6184405349657
 20
237.3434169895021
 30
0.0
 11
202.6184405349657
 21
244.3434169895021
 31
0.0
  0
LINE
  5
2778
330
2775
100
AcDbEntity
  8
AM_12
 62
     4
100
AcDbLine
 10
195.6184405349657
 20
244.3434169895021
 30
0.0
 11
202.6184405349657
 21
237.3434169895021
 31
0.0
  0
ENDBLK
  5
277A
330
2775
100
AcDbEntity
  8
0
100
AcDbBlockEnd
  0
BLOCK
  5
2781
330
277C
100
AcDbEntity
  8
0
100
AcDbBlockBegin
  2
*S13
 70
     1
 10
0.0
 20
0.0
 30
0.0
  3
*S13
  1

  0
LINE
  5
277D
330
277C
100
AcDbEntity
  8
AM_5
100
AcDbLine
 10
167.1455977123082
 20
275.9969564073941
 30
0.0
 11
194.4085148674716
 21
246.021891688357
 31
0.0
  0
TRACE
  5
277E
330
277C
100
AcDbEntity
  8
AM_5
  6
Continuous
100
AcDbTrace
 10
193.726755742716
 20
245.401818213547
 30
0.0
 11
195.0902739922272
 21
246.641965163167
 31
0.0
 12
199.1184405349657
 22
240.8434169895021
 32
0.0
 13
199.1184405349657
 23
240.8434169895021
 33
0.0
  0
MTEXT
  5
277F
330
277C
100
AcDbEntity
  8
AM_5
 62
     7
100
AcDbMText
 10
158.9032277941935
 20
285.0592871303901
 30
0.0
 40
7.0
 41
0.0
 71
     5
 72
     5
  1
2
  7
ACISOTS
 73
     1
 44
1.0
1001
ACAD
1000
MTEXTBEGIN
1070
    73
1070
     1
1070
    44
1040
1.0
1070
    74
1070
     0
1000
MTEXTEND
  0
CIRCLE
  5
2780
330
277C
100
AcDbEntity
  8
AM_5
 62
     3
100
AcDbCircle
 10
158.9032277941935
 20
285.0592871303901
 30
0.0
 40
12.25
  0
ENDBLK
  5
2782
330
277C
100
AcDbEntity
  8
0
100
AcDbBlockEnd
  0
BLOCK
  5
2788
330
2784
100
AcDbEntity
  8
0
100
AcDbBlockBegin
  2
*S14
 70
     1
 10
0.0
 20
0.0
 30
0.0
  3
*S14
  1

  0
CIRCLE
  5
2785
330
2784
100
AcDbEntity
  8
AM_12
 62
     4
100
AcDbCircle
 10
437.2208087361019
 20
252.6505550043091
 30
0.0
 40
3.5
  0
LINE
  5
2786
330
2784
100
AcDbEntity
  8
AM_12
 62
     4
100
AcDbLine
 10
433.7208087361019
 20
249.1505550043091
 30
0.0
 11
440.7208087361019
 21
256.1505550043091
 31
0.0
  0
LINE
  5
2787
330
2784
100
AcDbEntity
  8
AM_12
 62
     4
100
AcDbLine
 10
433.7208087361019
 20
256.1505550043091
 30
0.0
 11
440.7208087361019
 21
249.1505550043091
 31
0.0
  0
ENDBLK
  5
2789
330
2784
100
AcDbEntity
  8
0
100
AcDbBlockEnd
  0
BLOCK
  5
2790
330
278B
100
AcDbEntity
  8
0
100
AcDbBlockBegin
  2
*S15
 70
     1
 10
0.0
 20
0.0
 30
0.0
  3
*S15
  1

  0
LINE
  5
278C
330
278B
100
AcDbEntity
  8
AM_5
100
AcDbLine
 10
467.7109800176948
 20
275.5497850908179
 30
0.0
 11
442.8180229059569
 21
256.8542668803508
 31
0.0
  0
TRACE
  5
278D
330
278B
100
AcDbEntity
  8
AM_5
  6
Continuous
100
AcDbTrace
 10
442.2645937408075
 20
257.591154102056
 30
0.0
 11
443.3714520711064
 21
256.1173796586456
 31
0.0
 12
437.2208087361019
 22
252.6505550043091
 32
0.0
 13
437.2208087361019
 23
252.6505550043091
 33
0.0
  0
MTEXT
  5
278E
330
278B
100
AcDbEntity
  8
AM_5
 62
     7
100
AcDbMText
 10
477.5061048149411
 20
282.9062808738909
 30
0.0
 40
7.0
 41
0.0
 71
     5
 72
     5
  1
3
  7
ACISOTS
 73
     1
 44
1.0
1001
ACAD
1000
MTEXTBEGIN
1070
    73
1070
     1
1070
    44
1040
1.0
1070
    74
1070
     0
1000
MTEXTEND
  0
CIRCLE
  5
278F
330
278B
100
AcDbEntity
  8
AM_5
 62
     3
100
AcDbCircle
 10
477.5061048149411
 20
282.9062808738909
 30
0.0
 40
12.25
  0
ENDBLK
  5
2791
330
278B
100
AcDbEntity
  8
0
100
AcDbBlockEnd
  0
BLOCK
  5
2797
330
2793
100
AcDbEntity
  8
0
100
AcDbBlockBegin
  2
*S16
 70
     1
 10
0.0
 20
0.0
 30
0.0
  3
*S16
  1

  0
CIRCLE
  5
2794
330
2793
100
AcDbEntity
  8
AM_12
 62
     4
100
AcDbCircle
 10
437.8587220439834
 20
218.564481895443
 30
0.0
 40
3.5
  0
LINE
  5
2795
330
2793
100
AcDbEntity
  8
AM_12
 62
     4
100
AcDbLine
 10
434.3587220439834
 20
215.064481895443
 30
0.0
 11
441.3587220439834
 21
222.064481895443
 31
0.0
  0
LINE
  5
2796
330
2793
100
AcDbEntity
  8
AM_12
 62
     4
100
AcDbLine
 10
434.3587220439834
 20
222.064481895443
 30
0.0
 11
441.3587220439834
 21
215.064481895443
 31
0.0
  0
ENDBLK
  5
2798
330
2793
100
AcDbEntity
  8
0
100
AcDbBlockEnd
  0
BLOCK
  5
279F
330
279A
100
AcDbEntity
  8
0
100
AcDbBlockBegin
  2
*S17
 70
     1
 10
0.0
 20
0.0
 30
0.0
  3
*S17
  1

  0
LINE
  5
279B
330
279A
100
AcDbEntity
  8
AM_5
100
AcDbLine
 10
466.6345030625674
 20
237.1172385491074
 30
0.0
 11
443.7419404853649
 21
222.3575994484578
 31
0.0
  0
TRACE
  5
279C
330
279A
100
AcDbEntity
  8
AM_5
  6
Continuous
100
AcDbTrace
 10
443.2425670880959
 20
223.1321398466621
 30
0.0
 11
444.2413138826338
 21
221.5830590502535
 31
0.0
 12
437.8587220439834
 22
218.564481895443
 32
0.0
 13
437.8587220439834
 23
218.564481895443
 33
0.0
  0
MTEXT
  5
279D
330
279A
100
AcDbEntity
  8
AM_5
 62
     7
100
AcDbMText
 10
476.9301353349849
 20
243.7551942668833
 30
0.0
 40
7.0
 41
0.0
 71
     5
 72
     5
  1
4
  7
ACISOTS
 73
     1
 44
1.0
1001
ACAD
1000
MTEXTBEGIN
1070
    73
1070
     1
1070
    44
1040
1.0
1070
    74
1070
     0
1000
MTEXTEND
  0
CIRCLE
  5
279E
330
279A
100
AcDbEntity
  8
AM_5
 62
     3
100
AcDbCircle
 10
476.9301353349849
 20
243.7551942668833
 30
0.0
 40
12.25
  0
ENDBLK
  5
27A0
330
279A
100
AcDbEntity
  8
0
100
AcDbBlockEnd
  0
BLOCK
  5
27A6
330
27A2
100
AcDbEntity
  8
0
100
AcDbBlockBegin
  2
*S18
 70
     1
 10
0.0
 20
0.0
 30
0.0
  3
*S18
  1

  0
CIRCLE
  5
27A3
330
27A2
100
AcDbEntity
  8
AM_12
 62
     4
100
AcDbCircle
 10
199.2953313446797
 20
167.8492177344224
 30
0.0
 40
3.5
  0
LINE
  5
27A4
330
27A2
100
AcDbEntity
  8
AM_12
 62
     4
100
AcDbLine
 10
195.7953313446797
 20
164.3492177344224
 30
0.0
 11
202.7953313446797
 21
171.3492177344224
 31
0.0
  0
LINE
  5
27A5
330
27A2
100
AcDbEntity
  8
AM_12
 62
     4
100
AcDbLine
 10
195.7953313446797
 20
171.3492177344224
 30
0.0
 11
202.7953313446797
 21
164.3492177344224
 31
0.0
  0
ENDBLK
  5
27A7
330
27A2
100
AcDbEntity
  8
0
100
AcDbBlockEnd
  0
BLOCK
  5
27AE
330
27A9
100
AcDbEntity
  8
0
100
AcDbBlockBegin
  2
*S19
 70
     1
 10
0.0
 20
0.0
 30
0.0
  3
*S19
  1

  0
LINE
  5
27AA
330
27A9
100
AcDbEntity
  8
AM_5
100
AcDbLine
 10
164.7395907419047
 20
138.1645317261141
 30
0.0
 11
193.985509905595
 21
163.287880618506
 31
0.0
  0
TRACE
  5
27AB
330
27A9
100
AcDbEntity
  8
AM_5
  6
Continuous
100
AcDbTrace
 10
194.5860213265642
 20
162.5888293674264
 30
0.0
 11
193.3849984846258
 21
163.9869318695857
 31
0.0
 12
199.2953313446797
 22
167.8492177344224
 32
0.0
 13
199.2953313446797
 23
167.8492177344224
 33
0.0
  0
MTEXT
  5
27AC
330
27A9
100
AcDbEntity
  8
AM_5
 62
     7
100
AcDbMText
 10
155.4474032235064
 20
130.1821917732606
 30
0.0
 40
7.0
 41
0.0
 71
     5
 72
     5
  1
5
  7
ACISOTS
 73
     1
 44
1.0
1001
ACAD
1000
MTEXTBEGIN
1070
    73
1070
     1
1070
    44
1040
1.0
1070
    74
1070
     0
1000
MTEXTEND
  0
CIRCLE
  5
27AD
330
27A9
100
AcDbEntity
  8
AM_5
 62
     3
100
AcDbCircle
 10
155.4474032235064
 20
130.1821917732606
 30
0.0
 40
12.25
  0
ENDBLK
  5
27AF
330
27A9
100
AcDbEntity
  8
0
100
AcDbBlockEnd
  0
BLOCK
  5
27F3
330
27B1
100
AcDbEntity
  8
0
100
AcDbBlockBegin
  2
*S20
 70
     1
 10
0.0
 20
0.0
 30
0.0
  3
*S20
  1

  0
LINE
  5
27B2
330
27B1
100
AcDbEntity
  8
0
 62
     1
100
AcDbLine
 10
420.0
 20
522.95
 30
0.0
 11
806.0
 21
522.95
 31
0.0
  0
LINE
  5
27B3
330
27B1
100
AcDbEntity
  8
0
 62
     1
100
AcDbLine
 10
420.0
 20
510.6
 30
0.0
 11
806.0
 21
510.6
 31
0.0
  0
LINE
  5
27B4
330
27B1
100
AcDbEntity
  8
0
 62
     1
100
AcDbLine
 10
420.0
 20
498.2499999999999
 30
0.0
 11
806.0
 21
498.2499999999999
 31
0.0
  0
LINE
  5
27B5
330
27B1
100
AcDbEntity
  8
0
 62
     1
100
AcDbLine
 10
420.0
 20
485.8999999999999
 30
0.0
 11
806.0
 21
485.8999999999999
 31
0.0
  0
MTEXT
  5
27B6
330
27B1
100
AcDbEntity
  8
0
 62
     2
100
AcDbMText
 10
435.0
 20
532.6
 30
0.0
 40
7.0
 41
26.4
 71
     2
 72
     5
  1
1
  7
ACISOTS
 73
     1
 44
1.0
1001
ACAD
1000
MTEXTBEGIN
1070
    73
1070
     1
1070
    44
1040
1.0
1070
    74
1070
     0
1000
MTEXTEND
  0
LINE
  5
27B7
330
27B1
100
AcDbEntity
  8
0
 62
     1
100
AcDbLine
 10
450.0
 20
535.2999999999999
 30
0.0
 11
450.0
 21
522.95
 31
0.0
  0
MTEXT
  5
27B8
330
27B1
100
AcDbEntity
  8
0
 62
     2
100
AcDbMText
 10
451.7999999999999
 20
532.6
 30
0.0
 40
7.0
 41
116.4
 71
     1
 72
     5
  1
ボディー
  7
ACISOTS
 73
     1
 44
1.0
1001
ACAD
1000
MTEXTBEGIN
1070
    73
1070
     1
1070
    44
1040
1.0
1070
    74
1070
     0
1000
MTEXTEND
  0
LINE
  5
27B9
330
27B1
100
AcDbEntity
  8
0
 62
     1
100
AcDbLine
 10
570.0
 20
535.2999999999999
 30
0.0
 11
570.0
 21
522.95
 31
0.0
  0
MTEXT
  5
27BA
330
27B1
100
AcDbEntity
  8
0
 62
     2
100
AcDbMText
 10
585.0
 20
532.6
 30
0.0
 40
7.0
 41
26.4
 71
     2
 72
     5
  1
1
  7
ACISOTS
 73
     1
 44
1.0
1001
ACAD
1000
MTEXTBEGIN
1070
    73
1070
     1
1070
    44
1040
1.0
1070
    74
1070
     0
1000
MTEXTEND
  0
LINE
  5
27BB
330
27B1
100
AcDbEntity
  8
0
 62
     1
100
AcDbLine
 10
600.0
 20
535.2999999999999
 30
0.0
 11
600.0
 21
522.95
 31
0.0
  0
MTEXT
  5
27BC
330
27B1
100
AcDbEntity
  8
0
 62
     2
100
AcDbMText
 10
601.7999999999999
 20
532.6
 30
0.0
 40
7.0
 41
76.4
 71
     1
 72
     5
  1
ﾉﾘﾙ
  7
ACISOTS
 73
     1
 44
1.0
1001
ACAD
1000
MTEXTBEGIN
1070
    73
1070
     1
1070
    44
1040
1.0
1070
    74
1070
     0
1000
MTEXTEND
  0
LINE
  5
27BD
330
27B1
100
AcDbEntity
  8
0
 62
     1
100
AcDbLine
 10
680.0
 20
535.2999999999999
 30
0.0
 11
680.0
 21
522.95
 31
0.0
  0
MTEXT
  5
27BE
330
27B1
100
AcDbEntity
  8
0
 62
     2
100
AcDbMText
 10
681.7999999999999
 20
532.6
 30
0.0
 40
7.0
 41
122.4
 71
     1
 72
     5
  1
ｸﾞﾚｰ
  7
ACISOTS
 73
     1
 44
1.0
1001
ACAD
1000
MTEXTBEGIN
1070
    73
1070
     1
1070
    44
1040
1.0
1070
    74
1070
     0
1000
MTEXTEND
  0
MTEXT
  5
27BF
330
27B1
100
AcDbEntity
  8
0
 62
     2
100
AcDbMText
 10
435.0
 20
520.2499999999999
 30
0.0
 40
7.0
 41
26.4
 71
     2
 72
     5
  1
2
  7
ACISOTS
 73
     1
 44
1.0
1001
ACAD
1000
MTEXTBEGIN
1070
    73
1070
     1
1070
    44
1040
1.0
1070
    74
1070
     0
1000
MTEXTEND
  0
LINE
  5
27C0
330
27B1
100
AcDbEntity
  8
0
 62
     1
100
AcDbLine
 10
450.0
 20
522.95
 30
0.0
 11
450.0
 21
510.6
 31
0.0
  0
MTEXT
  5
27C1
330
27B1
100
AcDbEntity
  8
0
 62
     2
100
AcDbMText
 10
451.7999999999999
 20
520.2499999999999
 30
0.0
 40
7.0
 41
116.4
 71
     1
 72
     5
  1
ベース
  7
ACISOTS
 73
     1
 44
1.0
1001
ACAD
1000
MTEXTBEGIN
1070
    73
1070
     1
1070
    44
1040
1.0
1070
    74
1070
     0
1000
MTEXTEND
  0
LINE
  5
27C2
330
27B1
100
AcDbEntity
  8
0
 62
     1
100
AcDbLine
 10
570.0
 20
522.95
 30
0.0
 11
570.0
 21
510.6
 31
0.0
  0
MTEXT
  5
27C3
330
27B1
100
AcDbEntity
  8
0
 62
     2
100
AcDbMText
 10
585.0
 20
520.2499999999999
 30
0.0
 40
7.0
 41
26.4
 71
     2
 72
     5
  1
1
  7
ACISOTS
 73
     1
 44
1.0
1001
ACAD
1000
MTEXTBEGIN
1070
    73
1070
     1
1070
    44
1040
1.0
1070
    74
1070
     0
1000
MTEXTEND
  0
LINE
  5
27C4
330
27B1
100
AcDbEntity
  8
0
 62
     1
100
AcDbLine
 10
600.0
 20
522.95
 30
0.0
 11
600.0
 21
510.6
 31
0.0
  0
MTEXT
  5
27C5
330
27B1
100
AcDbEntity
  8
0
 62
     2
100
AcDbMText
 10
601.7999999999999
 20
520.2499999999999
 30
0.0
 40
7.0
 41
76.4
 71
     1
 72
     5
  1
ﾉﾘﾙ
  7
ACISOTS
 73
     1
 44
1.0
1001
ACAD
1000
MTEXTBEGIN
1070
    73
1070
     1
1070
    44
1040
1.0
1070
    74
1070
     0
1000
MTEXTEND
  0
LINE
  5
27C6
330
27B1
100
AcDbEntity
  8
0
 62
     1
100
AcDbLine
 10
680.0
 20
522.95
 30
0.0
 11
680.0
 21
510.6
 31
0.0
  0
MTEXT
  5
27C7
330
27B1
100
AcDbEntity
  8
0
 62
     2
100
AcDbMText
 10
681.7999999999999
 20
520.2499999999999
 30
0.0
 40
7.0
 41
122.4
 71
     1
 72
     5
  1
ｸﾞﾚｰ
  7
ACISOTS
 73
     1
 44
1.0
1001
ACAD
1000
MTEXTBEGIN
1070
    73
1070
     1
1070
    44
1040
1.0
1070
    74
1070
     0
1000
MTEXTEND
  0
MTEXT
  5
27C8
330
27B1
100
AcDbEntity
  8
0
 62
     2
100
AcDbMText
 10
435.0
 20
507.8999999999999
 30
0.0
 40
7.0
 41
26.4
 71
     2
 72
     5
  1
3
  7
ACISOTS
 73
     1
 44
1.0
1001
ACAD
1000
MTEXTBEGIN
1070
    73
1070
     1
1070
    44
1040
1.0
1070
    74
1070
     0
1000
MTEXTEND
  0
LINE
  5
27C9
330
27B1
100
AcDbEntity
  8
0
 62
     1
100
AcDbLine
 10
450.0
 20
510.6
 30
0.0
 11
450.0
 21
498.2499999999999
 31
0.0
  0
MTEXT
  5
27CA
330
27B1
100
AcDbEntity
  8
0
 62
     2
100
AcDbMText
 10
451.7999999999999
 20
507.8999999999999
 30
0.0
 40
7.0
 41
116.4
 71
     1
 72
     5
  1
ターミナルカバー
  7
ACISOTS
 73
     1
 44
1.0
1001
ACAD
1000
MTEXTBEGIN
1070
    73
1070
     1
1070
    44
1040
1.0
1070
    74
1070
     0
1000
MTEXTEND
  0
LINE
  5
27CB
330
27B1
100
AcDbEntity
  8
0
 62
     1
100
AcDbLine
 10
570.0
 20
510.6
 30
0.0
 11
570.0
 21
498.2499999999999
 31
0.0
  0
MTEXT
  5
27CC
330
27B1
100
AcDbEntity
  8
0
 62
     2
100
AcDbMText
 10
585.0
 20
507.8999999999999
 30
0.0
 40
7.0
 41
26.4
 71
     2
 72
     5
  1
2
  7
ACISOTS
 73
     1
 44
1.0
1001
ACAD
1000
MTEXTBEGIN
1070
    73
1070
     1
1070
    44
1040
1.0
1070
    74
1070
     0
1000
MTEXTEND
  0
LINE
  5
27CD
330
27B1
100
AcDbEntity
  8
0
 62
     1
100
AcDbLine
 10
600.0
 20
510.6
 30
0.0
 11
600.0
 21
498.2499999999999
 31
0.0
  0
MTEXT
  5
27CE
330
27B1
100
AcDbEntity
  8
0
 62
     2
100
AcDbMText
 10
601.7999999999999
 20
507.8999999999999
 30
0.0
 40
7.0
 41
76.4
 71
     1
 72
     5
  1
ﾉﾘﾙ
  7
ACISOTS
 73
     1
 44
1.0
1001
ACAD
1000
MTEXTBEGIN
1070
    73
1070
     1
1070
    44
1040
1.0
1070
    74
1070
     0
1000
MTEXTEND
  0
LINE
  5
27CF
330
27B1
100
AcDbEntity
  8
0
 62
     1
100
AcDbLine
 10
680.0
 20
510.6
 30
0.0
 11
680.0
 21
498.2499999999999
 31
0.0
  0
MTEXT
  5
27D0
330
27B1
100
AcDbEntity
  8
0
 62
     2
100
AcDbMText
 10
681.7999999999999
 20
507.8999999999999
 30
0.0
 40
7.0
 41
122.4
 71
     1
 72
     5
  1
ｸﾞﾚｰ
  7
ACISOTS
 73
     1
 44
1.0
1001
ACAD
1000
MTEXTBEGIN
1070
    73
1070
     1
1070
    44
1040
1.0
1070
    74
1070
     0
1000
MTEXTEND
  0
MTEXT
  5
27D1
330
27B1
100
AcDbEntity
  8
0
 62
     2
100
AcDbMText
 10
435.0
 20
495.5499999999999
 30
0.0
 40
7.0
 41
26.4
 71
     2
 72
     5
  1
4
  7
ACISOTS
 73
     1
 44
1.0
1001
ACAD
1000
MTEXTBEGIN
1070
    73
1070
     1
1070
    44
1040
1.0
1070
    74
1070
     0
1000
MTEXTEND
  0
LINE
  5
27D2
330
27B1
100
AcDbEntity
  8
0
 62
     1
100
AcDbLine
 10
450.0
 20
498.2499999999999
 30
0.0
 11
450.0
 21
485.8999999999999
 31
0.0
  0
MTEXT
  5
27D3
330
27B1
100
AcDbEntity
  8
0
 62
     2
100
AcDbMText
 10
451.7999999999999
 20
495.5499999999999
 30
0.0
 40
7.0
 41
116.4
 71
     1
 72
     5
  1
前面パネル
  7
ACISOTS
 73
     1
 44
1.0
1001
ACAD
1000
MTEXTBEGIN
1070
    73
1070
     1
1070
    44
1040
1.0
1070
    74
1070
     0
1000
MTEXTEND
  0
LINE
  5
27D4
330
27B1
100
AcDbEntity
  8
0
 62
     1
100
AcDbLine
 10
570.0
 20
498.2499999999999
 30
0.0
 11
570.0
 21
485.8999999999999
 31
0.0
  0
MTEXT
  5
27D5
330
27B1
100
AcDbEntity
  8
0
 62
     2
100
AcDbMText
 10
585.0
 20
495.5499999999999
 30
0.0
 40
7.0
 41
26.4
 71
     2
 72
     5
  1
1
  7
ACISOTS
 73
     1
 44
1.0
1001
ACAD
1000
MTEXTBEGIN
1070
    73
1070
     1
1070
    44
1040
1.0
1070
    74
1070
     0
1000
MTEXTEND
  0
LINE
  5
27D6
330
27B1
100
AcDbEntity
  8
0
 62
     1
100
AcDbLine
 10
600.0
 20
498.2499999999999
 30
0.0
 11
600.0
 21
485.8999999999999
 31
0.0
  0
MTEXT
  5
27D7
330
27B1
100
AcDbEntity
  8
0
 62
     2
100
AcDbMText
 10
601.7999999999999
 20
495.5499999999999
 30
0.0
 40
7.0
 41
76.4
 71
     1
 72
     5
  1
ﾉﾘﾙ/ﾎﾟﾘｶｰﾎﾞﾈｰﾄ
  7
ACISOTS
 73
     1
 44
1.0
1001
ACAD
1000
MTEXTBEGIN
1070
    73
1070
     1
1070
    44
1040
1.0
1070
    74
1070
     0
1000
MTEXTEND
  0
LINE
  5
27D8
330
27B1
100
AcDbEntity
  8
0
 62
     1
100
AcDbLine
 10
680.0
 20
498.2499999999999
 30
0.0
 11
680.0
 21
485.8999999999999
 31
0.0
  0
MTEXT
  5
27D9
330
27B1
100
AcDbEntity
  8
0
 62
     2
100
AcDbMText
 10
681.7999999999999
 20
495.5499999999999
 30
0.0
 40
7.0
 41
122.4
 71
     1
 72
     5
  1
ｸﾞﾚｰ/ｸﾘｱｰ
  7
ACISOTS
 73
     1
 44
1.0
1001
ACAD
1000
MTEXTBEGIN
1070
    73
1070
     1
1070
    44
1040
1.0
1070
    74
1070
     0
1000
MTEXTEND
  0
MTEXT
  5
27DA
330
27B1
100
AcDbEntity
  8
0
 62
     2
100
AcDbMText
 10
435.0
 20
483.1999999999999
 30
0.0
 40
7.0
 41
26.4
 71
     2
 72
     5
  1
5
  7
ACISOTS
 73
     1
 44
1.0
1001
ACAD
1000
MTEXTBEGIN
1070
    73
1070
     1
1070
    44
1040
1.0
1070
    74
1070
     0
1000
MTEXTEND
  0
LINE
  5
27DB
330
27B1
100
AcDbEntity
  8
0
 62
     1
100
AcDbLine
 10
450.0
 20
485.8999999999999
 30
0.0
 11
450.0
 21
473.55
 31
0.0
  0
MTEXT
  5
27DC
330
27B1
100
AcDbEntity
  8
0
 62
     2
100
AcDbMText
 10
451.7999999999999
 20
483.1999999999999
 30
0.0
 40
7.0
 41
116.4
 71
     1
 72
     5
  1
ホック
  7
ACISOTS
 73
     1
 44
1.0
1001
ACAD
1000
MTEXTBEGIN
1070
    73
1070
     1
1070
    44
1040
1.0
1070
    74
1070
     0
1000
MTEXTEND
  0
LINE
  5
27DD
330
27B1
100
AcDbEntity
  8
0
 62
     1
100
AcDbLine
 10
570.0
 20
485.8999999999999
 30
0.0
 11
570.0
 21
473.55
 31
0.0
  0
MTEXT
  5
27DE
330
27B1
100
AcDbEntity
  8
0
 62
     2
100
AcDbMText
 10
585.0
 20
483.1999999999999
 30
0.0
 40
7.0
 41
26.4
 71
     2
 72
     5
  1
1
  7
ACISOTS
 73
     1
 44
1.0
1001
ACAD
1000
MTEXTBEGIN
1070
    73
1070
     1
1070
    44
1040
1.0
1070
    74
1070
     0
1000
MTEXTEND
  0
LINE
  5
27DF
330
27B1
100
AcDbEntity
  8
0
 62
     1
100
AcDbLine
 10
600.0
 20
485.8999999999999
 30
0.0
 11
600.0
 21
473.55
 31
0.0
  0
MTEXT
  5
27E0
330
27B1
100
AcDbEntity
  8
0
 62
     2
100
AcDbMText
 10
601.7999999999999
 20
483.1999999999999
 30
0.0
 40
7.0
 41
76.4
 71
     1
 72
     5
  1
ﾉﾘﾙ
  7
ACISOTS
 73
     1
 44
1.0
1001
ACAD
1000
MTEXTBEGIN
1070
    73
1070
     1
1070
    44
1040
1.0
1070
    74
1070
     0
1000
MTEXTEND
  0
LINE
  5
27E1
330
27B1
100
AcDbEntity
  8
0
 62
     1
100
AcDbLine
 10
680.0
 20
485.8999999999999
 30
0.0
 11
680.0
 21
473.55
 31
0.0
  0
MTEXT
  5
27E2
330
27B1
100
AcDbEntity
  8
0
 62
     2
100
AcDbMText
 10
681.7999999999999
 20
483.1999999999999
 30
0.0
 40
7.0
 41
122.4
 71
     1
 72
     5
  1
ﾌﾞﾗｯｸ
  7
ACISOTS
 73
     1
 44
1.0
1001
ACAD
1000
MTEXTBEGIN
1070
    73
1070
     1
1070
    44
1040
1.0
1070
    74
1070
     0
1000
MTEXTEND
  0
LINE
  5
27E3
330
27B1
100
AcDbEntity
  8
0
 62
     1
100
AcDbLine
 10
420.0
 20
535.2999999999999
 30
0.0
 11
806.0
 21
535.2999999999999
 31
0.0
  0
MTEXT
  5
27E4
330
27B1
100
AcDbEntity
  8
0
 62
     2
100
AcDbMText
 10
435.0
 20
544.95
 30
0.0
 40
7.0
 41
26.4
 71
     2
 72
     5
  1
照番
  7
ACISOTS
 73
     1
 44
1.0
1001
ACAD
1000
MTEXTBEGIN
1070
    73
1070
     1
1070
    44
1040
1.0
1070
    74
1070
     0
1000
MTEXTEND
  0
LINE
  5
27E5
330
27B1
100
AcDbEntity
  8
0
 62
     1
100
AcDbLine
 10
450.0
 20
547.6499999999999
 30
0.0
 11
450.0
 21
535.2999999999999
 31
0.0
  0
MTEXT
  5
27E6
330
27B1
100
AcDbEntity
  8
0
 62
     2
100
AcDbMText
 10
510.0
 20
544.95
 30
0.0
 40
7.0
 41
116.4
 71
     2
 72
     5
  1
名称
  7
ACISOTS
 73
     1
 44
1.0
1001
ACAD
1000
MTEXTBEGIN
1070
    73
1070
     1
1070
    44
1040
1.0
1070
    74
1070
     0
1000
MTEXTEND
  0
LINE
  5
27E7
330
27B1
100
AcDbEntity
  8
0
 62
     1
100
AcDbLine
 10
570.0
 20
547.6499999999999
 30
0.0
 11
570.0
 21
535.2999999999999
 31
0.0
  0
MTEXT
  5
27E8
330
27B1
100
AcDbEntity
  8
0
 62
     2
100
AcDbMText
 10
585.0
 20
544.95
 30
0.0
 40
7.0
 41
26.4
 71
     2
 72
     5
  1
数量
  7
ACISOTS
 73
     1
 44
1.0
1001
ACAD
1000
MTEXTBEGIN
1070
    73
1070
     1
1070
    44
1040
1.0
1070
    74
1070
     0
1000
MTEXTEND
  0
LINE
  5
27E9
330
27B1
100
AcDbEntity
  8
0
 62
     1
100
AcDbLine
 10
600.0
 20
547.6499999999999
 30
0.0
 11
600.0
 21
535.2999999999999
 31
0.0
  0
MTEXT
  5
27EA
330
27B1
100
AcDbEntity
  8
0
 62
     2
100
AcDbMText
 10
640.0
 20
544.95
 30
0.0
 40
7.0
 41
76.4
 71
     2
 72
     5
  1
材質
  7
ACISOTS
 73
     1
 44
1.0
1001
ACAD
1000
MTEXTBEGIN
1070
    73
1070
     1
1070
    44
1040
1.0
1070
    74
1070
     0
1000
MTEXTEND
  0
LINE
  5
27EB
330
27B1
100
AcDbEntity
  8
0
 62
     1
100
AcDbLine
 10
680.0
 20
547.6499999999999
 30
0.0
 11
680.0
 21
535.2999999999999
 31
0.0
  0
MTEXT
  5
27EC
330
27B1
100
AcDbEntity
  8
0
 62
     2
100
AcDbMText
 10
743.0
 20
544.95
 30
0.0
 40
7.0
 41
122.4
 71
     2
 72
     5
  1
色・表面処理
  7
ACISOTS
 73
     1
 44
1.0
1001
ACAD
1000
MTEXTBEGIN
1070
    73
1070
     1
1070
    44
1040
1.0
1070
    74
1070
     0
1000
MTEXTEND
  0
MTEXT
  5
27ED
330
27B1
100
AcDbEntity
  8
0
 62
     2
100
AcDbMText
 10
613.0
 20
553.825
 30
0.0
 40
7.0
 41
0.0
 71
     5
 72
     5
  1
構成内容
  7
ACISOTS
 73
     1
 44
1.0
1001
ACAD
1000
MTEXTBEGIN
1070
    73
1070
     1
1070
    44
1040
1.0
1070
    74
1070
     0
1000
MTEXTEND
  0
LINE
  5
27EE
330
27B1
100
AcDbEntity
  8
0
 62
     1
100
AcDbLine
 10
420.0
 20
547.6499999999999
 30
0.0
 11
806.0
 21
547.6499999999999
 31
0.0
  0
LINE
  5
27EF
330
27B1
100
AcDbEntity
  8
0
 62
     7
100
AcDbLine
 10
420.0
 20
560.0
 30
0.0
 11
806.0
 21
560.0
 31
0.0
  0
LINE
  5
27F0
330
27B1
100
AcDbEntity
  8
0
 62
     7
100
AcDbLine
 10
806.0
 20
560.0
 30
0.0
 11
806.0
 21
473.55
 31
0.0
  0
LINE
  5
27F1
330
27B1
100
AcDbEntity
  8
0
 62
     7
100
AcDbLine
 10
806.0
 20
473.55
 30
0.0
 11
420.0
 21
473.55
 31
0.0
  0
LINE
  5
27F2
330
27B1
100
AcDbEntity
  8
0
 62
     7
100
AcDbLine
 10
420.0
 20
473.55
 30
0.0
 11
420.0
 21
560.0
 31
0.0
  0
ENDBLK
  5
27F4
330
27B1
100
AcDbEntity
  8
0
100
AcDbBlockEnd
  0
ENDSEC
  0
SECTION
  2
ENTITIES
  0
INSERT
  5
79F
330
1F
100
AcDbEntity
  8
0
370
     0
100
AcDbBlockReference
  2
TK-A3
 10
0.0
 20
0.0
 30
0.0
 41
2.0
 42
2.0
 43
2.0
1001
GENIUS_GENOREF_13
1005
7CB
1001
GENIUS_GENOBJ-N-SDF_13
1002
{
1000
OWNER
1000
GEN
1002
}
1001
GENIUS_GENODEF_13
1002
{
1000
HIER
1070
     0
1002
}
1002
{
1000
MANEDIT
1070
     0
1002
}
1002
{
1000
NOSEL
1070
     0
1002
}
1002
{
1000
BEHIND
1070
     0
1002
}
1002
{
1000
OTHER
1070
     0
1002
}
1002
{
1000
REACTOR
1002
}
1001
GENIUS_GENSCREG_15
1040
2.0
1040
1.0
1011
0.0
1021
0.0
1031
0.0
1011
806.0
1021
560.0000000000001
1031
0.0
1070
     3
  0
INSERT
  5
7A1
330
1F
100
AcDbEntity
  8
0
370
     0
100
AcDbBlockReference
 66
     1
  2
TK-TITLE
 10
806.0
 20
0.0
 30
0.0
 41
2.0
 42
2.0
 43
2.0
1001
GENIUS_GENOREF_13
1005
7CB
  0
ATTRIB
  5
1B4B
330
7A1
100
AcDbEntity
  8
0
100
AcDbText
 10
424.4616136045801
 20
7.176685075221328
 30
0.0
 40
6.0
  1
2008/08/22
 72
     1
 11
445.5656096675722
 21
7.176685075221328
 31
0.0
100
AcDbAttribute
  2
GEN-TITLE-DAT
 70
     0
 74
     1
  0
ATTRIB
  5
1B4C
330
7A1
100
AcDbEntity
  8
0
100
AcDbText
 10
441.8901664404432
 20
56.59999999999995
 30
0.0
 40
6.0
  1
1:2
 72
     2
 11
450.3505207711518
 21
56.59999999999995
 31
0.0
100
AcDbAttribute
  2
GEN-TITLE-SCA
 70
     0
 74
     1
  0
ATTRIB
  5
1B4D
330
7A1
100
AcDbEntity
  8
0
100
AcDbText
 10
454.7745181747809
 20
31.59999999999988
 30
0.0
 40
6.0
  1

 72
     2
 11
454.7745181747809
 21
31.59999999999988
 31
0.0
100
AcDbAttribute
  2
GEN-TITLE-QTY
 70
     0
 74
     1
  0
ATTRIB
  5
1B4E
330
7A1
100
AcDbEntity
  8
0
100
AcDbText
 10
508.0762648329416
 20
66.59999999999982
 30
0.0
 40
6.0
  1

100
AcDbAttribute
  2
GEN-TITLE-MAT2
 70
     0
  0
ATTRIB
  5
1B4F
330
7A1
100
AcDbEntity
  8
0
100
AcDbText
 10
508.0762648329416
 20
86.59999999999982
 30
0.0
 40
6.0
  1

100
AcDbAttribute
  2
GEN-TITLE-MAT1
 70
     0
  0
ATTRIB
  5
1B50
330
7A1
100
AcDbEntity
  8
0
100
AcDbText
 10
638.0
 20
3.999999999999914
 30
0.0
 40
6.0
  1

100
AcDbAttribute
  2
GEN-TITLE-NR1
 70
     0
  0
ATTRIB
  5
1B51
330
7A1
100
AcDbEntity
  8
0
100
AcDbText
 10
638.0
 20
18.2999999999999
 30
0.0
 40
5.0
  1
H53型窓開閉DINモジュールボックス
100
AcDbAttribute
  2
GEN-TITLE-DES2
 70
     0
  0
ATTRIB
  5
1B52
330
7A1
100
AcDbEntity
  8
0
100
AcDbText
 10
637.7149619682934
 20
25.65580865128755
 30
0.0
 40
7.0
  1
H53-6MG-
100
AcDbAttribute
  2
GEN-TITLE-DES1
 70
     0
  0
ATTRIB
  5
1B53
330
7A1
100
AcDbEntity
  8
0
100
AcDbText
 10
789.9953816209083
 20
3.410378868790072
 30
0.0
 40
5.0
  1

100
AcDbAttribute
  2
GEN-TITLE-NR2
 70
     0
  0
SEQEND
  5
1B4A
330
7A1
100
AcDbEntity
  8
0
370
     0
  0
POINT
  5
7CB
330
1F
100
AcDbEntity
  8
0
 60
     1
100
AcDbPoint
 10
0.0
 20
0.0
 30
0.0
1001
GENIUS_GENOENT_13
1002
{
1000
MYREF
1005
7CB
1002
}
1002
{
1000
GRP
1005
0
1002
}
1001
GENIUS_GENOBJ-N-TIT_13
1002
{
1000
OWNER
1000
GEN
1002
}
1001
GENIUS_GENODEF_13
1002
{
1000
HIER
1070
     1
1002
}
1002
{
1000
MANEDIT
1070
     0
1002
}
1002
{
1000
NOSEL
1070
     0
1002
}
1002
{
1000
BEHIND
1070
     0
1002
}
1002
{
1000
OTHER
1070
     0
1002
}
1002
{
1000
REACTOR
1002
}
1001
GENIUS_GENOLIS_13
1002
{
1000
ENT
1005
7A1
1005
79F
1005
1B49
1002
}
1001
GENIUS_GENTITLE_13
1002
{
1000
BORDER
1000
TK-A3
1002
}
1002
{
1000
TITLE
1000
TK-TITLE
1002
}
1002
{
1000
SCALE
1000
1:2
1002
}
1002
{
1000
TITLESTD
1000
ISO
1002
}
1002
{
1000
HRA
1005
79F
1002
}
1002
{
1000
HTIT
1005
7A1
1002
}
1002
{
1000
GENIUSID
1005
7CB
1002
}
1002
{
1000
INVTXTID
1005
0
1002
}
1002
{
1000
UNCHG
1002
{
1000
GEN-TITLE-SIZ
1000
GEN-TITLE-SCA
1002
}
1002
}
  0
INSERT
  5
842
330
1F
100
AcDbEntity
  8
AM_12
100
AcDbBlockReference
  2
*S10
 10
0.0
 20
0.0
 30
0.0
  0
INSERT
  5
847
330
1F
100
AcDbEntity
  8
AM_5
100
AcDbBlockReference
  2
*S11
 10
0.0
 20
0.0
 30
0.0
  0
INSERT
  5
84A
330
1F
100
AcDbEntity
  8
AM_12
100
AcDbBlockReference
  2
*S12
 10
0.0
 20
0.0
 30
0.0
  0
INSERT
  5
84F
330
1F
100
AcDbEntity
  8
AM_5
100
AcDbBlockReference
  2
*S13
 10
0.0
 20
0.0
 30
0.0
  0
INSERT
  5
851
330
1F
100
AcDbEntity
  8
AM_12
100
AcDbBlockReference
  2
*S14
 10
0.0
 20
0.0
 30
0.0
  0
INSERT
  5
854
330
1F
100
AcDbEntity
  8
AM_5
100
AcDbBlockReference
  2
*S15
 10
0.0
 20
0.0
 30
0.0
  0
INSERT
  5
856
330
1F
100
AcDbEntity
  8
AM_12
100
AcDbBlockReference
  2
*S16
 10
0.0
 20
0.0
 30
0.0
  0
INSERT
  5
859
330
1F
100
AcDbEntity
  8
AM_5
100
AcDbBlockReference
  2
*S17
 10
0.0
 20
0.0
 30
0.0
  0
INSERT
  5
85B
330
1F
100
AcDbEntity
  8
AM_12
100
AcDbBlockReference
  2
*S18
 10
0.0
 20
0.0
 30
0.0
  0
INSERT
  5
85E
330
1F
100
AcDbEntity
  8
AM_5
100
AcDbBlockReference
  2
*S19
 10
0.0
 20
0.0
 30
0.0
  0
DIMENSION
  5
18DF
330
1F
100
AcDbEntity
  8
AM_5
100
AcDbDimension
  2
*D5
 10
254.0606136665739
 20
283.6595937681532
 30
0.0
 11
225.0606136665739
 21
290.1595937681532
 31
0.0
 70
    32
 71
     5
 42
58.0
  3
AM_ISO
100
AcDbAlignedDimension
 13
196.0606136665738
 23
259.4095927681549
 33
0.0
 14
254.0606136665739
 24
237.109592768155
 34
0.0
100
AcDbRotatedDimension
1001
ACAD
1000
DSTYLE
1002
{
1070
    40
1040
2.0
1002
}
  0
DIMENSION
  5
18E2
330
1F
100
AcDbEntity
  8
AM_5
100
AcDbDimension
  2
*D6
 10
453.379023245744
 20
283.6595927681526
 30
0.0
 11
400.3790232457439
 21
290.1595927681526
 31
0.0
 70
    32
 71
     5
 42
106.0000000000002
  3
AM_ISO
100
AcDbAlignedDimension
 13
347.3790232457438
 23
259.6595927681549
 33
0.0
 14
453.379023245744
 24
259.6595927681546
 34
0.0
100
AcDbRotatedDimension
1001
ACAD
1000
DSTYLE
1002
{
1070
    40
1040
2.0
1002
}
  0
DIMENSION
  5
1A5F
330
1F
100
AcDbEntity
  8
AM_5
100
AcDbDimension
  2
*D7
 10
171.3106098543885
 20
259.4095927681548
 30
0.0
 11
164.8106098543884
 21
214.6095927681549
 31
0.0
 70
    32
 71
     5
 42
89.59999999999999
  3
AM_ISO
100
AcDbAlignedDimension
 13
196.0606136665741
 23
169.8095927681548
 33
0.0
 14
196.060613666574
 24
259.4095927681548
 34
0.0
 50
90.0
100
AcDbRotatedDimension
1001
ACAD
1000
DSTYLE
1002
{
1070
    40
1040
2.0
1002
}
  0
INSERT
  5
1EE8
330
1F
100
AcDbEntity
  8
0
100
AcDbBlockReference
  2
*S20
 10
0.0
 20
0.0
 30
0.0
  0
LINE
  5
1F58
330
1F
100
AcDbEntity
  8
ﾎﾞﾃﾞｨｰ
100
AcDbLine
 10
578.3974328249147
 20
245.1095927681497
 30
0.0
 11
578.3974328249152
 21
259.6595927681497
 31
0.0
  0
LINE
  5
1F60
330
1F
100
AcDbEntity
  8
ﾎﾞﾃﾞｨｰ
100
AcDbLine
 10
603.5974328249137
 20
253.2595927681494
 30
0.0
 11
603.5974328249137
 21
247.7595927681494
 31
0.0
  0
LINE
  5
1F61
330
1F
100
AcDbEntity
  8
ﾎﾞﾃﾞｨｰ
100
AcDbLine
 10
603.5974328249137
 20
253.2595927681494
 30
0.0
 11
597.6974328249138
 21
253.4595927681493
 31
0.0
  0
LINE
  5
1F62
330
1F
100
AcDbEntity
  8
ﾎﾞﾃﾞｨｰ
100
AcDbLine
 10
603.5974328249137
 20
247.7595927681494
 30
0.0
 11
597.6974328249136
 21
247.5595927681494
 31
0.0
  0
LINE
  5
1F70
330
1F
100
AcDbEntity
  8
ﾎﾞﾃﾞｨｰ
100
AcDbLine
 10
546.6974328249134
 20
237.1095927681503
 30
0.0
 11
546.6974328249126
 21
192.1095927681502
 31
0.0
  0
LINE
  5
1F72
330
1F
100
AcDbEntity
  8
ﾎﾞﾃﾞｨｰ
100
AcDbLine
 10
556.6974328249134
 20
237.1095927681501
 30
0.0
 11
546.6974328249134
 21
237.1095927681503
 31
0.0
1001
GENIUS_GENODEF_13
1002
{
1000
HIER
1070
     0
1002
}
1002
{
1000
MANEDIT
1070
     0
1002
}
1002
{
1000
NOSEL
1070
     0
1002
}
1002
{
1000
BEHIND
1070
     0
1002
}
1002
{
1000
REACTOR
1002
}
1001
GENIUS_GENOBJ-N-CEN_13
1002
{
1000
OWNER
1000
GEN
1002
}
  0
LINE
  5
1F73
330
1F
100
AcDbEntity
  8
ﾎﾞﾃﾞｨｰ
100
AcDbLine
 10
578.3974328249147
 20
245.1095927681497
 30
0.0
 11
556.6974328249135
 21
245.1095927681501
 31
0.0
1001
GENIUS_GENODEF_13
1002
{
1000
HIER
1070
     0
1002
}
1002
{
1000
MANEDIT
1070
     0
1002
}
1002
{
1000
NOSEL
1070
     0
1002
}
1002
{
1000
BEHIND
1070
     0
1002
}
1002
{
1000
REACTOR
1002
}
1001
GENIUS_GENOBJ-N-CEN_13
1002
{
1000
OWNER
1000
GEN
1002
}
  0
LINE
  5
1F75
330
1F
100
AcDbEntity
  8
ﾎﾞﾃﾞｨｰ
100
AcDbLine
 10
556.6974328249135
 20
245.1095927681501
 30
0.0
 11
556.6974328249134
 21
237.1095927681501
 31
0.0
  0
LINE
  5
1F77
330
1F
100
AcDbEntity
  8
ﾎﾞﾃﾞｨｰ
100
AcDbLine
 10
597.6974328249139
 20
259.6595927681494
 30
0.0
 11
578.3974328249152
 21
259.6595927681497
 31
0.0
  0
LINE
  5
1F78
330
1F
100
AcDbEntity
  8
ﾎﾞﾃﾞｨｰ
100
AcDbLine
 10
597.6974328249139
 20
259.6595927681494
 30
0.0
 11
597.6974328249138
 21
253.4595927681493
 31
0.0
  0
LINE
  5
1F7A
330
1F
100
AcDbEntity
  8
ﾍﾞｰｽ
100
AcDbLine
 10
597.6974328249125
 20
181.9095927681494
 30
0.0
 11
597.6974328249138
 21
247.3095927681494
 31
0.0
  0
LINE
  5
1F7B
330
1F
100
AcDbEntity
  8
ﾍﾞｰｽ
100
AcDbLine
 10
604.6974328249133
 20
229.7095927681492
 30
0.0
 11
604.697432824914
 21
259.4095927681493
 31
0.0
  0
LINE
  5
1F7C
330
1F
100
AcDbEntity
  8
ﾍﾞｰｽ
100
AcDbLine
 10
601.3974328249138
 20
247.3095927681494
 30
0.0
 11
601.3974328249137
 21
247.6850164969629
 31
0.0
  0
LINE
  5
1F7D
330
1F
100
AcDbEntity
  8
ﾍﾞｰｽ
100
AcDbLine
 10
597.6974328249139
 20
253.9095927681493
 30
0.0
 11
604.6974328249139
 21
253.9095927681493
 31
0.0
  0
LINE
  5
1F7E
330
1F
100
AcDbEntity
  8
ﾍﾞｰｽ
100
AcDbLine
 10
597.697432824914
 20
259.4095927681494
 30
0.0
 11
604.697432824914
 21
259.4095927681493
 31
0.0
  0
LINE
  5
1F7F
330
1F
100
AcDbEntity
  8
ﾍﾞｰｽ
100
AcDbLine
 10
597.6974328249139
 20
253.9095927681493
 30
0.0
 11
597.697432824914
 21
259.4095927681494
 31
0.0
  0
LINE
  5
1F80
330
1F
100
AcDbEntity
  8
ﾍﾞｰｽ
100
AcDbLine
 10
597.6974328249138
 20
247.3095927681494
 30
0.0
 11
604.6974328249137
 21
247.3095927681494
 31
0.0
  0
LINE
  5
1F81
330
1F
100
AcDbEntity
  8
ﾍﾞｰｽ
100
AcDbLine
 10
604.6974328249123
 20
169.8095927681493
 30
0.0
 11
604.6974328249127
 21
195.0095927681494
 31
0.0
  0
LINE
  5
1F82
330
1F
100
AcDbEntity
  8
ﾍﾞｰｽ
100
AcDbLine
 10
599.7974328249134
 20
232.4095927681493
 30
0.0
 11
604.6974328249135
 21
232.4095927681493
 31
0.0
  0
LINE
  5
1F83
330
1F
100
AcDbEntity
  8
ﾍﾞｰｽ
100
AcDbLine
 10
602.6974328249134
 20
229.7095927681493
 30
0.0
 11
600.6974328249135
 21
232.4095927681493
 31
0.0
  0
LINE
  5
1F85
330
1F
100
AcDbEntity
  8
ﾍﾞｰｽ
100
AcDbLine
 10
602.6974328249134
 20
229.7095927681493
 30
0.0
 11
604.6974328249135
 21
229.7095927681492
 31
0.0
  0
LINE
  5
1F86
330
1F
100
AcDbEntity
  8
ﾍﾞｰｽ
100
AcDbLine
 10
599.7974328249128
 20
196.1095927681493
 30
0.0
 11
604.6974328249127
 21
195.0095927681494
 31
0.0
  0
LINE
  5
1F88
330
1F
100
AcDbEntity
  8
ﾍﾞｰｽ
100
AcDbLine
 10
601.1974328249125
 20
181.9095927681493
 30
0.0
 11
601.1974328249125
 21
181.5409487003523
 31
0.0
  0
LINE
  5
1F89
330
1F
100
AcDbEntity
  8
ﾍﾞｰｽ
100
AcDbLine
 10
597.6974328249125
 20
181.9095927681494
 30
0.0
 11
604.6974328249125
 21
181.9095927681492
 31
0.0
  0
LINE
  5
1F8A
330
1F
100
AcDbEntity
  8
ﾍﾞｰｽ
100
AcDbLine
 10
597.6974328249123
 20
175.4095927681493
 30
0.0
 11
604.6974328249123
 21
175.4095927681492
 31
0.0
  0
LINE
  5
1F8C
330
1F
100
AcDbEntity
  8
ﾍﾞｰｽ
100
AcDbLine
 10
597.6974328249123
 20
169.8095927681494
 30
0.0
 11
597.6974328249123
 21
175.4095927681493
 31
0.0
  0
LINE
  5
1F8E
330
1F
100
AcDbEntity
  8
ﾍﾞｰｽ
100
AcDbLine
 10
604.6974328249123
 20
169.8095927681493
 30
0.0
 11
597.6974328249123
 21
169.8095927681494
 31
0.0
  0
LINE
  5
1F8F
330
1F
100
AcDbEntity
  8
ﾎﾞﾃﾞｨｰ
100
AcDbLine
 10
597.6974328249136
 20
247.5595927681494
 30
0.0
 11
597.6974328249127
 21
181.659592768149
 31
0.0
  0
LINE
  5
1F90
330
1F
100
AcDbEntity
  8
ﾍﾞｰｽ
100
AcDbLine
 10
601.397432824914
 20
253.3341690393359
 30
0.0
 11
601.397432824914
 21
253.9095927681493
 31
0.0
  0
LINE
  5
1FB0
330
1F
100
AcDbEntity
  8
ﾀｰﾐﾅﾙｶﾊﾞｰ
100
AcDbLine
 10
571.6974328249137
 20
245.5595927681498
 30
0.0
 11
571.697432824914
 21
259.1595927681498
 31
0.0
  0
LINE
  5
1FB1
330
1F
100
AcDbEntity
  8
ﾀｰﾐﾅﾙｶﾊﾞｰ
100
AcDbLine
 10
578.3974328249147
 20
245.3595927681497
 30
0.0
 11
571.6974328249137
 21
245.5595927681498
 31
0.0
  0
LINE
  5
1FB2
330
1F
100
AcDbEntity
  8
ﾀｰﾐﾅﾙｶﾊﾞｰ
100
AcDbLine
 10
571.697432824914
 20
259.1595927681498
 30
0.0
 11
578.1974328249151
 21
259.3595927681497
 31
0.0
  0
LINE
  5
1FB3
330
1F
100
AcDbEntity
  8
ﾀｰﾐﾅﾙｶﾊﾞｰ
100
AcDbLine
 10
578.3974328249152
 20
259.3595927681497
 30
0.0
 11
578.1974328249151
 21
259.3595927681497
 31
0.0
  0
LINE
  5
1FB4
330
1F
100
AcDbEntity
  8
ﾎｯｸ
100
AcDbLine
 10
602.2974328249123
 20
169.8095927681493
 30
0.0
 11
602.2974328249122
 21
165.3095927681494
 31
0.0
  0
LINE
  5
1FB5
330
1F
100
AcDbEntity
  8
ﾎｯｸ
100
AcDbLine
 10
598.7974328249122
 20
165.3095927681494
 30
0.0
 11
598.7974328249123
 21
169.8095927681494
 31
0.0
  0
LINE
  5
1FB6
330
1F
100
AcDbEntity
  8
ﾎｯｸ
100
AcDbLine
 10
604.1974328249128
 20
195.1218376661084
 30
0.0
 11
604.1974328249128
 21
197.3095927681493
 31
0.0
  0
LINE
  5
1FB7
330
1F
100
AcDbEntity
  8
ﾎｯｸ
100
AcDbLine
 10
604.1974328249128
 20
197.3095927681493
 30
0.0
 11
602.1974328249129
 21
199.3095927681493
 31
0.0
  0
LINE
  5
1FB8
330
1F
100
AcDbEntity
  8
ﾎｯｸ
100
AcDbLine
 10
602.1974328249129
 20
199.3095927681493
 30
0.0
 11
601.1974328249128
 21
197.3095927681494
 31
0.0
  0
LINE
  5
1FB9
330
1F
100
AcDbEntity
  8
ﾎｯｸ
100
AcDbLine
 10
601.1974328249128
 20
197.3095927681494
 30
0.0
 11
599.7974328249128
 21
197.3095927681494
 31
0.0
  0
LINE
  5
1FBA
330
1F
100
AcDbEntity
  8
ﾍﾞｰｽ
100
AcDbLine
 10
599.7974328249128
 20
196.1095927681493
 30
0.0
 11
599.7974328249134
 21
232.4095927681493
 31
0.0
  0
LINE
  5
1FBB
330
1F
100
AcDbEntity
  8
ﾎｯｸ
100
AcDbLine
 10
602.2974328249122
 20
165.3095927681494
 30
0.0
 11
598.7974328249122
 21
165.3095927681494
 31
0.0
  0
LINE
  5
20EE
330
1F
100
AcDbEntity
  8
ﾎﾞﾃﾞｨｰ
100
AcDbLine
 10
578.3974328249135
 20
184.1095927681496
 30
0.0
 11
578.3974328249134
 21
169.5595927681496
 31
0.0
  0
LINE
  5
20EF
330
1F
100
AcDbEntity
  8
ﾎﾞﾃﾞｨｰ
100
AcDbLine
 10
603.5974328249121
 20
175.9595927681489
 30
0.0
 11
603.5974328249124
 21
181.4595927681489
 31
0.0
  0
LINE
  5
20F0
330
1F
100
AcDbEntity
  8
ﾎﾞﾃﾞｨｰ
100
AcDbLine
 10
603.5974328249121
 20
175.9595927681489
 30
0.0
 11
597.6974328249122
 21
175.7595927681492
 31
0.0
  0
LINE
  5
20F1
330
1F
100
AcDbEntity
  8
ﾎﾞﾃﾞｨｰ
100
AcDbLine
 10
603.5974328249124
 20
181.4595927681489
 30
0.0
 11
597.6974328249123
 21
181.659592768149
 31
0.0
  0
LINE
  5
20F2
330
1F
100
AcDbEntity
  8
ﾎﾞﾃﾞｨｰ
100
AcDbLine
 10
556.6974328249125
 20
192.10959276815
 30
0.0
 11
546.6974328249125
 21
192.1095927681503
 31
0.0
1001
GENIUS_GENODEF_13
1002
{
1000
HIER
1070
     0
1002
}
1002
{
1000
MANEDIT
1070
     0
1002
}
1002
{
1000
NOSEL
1070
     0
1002
}
1002
{
1000
BEHIND
1070
     0
1002
}
1002
{
1000
REACTOR
1002
}
1001
GENIUS_GENOBJ-N-CEN_13
1002
{
1000
OWNER
1000
GEN
1002
}
  0
LINE
  5
20F3
330
1F
100
AcDbEntity
  8
ﾎﾞﾃﾞｨｰ
100
AcDbLine
 10
578.3974328249135
 20
184.1095927681496
 30
0.0
 11
556.6974328249123
 21
184.10959276815
 31
0.0
1001
GENIUS_GENODEF_13
1002
{
1000
HIER
1070
     0
1002
}
1002
{
1000
MANEDIT
1070
     0
1002
}
1002
{
1000
NOSEL
1070
     0
1002
}
1002
{
1000
BEHIND
1070
     0
1002
}
1002
{
1000
REACTOR
1002
}
1001
GENIUS_GENOBJ-N-CEN_13
1002
{
1000
OWNER
1000
GEN
1002
}
  0
LINE
  5
20F4
330
1F
100
AcDbEntity
  8
ﾎﾞﾃﾞｨｰ
100
AcDbLine
 10
556.6974328249123
 20
184.10959276815
 30
0.0
 11
556.6974328249125
 21
192.10959276815
 31
0.0
  0
LINE
  5
20F5
330
1F
100
AcDbEntity
  8
ﾎﾞﾃﾞｨｰ
100
AcDbLine
 10
597.697432824912
 20
169.5595927681491
 30
0.0
 11
578.3974328249134
 21
169.5595927681496
 31
0.0
  0
LINE
  5
20F6
330
1F
100
AcDbEntity
  8
ﾎﾞﾃﾞｨｰ
100
AcDbLine
 10
597.697432824912
 20
169.5595927681491
 30
0.0
 11
597.6974328249122
 21
175.7595927681492
 31
0.0
  0
LINE
  5
20FB
330
1F
100
AcDbEntity
  8
ﾍﾞｰｽ
100
AcDbLine
 10
601.1974328249123
 20
175.8782368359456
 30
0.0
 11
601.1974328249123
 21
175.4095927681493
 31
0.0
  0
LINE
  5
2384
330
1F
100
AcDbEntity
  8
ﾎｯｸ
100
AcDbLine
 10
198.4606136665741
 20
165.3095927681548
 30
0.0
 11
201.9606136665741
 21
165.3095927681548
 31
0.0
  0
HATCH
  5
2385
330
1F
100
AcDbEntity
  8
AM_8
100
AcDbHatch
 10
0.0
 20
0.0
 30
0.0
210
0.0
220
0.0
230
1.0
  2
_U
 70
     0
 71
     0
 91
        1
 92
        1
 93
        4
 72
     1
 10
451.4790232457433
 20
378.684534344794
 11
400.3790232457434
 21
378.6845343447941
 72
     1
 10
400.3790232457434
 20
378.6845343447942
 11
400.3790232457434
 21
376.1845343447941
 72
     1
 10
400.3790232457434
 20
376.184534344794
 11
451.4790232457435
 21
376.184534344794
 72
     1
 10
451.4790232457433
 20
376.184534344794
 11
451.4790232457433
 21
378.684534344794
 97
        0
 75
     0
 76
     0
 52
-45.00000000000001
 41
5.0
 77
     0
 78
     1
 53
315.0
 43
-42.57246833240128
 44
684.2917719086655
 45
3.535533905932738
 46
3.535533905932736
 79
     0
 98
        1
 10
-42.57246833240128
 20
685.2917719086654
1001
GENIUS_GENODEF_13
1002
{
1000
HIER
1070
     0
1002
}
1002
{
1000
MANEDIT
1070
     0
1002
}
1002
{
1000
NOSEL
1070
     0
1002
}
1002
{
1000
BEHIND
1070
     0
1002
}
1002
{
1000
OTHER
1070
     0
1002
}
1002
{
1000
REACTOR
1002
}
1001
GENIUS_GENOBJ-N-HTC_13
1002
{
1000
OWNER
1000
GEN
1002
}
1001
GENIUS_GENHATCH_13
1002
{
1000
DATA
1040
45.0
1042
2.5
1000
_U
1070
     0
1011
442.4549233406906
1021
377.4088212295721
1031
0.0
1002
}
1002
{
1000
UCS
1010
0.0
1020
0.0
1030
0.0
1010
1.0
1020
0.0
1030
0.0
1010
0.0
1020
1.0
1030
0.0
1002
}
  0
LINE
  5
2386
330
1F
100
AcDbEntity
  8
前面ﾊﾟﾈﾙ
100
AcDbLine
 10
451.4790232457433
 20
376.184534344794
 30
0.0
 11
400.3790232457434
 21
376.184534344794
 31
0.0
  0
LINE
  5
2387
330
1F
100
AcDbEntity
  8
ﾀｰﾐﾅﾙｶﾊﾞｰ
100
AcDbLine
 10
350.9790232457433
 20
407.8845343447949
 30
0.0
 11
347.3790232457434
 21
407.8845343447949
 31
0.0
  0
LINE
  5
2388
330
1F
100
AcDbEntity
  8
ﾀｰﾐﾅﾙｶﾊﾞｰ
100
AcDbLine
 10
350.9790232457433
 20
421.1845343447944
 30
0.0
 11
350.9790232457433
 21
407.8845343447949
 31
0.0
  0
LINE
  5
2389
330
1F
100
AcDbEntity
  8
ﾀｰﾐﾅﾙｶﾊﾞｰ
100
AcDbLine
 10
396.9790232457433
 20
421.1845343447942
 30
0.0
 11
350.9790232457433
 21
421.1845343447944
 31
0.0
  0
LINE
  5
238A
330
1F
100
AcDbEntity
  8
ﾀｰﾐﾅﾙｶﾊﾞｰ
100
AcDbLine
 10
396.9790232457433
 20
407.8845343447949
 30
0.0
 11
396.9790232457433
 21
421.1845343447942
 31
0.0
  0
LINE
  5
238B
330
1F
100
AcDbEntity
  8
AM_7
100
AcDbLine
 10
400.3790232457434
 20
437.294534344794
 30
0.0
 11
400.3790232457434
 21
371.0745343447943
 31
0.0
1001
GENIUS_GENODEF_13
1002
{
1000
HIER
1070
     0
1002
}
1002
{
1000
MANEDIT
1070
     0
1002
}
1002
{
1000
NOSEL
1070
     0
1002
}
1002
{
1000
BEHIND
1070
     0
1002
}
1002
{
1000
OTHER
1070
     0
1002
}
1002
{
1000
REACTOR
1002
}
1001
GENIUS_GENOBJ-N-CEN_13
1002
{
1000
OWNER
1000
GEN
1002
}
  0
LINE
  5
238C
330
1F
100
AcDbEntity
  8
ﾎﾞﾃﾞｨｰ
100
AcDbLine
 10
449.8790232457434
 20
407.584534344794
 30
0.0
 11
450.2790232457432
 21
422.584534344794
 31
0.0
  0
LINE
  5
238D
330
1F
100
AcDbEntity
  8
前面ﾊﾟﾈﾙ
100
AcDbLine
 10
451.4790232457433
 20
378.684534344794
 30
0.0
 11
400.3790232457434
 21
378.6845343447942
 31
0.0
  0
LINE
  5
238E
330
1F
100
AcDbEntity
  8
前面ﾊﾟﾈﾙ
100
AcDbLine
 10
451.4790232457433
 20
376.184534344794
 30
0.0
 11
451.4790232457433
 21
378.684534344794
 31
0.0
  0
LINE
  5
238F
330
1F
100
AcDbEntity
  8
ﾎﾞﾃﾞｨｰ
100
AcDbLine
 10
450.2790232457432
 20
380.184534344794
 30
0.0
 11
451.8790232457433
 21
380.184534344794
 31
0.0
  0
LINE
  5
2390
330
1F
100
AcDbEntity
  8
ﾎﾞﾃﾞｨｰ
100
AcDbLine
 10
450.8290232457434
 20
392.6845343447937
 30
0.0
 11
450.9790232457432
 21
387.6845343447937
 31
0.0
  0
LINE
  5
2392
330
1F
100
AcDbEntity
  8
ﾎﾞﾃﾞｨｰ
100
AcDbLine
 10
448.3290232457433
 20
392.6845343447937
 30
0.0
 11
448.1790232457433
 21
387.6845343447937
 31
0.0
  0
LINE
  5
2393
330
1F
100
AcDbEntity
  8
ﾎﾞﾃﾞｨｰ
100
AcDbLine
 10
450.8290232457434
 20
392.6845343447937
 30
0.0
 11
448.3290232457433
 21
392.6845343447937
 31
0.0
  0
LINE
  5
2394
330
1F
100
AcDbEntity
  8
ﾎﾞﾃﾞｨｰ
100
AcDbLine
 10
430.3790232457433
 20
387.6845343447937
 30
0.0
 11
451.8790232457433
 21
387.6845343447937
 31
0.0
  0
LINE
  5
2396
330
1F
100
AcDbEntity
  8
ﾎﾞﾃﾞｨｰ
100
AcDbLine
 10
429.3790232457434
 20
394.3845343447938
 30
0.0
 11
429.1290232457433
 21
399.3845343447938
 31
0.0
  0
LINE
  5
2399
330
1F
100
AcDbEntity
  8
ﾎﾞﾃﾞｨｰ
100
AcDbLine
 10
430.3790232457433
 20
387.2845343447946
 30
0.0
 11
430.3790232457433
 21
388.7845343447939
 31
0.0
  0
LINE
  5
239B
330
1F
100
AcDbEntity
  8
ﾎﾞﾃﾞｨｰ
100
AcDbLine
 10
448.0790232457434
 20
385.5845343447938
 30
0.0
 11
448.0790232457434
 21
378.684534344794
 31
0.0
  0
LINE
  5
239C
330
1F
100
AcDbEntity
  8
ﾎﾞﾃﾞｨｰ
100
AcDbLine
 10
451.0790232457434
 20
385.5845343447938
 30
0.0
 11
448.0790232457434
 21
385.5845343447938
 31
0.0
  0
LINE
  5
239D
330
1F
100
AcDbEntity
  8
ﾎﾞﾃﾞｨｰ
100
AcDbLine
 10
451.0790232457434
 20
380.184534344794
 30
0.0
 11
451.0790232457434
 21
385.5845343447938
 31
0.0
  0
LINE
  5
239E
330
1F
100
AcDbEntity
  8
ﾎﾞﾃﾞｨｰ
100
AcDbLine
 10
450.2790232457432
 20
378.684534344794
 30
0.0
 11
450.2790232457432
 21
380.184534344794
 31
0.0
  0
LINE
  5
239F
330
1F
100
AcDbEntity
  8
ﾎﾞﾃﾞｨｰ
100
AcDbLine
 10
430.3790232457433
 20
380.184534344794
 30
0.0
 11
448.0790232457434
 21
380.184534344794
 31
0.0
  0
LINE
  5
23A0
330
1F
100
AcDbEntity
  8
ﾎﾞﾃﾞｨｰ
100
AcDbLine
 10
451.8790232457433
 20
422.584534344794
 30
0.0
 11
450.2790232457432
 21
422.584534344794
 31
0.0
  0
LINE
  5
23A1
330
1F
100
AcDbEntity
  8
ﾍﾞｰｽ
100
AcDbLine
 10
451.8790232457433
 20
424.1845343447941
 30
0.0
 11
451.8790232457433
 21
427.1845343447941
 31
0.0
  0
LINE
  5
23A2
330
1F
100
AcDbEntity
  8
ﾍﾞｰｽ
100
AcDbLine
 10
400.3790232457434
 20
424.1845343447941
 30
0.0
 11
451.8790232457433
 21
424.1845343447941
 31
0.0
  0
LINE
  5
23A3
330
1F
100
AcDbEntity
  8
ﾎﾞﾃﾞｨｰ
100
AcDbLine
 10
451.8790232457433
 20
376.184534344794
 30
0.0
 11
451.8790232457433
 21
427.1845343447941
 31
0.0
  0
LINE
  5
23A4
330
1F
100
AcDbEntity
  8
ﾍﾞｰｽ
100
AcDbLine
 10
347.3790232457434
 20
427.1845343447941
 30
0.0
 11
453.3790232457433
 21
427.1845343447941
 31
0.0
  0
LINE
  5
23A5
330
1F
100
AcDbEntity
  8
ﾍﾞｰｽ
100
AcDbLine
 10
347.3790232457434
 20
434.1845343447944
 30
0.0
 11
347.3790232457434
 21
427.1845343447941
 31
0.0
  0
LINE
  5
23A6
330
1F
100
AcDbEntity
  8
ﾍﾞｰｽ
100
AcDbLine
 10
453.3790232457433
 20
434.1845343447942
 30
0.0
 11
347.3790232457434
 21
434.1845343447944
 31
0.0
  0
LINE
  5
23A7
330
1F
100
AcDbEntity
  8
ﾍﾞｰｽ
100
AcDbLine
 10
453.3790232457433
 20
427.1845343447941
 30
0.0
 11
453.3790232457433
 21
434.1845343447942
 31
0.0
  0
LINE
  5
23A8
330
1F
100
AcDbEntity
  8
ﾎﾞﾃﾞｨｰ
100
AcDbLine
 10
449.8790232457434
 20
407.584534344794
 30
0.0
 11
400.3790232457434
 21
407.5845343447943
 31
0.0
  0
LINE
  5
23A9
330
1F
100
AcDbEntity
  8
ﾎﾞﾃﾞｨｰ
100
AcDbLine
 10
400.3790232457434
 20
386.1845343447942
 30
0.0
 11
347.3790232457434
 21
386.1845343447942
 31
0.0
  0
LINE
  5
23AA
330
1F
100
AcDbEntity
  8
ﾎﾞﾃﾞｨｰ
100
AcDbLine
 10
347.3790232457434
 20
427.1845343447941
 30
0.0
 11
400.3790232457434
 21
427.1845343447941
 31
0.0
  0
LINE
  5
23AB
330
1F
100
AcDbEntity
  8
ﾎﾞﾃﾞｨｰ
100
AcDbLine
 10
347.3790232457434
 20
376.1845343447942
 30
0.0
 11
347.3790232457434
 21
427.1845343447941
 31
0.0
  0
LINE
  5
23AC
330
1F
100
AcDbEntity
  8
ﾎﾞﾃﾞｨｰ
100
AcDbLine
 10
453.3790232457433
 20
376.184534344794
 30
0.0
 11
347.3790232457434
 21
376.1845343447942
 31
0.0
  0
LINE
  5
23AD
330
1F
100
AcDbEntity
  8
ﾎﾞﾃﾞｨｰ
100
AcDbLine
 10
453.3790232457433
 20
427.1845343447941
 30
0.0
 11
453.3790232457433
 21
376.184534344794
 31
0.0
  0
LINE
  5
23AE
330
1F
100
AcDbEntity
  8
ﾎﾞﾃﾞｨｰ
100
AcDbLine
 10
396.9790232457433
 20
421.1845343447942
 30
0.0
 11
350.9790232457433
 21
421.1845343447942
 31
0.0
  0
LINE
  5
23AF
330
1F
100
AcDbEntity
  8
ﾎﾞﾃﾞｨｰ
100
AcDbLine
 10
350.9790232457433
 20
421.1845343447942
 30
0.0
 11
350.9790232457433
 21
407.8845343447949
 31
0.0
  0
LINE
  5
23B0
330
1F
100
AcDbEntity
  8
ﾎﾞﾃﾞｨｰ
100
AcDbLine
 10
451.8790232457433
 20
422.584534344794
 30
0.0
 11
400.3790232457434
 21
422.584534344794
 31
0.0
  0
LINE
  5
23B1
330
1F
100
AcDbEntity
  8
ﾎﾞﾃﾞｨｰ
100
AcDbLine
 10
453.3790232457433
 20
427.1845343447941
 30
0.0
 11
451.8790232457433
 21
427.1845343447941
 31
0.0
  0
LINE
  5
23B2
330
1F
100
AcDbEntity
  8
ﾎﾞﾃﾞｨｰ
100
AcDbLine
 10
453.3790232457433
 20
427.1845343447941
 30
0.0
 11
451.8790232457433
 21
427.1845343447941
 31
0.0
  0
LINE
  5
23B3
330
1F
100
AcDbEntity
  8
ﾎﾞﾃﾞｨｰ
100
AcDbLine
 10
400.3790232457434
 20
407.8845343447949
 30
0.0
 11
396.9790232457433
 21
407.8845343447949
 31
0.0
  0
LINE
  5
23B4
330
1F
100
AcDbEntity
  8
ﾎﾞﾃﾞｨｰ
100
AcDbLine
 10
396.9790232457435
 20
407.8845343447949
 30
0.0
 11
396.9790232457433
 21
421.1845343447942
 31
0.0
  0
LINE
  5
23B5
330
1F
100
AcDbEntity
  8
ﾀｰﾐﾅﾙｶﾊﾞｰ
100
AcDbLine
 10
347.3790232457434
 20
407.8845343447949
 30
0.0
 11
347.5760820692729
 21
401.1845343447943
 31
0.0
  0
LINE
  5
23B6
330
1F
100
AcDbEntity
  8
ﾀｰﾐﾅﾙｶﾊﾞｰ
100
AcDbLine
 10
400.1882540149741
 20
407.8845343447949
 30
0.0
 11
399.9790232457433
 21
401.1845343447943
 31
0.0
  0
LINE
  5
23B7
330
1F
100
AcDbEntity
  8
ﾀｰﾐﾅﾙｶﾊﾞｰ
100
AcDbLine
 10
400.1882540149741
 20
407.8845343447949
 30
0.0
 11
396.9790232457435
 21
407.8845343447949
 31
0.0
  0
LINE
  5
23B8
330
1F
100
AcDbEntity
  8
ﾀｰﾐﾅﾙｶﾊﾞｰ
100
AcDbLine
 10
399.9790232457433
 20
401.1845343447943
 30
0.0
 11
347.5790232457435
 21
401.1845343447943
 31
0.0
  0
LINE
  5
23B9
330
1F
100
AcDbEntity
  8
ﾎﾞﾃﾞｨｰ
100
AcDbLine
 10
350.9790232457433
 20
407.8845343447949
 30
0.0
 11
347.3790232457434
 21
407.8845343447949
 31
0.0
  0
LINE
  5
23BA
330
1F
100
AcDbEntity
  8
ﾎﾞﾃﾞｨｰ
100
AcDbLine
 10
424.3790232457433
 20
380.184534344794
 30
0.0
 11
403.3790232457433
 21
380.1845343447942
 31
0.0
  0
LINE
  5
23BB
330
1F
100
AcDbEntity
  8
ﾎﾞﾃﾞｨｰ
100
AcDbLine
 10
424.3790232457433
 20
378.684534344794
 30
0.0
 11
424.3790232457433
 21
380.184534344794
 31
0.0
  0
LINE
  5
23BC
330
1F
100
AcDbEntity
  8
ﾎﾞﾃﾞｨｰ
100
AcDbLine
 10
430.3790232457433
 20
378.684534344794
 30
0.0
 11
430.3790232457433
 21
380.184534344794
 31
0.0
  0
LINE
  5
23BD
330
1F
100
AcDbEntity
  8
ﾎﾞﾃﾞｨｰ
100
AcDbLine
 10
430.3790232457433
 20
387.2845343447946
 30
0.0
 11
424.3790232457433
 21
387.2845343447946
 31
0.0
  0
LINE
  5
23BE
330
1F
100
AcDbEntity
  8
ﾎﾞﾃﾞｨｰ
100
AcDbLine
 10
424.3790232457433
 20
387.2845343447946
 30
0.0
 11
424.3790232457433
 21
388.7845343447939
 31
0.0
  0
LINE
  5
23BF
330
1F
100
AcDbEntity
  8
ﾎﾞﾃﾞｨｰ
100
AcDbLine
 10
424.3790232457433
 20
388.7845343447939
 30
0.0
 11
430.3790232457433
 21
388.7845343447939
 31
0.0
  0
LINE
  5
23C0
330
1F
100
AcDbEntity
  8
ﾎﾞﾃﾞｨｰ
100
AcDbLine
 10
429.3790232457434
 20
394.3845343447938
 30
0.0
 11
425.3790232457434
 21
394.3845343447938
 31
0.0
  0
LINE
  5
23C1
330
1F
100
AcDbEntity
  8
ﾎﾞﾃﾞｨｰ
100
AcDbLine
 10
425.3790232457434
 20
394.3845343447938
 30
0.0
 11
425.6290232457433
 21
399.3845343447938
 31
0.0
  0
LINE
  5
23C2
330
1F
100
AcDbEntity
  8
ﾎﾞﾃﾞｨｰ
100
AcDbLine
 10
425.6290232457433
 20
399.3845343447938
 30
0.0
 11
429.1290232457433
 21
399.3845343447938
 31
0.0
  0
LINE
  5
23C3
330
1F
100
AcDbEntity
  8
ﾎﾞﾃﾞｨｰ
100
AcDbLine
 10
424.3790232457433
 20
387.6845343447937
 30
0.0
 11
400.3790232457434
 21
387.684534344794
 31
0.0
  0
LINE
  5
23C4
330
1F
100
AcDbEntity
  8
ﾎﾞﾃﾞｨｰ
100
AcDbLine
 10
403.3790232457433
 20
378.6845343447942
 30
0.0
 11
403.3790232457433
 21
380.1845343447942
 31
0.0
  0
LINE
  5
23C5
330
1F
100
AcDbEntity
  8
ﾎﾞﾃﾞｨｰ
100
AcDbLine
 10
422.8790232457433
 20
378.684534344794
 30
0.0
 11
422.8790232457433
 21
380.184534344794
 31
0.0
  0
LINE
  5
23C6
330
1F
100
AcDbEntity
  8
ﾎﾞﾃﾞｨｰ
100
AcDbLine
 10
414.8790232457433
 20
378.6845343447942
 30
0.0
 11
414.8790232457433
 21
380.1845343447942
 31
0.0
  0
LINE
  5
23C7
330
1F
100
AcDbEntity
  8
ﾎﾞﾃﾞｨｰ
100
AcDbLine
 10
400.3790232457434
 20
392.684534344794
 30
0.0
 11
401.6290232457434
 21
392.684534344794
 31
0.0
  0
LINE
  5
23C8
330
1F
100
AcDbEntity
  8
ﾎﾞﾃﾞｨｰ
100
AcDbLine
 10
401.6290232457434
 20
392.684534344794
 30
0.0
 11
401.7790232457432
 21
387.684534344794
 31
0.0
  0
HATCH
  5
23C9
330
1F
100
AcDbEntity
  8
AM_8
100
AcDbHatch
 10
0.0
 20
0.0
 30
0.0
210
0.0
220
0.0
230
1.0
  2
_U
 70
     0
 71
     0
 91
        1
 92
        1
 93
        4
 72
     1
 10
453.3790232457433
 20
376.184534344794
 11
453.3790232457433
 21
427.184534344794
 72
     1
 10
453.3790232457433
 20
427.1845343447941
 11
451.8790232457433
 21
427.1845343447941
 72
     1
 10
451.8790232457433
 20
427.1845343447941
 11
451.8790232457433
 21
376.1845343447941
 72
     1
 10
451.8790232457433
 20
376.184534344794
 11
453.3790232457433
 21
376.184534344794
 97
        0
 75
     0
 76
     0
 52
-135.0000000000001
 41
5.0
 77
     0
 78
     1
 53
224.9999999999999
 43
728.3988676435135
 44
486.3670940622084
 45
3.535533905932733
 46
-3.535533905932741
 79
     0
 98
        1
 10
728.3988676435135
 20
486.3670940622084
1001
GENIUS_GENOBJ-N-HTC_13
1002
{
1000
OWNER
1000
GEN
1002
}
1001
GENIUS_GENODEF_13
1002
{
1000
HIER
1070
     0
1002
}
1002
{
1000
MANEDIT
1070
     0
1002
}
1002
{
1000
NOSEL
1070
     0
1002
}
1002
{
1000
BEHIND
1070
     0
1002
}
1002
{
1000
OTHER
1070
     0
1002
}
1002
{
1000
REACTOR
1002
}
1001
GENIUS_GENHATCH_13
1002
{
1000
DATA
1040
45.0
1042
2.5
1000
_U
1070
     0
1011
452.5924030888304
1021
379.474683703537
1031
0.0
1002
}
1002
{
1000
UCS
1010
0.0
1020
0.0
1030
0.0
1010
1.0
1020
0.0
1030
0.0
1010
0.0
1020
1.0
1030
0.0
1002
}
  0
LINE
  5
23CA
330
1F
100
AcDbEntity
  8
ﾀｰﾐﾅﾙｶﾊﾞｰ
100
AcDbLine
 10
453.2290232457442
 20
259.1595927681553
 30
0.0
 11
453.2290232457444
 21
245.5595927681554
 31
0.0
  0
LINE
  5
23CB
330
1F
100
AcDbEntity
  8
ﾀｰﾐﾅﾙｶﾊﾞｰ
100
AcDbLine
 10
452.2290232457442
 20
258.1595927681553
 30
0.0
 11
452.2290232457444
 21
246.5595927681549
 31
0.0
  0
LINE
  5
23CC
330
1F
100
AcDbEntity
  8
ﾀｰﾐﾅﾙｶﾊﾞｰ
100
AcDbLine
 10
453.379023245744
 20
259.3595927681558
 30
0.0
 11
453.3790232457445
 21
245.3595927681554
 31
0.0
  0
LINE
  5
23CD
330
1F
100
AcDbEntity
  8
ﾀｰﾐﾅﾙｶﾊﾞｰ
100
AcDbLine
 10
428.9790232457444
 20
245.609592768155
 30
0.0
 11
428.9790232457444
 21
246.109592768155
 31
0.0
  0
LINE
  5
23CE
330
1F
100
AcDbEntity
  8
ﾀｰﾐﾅﾙｶﾊﾞｰ
100
AcDbLine
 10
428.4290232457444
 20
245.609592768155
 30
0.0
 11
428.4290232457443
 21
245.4595927681549
 31
0.0
  0
LINE
  5
23CF
330
1F
100
AcDbEntity
  8
ﾀｰﾐﾅﾙｶﾊﾞｰ
100
AcDbLine
 10
424.9790232457444
 20
245.6095927681548
 30
0.0
 11
424.9790232457444
 21
246.1095927681548
 31
0.0
  0
LINE
  5
23D0
330
1F
100
AcDbEntity
  8
ﾀｰﾐﾅﾙｶﾊﾞｰ
100
AcDbLine
 10
425.5290232457445
 20
245.6095927681548
 30
0.0
 11
425.5290232457443
 21
245.4595927681549
 31
0.0
  0
LINE
  5
23D1
330
1F
100
AcDbEntity
  8
ﾀｰﾐﾅﾙｶﾊﾞｰ
100
AcDbLine
 10
428.9790232457444
 20
246.109592768155
 30
0.0
 11
424.9790232457444
 21
246.1095927681548
 31
0.0
  0
LINE
  5
23D2
330
1F
100
AcDbEntity
  8
ﾀｰﾐﾅﾙｶﾊﾞｰ
100
AcDbLine
 10
400.7290232457444
 20
245.5595927681549
 30
0.0
 11
400.7290232457441
 21
259.1595927681548
 31
0.0
  0
LINE
  5
23D3
330
1F
100
AcDbEntity
  8
ﾀｰﾐﾅﾙｶﾊﾞｰ
100
AcDbLine
 10
401.7290232457444
 20
246.5595927681544
 30
0.0
 11
401.7290232457441
 21
258.1595927681548
 31
0.0
  0
LINE
  5
23D4
330
1F
100
AcDbEntity
  8
ﾀｰﾐﾅﾙｶﾊﾞｰ
100
AcDbLine
 10
400.5790232457443
 20
245.3595927681548
 30
0.0
 11
400.5790232457443
 21
259.3595927681548
 31
0.0
  0
LINE
  5
23D5
330
1F
100
AcDbEntity
  8
ﾀｰﾐﾅﾙｶﾊﾞｰ
100
AcDbLine
 10
453.2290232457444
 20
245.5595927681554
 30
0.0
 11
400.7290232457444
 21
245.5595927681544
 31
0.0
  0
LINE
  5
23D6
330
1F
100
AcDbEntity
  8
ﾀｰﾐﾅﾙｶﾊﾞｰ
100
AcDbLine
 10
400.7290232457441
 20
259.1595927681543
 30
0.0
 11
453.2290232457442
 21
259.1595927681553
 31
0.0
  0
LINE
  5
23D7
330
1F
100
AcDbEntity
  8
ﾀｰﾐﾅﾙｶﾊﾞｰ
100
AcDbLine
 10
452.2290232457444
 20
246.5595927681554
 30
0.0
 11
401.7290232457444
 21
246.5595927681544
 31
0.0
  0
LINE
  5
23D8
330
1F
100
AcDbEntity
  8
ﾀｰﾐﾅﾙｶﾊﾞｰ
100
AcDbLine
 10
401.7290232457441
 20
258.1595927681543
 30
0.0
 11
452.2290232457442
 21
258.1595927681553
 31
0.0
  0
LINE
  5
23D9
330
1F
100
AcDbEntity
  8
ﾀｰﾐﾅﾙｶﾊﾞｰ
100
AcDbLine
 10
400.5790232457443
 20
259.3595927681548
 30
0.0
 11
453.379023245744
 21
259.3595927681558
 31
0.0
  0
LINE
  5
23DA
330
1F
100
AcDbEntity
  8
ﾀｰﾐﾅﾙｶﾊﾞｰ
100
AcDbLine
 10
453.3790232457445
 20
245.3595927681554
 30
0.0
 11
400.5790232457443
 21
245.3595927681543
 31
0.0
  0
HATCH
  5
23DB
330
1F
100
AcDbEntity
  8
AM_8
100
AcDbHatch
 10
0.0
 20
0.0
 30
0.0
210
0.0
220
0.0
230
1.0
  2
_U
 70
     0
 71
     0
 91
        1
 92
        1
 93
       11
 72
     1
 10
220.8606136665741
 20
185.6095927681549
 11
220.8606136665741
 21
171.4595927681548
 72
     1
 10
220.8606136665741
 20
171.4595927681548
 11
203.0606136665741
 21
171.4595927681548
 72
     1
 10
203.060613666574
 20
171.4595927681548
 11
203.060613666574
 21
169.5595927681549
 72
     1
 10
203.060613666574
 20
169.5595927681549
 11
222.3606136665741
 21
169.5595927681549
 72
     1
 10
222.3606136665741
 20
169.5595927681549
 11
222.3606136665741
 21
184.1095927681548
 72
     1
 10
222.3606136665741
 20
184.1095927681548
 11
244.0606136665741
 21
184.1095927681548
 72
     1
 10
244.060613666574
 20
184.1095927681548
 11
244.060613666574
 21
185.6095927681549
 72
     1
 10
244.060613666574
 20
185.6095927681549
 11
235.860613666574
 21
185.6095927681549
 72
     1
 10
235.860613666574
 20
185.6095927681549
 11
235.860613666574
 21
186.4095927681548
 72
     1
 10
235.860613666574
 20
186.4095927681548
 11
230.8606136665741
 21
185.6095927681549
 72
     1
 10
230.8606136665741
 20
185.6095927681549
 11
220.8606136665741
 21
185.6095927681549
 97
        0
 75
     0
 76
     0
 52
45.0
 41
5.0
 77
     0
 78
     1
 53
45.0
 43
69.82833946091296
 44
-163.3051147716669
 45
-3.535533905932737
 46
3.535533905932737
 79
     0
 98
        1
 10
68.82833946091295
 20
-163.3051147716669
1001
GENIUS_GENODEF_13
1002
{
1000
HIER
1070
     0
1002
}
1002
{
1000
MANEDIT
1070
     0
1002
}
1002
{
1000
NOSEL
1070
     0
1002
}
1002
{
1000
BEHIND
1070
     0
1002
}
1002
{
1000
OTHER
1070
     0
1002
}
1002
{
1000
REACTOR
1002
}
1001
GENIUS_GENOBJ-N-HTC_13
1002
{
1000
OWNER
1000
GEN
1002
}
1001
GENIUS_GENHATCH_13
1002
{
1000
DATA
1040
45.0
1042
2.5
1000
_U
1070
     0
1011
234.2505070654977
1021
185.4229994538393
1031
0.0
1002
}
1002
{
1000
UCS
1010
0.0
1020
0.0
1030
0.0
1010
1.0
1020
0.0
1030
0.0
1010
0.0
1020
1.0
1030
0.0
1002
}
  0
LINE
  5
23DC
330
1F
100
AcDbEntity
  8
ﾎﾞﾃﾞｨｰ
100
AcDbLine
 10
207.5606136665741
 20
175.0595927681548
 30
0.0
 11
220.8606136665741
 21
175.0595927681549
 31
0.0
  0
LINE
  5
23DD
330
1F
100
AcDbEntity
  8
ﾎﾞﾃﾞｨｰ
100
AcDbLine
 10
207.5606136665741
 20
183.5595927681548
 30
0.0
 11
207.5606136665741
 21
175.0595927681548
 31
0.0
  0
LINE
  5
23DE
330
1F
100
AcDbEntity
  8
ﾎﾞﾃﾞｨｰ
100
AcDbLine
 10
220.8606136665741
 20
183.5595927681548
 30
0.0
 11
207.5606136665741
 21
183.5595927681548
 31
0.0
  0
LINE
  5
23DF
330
1F
100
AcDbEntity
  8
ﾎﾞﾃﾞｨｰ
100
AcDbLine
 10
220.8606136665741
 20
185.6095927681549
 30
0.0
 11
220.8606136665741
 21
171.4595927681548
 31
0.0
  0
LINE
  5
23E0
330
1F
100
AcDbEntity
  8
ﾎﾞﾃﾞｨｰ
100
AcDbLine
 10
230.8606136665741
 20
185.6095927681549
 30
0.0
 11
220.8606136665741
 21
185.6095927681549
 31
0.0
  0
LINE
  5
23E1
330
1F
100
AcDbEntity
  8
ﾎﾞﾃﾞｨｰ
100
AcDbLine
 10
222.3606136665741
 20
184.1095927681548
 30
0.0
 11
222.3606136665741
 21
169.5595927681549
 31
0.0
  0
LINE
  5
23E2
330
1F
100
AcDbEntity
  8
ﾎﾞﾃﾞｨｰ
100
AcDbLine
 10
203.0606136665739
 20
259.6595927681546
 30
0.0
 11
203.0606136665739
 21
257.7595927681548
 31
0.0
  0
HATCH
  5
23E3
330
1F
100
AcDbEntity
  8
AM_8
100
AcDbHatch
 10
0.0
 20
0.0
 30
0.0
210
0.0
220
0.0
230
1.0
  2
_USER
 70
     0
 71
     0
 91
        1
 92
        1
 93
       17
 72
     1
 10
219.0606136665739
 20
245.359592768155
 11
220.760613666574
 21
245.3595927681548
 72
     1
 10
220.7606136665739
 20
245.3595927681548
 11
222.460613666574
 21
244.6595927681549
 72
     1
 10
222.460613666574
 20
244.6595927681549
 11
222.460613666574
 21
245.3595927681548
 72
     1
 10
222.460613666574
 20
245.3595927681548
 11
222.5606136665732
 21
245.3595927681548
 72
     1
 10
222.5606136665731
 20
245.3595927681548
 11
229.0606136665739
 21
245.5595927681549
 72
     1
 10
229.0606136665739
 20
245.5595927681549
 11
229.0606136665739
 21
246.5595927681549
 72
     1
 10
229.0606136665739
 20
246.5595927681549
 11
228.7606136665739
 21
246.5595927681549
 72
     1
 10
228.7606136665738
 20
246.5595927681549
 11
228.7606136665737
 21
258.1595927681548
 72
     1
 10
228.7606136665738
 20
258.1595927681548
 11
229.0606136665739
 21
258.1595927681548
 72
     1
 10
229.0606136665738
 20
258.1595927681548
 11
229.0606136665738
 21
259.1595927681548
 72
     1
 10
229.0606136665738
 20
259.1595927681548
 11
222.5606136665726
 21
259.3595927681548
 72
     1
 10
222.5606136665726
 20
259.3595927681548
 11
209.0606136665738
 21
259.3595927681548
 72
     1
 10
209.0606136665738
 20
259.3595927681548
 11
209.0606136665738
 21
257.8595927681547
 72
     1
 10
209.0606136665738
 20
257.8595927681547
 11
227.4606136665738
 21
257.8595927681549
 72
     1
 10
227.4606136665738
 20
257.8595927681548
 11
227.4606136665738
 21
246.5595927681548
 72
     1
 10
227.4606136665739
 20
246.5595927681549
 11
219.0606136665739
 21
246.5595927681549
 72
     1
 10
219.0606136665739
 20
246.5595927681549
 11
219.0606136665739
 21
245.359592768155
 97
        0
 75
     0
 76
     0
 52
135.0
 41
5.0
 77
     0
 78
     1
 53
135.0
 43
69.82833946091296
 44
-163.055114771667
 45
-3.535533905932737
 46
-3.535533905932737
 79
     0
 98
        1
 10
68.82833946091295
 20
-163.055114771667
1001
GENIUS_GENOBJ-N-HTC_13
1002
{
1000
OWNER
1000
GEN
1002
}
1001
GENIUS_GENODEF_13
1002
{
1000
HIER
1070
     0
1002
}
1002
{
1000
MANEDIT
1070
     0
1002
}
1002
{
1000
NOSEL
1070
     0
1002
}
1002
{
1000
BEHIND
1070
     0
1002
}
1002
{
1000
OTHER
1070
     0
1002
}
1002
{
1000
REACTOR
1002
}
1001
GENIUS_GENHATCH_13
1002
{
1000
DATA
1040
45.0
1042
2.5
1000
_U
1070
     0
1011
221.500942189457
1021
245.8629104871955
1031
0.0
1002
}
1002
{
1000
UCS
1010
0.0
1020
0.0
1030
0.0
1010
1.0
1020
0.0
1030
0.0
1010
0.0
1020
1.0
1030
0.0
1002
}
  0
HATCH
  5
23E4
330
1F
100
AcDbEntity
  8
AM_8
100
AcDbHatch
 10
0.0
 20
0.0
 30
0.0
210
0.0
220
0.0
230
1.0
  2
_U
 70
     0
 71
     0
 91
        1
 92
        1
 93
        7
 72
     1
 10
244.0606136665739
 20
243.6095927681549
 11
244.0606136665739
 21
245.109592768155
 72
     1
 10
244.0606136665739
 20
245.109592768155
 11
222.4606136665739
 21
245.1095927681549
 72
     1
 10
222.4606136665739
 20
245.1095927681549
 11
222.460613666574
 21
243.6095927681548
 72
     1
 10
222.460613666574
 20
243.6095927681548
 11
230.860613666574
 21
243.6095927681548
 72
     1
 10
230.860613666574
 20
243.6095927681548
 11
235.8606136665738
 21
242.809592768155
 72
     1
 10
235.8606136665738
 20
242.809592768155
 11
235.8606136665738
 21
243.6095927681549
 72
     1
 10
235.8606136665738
 20
243.6095927681549
 11
244.0606136665739
 21
243.6095927681549
 97
        0
 75
     0
 76
     0
 52
135.0
 41
3.0
 77
     0
 78
     1
 53
135.0
 43
69.82833946091296
 44
-163.3051147716669
 45
-2.121320343559642
 46
-2.121320343559642
 79
     0
 98
        1
 10
68.82833946091295
 20
-163.3051147716669
1001
GENIUS_GENOBJ-N-HTC_13
1002
{
1000
OWNER
1000
GEN
1002
}
1001
GENIUS_GENODEF_13
1002
{
1000
HIER
1070
     0
1002
}
1002
{
1000
MANEDIT
1070
     0
1002
}
1002
{
1000
NOSEL
1070
     0
1002
}
1002
{
1000
BEHIND
1070
     0
1002
}
1002
{
1000
OTHER
1070
     0
1002
}
1002
{
1000
REACTOR
1002
}
1001
GENIUS_GENHATCH_13
1002
{
1000
DATA
1040
45.0
1042
2.5
1000
_U
1070
     0
1011
235.8132192252292
1021
244.3300320588584
1031
0.0
1002
}
1002
{
1000
UCS
1010
0.0
1020
0.0
1030
0.0
1010
1.0
1020
0.0
1030
0.0
1010
0.0
1020
1.0
1030
0.0
1002
}
  0
HATCH
  5
23E5
330
1F
100
AcDbEntity
  8
AM_8
100
AcDbHatch
 10
0.0
 20
0.0
 30
0.0
210
0.0
220
0.0
230
1.0
  2
_U
 70
     0
 71
     0
 91
        1
 92
        1
 93
       10
 72
     1
 10
254.0606136665739
 20
237.109592768155
 11
244.0606136665739
 21
237.1095927681549
 72
     1
 10
244.0606136665739
 20
237.1095927681549
 11
244.0606136665739
 21
241.7095927681549
 72
     1
 10
244.0606136665739
 20
241.7095927681549
 11
242.5606136665739
 21
241.709592768155
 72
     1
 10
242.5606136665739
 20
241.709592768155
 11
242.5606136665739
 21
237.509592768155
 72
     1
 10
242.5606136665739
 20
237.509592768155
 11
241.4606136665737
 21
237.509592768155
 72
     1
 10
241.4606136665737
 20
237.509592768155
 11
241.4606136665737
 21
235.8095927681549
 72
     1
 10
241.4606136665739
 20
235.8095927681549
 11
242.9606136665739
 21
234.809592768155
 72
     1
 10
242.9606136665739
 20
234.809592768155
 11
242.9606136665739
 21
235.609592768155
 72
     1
 10
242.9606136665739
 20
235.609592768155
 11
254.0606136665739
 21
235.609592768155
 72
     1
 10
254.0606136665739
 20
235.609592768155
 11
254.0606136665739
 21
237.109592768155
 97
        0
 75
     0
 76
     0
 52
135.0
 41
2.0
 77
     0
 78
     1
 53
135.0
 43
69.82833946091296
 44
-163.3051147716669
 45
-1.414213562373095
 46
-1.414213562373094
 79
     0
 98
        1
 10
68.82833946091295
 20
-163.3051147716669
1001
GENIUS_GENODEF_13
1002
{
1000
HIER
1070
     0
1002
}
1002
{
1000
MANEDIT
1070
     0
1002
}
1002
{
1000
NOSEL
1070
     0
1002
}
1002
{
1000
BEHIND
1070
     0
1002
}
1002
{
1000
OTHER
1070
     0
1002
}
1002
{
1000
REACTOR
1002
}
1001
GENIUS_GENOBJ-N-HTC_13
1002
{
1000
OWNER
1000
GEN
1002
}
1001
GENIUS_GENHATCH_13
1002
{
1000
DATA
1040
45.0
1042
2.5
1000
_U
1070
     0
1011
243.5705874635712
1021
236.3956329153836
1031
0.0
1002
}
1002
{
1000
UCS
1010
0.0
1020
0.0
1030
0.0
1010
1.0
1020
0.0
1030
0.0
1010
0.0
1020
1.0
1030
0.0
1002
}
  0
LINE
  5
23E6
330
1F
100
AcDbEntity
  8
ﾎﾞﾃﾞｨｰ
100
AcDbLine
 10
203.0606136665739
 20
259.6595927681546
 30
0.0
 11
222.3606136665734
 21
259.6595927681548
 31
0.0
  0
LINE
  5
23E7
330
1F
100
AcDbEntity
  8
ﾎﾞﾃﾞｨｰ
100
AcDbLine
 10
203.0606136665739
 20
257.7595927681548
 30
0.0
 11
209.0606136665738
 21
257.7595927681549
 31
0.0
  0
LINE
  5
23E8
330
1F
100
AcDbEntity
  8
ﾎﾞﾃﾞｨｰ
100
AcDbLine
 10
222.4606136665739
 20
245.1095927681549
 30
0.0
 11
244.0606136665739
 21
245.109592768155
 31
0.0
1001
GENIUS_GENODEF_13
1002
{
1000
HIER
1070
     0
1002
}
1002
{
1000
MANEDIT
1070
     0
1002
}
1002
{
1000
NOSEL
1070
     0
1002
}
1002
{
1000
BEHIND
1070
     0
1002
}
1002
{
1000
REACTOR
1002
}
1001
GENIUS_GENOBJ-N-CEN_13
1002
{
1000
OWNER
1000
GEN
1002
}
  0
LINE
  5
23E9
330
1F
100
AcDbEntity
  8
ﾀｰﾐﾅﾙｶﾊﾞｰ
100
AcDbLine
 10
220.7606136665739
 20
245.359592768155
 30
0.0
 11
218.2606136665738
 21
245.3595927681549
 31
0.0
  0
LINE
  5
23EA
330
1F
100
AcDbEntity
  8
ﾀｰﾐﾅﾙｶﾊﾞｰ
100
AcDbLine
 10
222.460613666574
 20
244.6595927681549
 30
0.0
 11
220.7606136665739
 21
245.3595927681548
 31
0.0
  0
LINE
  5
23EB
330
1F
100
AcDbEntity
  8
ﾀｰﾐﾅﾙｶﾊﾞｰ
100
AcDbLine
 10
222.460613666574
 20
245.3595927681548
 30
0.0
 11
222.460613666574
 21
244.6595927681549
 31
0.0
  0
LINE
  5
23EC
330
1F
100
AcDbEntity
  8
ﾀｰﾐﾅﾙｶﾊﾞｰ
100
AcDbLine
 10
227.4606136665739
 20
246.5595927681549
 30
0.0
 11
227.4606136665738
 21
257.8595927681548
 31
0.0
  0
LINE
  5
23ED
330
1F
100
AcDbEntity
  8
ﾀｰﾐﾅﾙｶﾊﾞｰ
100
AcDbLine
 10
219.0606136665739
 20
246.5595927681549
 30
0.0
 11
227.4606136665739
 21
246.5595927681549
 31
0.0
  0
LINE
  5
23EE
330
1F
100
AcDbEntity
  8
ﾀｰﾐﾅﾙｶﾊﾞｰ
100
AcDbLine
 10
219.0606136665739
 20
245.359592768155
 30
0.0
 11
219.0606136665739
 21
246.5595927681549
 31
0.0
  0
LINE
  5
23EF
330
1F
100
AcDbEntity
  8
ﾀｰﾐﾅﾙｶﾊﾞｰ
100
AcDbLine
 10
228.7606136665738
 20
258.1595927681548
 30
0.0
 11
229.0606136665739
 21
258.1595927681548
 31
0.0
  0
LINE
  5
23F0
330
1F
100
AcDbEntity
  8
ﾀｰﾐﾅﾙｶﾊﾞｰ
100
AcDbLine
 10
228.7606136665738
 20
246.5595927681549
 30
0.0
 11
228.7606136665738
 21
258.1595927681548
 31
0.0
  0
LINE
  5
23F1
330
1F
100
AcDbEntity
  8
ﾀｰﾐﾅﾙｶﾊﾞｰ
100
AcDbLine
 10
229.0606136665739
 20
246.5595927681549
 30
0.0
 11
228.7606136665738
 21
246.5595927681549
 31
0.0
  0
LINE
  5
23F2
330
1F
100
AcDbEntity
  8
ﾀｰﾐﾅﾙｶﾊﾞｰ
100
AcDbLine
 10
229.0606136665739
 20
245.5595927681549
 30
0.0
 11
229.0606136665738
 21
259.1595927681548
 31
0.0
  0
LINE
  5
23F3
330
1F
100
AcDbEntity
  8
ﾀｰﾐﾅﾙｶﾊﾞｰ
100
AcDbLine
 10
209.0606136665738
 20
257.8595927681547
 30
0.0
 11
209.0606136665738
 21
259.3595927681548
 31
0.0
  0
LINE
  5
23F4
330
1F
100
AcDbEntity
  8
ﾀｰﾐﾅﾙｶﾊﾞｰ
100
AcDbLine
 10
222.5606136665726
 20
259.3595927681548
 30
0.0
 11
209.0606136665738
 21
259.3595927681548
 31
0.0
  0
LINE
  5
23F5
330
1F
100
AcDbEntity
  8
ﾀｰﾐﾅﾙｶﾊﾞｰ
100
AcDbLine
 10
222.5606136665731
 20
245.3595927681548
 30
0.0
 11
229.0606136665739
 21
245.5595927681549
 31
0.0
  0
LINE
  5
23F6
330
1F
100
AcDbEntity
  8
ﾀｰﾐﾅﾙｶﾊﾞｰ
100
AcDbLine
 10
229.0606136665738
 20
259.1595927681548
 30
0.0
 11
222.5606136665726
 21
259.3595927681548
 31
0.0
  0
LINE
  5
23F7
330
1F
100
AcDbEntity
  8
ﾀｰﾐﾅﾙｶﾊﾞｰ
100
AcDbLine
 10
217.7606136665738
 20
245.8595927681548
 30
0.0
 11
217.7606136665738
 21
257.3595927681548
 31
0.0
  0
LINE
  5
23F8
330
1F
100
AcDbEntity
  8
ﾀｰﾐﾅﾙｶﾊﾞｰ
100
AcDbLine
 10
222.5606136665731
 20
245.3595927681548
 30
0.0
 11
222.460613666574
 21
245.359592768155
 31
0.0
  0
LINE
  5
23F9
330
1F
100
AcDbEntity
  8
ﾀｰﾐﾅﾙｶﾊﾞｰ
100
AcDbLine
 10
227.4606136665738
 20
257.8595927681548
 30
0.0
 11
209.0606136665738
 21
257.8595927681547
 31
0.0
  0
ARC
  5
23FA
330
1F
100
AcDbEntity
  8
ﾀｰﾐﾅﾙｶﾊﾞｰ
100
AcDbCircle
 10
218.2606136665738
 20
245.8595927681548
 30
0.0
 40
0.5
100
AcDbArc
 50
180.0
 51
270.0
1001
GENIUS_GENODEF_13
1002
{
1000
HIER
1070
     0
1002
}
1002
{
1000
MANEDIT
1070
     0
1002
}
1002
{
1000
NOSEL
1070
     0
1002
}
1002
{
1000
BEHIND
1070
     0
1002
}
1002
{
1000
REACTOR
1002
}
1001
GENIUS_GENOBJ-N-FIL_13
1002
{
1000
OWNER
1000
GEN
1002
}
  0
ARC
  5
23FB
330
1F
100
AcDbEntity
  8
ﾀｰﾐﾅﾙｶﾊﾞｰ
100
AcDbCircle
 10
218.2606136665738
 20
257.3595927681548
 30
0.0
 40
0.5
100
AcDbArc
 50
90.0
 51
180.0
1001
GENIUS_GENODEF_13
1002
{
1000
HIER
1070
     0
1002
}
1002
{
1000
MANEDIT
1070
     0
1002
}
1002
{
1000
NOSEL
1070
     0
1002
}
1002
{
1000
BEHIND
1070
     0
1002
}
1002
{
1000
REACTOR
1002
}
1001
GENIUS_GENOBJ-N-FIL_13
1002
{
1000
OWNER
1000
GEN
1002
}
  0
HATCH
  5
23FC
330
1F
100
AcDbEntity
  8
AM_8
100
AcDbHatch
 10
0.0
 20
0.0
 30
0.0
210
0.0
220
0.0
230
1.0
  2
_U
 70
     0
 71
     0
 91
        1
 92
        1
 93
        8
 72
     1
 10
251.5606136665739
 20
231.6095927681551
 11
251.560613666574
 21
235.609592768155
 72
     1
 10
251.5606136665739
 20
235.609592768155
 11
254.0606136665733
 21
235.6095927681552
 72
     1
 10
254.0606136665734
 20
235.6095927681552
 11
254.060613666574
 21
234.9095927681552
 72
     1
 10
254.0606136665739
 20
234.9095927681553
 11
253.7606136665728
 21
234.9095927681553
 72
     1
 10
253.7606136665728
 20
234.9095927681553
 11
253.760613666574
 21
214.609592768155
 72
     1
 10
253.760613666574
 20
214.609592768155
 11
251.5606136665739
 21
214.609592768155
 72
     1
 10
251.5606136665739
 20
214.609592768155
 11
251.5606136665739
 21
220.5967692125664
 72
     1
 10
251.5606136665739
 20
220.5967692125663
 11
251.5606136665738
 21
231.6095927681551
 97
        0
 75
     0
 76
     0
 52
135.0
 41
3.0
 77
     0
 78
     1
 53
135.0
 43
69.82833946091296
 44
-163.3051147716669
 45
-2.121320343559642
 46
-2.121320343559642
 79
     0
 98
        1
 10
-114.7550578024663
 20
-55.14688888964397
1001
GENIUS_GENODEF_13
1002
{
1000
HIER
1070
     0
1002
}
1002
{
1000
MANEDIT
1070
     0
1002
}
1002
{
1000
NOSEL
1070
     0
1002
}
1002
{
1000
BEHIND
1070
     0
1002
}
1002
{
1000
OTHER
1070
     0
1002
}
1002
{
1000
REACTOR
1002
}
1001
GENIUS_GENOBJ-N-HTC_13
1002
{
1000
OWNER
1000
GEN
1002
}
1001
GENIUS_GENHATCH_13
1002
{
1000
DATA
1040
45.0
1042
-2.5
1000
_U
1070
     0
1011
252.6488326704723
1021
220.5967692125663
1031
0.0
1002
}
1002
{
1000
UCS
1010
0.0
1020
0.0
1030
0.0
1010
1.0
1020
0.0
1030
0.0
1010
0.0
1020
1.0
1030
0.0
1002
}
  0
LINE
  5
23FD
330
1F
100
AcDbEntity
  8
前面ﾊﾟﾈﾙ
100
AcDbLine
 10
253.7606136665728
 20
234.9095927681553
 30
0.0
 11
254.0606136665739
 21
234.9095927681553
 31
0.0
  0
LINE
  5
2401
330
1F
100
AcDbEntity
  8
前面ﾊﾟﾈﾙ
100
AcDbLine
 10
251.560613666574
 20
216.934592768155
 30
0.0
 11
249.060613666574
 21
216.7595927681551
 31
0.0
  0
LINE
  5
2402
330
1F
100
AcDbEntity
  8
前面ﾊﾟﾈﾙ
100
AcDbLine
 10
250.2606136665741
 20
214.609592768155
 30
0.0
 11
250.2606136665741
 21
216.8373705459328
 31
0.0
  0
LINE
  5
2403
330
1F
100
AcDbEntity
  8
前面ﾊﾟﾈﾙ
100
AcDbLine
 10
249.060613666574
 20
216.7595927681551
 30
0.0
 11
249.060613666574
 21
214.609592768155
 31
0.0
  0
LINE
  5
2404
330
1F
100
AcDbEntity
  8
前面ﾊﾟﾈﾙ
100
AcDbLine
 10
251.5606136665739
 20
235.609592768155
 30
0.0
 11
254.0606136665734
 21
235.6095927681552
 31
0.0
  0
LINE
  5
2405
330
1F
100
AcDbEntity
  8
ﾍﾞｰｽ
100
AcDbLine
 10
206.0606136665739
 20
257.7595927681549
 30
0.0
 11
206.0606136665739
 21
171.4595927681548
 31
0.0
  0
LINE
  5
2406
330
1F
100
AcDbEntity
  8
ﾎﾞﾃﾞｨｰ
100
AcDbLine
 10
207.5606136665739
 20
245.1095927681549
 30
0.0
 11
221.3677565237168
 21
245.109592768155
 31
0.0
1001
GENIUS_GENODEF_13
1002
{
1000
HIER
1070
     0
1002
}
1002
{
1000
MANEDIT
1070
     0
1002
}
1002
{
1000
NOSEL
1070
     0
1002
}
1002
{
1000
BEHIND
1070
     0
1002
}
1002
{
1000
REACTOR
1002
}
1001
GENIUS_GENOBJ-N-CEN_13
1002
{
1000
OWNER
1000
GEN
1002
}
  0
LINE
  5
2407
330
1F
100
AcDbEntity
  8
ﾎﾞﾃﾞｨｰ
100
AcDbLine
 10
244.0606136665739
 20
237.1095927681549
 30
0.0
 11
254.0606136665739
 21
237.109592768155
 31
0.0
1001
GENIUS_GENODEF_13
1002
{
1000
HIER
1070
     0
1002
}
1002
{
1000
MANEDIT
1070
     0
1002
}
1002
{
1000
NOSEL
1070
     0
1002
}
1002
{
1000
BEHIND
1070
     0
1002
}
1002
{
1000
REACTOR
1002
}
1001
GENIUS_GENOBJ-N-CEN_13
1002
{
1000
OWNER
1000
GEN
1002
}
  0
LINE
  5
2409
330
1F
100
AcDbEntity
  8
ﾎﾞﾃﾞｨｰ
100
AcDbLine
 10
244.0606136665739
 20
237.1095927681549
 30
0.0
 11
244.0606136665739
 21
245.109592768155
 31
0.0
  0
LINE
  5
240A
330
1F
100
AcDbEntity
  8
ﾎﾞﾃﾞｨｰ
100
AcDbLine
 10
242.5606136665739
 20
241.709592768155
 30
0.0
 11
244.0606136665739
 21
241.7095927681549
 31
0.0
  0
LINE
  5
240B
330
1F
100
AcDbEntity
  8
ﾎﾞﾃﾞｨｰ
100
AcDbLine
 10
242.9606136665739
 20
235.609592768155
 30
0.0
 11
254.0606136665739
 21
235.609592768155
 31
0.0
  0
LINE
  5
240C
330
1F
100
AcDbEntity
  8
ﾎﾞﾃﾞｨｰ
100
AcDbLine
 10
207.5606136665739
 20
243.6095927681548
 30
0.0
 11
230.860613666574
 21
243.6095927681548
 31
0.0
  0
LINE
  5
240D
330
1F
100
AcDbEntity
  8
ﾎﾞﾃﾞｨｰ
100
AcDbLine
 10
242.5606136665739
 20
243.6095927681549
 30
0.0
 11
242.5606136665739
 21
237.509592768155
 31
0.0
  0
LINE
  5
240E
330
1F
100
AcDbEntity
  8
ﾎﾞﾃﾞｨｰ
100
AcDbLine
 10
235.8606136665738
 20
243.6095927681549
 30
0.0
 11
235.8606136665738
 21
242.809592768155
 31
0.0
  0
LINE
  5
240F
330
1F
100
AcDbEntity
  8
ﾎﾞﾃﾞｨｰ
100
AcDbLine
 10
235.8606136665738
 20
243.6095927681549
 30
0.0
 11
244.0606136665739
 21
243.6095927681549
 31
0.0
  0
LINE
  5
2410
330
1F
100
AcDbEntity
  8
ﾎﾞﾃﾞｨｰ
100
AcDbLine
 10
250.160613666574
 20
233.909592768155
 30
0.0
 11
251.5606136665739
 21
233.909592768155
 31
0.0
  0
LINE
  5
2411
330
1F
100
AcDbEntity
  8
ﾎﾞﾃﾞｨｰ
100
AcDbLine
 10
250.160613666574
 20
233.909592768155
 30
0.0
 11
250.160613666574
 21
235.609592768155
 31
0.0
  0
LINE
  5
2412
330
1F
100
AcDbEntity
  8
ﾎﾞﾃﾞｨｰ
100
AcDbLine
 10
251.5606136665739
 20
233.909592768155
 30
0.0
 11
251.5606136665739
 21
235.609592768155
 31
0.0
  0
LINE
  5
2413
330
1F
100
AcDbEntity
  8
ﾎﾞﾃﾞｨｰ
100
AcDbLine
 10
251.5606136665739
 20
216.934592768155
 30
0.0
 11
251.5606136665739
 21
233.909592768155
 31
0.0
  0
LINE
  5
2414
330
1F
100
AcDbEntity
  8
ﾎﾞﾃﾞｨｰ
100
AcDbLine
 10
250.160613666574
 20
216.836592768155
 30
0.0
 11
250.160613666574
 21
231.6095927681551
 31
0.0
  0
LINE
  5
2415
330
1F
100
AcDbEntity
  8
ﾎﾞﾃﾞｨｰ
100
AcDbLine
 10
251.5606136665739
 20
217.659592768155
 30
0.0
 11
250.160613666574
 21
217.659592768155
 31
0.0
  0
LINE
  5
2416
330
1F
100
AcDbEntity
  8
ﾎﾞﾃﾞｨｰ
100
AcDbLine
 10
244.6606136665739
 20
231.609592768155
 30
0.0
 11
251.5606136665739
 21
231.6095927681551
 31
0.0
  0
LINE
  5
2417
330
1F
100
AcDbEntity
  8
ﾎﾞﾃﾞｨｰ
100
AcDbLine
 10
244.6606136665738
 20
234.609592768155
 30
0.0
 11
244.6606136665739
 21
231.609592768155
 31
0.0
  0
LINE
  5
2418
330
1F
100
AcDbEntity
  8
ﾎﾞﾃﾞｨｰ
100
AcDbLine
 10
244.6606136665738
 20
234.609592768155
 30
0.0
 11
250.1606136665739
 21
234.6095927681551
 31
0.0
  0
LINE
  5
2419
330
1F
100
AcDbEntity
  8
ﾎﾞﾃﾞｨｰ
100
AcDbLine
 10
237.5606136665739
 20
242.609592768155
 30
0.0
 11
237.5606136665739
 21
240.109592768155
 31
0.0
  0
LINE
  5
241A
330
1F
100
AcDbEntity
  8
ﾎﾞﾃﾞｨｰ
100
AcDbLine
 10
237.5606136665739
 20
240.109592768155
 30
0.0
 11
242.5606136665739
 21
239.959592768155
 31
0.0
  0
LINE
  5
241B
330
1F
100
AcDbEntity
  8
ﾎﾞﾃﾞｨｰ
100
AcDbLine
 10
237.5606136665739
 20
242.609592768155
 30
0.0
 11
242.5606136665739
 21
242.759592768155
 31
0.0
  0
LINE
  5
241C
330
1F
100
AcDbEntity
  8
ﾎﾞﾃﾞｨｰ
100
AcDbLine
 10
222.3606136665734
 20
259.6595927681548
 30
0.0
 11
222.3606136665734
 21
259.3595927681548
 31
0.0
  0
LINE
  5
241D
330
1F
100
AcDbEntity
  8
ﾎﾞﾃﾞｨｰ
100
AcDbLine
 10
222.460613666574
 20
245.1095927681549
 30
0.0
 11
222.460613666574
 21
243.6095927681548
 31
0.0
  0
LINE
  5
241E
330
1F
100
AcDbEntity
  8
ﾎﾞﾃﾞｨｰ
100
AcDbLine
 10
207.5606136665739
 20
245.1095927681549
 30
0.0
 11
207.5606136665739
 21
243.6095927681548
 31
0.0
  0
LINE
  5
241F
330
1F
100
AcDbEntity
  8
ﾎﾞﾃﾞｨｰ
100
AcDbLine
 10
209.0606136665738
 20
259.6595927681548
 30
0.0
 11
209.0606136665738
 21
257.7595927681549
 31
0.0
  0
LINE
  5
2420
330
1F
100
AcDbEntity
  8
ﾎﾞﾃﾞｨｰ
100
AcDbLine
 10
241.4606136665739
 20
235.8095927681549
 30
0.0
 11
242.9606136665739
 21
234.809592768155
 31
0.0
  0
LINE
  5
2421
330
1F
100
AcDbEntity
  8
ﾎﾞﾃﾞｨｰ
100
AcDbLine
 10
241.4606136665737
 20
237.509592768155
 30
0.0
 11
242.5606136665739
 21
237.509592768155
 31
0.0
  0
LINE
  5
2422
330
1F
100
AcDbEntity
  8
ﾎﾞﾃﾞｨｰ
100
AcDbLine
 10
241.4606136665737
 20
237.509592768155
 30
0.0
 11
241.4606136665739
 21
235.8095927681549
 31
0.0
  0
LINE
  5
2423
330
1F
100
AcDbEntity
  8
ﾎﾞﾃﾞｨｰ
100
AcDbLine
 10
242.9606136665739
 20
235.609592768155
 30
0.0
 11
242.9606136665739
 21
234.809592768155
 31
0.0
  0
LINE
  5
2424
330
1F
100
AcDbEntity
  8
ﾎﾞﾃﾞｨｰ
100
AcDbLine
 10
235.8606136665738
 20
242.809592768155
 30
0.0
 11
230.860613666574
 21
243.6095927681548
 31
0.0
  0
LINE
  5
2425
330
1F
100
AcDbEntity
  8
ﾎﾞﾃﾞｨｰ
100
AcDbLine
 10
453.3790232457431
 20
181.8595927681542
 30
0.0
 11
448.0790232457431
 21
181.8595927681542
 31
0.0
  0
LINE
  5
2426
330
1F
100
AcDbEntity
  8
ﾎﾞﾃﾞｨｰ
100
AcDbLine
 10
448.0790232457431
 20
181.8595927681542
 30
0.0
 11
448.0790232457431
 21
175.3595927681542
 31
0.0
  0
LINE
  5
2427
330
1F
100
AcDbEntity
  8
ﾎﾞﾃﾞｨｰ
100
AcDbLine
 10
448.0790232457431
 20
175.3595927681542
 30
0.0
 11
453.3790232457431
 21
175.3595927681543
 31
0.0
  0
LINE
  5
2428
330
1F
100
AcDbEntity
  8
ﾎﾞﾃﾞｨｰ
100
AcDbLine
 10
352.6790232457433
 20
176.0595927681541
 30
0.0
 11
347.3790232457436
 21
176.0595927681542
 31
0.0
  0
LINE
  5
2429
330
1F
100
AcDbEntity
  8
ﾎﾞﾃﾞｨｰ
100
AcDbLine
 10
352.6790232457433
 20
182.5595927681541
 30
0.0
 11
352.6790232457433
 21
176.0595927681541
 31
0.0
  0
LINE
  5
242A
330
1F
100
AcDbEntity
  8
ﾎﾞﾃﾞｨｰ
100
AcDbLine
 10
347.3790232457436
 20
182.5595927681541
 30
0.0
 11
352.6790232457433
 21
182.5595927681541
 31
0.0
  0
LINE
  5
242B
330
1F
100
AcDbEntity
  8
ﾎﾞﾃﾞｨｰ
100
AcDbLine
 10
430.3790232457433
 20
185.6095927681537
 30
0.0
 11
424.3790232457433
 21
185.6095927681537
 31
0.0
  0
LINE
  5
242C
330
1F
100
AcDbEntity
  8
ﾎﾞﾃﾞｨｰ
100
AcDbLine
 10
430.3790232457433
 20
187.5095927681537
 30
0.0
 11
430.3790232457433
 21
185.6095927681537
 31
0.0
  0
LINE
  5
242D
330
1F
100
AcDbEntity
  8
ﾎﾞﾃﾞｨｰ
100
AcDbLine
 10
424.3790232457433
 20
187.5095927681537
 30
0.0
 11
430.3790232457433
 21
187.5095927681537
 31
0.0
  0
LINE
  5
242E
330
1F
100
AcDbEntity
  8
ﾎﾞﾃﾞｨｰ
100
AcDbLine
 10
424.3790232457433
 20
185.6095927681537
 30
0.0
 11
424.3790232457433
 21
187.5095927681537
 31
0.0
  0
LINE
  5
242F
330
1F
100
AcDbEntity
  8
前面ﾊﾟﾈﾙ
100
AcDbLine
 10
451.4790232457437
 20
217.1095927681539
 30
0.0
 11
451.4790232457439
 21
235.6095927681539
 31
0.0
  0
LINE
  5
2430
330
1F
100
AcDbEntity
  8
前面ﾊﾟﾈﾙ
100
AcDbLine
 10
349.2790232457437
 20
217.1095927681545
 30
0.0
 11
349.2790232457437
 21
235.6095927681545
 31
0.0
  0
LINE
  5
2431
330
1F
100
AcDbEntity
  8
前面ﾊﾟﾈﾙ
100
AcDbLine
 10
349.2790232457437
 20
193.6095927681546
 30
0.0
 11
349.2790232457437
 21
212.1095927681545
 31
0.0
  0
LINE
  5
2432
330
1F
100
AcDbEntity
  8
前面ﾊﾟﾈﾙ
100
AcDbLine
 10
451.4790232457435
 20
193.609592768154
 30
0.0
 11
451.4790232457435
 21
212.1095927681539
 31
0.0
  0
LINE
  5
2433
330
1F
100
AcDbEntity
  8
前面ﾊﾟﾈﾙ
100
AcDbLine
 10
451.4790232457435
 20
193.609592768154
 30
0.0
 11
349.2790232457437
 21
193.6095927681546
 31
0.0
  0
LINE
  5
2434
330
1F
100
AcDbEntity
  8
前面ﾊﾟﾈﾙ
100
AcDbLine
 10
451.4790232457435
 20
212.359592768154
 30
0.0
 11
451.4790232457435
 21
216.8595927681539
 31
0.0
  0
LINE
  5
2435
330
1F
100
AcDbEntity
  8
前面ﾊﾟﾈﾙ
100
AcDbLine
 10
450.9790232457435
 20
212.1095927681539
 30
0.0
 11
450.9790232457437
 21
217.1095927681539
 31
0.0
  0
LINE
  5
2436
330
1F
100
AcDbEntity
  8
前面ﾊﾟﾈﾙ
100
AcDbLine
 10
451.4790232457435
 20
212.359592768154
 30
0.0
 11
450.9790232457435
 21
212.359592768154
 31
0.0
  0
LINE
  5
2437
330
1F
100
AcDbEntity
  8
前面ﾊﾟﾈﾙ
100
AcDbLine
 10
450.9790232457435
 20
212.1095927681539
 30
0.0
 11
451.4790232457435
 21
212.1095927681539
 31
0.0
  0
LINE
  5
2438
330
1F
100
AcDbEntity
  8
前面ﾊﾟﾈﾙ
100
AcDbLine
 10
451.4790232457435
 20
216.8595927681539
 30
0.0
 11
450.9790232457435
 21
216.8595927681539
 31
0.0
  0
LINE
  5
2439
330
1F
100
AcDbEntity
  8
前面ﾊﾟﾈﾙ
100
AcDbLine
 10
450.9790232457437
 20
217.1095927681539
 30
0.0
 11
451.4790232457437
 21
217.1095927681539
 31
0.0
  0
LINE
  5
243A
330
1F
100
AcDbEntity
  8
前面ﾊﾟﾈﾙ
100
AcDbLine
 10
349.2790232457437
 20
212.3550473136091
 30
0.0
 11
349.2790232457437
 21
216.8641382227001
 31
0.0
  0
LINE
  5
243B
330
1F
100
AcDbEntity
  8
前面ﾊﾟﾈﾙ
100
AcDbLine
 10
349.7790232457437
 20
212.1095927681545
 30
0.0
 11
349.7790232457437
 21
217.1095927681545
 31
0.0
  0
LINE
  5
243C
330
1F
100
AcDbEntity
  8
前面ﾊﾟﾈﾙ
100
AcDbLine
 10
349.2790232457437
 20
212.3550473136091
 30
0.0
 11
349.7790232457437
 21
212.3550473136091
 31
0.0
  0
LINE
  5
243D
330
1F
100
AcDbEntity
  8
前面ﾊﾟﾈﾙ
100
AcDbLine
 10
349.7790232457437
 20
212.1095927681545
 30
0.0
 11
349.2790232457437
 21
212.1095927681545
 31
0.0
  0
LINE
  5
243E
330
1F
100
AcDbEntity
  8
前面ﾊﾟﾈﾙ
100
AcDbLine
 10
349.2790232457437
 20
216.8641382227001
 30
0.0
 11
349.7790232457437
 21
216.8641382227001
 31
0.0
  0
LINE
  5
243F
330
1F
100
AcDbEntity
  8
前面ﾊﾟﾈﾙ
100
AcDbLine
 10
349.7790232457437
 20
217.1095927681545
 30
0.0
 11
349.2790232457437
 21
217.1095927681545
 31
0.0
  0
LINE
  5
2440
330
1F
100
AcDbEntity
  8
前面ﾊﾟﾈﾙ
100
AcDbLine
 10
451.4790232457439
 20
235.6095927681539
 30
0.0
 11
349.2790232457437
 21
235.6095927681545
 31
0.0
  0
LINE
  5
2441
330
1F
100
AcDbEntity
  8
前面ﾊﾟﾈﾙ
100
AcDbLine
 10
350.2790232457437
 20
195.6095927681546
 30
0.0
 11
350.2790232457437
 21
233.6095927681545
 31
0.0
  0
LINE
  5
2442
330
1F
100
AcDbEntity
  8
前面ﾊﾟﾈﾙ
100
AcDbLine
 10
449.479023245744
 20
234.609592768154
 30
0.0
 11
351.2790232457437
 21
234.6095927681545
 31
0.0
  0
LINE
  5
2443
330
1F
100
AcDbEntity
  8
前面ﾊﾟﾈﾙ
100
AcDbLine
 10
450.4790232457435
 20
195.609592768154
 30
0.0
 11
450.4790232457439
 21
233.6095927681539
 31
0.0
  0
LINE
  5
2444
330
1F
100
AcDbEntity
  8
前面ﾊﾟﾈﾙ
100
AcDbLine
 10
449.4790232457435
 20
194.609592768154
 30
0.0
 11
351.2790232457437
 21
194.6095927681546
 31
0.0
  0
ARC
  5
2445
330
1F
100
AcDbEntity
  8
前面ﾊﾟﾈﾙ
100
AcDbCircle
 10
351.2790232457437
 20
233.6095927681545
 30
0.0
 40
1.0
100
AcDbArc
 50
90.0
 51
180.0
1001
GENIUS_GENODEF_13
1002
{
1000
HIER
1070
     0
1002
}
1002
{
1000
MANEDIT
1070
     0
1002
}
1002
{
1000
NOSEL
1070
     0
1002
}
1002
{
1000
BEHIND
1070
     0
1002
}
1002
{
1000
REACTOR
1002
}
1001
GENIUS_GENOBJ-N-FIL_13
1002
{
1000
OWNER
1000
GEN
1002
}
  0
ARC
  5
2446
330
1F
100
AcDbEntity
  8
前面ﾊﾟﾈﾙ
100
AcDbCircle
 10
449.479023245744
 20
233.6095927681539
 30
0.0
 40
1.0
100
AcDbArc
 50
0.0
 51
90.0
1001
GENIUS_GENODEF_13
1002
{
1000
HIER
1070
     0
1002
}
1002
{
1000
MANEDIT
1070
     0
1002
}
1002
{
1000
NOSEL
1070
     0
1002
}
1002
{
1000
BEHIND
1070
     0
1002
}
1002
{
1000
REACTOR
1002
}
1001
GENIUS_GENOBJ-N-FIL_13
1002
{
1000
OWNER
1000
GEN
1002
}
  0
ARC
  5
2447
330
1F
100
AcDbEntity
  8
前面ﾊﾟﾈﾙ
100
AcDbCircle
 10
449.4790232457435
 20
195.6095927681541
 30
0.0
 40
1.0
100
AcDbArc
 50
270.0
 51
0.0
1001
GENIUS_GENODEF_13
1002
{
1000
HIER
1070
     0
1002
}
1002
{
1000
MANEDIT
1070
     0
1002
}
1002
{
1000
NOSEL
1070
     0
1002
}
1002
{
1000
BEHIND
1070
     0
1002
}
1002
{
1000
REACTOR
1002
}
1001
GENIUS_GENOBJ-N-FIL_13
1002
{
1000
OWNER
1000
GEN
1002
}
  0
ARC
  5
2448
330
1F
100
AcDbEntity
  8
前面ﾊﾟﾈﾙ
100
AcDbCircle
 10
351.2790232457437
 20
195.6095927681546
 30
0.0
 40
1.0
100
AcDbArc
 50
180.0
 51
270.0
1001
GENIUS_GENODEF_13
1002
{
1000
HIER
1070
     0
1002
}
1002
{
1000
MANEDIT
1070
     0
1002
}
1002
{
1000
NOSEL
1070
     0
1002
}
1002
{
1000
BEHIND
1070
     0
1002
}
1002
{
1000
REACTOR
1002
}
1001
GENIUS_GENOBJ-N-FIL_13
1002
{
1000
OWNER
1000
GEN
1002
}
  0
LINE
  5
2449
330
1F
100
AcDbEntity
  8
ﾎﾞﾃﾞｨｰ
100
AcDbLine
 10
370.379023245744
 20
243.6595927681544
 30
0.0
 11
376.3790232457441
 21
243.6595927681544
 31
0.0
  0
LINE
  5
244A
330
1F
100
AcDbEntity
  8
ﾎﾞﾃﾞｨｰ
100
AcDbLine
 10
370.379023245744
 20
241.7595927681544
 30
0.0
 11
370.379023245744
 21
243.6595927681544
 31
0.0
  0
LINE
  5
244B
330
1F
100
AcDbEntity
  8
ﾎﾞﾃﾞｨｰ
100
AcDbLine
 10
376.3790232457441
 20
241.7595927681543
 30
0.0
 11
370.379023245744
 21
241.7595927681544
 31
0.0
  0
LINE
  5
244C
330
1F
100
AcDbEntity
  8
ﾎﾞﾃﾞｨｰ
100
AcDbLine
 10
376.3790232457441
 20
243.6595927681544
 30
0.0
 11
376.3790232457441
 21
241.7595927681543
 31
0.0
  0
LINE
  5
244D
330
1F
100
AcDbEntity
  8
ﾎﾞﾃﾞｨｰ
100
AcDbLine
 10
349.2790232457437
 20
211.6095927681545
 30
0.0
 11
348.8790232457436
 21
211.6095927681545
 31
0.0
  0
LINE
  5
244E
330
1F
100
AcDbEntity
  8
ﾎﾞﾃﾞｨｰ
100
AcDbLine
 10
451.4790232457435
 20
211.609592768154
 30
0.0
 11
451.8790232457436
 21
211.609592768154
 31
0.0
  0
LINE
  5
244F
330
1F
100
AcDbEntity
  8
ﾎﾞﾃﾞｨｰ
100
AcDbLine
 10
451.4790232457437
 20
217.609592768154
 30
0.0
 11
451.8790232457436
 21
217.609592768154
 31
0.0
  0
LINE
  5
2450
330
1F
100
AcDbEntity
  8
ﾎﾞﾃﾞｨｰ
100
AcDbLine
 10
349.2790232457437
 20
217.6095927681545
 30
0.0
 11
348.8790232457436
 21
217.6095927681545
 31
0.0
  0
ARC
  5
2451
330
1F
100
AcDbEntity
  8
ﾎﾞﾃﾞｨｰ
100
AcDbCircle
 10
453.0790232457436
 20
192.409592768154
 30
0.0
 40
0.3
100
AcDbArc
 50
270.0
 51
0.0
  0
ARC
  5
2452
330
1F
100
AcDbEntity
  8
ﾎﾞﾃﾞｨｰ
100
AcDbCircle
 10
453.0790232457438
 20
236.8095927681539
 30
0.0
 40
0.3
100
AcDbArc
 50
0.0
 51
90.0
  0
ARC
  5
2453
330
1F
100
AcDbEntity
  8
ﾎﾞﾃﾞｨｰ
100
AcDbCircle
 10
347.6790232457438
 20
236.8095927681546
 30
0.0
 40
0.3
100
AcDbArc
 50
90.0
 51
180.0
  0
ARC
  5
2454
330
1F
100
AcDbEntity
  8
ﾎﾞﾃﾞｨｰ
100
AcDbCircle
 10
347.6790232457438
 20
192.4095927681545
 30
0.0
 40
0.3
100
AcDbArc
 50
180.0
 51
270.0
  0
LINE
  5
2458
330
1F
100
AcDbEntity
  8
ﾎﾞﾃﾞｨｰ
100
AcDbLine
 10
348.8790232457438
 20
235.6095927681546
 30
0.0
 11
451.8790232457438
 21
235.609592768154
 31
0.0
  0
LINE
  5
245A
330
1F
100
AcDbEntity
  8
ﾎﾞﾃﾞｨｰ
100
AcDbLine
 10
347.6790232457438
 20
237.1095927681545
 30
0.0
 11
453.0790232457438
 21
237.1095927681539
 31
0.0
  0
LINE
  5
245B
330
1F
100
AcDbEntity
  8
ﾎﾞﾃﾞｨｰ
100
AcDbLine
 10
451.8790232457436
 20
193.609592768154
 30
0.0
 11
451.8790232457436
 21
235.609592768154
 31
0.0
  0
LINE
  5
245C
330
1F
100
AcDbEntity
  8
ﾎﾞﾃﾞｨｰ
100
AcDbLine
 10
453.3790232457436
 20
169.5595927681542
 30
0.0
 11
453.3790232457436
 21
259.6595927681546
 31
0.0
  0
LINE
  5
245D
330
1F
100
AcDbEntity
  8
ﾎﾞﾃﾞｨｰ
100
AcDbLine
 10
348.8790232457436
 20
235.6095927681546
 30
0.0
 11
348.8790232457436
 21
193.6095927681545
 31
0.0
  0
LINE
  5
245E
330
1F
100
AcDbEntity
  8
ﾎﾞﾃﾞｨｰ
100
AcDbLine
 10
347.3790232457438
 20
259.6595927681549
 30
0.0
 11
347.3790232457434
 21
169.5595927681545
 31
0.0
  0
LINE
  5
245F
330
1F
100
AcDbEntity
  8
ﾎﾞﾃﾞｨｰ
100
AcDbLine
 10
348.8790232457436
 20
193.6095927681545
 30
0.0
 11
451.8790232457436
 21
193.609592768154
 31
0.0
  0
LINE
  5
2460
330
1F
100
AcDbEntity
  8
ﾎﾞﾃﾞｨｰ
100
AcDbLine
 10
347.6790232457436
 20
192.1095927681545
 30
0.0
 11
453.0790232457436
 21
192.109592768154
 31
0.0
  0
LINE
  5
2461
330
1F
100
AcDbEntity
  8
ﾎﾞﾃﾞｨｰ
100
AcDbLine
 10
453.3790232457436
 20
169.5595927681538
 30
0.0
 11
347.3790232457434
 21
169.5595927681545
 31
0.0
  0
LINE
  5
2462
330
1F
100
AcDbEntity
  8
ﾎﾞﾃﾞｨｰ
100
AcDbLine
 10
347.3790232457436
 20
184.1095927681542
 30
0.0
 11
453.3790232457436
 21
184.1095927681538
 31
0.0
  0
LINE
  5
2463
330
1F
100
AcDbEntity
  8
ﾎｯｸ
100
AcDbLine
 10
405.1290232457433
 20
169.5595927681542
 30
0.0
 11
405.1290232457433
 21
165.3095927681541
 31
0.0
  0
LINE
  5
2464
330
1F
100
AcDbEntity
  8
ﾎｯｸ
100
AcDbLine
 10
405.1290232457433
 20
165.3095927681541
 30
0.0
 11
395.6290232457436
 21
165.3095927681541
 31
0.0
  0
LINE
  5
2465
330
1F
100
AcDbEntity
  8
ﾎｯｸ
100
AcDbLine
 10
402.8790232457433
 20
169.5595927681542
 30
0.0
 11
402.8790232457433
 21
167.309592768154
 31
0.0
  0
LINE
  5
2466
330
1F
100
AcDbEntity
  8
ﾎｯｸ
100
AcDbLine
 10
402.8790232457433
 20
167.3095927681541
 30
0.0
 11
397.8790232457434
 21
167.3095927681541
 31
0.0
  0
LINE
  5
2467
330
1F
100
AcDbEntity
  8
ﾎｯｸ
100
AcDbLine
 10
397.8790232457436
 20
169.5595927681542
 30
0.0
 11
397.8790232457434
 21
167.309592768154
 31
0.0
  0
LINE
  5
2468
330
1F
100
AcDbEntity
  8
ﾎｯｸ
100
AcDbLine
 10
395.6290232457436
 20
169.5595927681542
 30
0.0
 11
395.6290232457436
 21
165.3095927681541
 31
0.0
  0
LINE
  5
2469
330
1F
100
AcDbEntity
  8
ﾎﾞﾃﾞｨｰ
100
AcDbLine
 10
376.3790232457436
 20
185.6095927681541
 30
0.0
 11
376.3790232457436
 21
187.5095927681541
 31
0.0
  0
LINE
  5
246A
330
1F
100
AcDbEntity
  8
ﾎﾞﾃﾞｨｰ
100
AcDbLine
 10
376.3790232457436
 20
187.5095927681541
 30
0.0
 11
370.3790232457436
 21
187.5095927681542
 31
0.0
  0
LINE
  5
246B
330
1F
100
AcDbEntity
  8
ﾎﾞﾃﾞｨｰ
100
AcDbLine
 10
370.3790232457436
 20
187.5095927681541
 30
0.0
 11
370.3790232457436
 21
185.6095927681541
 31
0.0
  0
LINE
  5
246C
330
1F
100
AcDbEntity
  8
ﾎﾞﾃﾞｨｰ
100
AcDbLine
 10
370.3790232457436
 20
185.6095927681542
 30
0.0
 11
376.3790232457436
 21
185.6095927681541
 31
0.0
  0
LINE
  5
246D
330
1F
100
AcDbEntity
  8
ﾎﾞﾃﾞｨｰ
100
AcDbLine
 10
424.3790232457436
 20
243.659592768154
 30
0.0
 11
424.3790232457438
 21
241.7595927681541
 31
0.0
  0
LINE
  5
246E
330
1F
100
AcDbEntity
  8
ﾎﾞﾃﾞｨｰ
100
AcDbLine
 10
424.3790232457438
 20
241.7595927681541
 30
0.0
 11
430.3790232457436
 21
241.759592768154
 31
0.0
  0
LINE
  5
246F
330
1F
100
AcDbEntity
  8
ﾎﾞﾃﾞｨｰ
100
AcDbLine
 10
430.3790232457436
 20
241.759592768154
 30
0.0
 11
430.3790232457436
 21
243.659592768154
 31
0.0
  0
LINE
  5
2470
330
1F
100
AcDbEntity
  8
ﾎﾞﾃﾞｨｰ
100
AcDbLine
 10
430.3790232457436
 20
243.659592768154
 30
0.0
 11
424.3790232457436
 21
243.659592768154
 31
0.0
  0
LINE
  5
2471
330
1F
100
AcDbEntity
  8
ﾀｰﾐﾅﾙｶﾊﾞｰ
100
AcDbLine
 10
347.3790232457436
 20
245.3595927681554
 30
0.0
 11
400.1790232457433
 21
245.3595927681543
 31
0.0
  0
LINE
  5
2472
330
1F
100
AcDbEntity
  8
ﾀｰﾐﾅﾙｶﾊﾞｰ
100
AcDbLine
 10
400.1790232457437
 20
259.3595927681548
 30
0.0
 11
347.3790232457438
 21
259.3595927681558
 31
0.0
  0
LINE
  5
2473
330
1F
100
AcDbEntity
  8
ﾀｰﾐﾅﾙｶﾊﾞｰ
100
AcDbLine
 10
399.0290232457437
 20
258.1595927681543
 30
0.0
 11
348.5290232457437
 21
258.1595927681553
 31
0.0
  0
LINE
  5
2474
330
1F
100
AcDbEntity
  8
ﾀｰﾐﾅﾙｶﾊﾞｰ
100
AcDbLine
 10
348.5290232457437
 20
246.5595927681554
 30
0.0
 11
399.0290232457437
 21
246.5595927681544
 31
0.0
  0
LINE
  5
2475
330
1F
100
AcDbEntity
  8
ﾀｰﾐﾅﾙｶﾊﾞｰ
100
AcDbLine
 10
400.0290232457436
 20
259.1595927681543
 30
0.0
 11
347.5290232457437
 21
259.1595927681553
 31
0.0
  0
LINE
  5
2476
330
1F
100
AcDbEntity
  8
ﾀｰﾐﾅﾙｶﾊﾞｰ
100
AcDbLine
 10
347.5290232457435
 20
245.5595927681554
 30
0.0
 11
400.0290232457435
 21
245.5595927681544
 31
0.0
  0
LINE
  5
2477
330
1F
100
AcDbEntity
  8
ﾀｰﾐﾅﾙｶﾊﾞｰ
100
AcDbLine
 10
400.1790232457433
 20
245.3595927681548
 30
0.0
 11
400.1790232457437
 21
259.3595927681548
 31
0.0
  0
LINE
  5
2478
330
1F
100
AcDbEntity
  8
ﾀｰﾐﾅﾙｶﾊﾞｰ
100
AcDbLine
 10
399.0290232457437
 20
246.5595927681549
 30
0.0
 11
399.0290232457437
 21
258.1595927681548
 31
0.0
  0
LINE
  5
2479
330
1F
100
AcDbEntity
  8
ﾀｰﾐﾅﾙｶﾊﾞｰ
100
AcDbLine
 10
400.0290232457435
 20
245.5595927681549
 30
0.0
 11
400.0290232457436
 21
259.1595927681548
 31
0.0
  0
LINE
  5
247A
330
1F
100
AcDbEntity
  8
ﾀｰﾐﾅﾙｶﾊﾞｰ
100
AcDbLine
 10
371.7790232457437
 20
246.109592768155
 30
0.0
 11
375.7790232457437
 21
246.1095927681548
 31
0.0
  0
LINE
  5
247B
330
1F
100
AcDbEntity
  8
ﾀｰﾐﾅﾙｶﾊﾞｰ
100
AcDbLine
 10
375.2290232457435
 20
245.5595927681549
 30
0.0
 11
375.2290232457435
 21
245.3595927681548
 31
0.0
  0
LINE
  5
247C
330
1F
100
AcDbEntity
  8
ﾀｰﾐﾅﾙｶﾊﾞｰ
100
AcDbLine
 10
375.7790232457435
 20
245.5595927681549
 30
0.0
 11
375.7790232457437
 21
246.1095927681548
 31
0.0
  0
LINE
  5
247D
330
1F
100
AcDbEntity
  8
ﾀｰﾐﾅﾙｶﾊﾞｰ
100
AcDbLine
 10
372.3290232457434
 20
245.5595927681549
 30
0.0
 11
372.3290232457434
 21
245.3595927681548
 31
0.0
  0
LINE
  5
247E
330
1F
100
AcDbEntity
  8
ﾀｰﾐﾅﾙｶﾊﾞｰ
100
AcDbLine
 10
371.7790232457435
 20
245.5595927681549
 30
0.0
 11
371.7790232457437
 21
246.109592768155
 31
0.0
  0
LINE
  5
247F
330
1F
100
AcDbEntity
  8
ﾀｰﾐﾅﾙｶﾊﾞｰ
100
AcDbLine
 10
347.3790232457438
 20
259.3595927681558
 30
0.0
 11
347.3790232457436
 21
245.3595927681554
 31
0.0
  0
LINE
  5
2480
330
1F
100
AcDbEntity
  8
ﾀｰﾐﾅﾙｶﾊﾞｰ
100
AcDbLine
 10
348.5290232457437
 20
258.1595927681553
 30
0.0
 11
348.5290232457437
 21
246.5595927681549
 31
0.0
  0
LINE
  5
2481
330
1F
100
AcDbEntity
  8
ﾀｰﾐﾅﾙｶﾊﾞｰ
100
AcDbLine
 10
347.5290232457437
 20
259.1595927681553
 30
0.0
 11
347.5290232457435
 21
245.5595927681554
 31
0.0
  0
LINE
  5
2482
330
1F
100
AcDbEntity
  8
ﾎﾞﾃﾞｨｰ
100
AcDbLine
 10
347.3790232457438
 20
259.6595927681549
 30
0.0
 11
453.379023245744
 21
259.6595927681546
 31
0.0
  0
LINE
  5
2483
330
1F
100
AcDbEntity
  8
ﾎﾞﾃﾞｨｰ
100
AcDbLine
 10
347.3790232457438
 20
245.1095927681544
 30
0.0
 11
453.3790232457438
 21
245.1095927681541
 31
0.0
  0
LINE
  5
2484
330
1F
100
AcDbEntity
  8
ﾎﾞﾃﾞｨｰ
100
AcDbLine
 10
235.860613666574
 20
186.4095927681548
 30
0.0
 11
230.8606136665741
 21
185.6095927681549
 31
0.0
  0
LINE
  5
2485
330
1F
100
AcDbEntity
  8
ﾎﾞﾃﾞｨｰ
100
AcDbLine
 10
242.960613666574
 20
193.6095927681548
 30
0.0
 11
242.960613666574
 21
194.4095927681547
 31
0.0
  0
LINE
  5
2486
330
1F
100
AcDbEntity
  8
ﾎﾞﾃﾞｨｰ
100
AcDbLine
 10
241.4606136665739
 20
191.7095927681548
 30
0.0
 11
241.460613666574
 21
193.4095927681548
 31
0.0
  0
LINE
  5
2487
330
1F
100
AcDbEntity
  8
ﾎﾞﾃﾞｨｰ
100
AcDbLine
 10
241.4606136665739
 20
191.7095927681548
 30
0.0
 11
242.560613666574
 21
191.7095927681548
 31
0.0
  0
LINE
  5
2488
330
1F
100
AcDbEntity
  8
ﾎﾞﾃﾞｨｰ
100
AcDbLine
 10
241.460613666574
 20
193.4095927681548
 30
0.0
 11
242.960613666574
 21
194.4095927681547
 31
0.0
  0
LINE
  5
2489
330
1F
100
AcDbEntity
  8
ﾎﾞﾃﾞｨｰ
100
AcDbLine
 10
203.060613666574
 20
171.4595927681548
 30
0.0
 11
220.8606136665741
 21
171.4595927681548
 31
0.0
  0
LINE
  5
248A
330
1F
100
AcDbEntity
  8
ﾎﾞﾃﾞｨｰ
100
AcDbLine
 10
237.560613666574
 20
186.6095927681548
 30
0.0
 11
242.560613666574
 21
186.4595927681548
 31
0.0
  0
LINE
  5
248B
330
1F
100
AcDbEntity
  8
ﾎﾞﾃﾞｨｰ
100
AcDbLine
 10
237.560613666574
 20
189.1095927681547
 30
0.0
 11
242.560613666574
 21
189.2595927681547
 31
0.0
  0
LINE
  5
248C
330
1F
100
AcDbEntity
  8
ﾎﾞﾃﾞｨｰ
100
AcDbLine
 10
237.560613666574
 20
186.6095927681548
 30
0.0
 11
237.560613666574
 21
189.1095927681547
 31
0.0
  0
LINE
  5
248D
330
1F
100
AcDbEntity
  8
ﾎﾞﾃﾞｨｰ
100
AcDbLine
 10
244.6606136665739
 20
194.6095927681548
 30
0.0
 11
250.160613666574
 21
194.6095927681548
 31
0.0
  0
LINE
  5
248E
330
1F
100
AcDbEntity
  8
ﾎﾞﾃﾞｨｰ
100
AcDbLine
 10
244.6606136665739
 20
194.6095927681548
 30
0.0
 11
244.6606136665739
 21
197.6095927681548
 31
0.0
  0
LINE
  5
248F
330
1F
100
AcDbEntity
  8
ﾎﾞﾃﾞｨｰ
100
AcDbLine
 10
244.6606136665739
 20
197.6095927681548
 30
0.0
 11
251.5606136665739
 21
197.6095927681548
 31
0.0
  0
LINE
  5
2490
330
1F
100
AcDbEntity
  8
ﾎﾞﾃﾞｨｰ
100
AcDbLine
 10
251.5606136665739
 20
211.5595927681548
 30
0.0
 11
250.160613666574
 21
211.5595927681548
 31
0.0
  0
LINE
  5
2491
330
1F
100
AcDbEntity
  8
ﾎﾞﾃﾞｨｰ
100
AcDbLine
 10
250.160613666574
 20
212.3825927681548
 30
0.0
 11
250.160613666574
 21
197.6095927681548
 31
0.0
  0
LINE
  5
2492
330
1F
100
AcDbEntity
  8
ﾎﾞﾃﾞｨｰ
100
AcDbLine
 10
251.5606136665739
 20
212.2845927681548
 30
0.0
 11
251.5606136665739
 21
195.3095927681548
 31
0.0
  0
LINE
  5
2493
330
1F
100
AcDbEntity
  8
ﾎﾞﾃﾞｨｰ
100
AcDbLine
 10
251.5606136665739
 20
195.3095927681548
 30
0.0
 11
251.560613666574
 21
193.6095927681548
 31
0.0
  0
LINE
  5
2494
330
1F
100
AcDbEntity
  8
ﾎﾞﾃﾞｨｰ
100
AcDbLine
 10
250.160613666574
 20
195.3095927681548
 30
0.0
 11
250.160613666574
 21
193.6095927681548
 31
0.0
  0
LINE
  5
2495
330
1F
100
AcDbEntity
  8
ﾎﾞﾃﾞｨｰ
100
AcDbLine
 10
250.160613666574
 20
195.3095927681548
 30
0.0
 11
251.5606136665739
 21
195.3095927681548
 31
0.0
  0
LINE
  5
2496
330
1F
100
AcDbEntity
  8
ﾎﾞﾃﾞｨｰ
100
AcDbLine
 10
235.860613666574
 20
185.6095927681549
 30
0.0
 11
244.060613666574
 21
185.6095927681549
 31
0.0
  0
LINE
  5
2497
330
1F
100
AcDbEntity
  8
ﾎﾞﾃﾞｨｰ
100
AcDbLine
 10
235.860613666574
 20
185.6095927681549
 30
0.0
 11
235.860613666574
 21
186.4095927681548
 31
0.0
  0
LINE
  5
2498
330
1F
100
AcDbEntity
  8
ﾎﾞﾃﾞｨｰ
100
AcDbLine
 10
242.560613666574
 20
185.6095927681549
 30
0.0
 11
242.560613666574
 21
191.7095927681548
 31
0.0
  0
LINE
  5
2499
330
1F
100
AcDbEntity
  8
ﾎﾞﾃﾞｨｰ
100
AcDbLine
 10
242.960613666574
 20
193.6095927681548
 30
0.0
 11
254.060613666574
 21
193.6095927681548
 31
0.0
  0
LINE
  5
249A
330
1F
100
AcDbEntity
  8
ﾎﾞﾃﾞｨｰ
100
AcDbLine
 10
242.560613666574
 20
187.5095927681547
 30
0.0
 11
244.060613666574
 21
187.5095927681549
 31
0.0
  0
LINE
  5
249B
330
1F
100
AcDbEntity
  8
ﾎﾞﾃﾞｨｰ
100
AcDbLine
 10
244.060613666574
 20
192.1095927681549
 30
0.0
 11
244.060613666574
 21
184.1095927681548
 31
0.0
  0
LINE
  5
249C
330
1F
100
AcDbEntity
  8
ﾎﾞﾃﾞｨｰ
100
AcDbLine
 10
254.060613666574
 20
237.109592768155
 30
0.0
 11
254.060613666574
 21
192.1095927681549
 31
0.0
  0
LINE
  5
249D
330
1F
100
AcDbEntity
  8
ﾎﾞﾃﾞｨｰ
100
AcDbLine
 10
244.060613666574
 20
192.1095927681549
 30
0.0
 11
254.060613666574
 21
192.1095927681549
 31
0.0
1001
GENIUS_GENODEF_13
1002
{
1000
HIER
1070
     0
1002
}
1002
{
1000
MANEDIT
1070
     0
1002
}
1002
{
1000
NOSEL
1070
     0
1002
}
1002
{
1000
BEHIND
1070
     0
1002
}
1002
{
1000
REACTOR
1002
}
1001
GENIUS_GENOBJ-N-CEN_13
1002
{
1000
OWNER
1000
GEN
1002
}
  0
LINE
  5
249E
330
1F
100
AcDbEntity
  8
ﾎﾞﾃﾞｨｰ
100
AcDbLine
 10
203.060613666574
 20
169.5595927681549
 30
0.0
 11
222.3606136665741
 21
169.5595927681549
 31
0.0
  0
LINE
  5
24A0
330
1F
100
AcDbEntity
  8
ﾍﾞｰｽ
100
AcDbLine
 10
203.0606136665741
 20
181.9095927681548
 30
0.0
 11
203.0606136665739
 21
247.309592768155
 31
0.0
  0
LINE
  5
24A1
330
1F
100
AcDbEntity
  8
ﾍﾞｰｽ
100
AcDbLine
 10
196.060613666574
 20
229.7095927681548
 30
0.0
 11
196.0606136665738
 21
259.4095927681549
 31
0.0
  0
LINE
  5
24A2
330
1F
100
AcDbEntity
  8
ﾍﾞｰｽ
100
AcDbLine
 10
199.3606136665738
 20
247.309592768155
 30
0.0
 11
199.3606136665738
 21
253.9095927681548
 31
0.0
  0
LINE
  5
24A3
330
1F
100
AcDbEntity
  8
ﾍﾞｰｽ
100
AcDbLine
 10
203.0606136665739
 20
253.9095927681549
 30
0.0
 11
196.0606136665738
 21
253.9095927681549
 31
0.0
  0
LINE
  5
24A4
330
1F
100
AcDbEntity
  8
ﾍﾞｰｽ
100
AcDbLine
 10
203.0606136665739
 20
259.4095927681549
 30
0.0
 11
196.0606136665738
 21
259.4095927681549
 31
0.0
  0
LINE
  5
24A5
330
1F
100
AcDbEntity
  8
ﾍﾞｰｽ
100
AcDbLine
 10
203.0606136665739
 20
253.9095927681549
 30
0.0
 11
203.0606136665739
 21
259.4095927681549
 31
0.0
  0
LINE
  5
24A6
330
1F
100
AcDbEntity
  8
ﾍﾞｰｽ
100
AcDbLine
 10
203.0606136665739
 20
247.309592768155
 30
0.0
 11
196.0606136665738
 21
247.309592768155
 31
0.0
  0
LINE
  5
24A8
330
1F
100
AcDbEntity
  8
ﾍﾞｰｽ
100
AcDbLine
 10
200.960613666574
 20
232.4095927681549
 30
0.0
 11
196.060613666574
 21
232.4095927681549
 31
0.0
  0
LINE
  5
24A9
330
1F
100
AcDbEntity
  8
ﾍﾞｰｽ
100
AcDbLine
 10
198.060613666574
 20
229.7095927681548
 30
0.0
 11
200.060613666574
 21
232.4095927681549
 31
0.0
  0
LINE
  5
24AB
330
1F
100
AcDbEntity
  8
ﾍﾞｰｽ
100
AcDbLine
 10
198.060613666574
 20
229.7095927681548
 30
0.0
 11
196.060613666574
 21
229.7095927681548
 31
0.0
  0
LINE
  5
24AC
330
1F
100
AcDbEntity
  8
ﾍﾞｰｽ
100
AcDbLine
 10
200.9606136665741
 20
196.1095927681549
 30
0.0
 11
196.0606136665741
 21
195.0095927681548
 31
0.0
  0
LINE
  5
24AD
330
1F
100
AcDbEntity
  8
ﾍﾞｰｽ
100
AcDbLine
 10
196.0606136665741
 20
195.0095927681548
 30
0.0
 11
196.0606136665741
 21
169.8095927681548
 31
0.0
  0
LINE
  5
24AE
330
1F
100
AcDbEntity
  8
ﾍﾞｰｽ
100
AcDbLine
 10
199.5606136665741
 20
181.9095927681548
 30
0.0
 11
199.5606136665741
 21
175.4095927681548
 31
0.0
  0
LINE
  5
24AF
330
1F
100
AcDbEntity
  8
ﾍﾞｰｽ
100
AcDbLine
 10
203.0606136665741
 20
181.9095927681548
 30
0.0
 11
196.0606136665741
 21
181.9095927681548
 31
0.0
  0
LINE
  5
24B0
330
1F
100
AcDbEntity
  8
ﾍﾞｰｽ
100
AcDbLine
 10
203.0606136665741
 20
175.4095927681548
 30
0.0
 11
196.0606136665741
 21
175.4095927681548
 31
0.0
  0
LINE
  5
24B1
330
1F
100
AcDbEntity
  8
ﾍﾞｰｽ
100
AcDbLine
 10
206.060613666574
 20
171.4595927681548
 30
0.0
 11
203.060613666574
 21
171.4595927681548
 31
0.0
  0
LINE
  5
24B2
330
1F
100
AcDbEntity
  8
ﾍﾞｰｽ
100
AcDbLine
 10
203.0606136665741
 20
169.8095927681548
 30
0.0
 11
203.0606136665741
 21
175.4095927681548
 31
0.0
  0
LINE
  5
24B4
330
1F
100
AcDbEntity
  8
ﾍﾞｰｽ
100
AcDbLine
 10
196.0606136665741
 20
169.8095927681548
 30
0.0
 11
203.0606136665741
 21
169.8095927681548
 31
0.0
  0
LINE
  5
24B5
330
1F
100
AcDbEntity
  8
ﾎﾞﾃﾞｨｰ
100
AcDbLine
 10
203.060613666574
 20
169.5595927681549
 30
0.0
 11
203.060613666574
 21
171.4595927681548
 31
0.0
  0
LINE
  5
24B6
330
1F
100
AcDbEntity
  8
前面ﾊﾟﾈﾙ
100
AcDbLine
 10
251.560613666574
 20
193.6095927681548
 30
0.0
 11
254.0606136665734
 21
193.6095927681547
 31
0.0
  0
LINE
  5
24B7
330
1F
100
AcDbEntity
  8
前面ﾊﾟﾈﾙ
100
AcDbLine
 10
249.060613666574
 20
212.4595927681548
 30
0.0
 11
249.060613666574
 21
214.6095927681548
 31
0.0
  0
LINE
  5
24B8
330
1F
100
AcDbEntity
  8
前面ﾊﾟﾈﾙ
100
AcDbLine
 10
250.2606136665741
 20
214.6095927681548
 30
0.0
 11
250.2606136665741
 21
212.381814990377
 31
0.0
  0
LINE
  5
24B9
330
1F
100
AcDbEntity
  8
前面ﾊﾟﾈﾙ
100
AcDbLine
 10
251.560613666574
 20
212.2845927681548
 30
0.0
 11
249.060613666574
 21
212.4595927681548
 31
0.0
  0
LINE
  5
24BA
330
1F
100
AcDbEntity
  8
前面ﾊﾟﾈﾙ
100
AcDbLine
 10
251.5606136665738
 20
235.609592768155
 30
0.0
 11
251.560613666574
 21
193.6095927681548
 31
0.0
  0
LINE
  5
24BB
330
1F
100
AcDbEntity
  8
前面ﾊﾟﾈﾙ
100
AcDbLine
 10
254.060613666574
 20
235.6095927681552
 30
0.0
 11
254.060613666574
 21
193.6095927681547
 31
0.0
  0
LINE
  5
24BC
330
1F
100
AcDbEntity
  8
前面ﾊﾟﾈﾙ
100
AcDbLine
 10
253.7606136665752
 20
234.9095927681553
 30
0.0
 11
253.7606136665729
 21
194.3095927681546
 31
0.0
  0
LINE
  5
24BD
330
1F
100
AcDbEntity
  8
前面ﾊﾟﾈﾙ
100
AcDbLine
 10
253.7606136665729
 20
194.3095927681546
 30
0.0
 11
254.060613666574
 21
194.3095927681546
 31
0.0
  0
HATCH
  5
24BF
330
1F
100
AcDbEntity
  8
AM_8
100
AcDbHatch
 10
0.0
 20
0.0
 30
0.0
210
0.0
220
0.0
230
1.0
  2
_U
 70
     0
 71
     0
 91
        1
 92
        1
 93
        8
 72
     1
 10
251.5606136665739
 20
197.6095927681548
 11
251.560613666574
 21
193.6095927681548
 72
     1
 10
251.560613666574
 20
193.6095927681548
 11
254.0606136665734
 21
193.6095927681547
 72
     1
 10
254.0606136665734
 20
193.6095927681547
 11
254.060613666574
 21
194.3095927681546
 72
     1
 10
254.060613666574
 20
194.3095927681546
 11
253.7606136665728
 21
194.3095927681546
 72
     1
 10
253.7606136665729
 20
194.3095927681546
 11
253.760613666574
 21
214.6095927681548
 72
     1
 10
253.760613666574
 20
214.6095927681548
 11
251.5606136665739
 21
214.6095927681548
 72
     1
 10
251.5606136665739
 20
214.6095927681548
 11
251.5606136665739
 21
208.6224163237435
 72
     1
 10
251.560613666574
 20
208.6224163237435
 11
251.5606136665739
 21
197.6095927681548
 97
        0
 75
     0
 76
     0
 52
-45.00000000000001
 41
3.0
 77
     0
 78
     1
 53
315.0
 43
-114.7550578024673
 44
484.3660744259523
 45
2.121320343559642
 46
2.121320343559642
 79
     0
 98
        1
 10
-114.7550578024673
 20
484.3660744259523
1001
GENIUS_GENODEF_13
1002
{
1000
HIER
1070
     0
1002
}
1002
{
1000
MANEDIT
1070
     0
1002
}
1002
{
1000
NOSEL
1070
     0
1002
}
1002
{
1000
BEHIND
1070
     0
1002
}
1002
{
1000
OTHER
1070
     0
1002
}
1002
{
1000
REACTOR
1002
}
1001
GENIUS_GENOBJ-N-HTC_13
1002
{
1000
OWNER
1000
GEN
1002
}
1001
GENIUS_GENHATCH_13
1002
{
1000
DATA
1040
45.0
1042
2.5
1000
_U
1070
     0
1011
252.6488326704723
1021
208.6224163237435
1031
0.0
1002
}
1002
{
1000
UCS
1010
0.0
1020
0.0
1030
0.0
1010
1.0
1020
0.0
1030
0.0
1010
0.0
1020
1.0
1030
0.0
1002
}
  0
LINE
  5
24C0
330
1F
100
AcDbEntity
  8
ﾎﾞﾃﾞｨｰ
100
AcDbLine
 10
222.3606136665741
 20
184.1095927681548
 30
0.0
 11
244.060613666574
 21
184.1095927681548
 31
0.0
1001
GENIUS_GENODEF_13
1002
{
1000
HIER
1070
     0
1002
}
1002
{
1000
MANEDIT
1070
     0
1002
}
1002
{
1000
NOSEL
1070
     0
1002
}
1002
{
1000
BEHIND
1070
     0
1002
}
1002
{
1000
REACTOR
1002
}
1001
GENIUS_GENOBJ-N-CEN_13
1002
{
1000
OWNER
1000
GEN
1002
}
  0
LINE
  5
24C1
330
1F
100
AcDbEntity
  8
ﾎｯｸ
100
AcDbLine
 10
198.4606136665741
 20
169.8095927681548
 30
0.0
 11
198.4606136665741
 21
165.3095927681548
 31
0.0
  0
LINE
  5
24C2
330
1F
100
AcDbEntity
  8
ﾎｯｸ
100
AcDbLine
 10
201.9606136665741
 20
165.3095927681548
 30
0.0
 11
201.9606136665741
 21
169.8095927681548
 31
0.0
  0
LINE
  5
24C3
330
1F
100
AcDbEntity
  8
ﾎｯｸ
100
AcDbLine
 10
196.5606136665741
 20
195.1218376661139
 30
0.0
 11
196.560613666574
 21
197.3095927681548
 31
0.0
  0
LINE
  5
24C4
330
1F
100
AcDbEntity
  8
ﾎｯｸ
100
AcDbLine
 10
196.560613666574
 20
197.3095927681548
 30
0.0
 11
198.560613666574
 21
199.3095927681548
 31
0.0
  0
LINE
  5
24C5
330
1F
100
AcDbEntity
  8
ﾎｯｸ
100
AcDbLine
 10
198.560613666574
 20
199.3095927681548
 30
0.0
 11
199.560613666574
 21
197.3095927681548
 31
0.0
  0
LINE
  5
24C6
330
1F
100
AcDbEntity
  8
ﾎｯｸ
100
AcDbLine
 10
199.560613666574
 20
197.3095927681548
 30
0.0
 11
200.9606136665741
 21
197.3095927681548
 31
0.0
  0
LINE
  5
24C7
330
1F
100
AcDbEntity
  8
ﾍﾞｰｽ
100
AcDbLine
 10
200.9606136665741
 20
196.1095927681549
 30
0.0
 11
200.960613666574
 21
232.4095927681549
 31
0.0
  0
HATCH
  5
24C8
330
1F
100
AcDbEntity
  8
AM_8
100
AcDbHatch
 10
0.0
 20
0.0
 30
0.0
210
0.0
220
0.0
230
1.0
  2
_U
 70
     0
 71
     0
 91
        1
 92
        1
 93
       10
 72
     1
 10
242.960613666574
 20
194.4095927681547
 11
241.460613666574
 21
193.4095927681548
 72
     1
 10
241.460613666574
 20
193.4095927681548
 11
241.4606136665739
 21
191.7095927681548
 72
     1
 10
241.4606136665739
 20
191.7095927681548
 11
242.560613666574
 21
191.7095927681548
 72
     1
 10
242.560613666574
 20
191.7095927681548
 11
242.560613666574
 21
187.5095927681547
 72
     1
 10
242.560613666574
 20
187.5095927681547
 11
244.060613666574
 21
187.5095927681549
 72
     1
 10
244.060613666574
 20
187.5095927681549
 11
244.060613666574
 21
192.1095927681549
 72
     1
 10
244.060613666574
 20
192.1095927681549
 11
254.060613666574
 21
192.1095927681549
 72
     1
 10
254.060613666574
 20
192.1095927681549
 11
254.060613666574
 21
193.6095927681548
 72
     1
 10
254.060613666574
 20
193.6095927681548
 11
242.960613666574
 21
193.6095927681548
 72
     1
 10
242.960613666574
 20
193.6095927681548
 11
242.960613666574
 21
194.4095927681547
 97
        0
 75
     0
 76
     0
 52
45.0
 41
3.0
 77
     0
 78
     1
 53
45.0
 43
-35.46219723135641
 44
8.185208782725993
 45
-2.121320343559642
 46
2.121320343559642
 79
     0
 98
        1
 10
-36.46219723135641
 20
8.185208782725993
1001
GENIUS_GENOBJ-N-HTC_13
1002
{
1000
OWNER
1000
GEN
1002
}
1001
GENIUS_GENODEF_13
1002
{
1000
HIER
1070
     0
1002
}
1002
{
1000
MANEDIT
1070
     0
1002
}
1002
{
1000
NOSEL
1070
     0
1002
}
1002
{
1000
BEHIND
1070
     0
1002
}
1002
{
1000
OTHER
1070
     0
1002
}
1002
{
1000
REACTOR
1002
}
1001
GENIUS_GENHATCH_13
1002
{
1000
DATA
1040
45.0
1042
1.5
1000
_U
1070
     0
1011
243.6819687576465
1021
192.9521780566344
1031
0.0
1002
}
1002
{
1000
UCS
1010
0.0
1020
0.0
1030
0.0
1010
1.0
1020
0.0
1030
0.0
1010
0.0
1020
1.0
1030
0.0
1002
}
  0
HATCH
  5
24C9
330
1F
100
AcDbEntity
  8
AM_8
100
AcDbHatch
 10
0.0
 20
0.0
 30
0.0
210
0.0
220
0.0
230
1.0
  2
_U
 70
     0
 71
     0
 91
        1
 92
        1
 93
        4
 72
     1
 10
203.0606136665739
 20
257.7595927681548
 11
209.0606136665738
 21
257.7595927681548
 72
     1
 10
209.0606136665738
 20
257.7595927681549
 11
209.0606136665738
 21
259.6595927681548
 72
     1
 10
209.0606136665738
 20
259.6595927681547
 11
203.0606136665739
 21
259.6595927681546
 72
     1
 10
203.0606136665739
 20
259.6595927681546
 11
203.0606136665739
 21
257.7595927681548
 97
        0
 75
     0
 76
     0
 52
45.0
 41
5.0
 77
     0
 78
     1
 53
45.0
 43
-96.38401736464425
 44
-37.08134145568235
 45
-3.535533905932737
 46
3.535533905932737
 79
     0
 98
        1
 10
-36.46219723135641
 20
8.185208782725993
1001
GENIUS_GENOBJ-N-HTC_13
1002
{
1000
OWNER
1000
GEN
1002
}
1001
GENIUS_GENODEF_13
1002
{
1000
HIER
1070
     0
1002
}
1002
{
1000
MANEDIT
1070
     0
1002
}
1002
{
1000
NOSEL
1070
     0
1002
}
1002
{
1000
BEHIND
1070
     0
1002
}
1002
{
1000
OTHER
1070
     0
1002
}
1002
{
1000
REACTOR
1002
}
1001
GENIUS_GENHATCH_13
1002
{
1000
DATA
1040
45.0
1042
2.5
1000
_U
1070
     0
1011
206.0660647316465
1021
258.835783169867
1031
0.0
1002
}
1002
{
1000
UCS
1010
0.0
1020
0.0
1030
0.0
1010
1.0
1020
0.0
1030
0.0
1010
0.0
1020
1.0
1030
0.0
1002
}
  0
LINE
  5
2581
330
1F
100
AcDbEntity
  8
ﾎﾞﾃﾞｨｰ
100
AcDbLine
 10
578.3974328249135
 20
181.8595927681542
 30
0.0
 11
593.1974328249134
 21
181.8595927681542
 31
0.0
  0
LINE
  5
2587
330
1F
100
AcDbEntity
  8
ﾎﾞﾃﾞｨｰ
100
AcDbLine
 10
578.3974328249134
 20
175.3595927681542
 30
0.0
 11
593.1974328249134
 21
175.3595927681542
 31
0.0
  0
LINE
  5
2597
330
1F
100
AcDbEntity
  8
ﾎﾞﾃﾞｨｰ
100
AcDbLine
 10
593.1974328249134
 20
175.3595927681542
 30
0.0
 11
593.1974328249134
 21
181.8595927681542
 31
0.0
  0
VIEWPORT
  5
178
102
{ACAD_XDICTIONARY
360
29A9
102
}
330
1B
100
AcDbEntity
 67
     1
  8
0
100
AcDbViewport
 10
133.3499908447266
 20
123.6089706563676
 30
0.0
 40
370.2266912936524
 41
272.4401407679965
 68
     1
 69
     1
 12
133.3499908447266
 22
123.6089706563676
 13
0.0
 23
0.0
 14
10.0
 24
10.0
 15
10.0
 25
10.0
 16
0.0
 26
0.0
 36
1.0
 17
0.0
 27
0.0
 37
0.0
 42
50.0
 43
0.0
 44
0.0
 45
272.4401407679965
 50
0.0
 51
0.0
 72
   100
 90
    32800
  1

281
     0
 71
     1
 74
     0
110
0.0
120
0.0
130
0.0
111
1.0
121
0.0
131
0.0
112
0.0
122
1.0
132
0.0
 79
     0
146
0.0
1001
GENIUS_GENSCREG_15
1000
PF
1040
1.0
1000
DF
1040
1.0
1000
MIN
1011
-51.76335480209963
1021
-12.61109972763063
1031
0.0
1000
MAX
1011
318.4633364915528
1021
259.8290410403659
1031
0.0
1000
FLAGS
1070
     4
1001
GENIUS_GENOBJ-N-SDF_13
1002
{
1000
OWNER
1000
GEN
1002
}
1001
GENIUS_GENODEF_13
1002
{
1000
HIER
1070
     0
1002
}
1002
{
1000
MANEDIT
1070
     0
1002
}
1002
{
1000
NOSEL
1070
     0
1002
}
1002
{
1000
BEHIND
1070
     0
1002
}
1002
{
1000
OTHER
1070
     0
1002
}
1002
{
1000
REACTOR
1002
}
  0
ENDSEC
  0
SECTION
  2
OBJECTS
  0
DICTIONARY
  5
C
330
0
100
AcDbDictionary
281
     1
  3
ACAD_CIP_PREVIOUS_PRODUCT_INFO
350
2644
  3
ACAD_COLOR
350
BE
  3
ACAD_GROUP
350
D
  3
ACAD_LAYOUT
350
1A
  3
ACAD_MATERIAL
350
BD
  3
ACAD_MLEADERSTYLE
350
2636
  3
ACAD_MLINESTYLE
350
17
  3
ACAD_PLOTSETTINGS
350
19
  3
ACAD_PLOTSTYLENAME
350
E
  3
ACAD_SCALELIST
350
2624
  3
ACAD_TABLESTYLE
350
931
  3
ACAD_VISUALSTYLE
350
260B
  3
ACDB_RECOMPOSE_DATA
350
29A2
  3
AcDbVariableDictionary
350
94
  3
AcmDictionary
350
5B
  3
AMG
350
41
  3
AMGSNAPSETTINGS
350
1E5
  3
DWGPROPS
350
29A3
  0
DICTIONARY
  5
2820
330
8
100
AcDbDictionary
280
     1
281
     1
  0
DICTIONARY
  5
2EE
330
2
100
AcDbDictionary
280
     1
281
     1
  3
ACAD_LAYERFILTERS
360
2233
  3
ACAD_LAYERSTATES
360
4DB
  3
ACLYDICTIONARY
360
2232
  3
AMLAYER_GROUPCOLORS
360
2EF
  0
DICTIONARY
  5
27F6
330
10
100
AcDbDictionary
280
     1
281
     1
  3
ADSK_XREC_LAYER_RECONCILED
360
27F7
  0
DICTIONARY
  5
27F8
330
2F0
100
AcDbDictionary
280
     1
281
     1
  3
ADSK_XREC_LAYER_RECONCILED
360
27F9
  0
DICTIONARY
  5
27FA
330
2F1
100
AcDbDictionary
280
     1
281
     1
  3
ADSK_XREC_LAYER_RECONCILED
360
27FB
  0
DICTIONARY
  5
27FC
330
33C
100
AcDbDictionary
280
     1
281
     1
  3
ADSK_XREC_LAYER_RECONCILED
360
27FD
  0
DICTIONARY
  5
27FE
330
33D
100
AcDbDictionary
280
     1
281
     1
  3
ADSK_XREC_LAYER_RECONCILED
360
27FF
  0
DICTIONARY
  5
2800
330
45E
100
AcDbDictionary
280
     1
281
     1
  3
ADSK_XREC_LAYER_RECONCILED
360
2801
  0
DICTIONARY
  5
2802
330
45F
100
AcDbDictionary
280
     1
281
     1
  3
ADSK_XREC_LAYER_RECONCILED
360
2803
  0
DICTIONARY
  5
2804
330
4D5
100
AcDbDictionary
280
     1
281
     1
  3
ADSK_XREC_LAYER_RECONCILED
360
2805
  0
DICTIONARY
  5
2806
330
1751
100
AcDbDictionary
280
     1
281
     1
  3
ADSK_XREC_LAYER_RECONCILED
360
2807
  0
DICTIONARY
  5
2808
330
1752
100
AcDbDictionary
280
     1
281
     1
  3
ADSK_XREC_LAYER_RECONCILED
360
2809
  0
DICTIONARY
  5
280A
330
1753
100
AcDbDictionary
280
     1
281
     1
  3
ADSK_XREC_LAYER_RECONCILED
360
280B
  0
DICTIONARY
  5
280C
330
1754
100
AcDbDictionary
280
     1
281
     1
  3
ADSK_XREC_LAYER_RECONCILED
360
280D
  0
DICTIONARY
  5
280E
330
1755
100
AcDbDictionary
280
     1
281
     1
  3
ADSK_XREC_LAYER_RECONCILED
360
280F
  0
DICTIONARY
  5
2810
330
24D0
100
AcDbDictionary
280
     1
281
     1
  3
ADSK_XREC_LAYER_RECONCILED
360
2811
  0
DICTIONARY
  5
8F
330
1F
100
AcDbDictionary
280
     1
281
     1
  3
ACAD_SORTENTS
360
1F1F
  0
DICTIONARY
  5
330
330
327
100
AcDbDictionary
280
     1
281
     1
  0
DICTIONARY
  5
395
330
340
100
AcDbDictionary
280
     1
281
     1
  0
DICTIONARY
  5
1AE6
330
1ADE
100
AcDbDictionary
280
     1
281
     1
  0
DICTIONARY
  5
1B45
330
1AEC
100
AcDbDictionary
280
     1
281
     1
  0
DICTIONARY
  5
294B
330
27B1
100
AcDbDictionary
280
     1
281
     1
  3
ACAD_SORTENTS
360
294C
  0
DICTIONARY
  5
29AB
330
17C
100
AcDbDictionary
280
     1
281
     1
  3
ACAD_XREC_ROUNDTRIP
360
29AC
  0
DICTIONARY
  5
29A9
330
178
100
AcDbDictionary
280
     1
281
     1
  3
ACAD_XREC_ROUNDTRIP
360
29AA
  0
XRECORD
  5
2644
102
{ACAD_REACTORS
330
C
102
}
330
C
100
AcDbXrecord
280
     1
300
AMECH_PP
300
2012
300
PDSP_F_S
  0
DICTIONARY
  5
BE
102
{ACAD_REACTORS
330
C
102
}
330
C
100
AcDbDictionary
281
     1
  0
DICTIONARY
  5
D
102
{ACAD_REACTORS
330
C
102
}
330
C
100
AcDbDictionary
281
     1
  0
DICTIONARY
  5
1A
102
{ACAD_REACTORS
330
C
102
}
330
C
100
AcDbDictionary
281
     1
  3
Model
350
22
  3
レイアウト1
350
1E
  3
レイアウト2
350
26
  0
DICTIONARY
  5
BD
102
{ACAD_REACTORS
330
C
102
}
330
C
100
AcDbDictionary
281
     1
  3
ByBlock
350
25FB
  3
ByLayer
350
25F3
  3
Global
350
2603
  0
DICTIONARY
  5
2636
102
{ACAD_REACTORS
330
C
102
}
330
C
100
AcDbDictionary
281
     1
  3
Standard
350
2637
  0
DICTIONARY
  5
17
102
{ACAD_REACTORS
330
C
102
}
330
C
100
AcDbDictionary
281
     1
  3
Standard
350
18
  0
DICTIONARY
  5
19
102
{ACAD_REACTORS
330
C
102
}
330
C
100
AcDbDictionary
281
     1
  0
ACDBDICTIONARYWDFLT
  5
E
102
{ACAD_REACTORS
330
C
102
}
330
C
100
AcDbDictionary
281
     1
  3
Normal
350
F
100
AcDbDictionaryWithDefault
340
F
  0
DICTIONARY
  5
2624
102
{ACAD_REACTORS
330
C
102
}
330
C
100
AcDbDictionary
281
     1
  3
A0
350
2625
  3
A1
350
2626
  3
A2
350
2627
  3
A3
350
2628
  3
A4
350
2629
  3
A5
350
262A
  3
A6
350
262B
  3
A7
350
262C
  3
A8
350
262D
  3
A9
350
262E
  3
B0
350
262F
  3
B1
350
2630
  3
B2
350
2631
  3
B3
350
2632
  3
B4
350
2633
  3
B5
350
2634
  3
B6
350
2635
  0
DICTIONARY
  5
931
102
{ACAD_REACTORS
330
C
102
}
330
C
100
AcDbDictionary
281
     1
  3
Standard
350
932
  0
DICTIONARY
  5
260B
102
{ACAD_REACTORS
330
C
102
}
330
C
100
AcDbDictionary
281
     1
  3
2dWireframe
350
2611
  3
Basic
350
2610
  3
Brighten
350
2617
  3
ColorChange
350
261B
  3
Conceptual
350
2614
  3
Dim
350
2616
  3
EdgeColorOff
350
2623
  3
Facepattern
350
261A
  3
Flat
350
260C
  3
FlatWithEdges
350
260D
  3
Gouraud
350
260E
  3
GouraudWithEdges
350
260F
  3
Hidden
350
2613
  3
JitterOff
350
2621
  3
Linepattern
350
2619
  3
OverhangOff
350
2622
  3
Realistic
350
2615
  3
Shaded
350
2620
  3
Shaded with edges
350
261F
  3
Shades of Gray
350
261C
  3
Sketchy
350
261D
  3
Thicken
350
2618
  3
Wireframe
350
2612
  3
X-Ray
350
261E
  0
XRECORD
  5
29A2
102
{ACAD_REACTORS
330
C
102
}
330
C
100
AcDbXrecord
280
     1
 90
        1
330
932
  0
DICTIONARY
  5
94
102
{ACAD_REACTORS
330
C
102
}
330
C
100
AcDbDictionary
281
     1
  3
CANNOSCALE
350
2868
  3
CMLEADERSTYLE
350
2867
  3
CTABLESTYLE
350
9AD
  3
DIMASSOC
350
96
  3
INDEXCTL
350
95
  3
SORTENTS
350
299D
  3
XCLIPFRAME
350
299E
  0
DICTIONARY
  5
5B
102
{ACAD_REACTORS
330
C
102
}
330
C
100
AcDbDictionary
281
     1
  3
AcmBOM
350
1E2
  3
AcmStdDictionary
350
61
  3
AMDTSECTSYM_ARROWCOLOR
350
94D
  0
DICTIONARY
  5
41
102
{ACAD_REACTORS
330
C
102
}
330
C
100
AcDbDictionary
281
     1
  0
DICTIONARY
  5
1E5
102
{ACAD_REACTORS
330
C
102
}
330
C
100
AcDbDictionary
281
     1
  0
XRECORD
  5
29A3
102
{ACAD_REACTORS
330
C
102
}
330
C
100
AcDbXrecord
280
     1
  1
DWGPROPS COOKIE
  2

  3

  4

  6

  7

  8
TAKACHI
  9

300
AmdtFileType=84
301
=
302
=
303
=
304
=
305
=
306
=
307
=
308
=
309
=
 40
0.1161932407407407
 41
2453825.766918936
 42
2456939.579595046
  1

 90
        1
  0
DICTIONARY
  5
2233
102
{ACAD_REACTORS
330
2EE
102
}
330
2EE
100
AcDbDictionary
281
     1
  0
DICTIONARY
  5
4DB
102
{ACAD_REACTORS
330
2EE
102
}
330
2EE
100
AcDbDictionary
281
     1
  0
DICTIONARY
  5
2232
102
{ACAD_REACTORS
330
2EE
102
}
330
2EE
100
AcDbDictionary
281
     1
1001
ACAD
1000
<All
  0
DICTIONARY
  5
2EF
102
{ACAD_REACTORS
330
2EE
102
}
330
2EE
100
AcDbDictionary
280
     1
281
     1
  0
XRECORD
  5
27F7
102
{ACAD_REACTORS
330
27F6
102
}
330
27F6
100
AcDbXrecord
280
     1
290
     1
  0
XRECORD
  5
27F9
102
{ACAD_REACTORS
330
27F8
102
}
330
27F8
100
AcDbXrecord
280
     1
290
     1
  0
XRECORD
  5
27FB
102
{ACAD_REACTORS
330
27FA
102
}
330
27FA
100
AcDbXrecord
280
     1
290
     1
  0
XRECORD
  5
27FD
102
{ACAD_REACTORS
330
27FC
102
}
330
27FC
100
AcDbXrecord
280
     1
290
     1
  0
XRECORD
  5
27FF
102
{ACAD_REACTORS
330
27FE
102
}
330
27FE
100
AcDbXrecord
280
     1
290
     1
  0
XRECORD
  5
2801
102
{ACAD_REACTORS
330
2800
102
}
330
2800
100
AcDbXrecord
280
     1
290
     1
  0
XRECORD
  5
2803
102
{ACAD_REACTORS
330
2802
102
}
330
2802
100
AcDbXrecord
280
     1
290
     1
  0
XRECORD
  5
2805
102
{ACAD_REACTORS
330
2804
102
}
330
2804
100
AcDbXrecord
280
     1
290
     1
  0
XRECORD
  5
2807
102
{ACAD_REACTORS
330
2806
102
}
330
2806
100
AcDbXrecord
280
     1
290
     1
  0
XRECORD
  5
2809
102
{ACAD_REACTORS
330
2808
102
}
330
2808
100
AcDbXrecord
280
     1
290
     1
  0
XRECORD
  5
280B
102
{ACAD_REACTORS
330
280A
102
}
330
280A
100
AcDbXrecord
280
     1
290
     1
  0
XRECORD
  5
280D
102
{ACAD_REACTORS
330
280C
102
}
330
280C
100
AcDbXrecord
280
     1
290
     1
  0
XRECORD
  5
280F
102
{ACAD_REACTORS
330
280E
102
}
330
280E
100
AcDbXrecord
280
     1
290
     1
  0
XRECORD
  5
2811
102
{ACAD_REACTORS
330
2810
102
}
330
2810
100
AcDbXrecord
280
     1
290
     1
  0
SORTENTSTABLE
  5
1F1F
102
{ACAD_REACTORS
330
8F
102
}
330
8F
100
AcDbSortentsTable
330
1F
331
84A
  5
84A
331
1F7D
  5
1F7D
331
23EE
  5
23EE
331
23AF
  5
23AF
331
842
  5
842
331
20F4
  5
20F5
331
23EA
  5
23EA
331
23AB
  5
23AB
331
2464
  5
2464
331
20F0
  5
20F1
331
23E6
  5
23E6
331
2460
  5
2460
331
2425
  5
2425
331
23E2
  5
23E2
331
2421
  5
2421
331
245C
  5
245C
331
249B
  5
249B
331
2458
  5
2458
331
1F75
  5
1F75
331
23A7
  5
23A7
331
23A3
  5
23A3
331
239F
  5
239F
331
23DE
  5
23DE
331
2497
  5
2497
331
241D
  5
241D
331
239B
  5
239B
331
1F61
  5
1F61
331
23DA
  5
23DA
331
2419
  5
2419
331
2454
  5
2454
331
2493
  5
2493
331
2415
  5
2415
331
1FB8
  5
1FB9
331
2450
  5
2450
331
248F
  5
248F
331
23D6
  5
23D6
331
2411
  5
2411
331
248B
  5
248B
331
23D2
  5
23D2
331
24C6
  5
24C6
331
244C
  5
244C
331
2581
  5
2581
331
2448
  5
2448
331
24C2
  5
24C2
331
2393
  5
2393
331
1FB4
  5
1FB5
331
238F
  5
238F
331
1FB0
  5
1FB1
331
240D
  5
240D
331
2487
  5
2487
331
23CE
  5
23CE
331
238B
  5
238B
331
2409
  5
2409
331
23CA
  5
23CA
331
2483
  5
2483
331
2444
  5
2444
331
1F90
  5
1FB0
331
2405
  5
2405
331
247F
  5
247F
331
23C6
  5
23C6
331
2440
  5
2440
331
24BA
  5
24BA
331
2401
  5
2401
331
23C2
  5
23C2
331
247B
  5
247B
331
24B6
  5
24B6
331
243C
  5
243C
331
2438
  5
2438
331
24B2
  5
24B2
331
859
  5
859
331
2387
  5
2387
331
1F8C
  5
1F8D
331
851
  5
851
331
1F88
  5
1F88
331
23FD
  5
23FD
331
2477
  5
2477
331
23BE
  5
23BE
331
23F9
  5
23F9
331
23BA
  5
23BA
331
2473
  5
2473
331
24AE
  5
24AE
331
2434
  5
2434
331
1F80
  5
1F80
331
23F5
  5
23F5
331
246F
  5
246F
331
23B6
  5
23B6
331
2430
  5
2430
331
23F1
  5
23F1
331
23B2
  5
23B2
331
246B
  5
246B
331
24A6
  5
24A6
331
242C
  5
242C
331
2428
  5
2428
331
24A2
  5
24A2
331
20FB
  5
1F89
331
1F7C
  5
1F7C
331
2467
  5
2467
331
23ED
  5
23ED
331
23AE
  5
23AE
331
20F3
  5
20F4
331
23E9
  5
23E9
331
23AA
  5
23AA
331
2463
  5
2463
331
1F78
  5
1F78
331
23E5
  5
23E5
331
245F
  5
245F
331
249E
  5
249E
331
2424
  5
2424
331
23E1
  5
23E1
331
2420
  5
2420
331
245B
  5
245B
331
249A
  5
249A
331
20EF
  5
20F0
331
23A6
  5
23A6
331
23A2
  5
23A2
331
1F70
  5
1F70
331
7A1
  5
7A1
331
239E
  5
239E
331
23DD
  5
23DD
331
2496
  5
2496
331
241C
  5
241C
331
1FBB
  5
1FBC
331
1F60
  5
1F60
331
23D9
  5
23D9
331
2418
  5
2418
331
2453
  5
2453
331
2492
  5
2492
331
23D5
  5
23D5
331
244F
  5
244F
331
24C9
  5
24C9
331
248E
  5
248E
331
2414
  5
2414
331
23D1
  5
23D1
331
2410
  5
2410
331
24C5
  5
24C5
331
244B
  5
244B
331
248A
  5
248A
331
24C1
  5
24C1
331
1FB7
  5
1FB8
331
2396
  5
2396
331
1A5F
  5
1A5F
331
2392
  5
2392
331
1FB3
  5
1FB4
331
1F58
  5
1F58
331
238E
  5
238E
331
240C
  5
240C
331
2486
  5
2486
331
2447
  5
2447
331
23CD
  5
23CD
331
238A
  5
238A
331
23C9
  5
23C9
331
2482
  5
2482
331
24BD
  5
24BD
331
2443
  5
2443
331
2404
  5
2404
331
247E
  5
247E
331
243F
  5
243F
331
23C5
  5
23C5
331
24B9
  5
24B9
331
23C1
  5
23C1
331
247A
  5
247A
331
24B5
  5
24B5
331
243B
  5
243B
331
24B1
  5
24B1
331
2386
  5
2386
331
1F8F
  5
1F90
331
854
  5
854
331
18DF
  5
18DF
331
1EE8
  5
1EE8
331
23FC
  5
23FC
331
2476
  5
2476
331
2437
  5
2437
331
23BD
  5
23BD
331
1F83
  5
1F83
331
23F8
  5
23F8
331
23B9
  5
23B9
331
2472
  5
2472
331
24AD
  5
24AD
331
2433
  5
2433
331
23F4
  5
23F4
331
246E
  5
246E
331
242F
  5
242F
331
23B5
  5
23B5
331
24A9
  5
24A9
331
23F0
  5
23F0
331
23B1
  5
23B1
331
246A
  5
246A
331
24A5
  5
24A5
331
242B
  5
242B
331
24A1
  5
24A1
331
1F7F
  5
1F7F
331
1F7B
  5
1F7B
331
20F6
  5
20F7
331
2466
  5
2466
331
23EC
  5
23EC
331
23AD
  5
23AD
331
20F2
  5
20F3
331
23A9
  5
23A9
331
23E8
  5
23E8
331
2462
  5
2462
331
2427
  5
2427
331
23E4
  5
23E4
331
245E
  5
245E
331
249D
  5
249D
331
2423
  5
2423
331
23E0
  5
23E0
331
245A
  5
245A
331
2499
  5
2499
331
1F77
  5
1F77
331
1F73
  5
1F73
331
20EE
  5
20EF
331
23A5
  5
23A5
331
23A1
  5
23A1
331
241F
  5
241F
331
239D
  5
239D
331
23DC
  5
23DC
331
2495
  5
2495
331
2597
  5
2599
331
241B
  5
241B
331
1FBA
  5
1FBB
331
2399
  5
2399
331
23D8
  5
23D8
331
2417
  5
2417
331
2452
  5
2452
331
2491
  5
2491
331
23D4
  5
23D4
331
244E
  5
244E
331
248D
  5
248D
331
24C8
  5
24C8
331
2587
  5
2596
331
2413
  5
2413
331
23D0
  5
23D0
331
244A
  5
244A
331
24C4
  5
24C4
331
2489
  5
2489
331
24C0
  5
24C0
331
1FB6
  5
1FB7
331
1FB2
  5
1FB3
331
240F
  5
240F
331
238D
  5
238D
331
240B
  5
240B
331
23CC
  5
23CC
331
2485
  5
2485
331
2446
  5
2446
331
2389
  5
2389
331
2407
  5
2407
331
2481
  5
2481
331
2442
  5
2442
331
24BC
  5
24BC
331
23C8
  5
23C8
331
2403
  5
2403
331
23C4
  5
23C4
331
247D
  5
247D
331
243E
  5
243E
331
24B8
  5
24B8
331
2479
  5
2479
331
243A
  5
243A
331
24B4
  5
24B4
331
23C0
  5
23C0
331
24B0
  5
24B0
331
85B
  5
85B
331
18E2
  5
18E2
331
2385
  5
2385
331
1F8E
  5
1F8F
331
1F8A
  5
1F8C
331
1F86
  5
1F86
331
23FB
  5
23FB
331
23BC
  5
23BC
331
2475
  5
2475
331
2436
  5
2436
331
1F82
  5
1F82
331
23F7
  5
23F7
331
2471
  5
2471
331
2432
  5
2432
331
24AC
  5
24AC
331
23B8
  5
23B8
331
23F3
  5
23F3
331
23B4
  5
23B4
331
246D
  5
246D
331
242E
  5
242E
331
24A8
  5
24A8
331
2469
  5
2469
331
242A
  5
242A
331
24A4
  5
24A4
331
23B0
  5
23B0
331
24A0
  5
24A0
331
84F
  5
84F
331
847
  5
847
331
1F7E
  5
1F7E
331
23EF
  5
23EF
331
20F5
  5
20F6
331
23EB
  5
23EB
331
23AC
  5
23AC
331
2465
  5
2465
331
1F7A
  5
1F7A
331
20F1
  5
20F2
331
23A8
  5
23A8
331
23E7
  5
23E7
331
2461
  5
2461
331
2426
  5
2426
331
23E3
  5
23E3
331
2422
  5
2422
331
245D
  5
245D
331
249C
  5
249C
331
2498
  5
2498
331
23A4
  5
23A4
331
1F72
  5
1F72
331
23A0
  5
23A0
331
23DF
  5
23DF
331
241E
  5
241E
331
239C
  5
239C
331
1F62
  5
1F62
331
23DB
  5
23DB
331
241A
  5
241A
331
2494
  5
2494
331
1FB9
  5
1FBA
331
23D7
  5
23D7
331
2451
  5
2451
331
2490
  5
2490
331
2416
  5
2416
331
23D3
  5
23D3
331
2412
  5
2412
331
24C7
  5
24C7
331
244D
  5
244D
331
248C
  5
248C
331
2449
  5
2449
331
24C3
  5
24C3
331
2488
  5
2488
331
79F
  5
79F
331
1FB5
  5
1FB6
331
2394
  5
2394
331
2390
  5
2390
331
1FB1
  5
1FB2
331
240E
  5
240E
331
23CF
  5
23CF
331
238C
  5
238C
331
23CB
  5
23CB
331
2484
  5
2484
331
24BF
  5
24BF
331
2445
  5
2445
331
240A
  5
240A
331
2388
  5
2388
331
2406
  5
2406
331
23C7
  5
23C7
331
2441
  5
2441
331
24BB
  5
24BB
331
2480
  5
2480
331
2402
  5
2402
331
23C3
  5
23C3
331
247C
  5
247C
331
24B7
  5
24B7
331
243D
  5
243D
331
2478
  5
2478
331
2439
  5
2439
331
85E
  5
85E
331
2384
  5
2384
331
856
  5
856
331
1F89
  5
1F8A
331
23BF
  5
23BF
331
1F85
  5
1F85
331
23FA
  5
23FA
331
23BB
  5
23BB
331
2474
  5
2474
331
24AF
  5
24AF
331
2435
  5
2435
331
1F81
  5
1F81
331
23F6
  5
23F6
331
23B7
  5
23B7
331
2470
  5
2470
331
2431
  5
2431
331
24AB
  5
24AB
331
23F2
  5
23F2
331
23B3
  5
23B3
331
246C
  5
246C
331
242D
  5
242D
331
2468
  5
2468
331
2429
  5
2429
331
24A3
  5
24A3
  0
SORTENTSTABLE
  5
294C
102
{ACAD_REACTORS
330
294B
102
}
330
294B
100
AcDbSortentsTable
330
27B1
  0
XRECORD
  5
29AC
102
{ACAD_REACTORS
330
29AB
102
}
330
29AB
100
AcDbXrecord
280
     1
102
SHADEPLOT
 70
     0
  0
XRECORD
  5
29AA
102
{ACAD_REACTORS
330
29A9
102
}
330
29A9
100
AcDbXrecord
280
     1
102
SHADEPLOT
 70
     0
  0
LAYOUT
  5
22
102
{ACAD_XDICTIONARY
360
2819
102
}
102
{ACAD_REACTORS
330
1A
102
}
330
1A
100
AcDbPlotSettings
  1

  2

  4

  6

 40
0.0
 41
0.0
 42
0.0
 43
0.0
 44
0.0
 45
0.0
 46
0.0
 47
0.0
 48
0.0
 49
0.0
140
0.0
141
0.0
142
1.0
143
1.0
 70
  1712
 72
     0
 73
     0
 74
     0
  7

 75
     0
147
1.0
148
0.0
149
0.0
100
AcDbLayout
  1
Model
 70
     1
 71
     0
 10
0.0
 20
0.0
 11
12.0
 21
9.0
 12
0.0
 22
0.0
 32
0.0
 14
0.0
 24
0.0
 34
0.0
 15
0.0
 25
0.0
 35
0.0
146
0.0
 13
0.0
 23
0.0
 33
0.0
 16
1.0
 26
0.0
 36
0.0
 17
0.0
 27
1.0
 37
0.0
 76
     0
330
1F
331
25F1
  0
LAYOUT
  5
1E
102
{ACAD_XDICTIONARY
360
29A4
102
}
102
{ACAD_REACTORS
330
1A
102
}
330
1A
100
AcDbPlotSettings
  1

  2
none_device
  4
Letter_(8.50_x_11.00_Inches)
  6

 40
6.349999904632568
 41
6.349999904632568
 42
6.350006103515625
 43
6.350006103515625
 44
215.8999938964844
 45
279.3999938964844
 46
0.0
 47
0.0
 48
0.0
 49
0.0
140
0.0
141
0.0
142
1.0
143
1.0
 70
   688
 72
     1
 73
     1
 74
     5
  7

 75
    16
147
1.0
148
0.0
149
0.0
100
AcDbLayout
  1
レイアウト1
 70
     1
 71
     1
 10
-6.350006103515625
 20
-6.349999904632568
 11
273.0499877929688
 21
209.5499939918518
 12
0.0
 22
0.0
 32
0.0
 14
1.000000000000000E+20
 24
1.000000000000000E+20
 34
1.000000000000000E+20
 15
-1.000000000000000E+20
 25
-1.000000000000000E+20
 35
-1.000000000000000E+20
146
0.0
 13
0.0
 23
0.0
 33
0.0
 16
1.0
 26
0.0
 36
0.0
 17
0.0
 27
1.0
 37
0.0
 76
     0
330
1B
331
178
  0
LAYOUT
  5
26
102
{ACAD_XDICTIONARY
360
29A7
102
}
102
{ACAD_REACTORS
330
1A
102
}
330
1A
100
AcDbPlotSettings
  1

  2
none_device
  4
Letter_(8.50_x_11.00_Inches)
  6

 40
6.349999904632568
 41
6.349999904632568
 42
6.350006103515625
 43
6.350006103515625
 44
215.8999938964844
 45
279.3999938964844
 46
0.0
 47
0.0
 48
0.0
 49
0.0
140
0.0
141
0.0
142
1.0
143
1.0
 70
   688
 72
     1
 73
     1
 74
     5
  7

 75
    16
147
1.0
148
0.0
149
0.0
100
AcDbLayout
  1
レイアウト2
 70
     1
 71
     2
 10
-6.350006103515625
 20
-6.349999904632568
 11
273.0499877929688
 21
209.5499939918518
 12
0.0
 22
0.0
 32
0.0
 14
1.000000000000000E+20
 24
1.000000000000000E+20
 34
1.000000000000000E+20
 15
-1.000000000000000E+20
 25
-1.000000000000000E+20
 35
-1.000000000000000E+20
146
0.0
 13
0.0
 23
0.0
 33
0.0
 16
1.0
 26
0.0
 36
0.0
 17
0.0
 27
1.0
 37
0.0
 76
     0
330
23
331
17C
  0
MATERIAL
  5
25FB
102
{ACAD_XDICTIONARY
360
25FC
102
}
102
{ACAD_REACTORS
330
BD
102
}
330
BD
100
AcDbMaterial
  1
ByBlock
 72
     0
 43
0.0008202099737533
 43
0.0
 43
0.0
 43
0.0
 43
0.0
 43
0.0008202099737533
 43
0.0
 43
0.0
 43
0.0
 43
0.0
 43
1.0
 43
0.0
 43
0.0
 43
0.0
 43
0.0
 43
1.0
 77
     0
 47
0.0008202099737533
 47
0.0
 47
0.0
 47
0.0
 47
0.0
 47
0.0008202099737533
 47
0.0
 47
0.0
 47
0.0
 47
0.0
 47
1.0
 47
0.0
 47
0.0
 47
0.0
 47
0.0
 47
1.0
171
     0
 49
0.0008202099737533
 49
0.0
 49
0.0
 49
0.0
 49
0.0
 49
0.0008202099737533
 49
0.0
 49
0.0
 49
0.0
 49
0.0
 49
1.0
 49
0.0
 49
0.0
 49
0.0
 49
0.0
 49
1.0
175
     0
142
0.0008202099737533
142
0.0
142
0.0
142
0.0
142
0.0
142
0.0008202099737533
142
0.0
142
0.0
142
0.0
142
0.0
142
1.0
142
0.0
142
0.0
142
0.0
142
0.0
142
1.0
179
     0
144
0.0008202099737533
144
0.0
144
0.0
144
0.0
144
0.0
144
0.0008202099737533
144
0.0
144
0.0
144
0.0
144
0.0
144
1.0
144
0.0
144
0.0
144
0.0
144
0.0
144
1.0
147
0.0008202099737533
147
0.0
147
0.0
147
0.0
147
0.0
147
0.0008202099737533
147
0.0
147
0.0
147
0.0
147
0.0
147
1.0
147
0.0
147
0.0
147
0.0
147
0.0
147
1.0
  0
MATERIAL
  5
25F3
102
{ACAD_XDICTIONARY
360
25F4
102
}
102
{ACAD_REACTORS
330
BD
102
}
330
BD
100
AcDbMaterial
  1
ByLayer
 72
     0
 43
0.0008202099737533
 43
0.0
 43
0.0
 43
0.0
 43
0.0
 43
0.0008202099737533
 43
0.0
 43
0.0
 43
0.0
 43
0.0
 43
1.0
 43
0.0
 43
0.0
 43
0.0
 43
0.0
 43
1.0
 77
     0
 47
0.0008202099737533
 47
0.0
 47
0.0
 47
0.0
 47
0.0
 47
0.0008202099737533
 47
0.0
 47
0.0
 47
0.0
 47
0.0
 47
1.0
 47
0.0
 47
0.0
 47
0.0
 47
0.0
 47
1.0
171
     0
 49
0.0008202099737533
 49
0.0
 49
0.0
 49
0.0
 49
0.0
 49
0.0008202099737533
 49
0.0
 49
0.0
 49
0.0
 49
0.0
 49
1.0
 49
0.0
 49
0.0
 49
0.0
 49
0.0
 49
1.0
175
     0
142
0.0008202099737533
142
0.0
142
0.0
142
0.0
142
0.0
142
0.0008202099737533
142
0.0
142
0.0
142
0.0
142
0.0
142
1.0
142
0.0
142
0.0
142
0.0
142
0.0
142
1.0
179
     0
144
0.0008202099737533
144
0.0
144
0.0
144
0.0
144
0.0
144
0.0008202099737533
144
0.0
144
0.0
144
0.0
144
0.0
144
1.0
144
0.0
144
0.0
144
0.0
144
0.0
144
1.0
147
0.0008202099737533
147
0.0
147
0.0
147
0.0
147
0.0
147
0.0008202099737533
147
0.0
147
0.0
147
0.0
147
0.0
147
1.0
147
0.0
147
0.0
147
0.0
147
0.0
147
1.0
  0
MATERIAL
  5
2603
102
{ACAD_XDICTIONARY
360
2604
102
}
102
{ACAD_REACTORS
330
BD
102
}
330
BD
100
AcDbMaterial
  1
Global
 72
     0
 43
0.0008202099737533
 43
0.0
 43
0.0
 43
0.0
 43
0.0
 43
0.0008202099737533
 43
0.0
 43
0.0
 43
0.0
 43
0.0
 43
1.0
 43
0.0
 43
0.0
 43
0.0
 43
0.0
 43
1.0
 77
     0
 47
0.0008202099737533
 47
0.0
 47
0.0
 47
0.0
 47
0.0
 47
0.0008202099737533
 47
0.0
 47
0.0
 47
0.0
 47
0.0
 47
1.0
 47
0.0
 47
0.0
 47
0.0
 47
0.0
 47
1.0
171
     0
 49
0.0008202099737533
 49
0.0
 49
0.0
 49
0.0
 49
0.0
 49
0.0008202099737533
 49
0.0
 49
0.0
 49
0.0
 49
0.0
 49
1.0
 49
0.0
 49
0.0
 49
0.0
 49
0.0
 49
1.0
175
     0
142
0.0008202099737533
142
0.0
142
0.0
142
0.0
142
0.0
142
0.0008202099737533
142
0.0
142
0.0
142
0.0
142
0.0
142
1.0
142
0.0
142
0.0
142
0.0
142
0.0
142
1.0
179
     0
144
0.0008202099737533
144
0.0
144
0.0
144
0.0
144
0.0
144
0.0008202099737533
144
0.0
144
0.0
144
0.0
144
0.0
144
1.0
144
0.0
144
0.0
144
0.0
144
0.0
144
1.0
147
0.0008202099737533
147
0.0
147
0.0
147
0.0
147
0.0
147
0.0008202099737533
147
0.0
147
0.0
147
0.0
147
0.0
147
1.0
147
0.0
147
0.0
147
0.0
147
0.0
147
1.0
  0
MLEADERSTYLE
  5
2637
102
{ACAD_XDICTIONARY
360
29A0
102
}
102
{ACAD_REACTORS
330
2636
102
}
330
2636
100
AcDbMLeaderStyle
170
     2
171
     1
172
     0
 90
        2
 40
0.0
 41
0.0
173
     1
 91
-1056964608
340
14
 92
       -2
290
     1
 42
2.0
291
     1
 43
0.36
  3
Standard
 44
4.0
300

342
11
174
     1
178
     6
175
     1
176
     0
 93
-1056964608
 45
4.0
292
     0
297
     0
 46
4.0
 94
-1056964608
 47
1.0
 49
1.0
140
1.0
293
     1
141
0.0
294
     1
177
     0
142
1.0
295
     0
296
     0
143
0.125
1001
ACAD_MLEADERVER
1070
     2
  0
MLINESTYLE
  5
18
102
{ACAD_REACTORS
330
17
102
}
330
17
100
AcDbMlineStyle
  2
STANDARD
 70
     0
  3

 62
   256
 51
90.0
 52
90.0
 71
     2
 49
0.5
 62
   256
  6
BYLAYER
 49
-0.5
 62
   256
  6
BYLAYER
  0
ACDBPLACEHOLDER
  5
F
102
{ACAD_REACTORS
330
E
102
}
330
E
  0
SCALE
  5
2625
102
{ACAD_REACTORS
330
2624
102
}
330
2624
100
AcDbScale
 70
     0
300
1:1
140
1.0
141
1.0
290
     1
  0
SCALE
  5
2626
102
{ACAD_REACTORS
330
2624
102
}
330
2624
100
AcDbScale
 70
     0
300
1:2
140
1.0
141
2.0
290
     0
  0
SCALE
  5
2627
102
{ACAD_REACTORS
330
2624
102
}
330
2624
100
AcDbScale
 70
     0
300
1:4
140
1.0
141
4.0
290
     0
  0
SCALE
  5
2628
102
{ACAD_REACTORS
330
2624
102
}
330
2624
100
AcDbScale
 70
     0
300
1:5
140
1.0
141
5.0
290
     0
  0
SCALE
  5
2629
102
{ACAD_REACTORS
330
2624
102
}
330
2624
100
AcDbScale
 70
     0
300
1:8
140
1.0
141
8.0
290
     0
  0
SCALE
  5
262A
102
{ACAD_REACTORS
330
2624
102
}
330
2624
100
AcDbScale
 70
     0
300
1:10
140
1.0
141
10.0
290
     0
  0
SCALE
  5
262B
102
{ACAD_REACTORS
330
2624
102
}
330
2624
100
AcDbScale
 70
     0
300
1:16
140
1.0
141
16.0
290
     0
  0
SCALE
  5
262C
102
{ACAD_REACTORS
330
2624
102
}
330
2624
100
AcDbScale
 70
     0
300
1:20
140
1.0
141
20.0
290
     0
  0
SCALE
  5
262D
102
{ACAD_REACTORS
330
2624
102
}
330
2624
100
AcDbScale
 70
     0
300
1:30
140
1.0
141
30.0
290
     0
  0
SCALE
  5
262E
102
{ACAD_REACTORS
330
2624
102
}
330
2624
100
AcDbScale
 70
     0
300
1:40
140
1.0
141
40.0
290
     0
  0
SCALE
  5
262F
102
{ACAD_REACTORS
330
2624
102
}
330
2624
100
AcDbScale
 70
     0
300
1:50
140
1.0
141
50.0
290
     0
  0
SCALE
  5
2630
102
{ACAD_REACTORS
330
2624
102
}
330
2624
100
AcDbScale
 70
     0
300
1:100
140
1.0
141
100.0
290
     0
  0
SCALE
  5
2631
102
{ACAD_REACTORS
330
2624
102
}
330
2624
100
AcDbScale
 70
     0
300
2:1
140
2.0
141
1.0
290
     0
  0
SCALE
  5
2632
102
{ACAD_REACTORS
330
2624
102
}
330
2624
100
AcDbScale
 70
     0
300
4:1
140
4.0
141
1.0
290
     0
  0
SCALE
  5
2633
102
{ACAD_REACTORS
330
2624
102
}
330
2624
100
AcDbScale
 70
     0
300
8:1
140
8.0
141
1.0
290
     0
  0
SCALE
  5
2634
102
{ACAD_REACTORS
330
2624
102
}
330
2624
100
AcDbScale
 70
     0
300
10:1
140
10.0
141
1.0
290
     0
  0
SCALE
  5
2635
102
{ACAD_REACTORS
330
2624
102
}
330
2624
100
AcDbScale
 70
     0
300
100:1
140
100.0
141
1.0
290
     0
  0
TABLESTYLE
  5
932
102
{ACAD_XDICTIONARY
360
281B
102
}
102
{ACAD_REACTORS
330
931
102
}
330
931
100
AcDbTableStyle
  3
Standard
 70
     0
 71
     0
 40
1.5
 41
1.5
280
     0
281
     0
  7
STANDARD
140
4.5
170
     2
 62
     0
 63
     7
283
     0
274
    -2
284
     1
 64
     0
275
    -2
285
     1
 65
     0
276
    -2
286
     1
 66
     0
277
    -2
287
     1
 67
     0
278
    -2
288
     1
 68
     0
279
    -2
289
     1
 69
     0
  7
STANDARD
140
6.0
170
     5
 62
     0
 63
     7
283
     0
274
    -2
284
     1
 64
     0
275
    -2
285
     1
 65
     0
276
    -2
286
     1
 66
     0
277
    -2
287
     1
 67
     0
278
    -2
288
     1
 68
     0
279
    -2
289
     1
 69
     0
  7
STANDARD
140
4.5
170
     5
 62
     0
 63
     7
283
     0
274
    -2
284
     1
 64
     0
275
    -2
285
     1
 65
     0
276
    -2
286
     1
 66
     0
277
    -2
287
     1
 67
     0
278
    -2
288
     1
 68
     0
279
    -2
289
     1
 69
     0
  0
VISUALSTYLE
  5
2611
102
{ACAD_XDICTIONARY
360
29BB
102
}
102
{ACAD_REACTORS
330
260B
102
}
330
260B
100
AcDbVisualStyle
  2
2dWireframe
 70
     4
 71
     0
 72
     2
 73
     0
 90
        0
 40
-0.6
 41
-30.0
 62
     5
 63
     7
 74
     1
 91
        4
 64
     7
 65
   257
 75
     1
175
     1
 42
1.0
 92
        0
 66
   257
 43
1.0
 76
     1
 77
     6
 78
     2
 67
     7
 79
     5
170
     0
171
     0
290
     0
174
     0
 93
        1
 44
0.0
173
     0
291
     0
 45
0.0
1001
ACAD
1000
AcDbSavedByObjectVersion
1070
     0
  0
VISUALSTYLE
  5
2610
102
{ACAD_XDICTIONARY
360
29B9
102
}
102
{ACAD_REACTORS
330
260B
102
}
330
260B
100
AcDbVisualStyle
  2
Basic
 70
     7
 71
     1
 72
     0
 73
     1
 90
        0
 40
-0.6
 41
-30.0
 62
     5
 63
     7
 74
     0
 91
        4
 64
     7
 65
   257
 75
     1
175
     1
 42
1.0
 92
        8
 66
     7
 43
1.0
 76
     1
 77
     6
 78
     2
 67
     7
 79
     5
170
     0
171
     0
290
     0
174
     0
 93
        1
 44
0.0
173
     0
291
     1
 45
0.0
1001
ACAD
1000
AcDbSavedByObjectVersion
1070
     0
  0
VISUALSTYLE
  5
2617
102
{ACAD_XDICTIONARY
360
29C7
102
}
102
{ACAD_REACTORS
330
260B
102
}
330
260B
100
AcDbVisualStyle
  2
Brighten
 70
    12
 71
     2
 72
     2
 73
     0
 90
        0
 40
-0.6
 41
-30.0
 62
     5
 63
     7
 74
     1
 91
        4
 64
     7
 65
   257
 75
     1
175
     1
 42
1.0
 92
        8
 66
     7
 43
1.0
 76
     1
 77
     6
 78
     2
 67
     7
 79
     5
170
     0
171
     0
290
     0
174
     0
 93
        1
 44
50.0
173
     0
291
     1
 45
0.0
1001
ACAD
1000
AcDbSavedByObjectVersion
1070
     0
  0
VISUALSTYLE
  5
261B
102
{ACAD_XDICTIONARY
360
29CF
102
}
102
{ACAD_REACTORS
330
260B
102
}
330
260B
100
AcDbVisualStyle
  2
ColorChange
 70
    16
 71
     2
 72
     2
 73
     3
 90
        0
 40
-0.6
 41
-30.0
 62
     5
 63
     8
 74
     1
 91
        4
 64
     7
 65
   257
 75
     1
175
     1
 42
1.0
 92
        8
 66
     8
 43
1.0
 76
     1
 77
     6
 78
     2
 67
     7
 79
     5
170
     0
171
     0
290
     0
174
     0
 93
        1
 44
0.0
173
     0
291
     1
 45
0.0
1001
ACAD
1000
AcDbSavedByObjectVersion
1070
     0
  0
VISUALSTYLE
  5
2614
102
{ACAD_XDICTIONARY
360
29C1
102
}
102
{ACAD_REACTORS
330
260B
102
}
330
260B
100
AcDbVisualStyle
  2
Conceptual
 70
     9
 71
     3
 72
     2
 73
     0
 90
        0
 40
-0.6
 41
-30.0
 62
     5
 63
     7
 74
     2
 91
        2
 64
     7
 65
   257
 75
     1
175
     1
 42
179.0
 92
        8
 66
     7
 43
1.0
 76
     1
 77
     6
 78
     2
 67
     7
 79
     3
170
     0
171
     0
290
     0
174
     0
 93
        1
 44
0.0
173
     0
291
     0
 45
0.0
1001
ACAD
1000
AcDbSavedByObjectVersion
1070
     0
  0
VISUALSTYLE
  5
2616
102
{ACAD_XDICTIONARY
360
29C5
102
}
102
{ACAD_REACTORS
330
260B
102
}
330
260B
100
AcDbVisualStyle
  2
Dim
 70
    11
 71
     2
 72
     2
 73
     0
 90
        0
 40
-0.6
 41
-30.0
 62
     5
 63
     7
 74
     1
 91
        4
 64
     7
 65
   257
 75
     1
175
     1
 42
1.0
 92
        8
 66
     7
 43
1.0
 76
     1
 77
     6
 78
     2
 67
     7
 79
     5
170
     0
171
     0
290
     0
174
     0
 93
        1
 44
-50.0
173
     0
291
     1
 45
0.0
1001
ACAD
1000
AcDbSavedByObjectVersion
1070
     0
  0
VISUALSTYLE
  5
2623
102
{ACAD_XDICTIONARY
360
29DF
102
}
102
{ACAD_REACTORS
330
260B
102
}
330
260B
100
AcDbVisualStyle
  2
EdgeColorOff
 70
    22
 71
     2
 72
     2
 73
     0
 90
        0
 40
-0.6
 41
-30.0
 62
     5
 63
     7
 74
     1
 91
        4
 64
     7
 65
   257
 75
     1
175
     1
 42
1.0
 92
        8
 66
     7
 43
1.0
 76
     1
 77
     6
 78
     2
 67
     7
 79
     5
170
     0
171
     0
290
     0
174
     0
 93
        1
 44
0.0
173
     0
291
     1
 45
0.0
1001
ACAD
1000
AcDbSavedByObjectVersion
1070
     0
  0
VISUALSTYLE
  5
261A
102
{ACAD_XDICTIONARY
360
29CD
102
}
102
{ACAD_REACTORS
330
260B
102
}
330
260B
100
AcDbVisualStyle
  2
Facepattern
 70
    15
 71
     2
 72
     2
 73
     0
 90
        0
 40
-0.6
 41
-30.0
 62
     5
 63
     7
 74
     1
 91
        4
 64
     7
 65
   257
 75
     1
175
     1
 42
1.0
 92
        8
 66
     7
 43
1.0
 76
     1
 77
     6
 78
     2
 67
     7
 79
     5
170
     0
171
     0
290
     0
174
     0
 93
        1
 44
0.0
173
     0
291
     1
 45
0.0
1001
ACAD
1000
AcDbSavedByObjectVersion
1070
     0
  0
VISUALSTYLE
  5
260C
102
{ACAD_XDICTIONARY
360
29B1
102
}
102
{ACAD_REACTORS
330
260B
102
}
330
260B
100
AcDbVisualStyle
  2
Flat
 70
     0
 71
     2
 72
     1
 73
     1
 90
        2
 40
-0.6
 41
30.0
 62
     5
 63
     7
 74
     0
 91
        0
 64
     7
 65
   257
 75
     1
175
     1
 42
1.0
 92
        8
 66
     7
 43
1.0
 76
     1
 77
     6
 78
     2
 67
     7
 79
     5
170
     0
171
     0
290
     0
174
     0
 93
       13
 44
0.0
173
     0
291
     1
 45
0.0
1001
ACAD
1000
AcDbSavedByObjectVersion
1070
     0
  0
VISUALSTYLE
  5
260D
102
{ACAD_XDICTIONARY
360
29B3
102
}
102
{ACAD_REACTORS
330
260B
102
}
330
260B
100
AcDbVisualStyle
  2
FlatWithEdges
 70
     1
 71
     2
 72
     1
 73
     1
 90
        2
 40
-0.6
 41
30.0
 62
     5
 63
     7
 74
     1
 91
        0
 64
     7
 65
   257
 75
     1
175
     1
 42
1.0
 92
        0
 66
   257
 43
1.0
 76
     1
 77
     6
 78
     2
 67
     7
 79
     5
170
     0
171
     0
290
     0
174
     0
 93
       13
 44
0.0
173
     0
291
     1
 45
0.0
1001
ACAD
1000
AcDbSavedByObjectVersion
1070
     0
  0
VISUALSTYLE
  5
260E
102
{ACAD_XDICTIONARY
360
29B5
102
}
102
{ACAD_REACTORS
330
260B
102
}
330
260B
100
AcDbVisualStyle
  2
Gouraud
 70
     2
 71
     2
 72
     2
 73
     1
 90
        2
 40
-0.6
 41
30.0
 62
     5
 63
     7
 74
     0
 91
        0
 64
     7
 65
   257
 75
     1
175
     1
 42
1.0
 92
        0
 66
     7
 43
1.0
 76
     1
 77
     6
 78
     2
 67
     7
 79
     5
170
     0
171
     0
290
     0
174
     0
 93
       13
 44
0.0
173
     0
291
     1
 45
0.0
1001
ACAD
1000
AcDbSavedByObjectVersion
1070
     0
  0
VISUALSTYLE
  5
260F
102
{ACAD_XDICTIONARY
360
29B7
102
}
102
{ACAD_REACTORS
330
260B
102
}
330
260B
100
AcDbVisualStyle
  2
GouraudWithEdges
 70
     3
 71
     2
 72
     2
 73
     1
 90
        2
 40
-0.6
 41
30.0
 62
     5
 63
     7
 74
     1
 91
        0
 64
     7
 65
   257
 75
     1
175
     1
 42
1.0
 92
        0
 66
   257
 43
1.0
 76
     1
 77
     6
 78
     2
 67
     7
 79
     5
170
     0
171
     0
290
     0
174
     0
 93
       13
 44
0.0
173
     0
291
     1
 45
0.0
1001
ACAD
1000
AcDbSavedByObjectVersion
1070
     0
  0
VISUALSTYLE
  5
2613
102
{ACAD_XDICTIONARY
360
29BF
102
}
102
{ACAD_REACTORS
330
260B
102
}
330
260B
100
AcDbVisualStyle
  2
Hidden
 70
     6
 71
     1
 72
     2
 73
     2
 90
        0
 40
-0.6
 41
-30.0
 62
     5
 63
     7
 74
     2
 91
        2
 64
     7
 65
   257
 75
     2
175
     1
 42
40.0
 92
        0
 66
   257
 43
1.0
 76
     1
 77
     6
 78
     2
 67
     7
 79
     3
170
     0
171
     0
290
     0
174
     0
 93
        1
 44
0.0
173
     0
291
     0
 45
0.0
1001
ACAD
1000
AcDbSavedByObjectVersion
1070
     0
  0
VISUALSTYLE
  5
2621
102
{ACAD_XDICTIONARY
360
29DB
102
}
102
{ACAD_REACTORS
330
260B
102
}
330
260B
100
AcDbVisualStyle
  2
JitterOff
 70
    20
 71
     2
 72
     2
 73
     0
 90
        0
 40
-0.6
 41
-30.0
 62
     5
 63
     7
 74
     1
 91
        4
 64
     7
 65
   257
 75
     1
175
     1
 42
1.0
 92
       10
 66
     7
 43
1.0
 76
     1
 77
     6
 78
     2
 67
     7
 79
     5
170
     0
171
     0
290
     0
174
     0
 93
        1
 44
0.0
173
     0
291
     1
 45
0.0
1001
ACAD
1000
AcDbSavedByObjectVersion
1070
     0
  0
VISUALSTYLE
  5
2619
102
{ACAD_XDICTIONARY
360
29CB
102
}
102
{ACAD_REACTORS
330
260B
102
}
330
260B
100
AcDbVisualStyle
  2
Linepattern
 70
    14
 71
     2
 72
     2
 73
     0
 90
        0
 40
-0.6
 41
-30.0
 62
     5
 63
     7
 74
     1
 91
        4
 64
     7
 65
   257
 75
     7
175
     7
 42
1.0
 92
        8
 66
     7
 43
1.0
 76
     1
 77
     6
 78
     2
 67
     7
 79
     5
170
     0
171
     0
290
     0
174
     0
 93
        1
 44
0.0
173
     0
291
     1
 45
0.0
1001
ACAD
1000
AcDbSavedByObjectVersion
1070
     0
  0
VISUALSTYLE
  5
2622
102
{ACAD_XDICTIONARY
360
29DD
102
}
102
{ACAD_REACTORS
330
260B
102
}
330
260B
100
AcDbVisualStyle
  2
OverhangOff
 70
    21
 71
     2
 72
     2
 73
     0
 90
        0
 40
-0.6
 41
-30.0
 62
     5
 63
     7
 74
     1
 91
        4
 64
     7
 65
   257
 75
     1
175
     1
 42
1.0
 92
        9
 66
     7
 43
1.0
 76
     1
 77
     6
 78
     2
 67
     7
 79
     5
170
     0
171
     0
290
     0
174
     0
 93
        1
 44
0.0
173
     0
291
     1
 45
0.0
1001
ACAD
1000
AcDbSavedByObjectVersion
1070
     0
  0
VISUALSTYLE
  5
2615
102
{ACAD_XDICTIONARY
360
29C3
102
}
102
{ACAD_REACTORS
330
260B
102
}
330
260B
100
AcDbVisualStyle
  2
Realistic
 70
     8
 71
     2
 72
     2
 73
     0
 90
        2
 40
-0.6
 41
30.0
 62
     5
 63
     7
 74
     0
 91
        0
 64
     7
 65
   257
 75
     1
175
     1
 42
1.0
 92
        8
 66
   257
 43
1.0
 76
     1
 77
     6
 78
     2
 67
     7
 79
     3
170
     0
171
     0
290
     0
174
     0
 93
       13
 44
0.0
173
     0
291
     0
 45
0.0
1001
ACAD
1000
AcDbSavedByObjectVersion
1070
     0
  0
VISUALSTYLE
  5
2620
102
{ACAD_XDICTIONARY
360
29D9
102
}
102
{ACAD_REACTORS
330
260B
102
}
330
260B
100
AcDbVisualStyle
  2
Shaded
 70
    27
 71
     2
 72
     2
 73
     1
 90
        2
 40
-0.6
 41
30.0
 62
     5
 63
     7
 74
     0
 91
        4
 64
     7
 65
   257
 75
     1
175
     1
 42
1.0
 92
        8
 66
   257
 43
1.0
 76
     1
 77
     6
 78
     2
 67
     8
 79
     3
170
     0
171
     0
290
     0
174
     0
 93
        5
 44
0.0
173
     0
291
     0
 45
0.0
1001
ACAD
1000
AcDbSavedByObjectVersion
1070
     0
  0
VISUALSTYLE
  5
261F
102
{ACAD_XDICTIONARY
360
29D7
102
}
102
{ACAD_REACTORS
330
260B
102
}
330
260B
100
AcDbVisualStyle
  2
Shaded with edges
 70
    26
 71
     2
 72
     2
 73
     1
 90
        2
 40
-0.6
 41
30.0
 62
     5
 63
     7
 74
     1
 91
       10
 64
     7
 65
   257
 75
     2
175
     1
 42
1.0
 92
        8
 66
   257
 43
1.0
 76
     1
 77
     6
 78
     2
 67
     7
 79
     3
170
     0
171
     0
290
     0
174
     0
 93
        5
 44
0.0
173
     0
291
     0
 45
0.0
1001
ACAD
1000
AcDbSavedByObjectVersion
1070
     0
  0
VISUALSTYLE
  5
261C
102
{ACAD_XDICTIONARY
360
29D1
102
}
102
{ACAD_REACTORS
330
260B
102
}
330
260B
100
AcDbVisualStyle
  2
Shades of Gray
 70
    23
 71
     2
 72
     2
 73
     3
 90
        0
 40
-0.6
 41
-30.0
 62
     5
 63
     7
 74
     2
 91
        2
 64
     7
 65
     7
 75
     1
175
     1
 42
40.0
 92
        8
 66
     7
 43
1.0
 76
     1
 77
     6
 78
     2
 67
     7
 79
     3
170
     0
171
     0
290
     0
174
     0
 93
        1
 44
0.0
173
     0
291
     0
 45
0.0
1001
ACAD
1000
AcDbSavedByObjectVersion
1070
     0
  0
VISUALSTYLE
  5
261D
102
{ACAD_XDICTIONARY
360
29D3
102
}
102
{ACAD_REACTORS
330
260B
102
}
330
260B
100
AcDbVisualStyle
  2
Sketchy
 70
    24
 71
     1
 72
     2
 73
     2
 90
        0
 40
-0.6
 41
-30.0
 62
     5
 63
     7
 74
     2
 91
        2
 64
     7
 65
     7
 75
     1
175
     1
 42
40.0
 92
       11
 66
     7
 43
1.0
 76
     1
 77
     6
 78
     2
 67
     7
 79
     6
170
     0
171
     0
290
     0
174
     0
 93
        1
 44
0.0
173
     0
291
     0
 45
0.0
1001
ACAD
1000
AcDbSavedByObjectVersion
1070
     0
  0
VISUALSTYLE
  5
2618
102
{ACAD_XDICTIONARY
360
29C9
102
}
102
{ACAD_REACTORS
330
260B
102
}
330
260B
100
AcDbVisualStyle
  2
Thicken
 70
    13
 71
     2
 72
     2
 73
     0
 90
        0
 40
-0.6
 41
-30.0
 62
     5
 63
     7
 74
     1
 91
        4
 64
     7
 65
   257
 75
     1
175
     1
 42
1.0
 92
       12
 66
     7
 43
1.0
 76
     1
 77
     6
 78
     2
 67
     7
 79
     5
170
     0
171
     0
290
     0
174
     0
 93
        1
 44
0.0
173
     0
291
     1
 45
0.0
1001
ACAD
1000
AcDbSavedByObjectVersion
1070
     0
  0
VISUALSTYLE
  5
2612
102
{ACAD_XDICTIONARY
360
29BD
102
}
102
{ACAD_REACTORS
330
260B
102
}
330
260B
100
AcDbVisualStyle
  2
Wireframe
 70
     5
 71
     0
 72
     2
 73
     0
 90
        0
 40
-0.6
 41
-30.0
 62
     5
 63
     7
 74
     1
 91
        4
 64
     7
 65
   257
 75
     1
175
     1
 42
1.0
 92
        0
 66
   257
 43
1.0
 76
     1
 77
     6
 78
     2
 67
     7
 79
     3
170
     0
171
     0
290
     0
174
     0
 93
        1
 44
0.0
173
     0
291
     0
 45
0.0
1001
ACAD
1000
AcDbSavedByObjectVersion
1070
     0
  0
VISUALSTYLE
  5
261E
102
{ACAD_XDICTIONARY
360
29D5
102
}
102
{ACAD_REACTORS
330
260B
102
}
330
260B
100
AcDbVisualStyle
  2
X-Ray
 70
    25
 71
     2
 72
     2
 73
     1
 90
        1
 40
0.5
 41
-30.0
 62
     5
 63
     7
 74
     1
 91
        0
 64
     7
 65
   257
 75
     1
175
     1
 42
1.0
 92
        8
 66
     7
 43
1.0
 76
     1
 77
     6
 78
     2
 67
     7
 79
     3
170
     0
171
     0
290
     0
174
     0
 93
       13
 44
0.0
173
     0
291
     0
 45
0.0
1001
ACAD
1000
AcDbSavedByObjectVersion
1070
     0
  0
DICTIONARYVAR
  5
2868
102
{ACAD_REACTORS
330
94
102
}
330
94
100
DictionaryVariables
280
     0
  1
1:1
  0
DICTIONARYVAR
  5
2867
102
{ACAD_REACTORS
330
94
102
}
330
94
100
DictionaryVariables
280
     0
  1
STANDARD
  0
DICTIONARYVAR
  5
9AD
102
{ACAD_REACTORS
330
94
102
}
330
94
100
DictionaryVariables
280
     0
  1
STANDARD
  0
DICTIONARYVAR
  5
96
102
{ACAD_REACTORS
330
94
102
}
330
94
100
DictionaryVariables
280
     0
  1
2
  0
DICTIONARYVAR
  5
95
102
{ACAD_REACTORS
330
94
102
}
330
94
100
DictionaryVariables
280
     0
  1
0
  0
DICTIONARYVAR
  5
299D
102
{ACAD_REACTORS
330
94
102
}
330
94
100
DictionaryVariables
280
     0
  1
127
  0
DICTIONARYVAR
  5
299E
102
{ACAD_REACTORS
330
94
102
}
330
94
100
DictionaryVariables
280
     0
  1
0
  0
DICTIONARY
  5
1E2
102
{ACAD_REACTORS
330
5B
102
}
330
5B
100
AcDbDictionary
281
     1
  0
DICTIONARY
  5
61
102
{ACAD_REACTORS
330
5B
102
}
330
5B
100
AcDbDictionary
281
     1
  0
XRECORD
  5
94D
102
{ACAD_REACTORS
330
5B
102
}
330
5B
100
AcDbXrecord
280
     1
 90
-1023410169
  0
DICTIONARY
  5
2819
330
22
100
AcDbDictionary
280
     1
281
     1
  3
ACAD_XREC_ROUNDTRIP
360
29A6
  3
ADSK_XREC_LAYOUTTHUMBNAIL
360
281A
  0
DICTIONARY
  5
29A4
330
1E
100
AcDbDictionary
280
     1
281
     1
  3
ACAD_XREC_ROUNDTRIP
360
29A5
  0
DICTIONARY
  5
29A7
330
26
100
AcDbDictionary
280
     1
281
     1
  3
ACAD_XREC_ROUNDTRIP
360
29A8
  0
DICTIONARY
  5
25FC
330
25FB
100
AcDbDictionary
280
     1
281
     1
  3
ACAD_XREC_ROUNDTRIP
360
29AF
  3
BUMPTILE
360
25FE
  3
DIFFUSETILE
360
25FD
  3
OPACITYTILE
360
2601
  3
REFLECTIONTILE
360
2600
  3
REFRACTIONTILE
360
2602
  3
SPECULARTILE
360
25FF
  0
DICTIONARY
  5
25F4
330
25F3
100
AcDbDictionary
280
     1
281
     1
  3
ACAD_XREC_ROUNDTRIP
360
29AE
  3
BUMPTILE
360
25F6
  3
DIFFUSETILE
360
25F5
  3
OPACITYTILE
360
25F9
  3
REFLECTIONTILE
360
25F8
  3
REFRACTIONTILE
360
25FA
  3
SPECULARTILE
360
25F7
  0
DICTIONARY
  5
2604
330
2603
100
AcDbDictionary
280
     1
281
     1
  3
ACAD_XREC_ROUNDTRIP
360
29B0
  3
BUMPTILE
360
2606
  3
DIFFUSETILE
360
2605
  3
OPACITYTILE
360
2609
  3
REFLECTIONTILE
360
2608
  3
REFRACTIONTILE
360
260A
  3
SPECULARTILE
360
2607
  0
DICTIONARY
  5
29A0
330
2637
100
AcDbDictionary
280
     1
281
     1
  3
ACAD_XREC_ROUNDTRIP
360
29A1
  0
DICTIONARY
  5
281B
330
932
100
AcDbDictionary
280
     1
281
     1
  3
ACAD_ROUNDTRIP_2008_TABLESTYLE_CELLSTYLEMAP
360
299F
  3
ACAD_XREC_ROUNDTRIP
360
29AD
  0
DICTIONARY
  5
29BB
330
2611
100
AcDbDictionary
280
     1
281
     1
  3
ACAD_XREC_ROUNDTRIP
360
29BC
  0
DICTIONARY
  5
29B9
330
2610
100
AcDbDictionary
280
     1
281
     1
  3
ACAD_XREC_ROUNDTRIP
360
29BA
  0
DICTIONARY
  5
29C7
330
2617
100
AcDbDictionary
280
     1
281
     1
  3
ACAD_XREC_ROUNDTRIP
360
29C8
  0
DICTIONARY
  5
29CF
330
261B
100
AcDbDictionary
280
     1
281
     1
  3
ACAD_XREC_ROUNDTRIP
360
29D0
  0
DICTIONARY
  5
29C1
330
2614
100
AcDbDictionary
280
     1
281
     1
  3
ACAD_XREC_ROUNDTRIP
360
29C2
  0
DICTIONARY
  5
29C5
330
2616
100
AcDbDictionary
280
     1
281
     1
  3
ACAD_XREC_ROUNDTRIP
360
29C6
  0
DICTIONARY
  5
29DF
330
2623
100
AcDbDictionary
280
     1
281
     1
  3
ACAD_XREC_ROUNDTRIP
360
29E0
  0
DICTIONARY
  5
29CD
330
261A
100
AcDbDictionary
280
     1
281
     1
  3
ACAD_XREC_ROUNDTRIP
360
29CE
  0
DICTIONARY
  5
29B1
330
260C
100
AcDbDictionary
280
     1
281
     1
  3
ACAD_XREC_ROUNDTRIP
360
29B2
  0
DICTIONARY
  5
29B3
330
260D
100
AcDbDictionary
280
     1
281
     1
  3
ACAD_XREC_ROUNDTRIP
360
29B4
  0
DICTIONARY
  5
29B5
330
260E
100
AcDbDictionary
280
     1
281
     1
  3
ACAD_XREC_ROUNDTRIP
360
29B6
  0
DICTIONARY
  5
29B7
330
260F
100
AcDbDictionary
280
     1
281
     1
  3
ACAD_XREC_ROUNDTRIP
360
29B8
  0
DICTIONARY
  5
29BF
330
2613
100
AcDbDictionary
280
     1
281
     1
  3
ACAD_XREC_ROUNDTRIP
360
29C0
  0
DICTIONARY
  5
29DB
330
2621
100
AcDbDictionary
280
     1
281
     1
  3
ACAD_XREC_ROUNDTRIP
360
29DC
  0
DICTIONARY
  5
29CB
330
2619
100
AcDbDictionary
280
     1
281
     1
  3
ACAD_XREC_ROUNDTRIP
360
29CC
  0
DICTIONARY
  5
29DD
330
2622
100
AcDbDictionary
280
     1
281
     1
  3
ACAD_XREC_ROUNDTRIP
360
29DE
  0
DICTIONARY
  5
29C3
330
2615
100
AcDbDictionary
280
     1
281
     1
  3
ACAD_XREC_ROUNDTRIP
360
29C4
  0
DICTIONARY
  5
29D9
330
2620
100
AcDbDictionary
280
     1
281
     1
  3
ACAD_XREC_ROUNDTRIP
360
29DA
  0
DICTIONARY
  5
29D7
330
261F
100
AcDbDictionary
280
     1
281
     1
  3
ACAD_XREC_ROUNDTRIP
360
29D8
  0
DICTIONARY
  5
29D1
330
261C
100
AcDbDictionary
280
     1
281
     1
  3
ACAD_XREC_ROUNDTRIP
360
29D2
  0
DICTIONARY
  5
29D3
330
261D
100
AcDbDictionary
280
     1
281
     1
  3
ACAD_XREC_ROUNDTRIP
360
29D4
  0
DICTIONARY
  5
29C9
330
2618
100
AcDbDictionary
280
     1
281
     1
  3
ACAD_XREC_ROUNDTRIP
360
29CA
  0
DICTIONARY
  5
29BD
330
2612
100
AcDbDictionary
280
     1
281
     1
  3
ACAD_XREC_ROUNDTRIP
360
29BE
  0
DICTIONARY
  5
29D5
330
261E
100
AcDbDictionary
280
     1
281
     1
  3
ACAD_XREC_ROUNDTRIP
360
29D6
  0
XRECORD
  5
29A6
102
{ACAD_REACTORS
330
2819
102
}
330
2819
100
AcDbXrecord
280
     1
102
SHADEPLOT
 70
     0
102
SHADEPLOTRESLEVEL
 70
     2
102
SHADEPLOTCUSTOMDPI
 70
   300
  0
XRECORD
  5
281A
102
{ACAD_REACTORS
330
2819
102
}
330
2819
100
AcDbXrecord
280
     1
310
280000000001000073000000010008000000000000730000000000000000000000010000000000000000000000000000C8C8C8000000000000000000000000000000000000000000000000000000000000000000330000006600000099000000CC000000FF00000000330000333300006633000099330000CC330000FF3300
310
0000660000336600006666000099660000CC660000FF66000000990000339900006699000099990000CC990000FF99000000CC000033CC000066CC000099CC0000CCCC0000FFCC000000FF000033FF000066FF000099FF0000CCFF0000FFFF000000003300330033006600330099003300CC003300FF003300003333003333
310
33006633330099333300CC333300FF33330000663300336633006666330099663300CC663300FF66330000993300339933006699330099993300CC993300FF99330000CC330033CC330066CC330099CC3300CCCC3300FFCC330000FF330033FF330066FF330099FF3300CCFF3300FFFF330000006600330066006600660099
310
006600CC006600FF00660000336600333366006633660099336600CC336600FF33660000666600336666006666660099666600CC666600FF66660000996600339966006699660099996600CC996600FF99660000CC660033CC660066CC660099CC6600CCCC6600FFCC660000FF660033FF660066FF660099FF6600CCFF6600
310
FFFF660000009900330099006600990099009900CC009900FF00990000339900333399006633990099339900CC339900FF33990000669900336699006666990099669900CC669900FF66990000999900339999006699990099999900CC999900FF99990000CC990033CC990066CC990099CC9900CCCC9900FFCC990000FF99
310
0033FF990066FF990099FF9900CCFF9900FFFF99000000CC003300CC006600CC009900CC00CC00CC00FF00CC000033CC003333CC006633CC009933CC00CC33CC00FF33CC000066CC003366CC006666CC009966CC00CC66CC00FF66CC000099CC003399CC006699CC009999CC00CC99CC00FF99CC0000CCCC0033CCCC0066CC
310
CC0099CCCC00CCCCCC00FFCCCC0000FFCC0033FFCC0066FFCC0099FFCC00CCFFCC00FFFFCC000000FF003300FF006600FF009900FF00CC00FF00FF00FF000033FF003333FF006633FF009933FF00CC33FF00FF33FF000066FF003366FF006666FF009966FF00CC66FF00FF66FF000099FF003399FF006699FF009999FF00CC
310
99FF00FF99FF0000CCFF0033CCFF0066CCFF0099CCFF00CCCCFF00FFCCFF0000FFFF0033FFFF0066FFFF0099FFFF00CCFFFF00FFFFFF00000000000D0D0D001A1A1A00282828003535350043434300505050005D5D5D006B6B6B00787878008686860093939300A1A1A100AEAEAE00BBBBBB00C9C9C900D6D6D600E4E4E400
310
F1F1F100FFFFFF0000000000000000000000000000000000000000000000000000000000000000000000000000000000000000000000000000000000000000000000000000000000000000000000000000000000000000000000000000F5F5F5F5F5F5F5F5F5F5F5F5F5F5F5F5F5F5F5F5F5F5F5F5F5F5F5F5F5F5F5F5F5F5
310
F5F5F5F5F5F5F5F5F5F5F5F5F5F5F5F5F5F5F5F5F5F5F5F5F5F5F5F5F5F5F5F5F5F5F5F5F5F5F5F5F5F5F5F5F5F5F5F5F5F5F5F5F5F5F5F5F5F5F5F5F5F5F5F5F5F5F5F5F5F5F5F5F5F5F5F5F5F5F5F5F5F5F5F5F5F5F5F5F5F5F5F5F5F5F5F5F5F5F5F5F5F5F5F5F5F5F5F5F5F5F5F5F5F5F5F5F5F5F5F5F5F5F5F5F5F5F5
310
F5F5F5F5F5000000000000000000000000000000000000000000000000000000000000000000000000000000000000000000000000000000000000000000000000000000000000000000000000000000000000000000000000000000000000F500000000000000000000000000000000000000000000000000000000000000
310
000000000000000000000000000000000000000000000000000000000000000000000000000000000000000000000000000000000000F500000000000000000000F5000000000000F5000000000000F5000000000000F500000000000000F50000000000000000000000000000000000000000000000000000000000F5BEBE
310
BE0000000000F5000000000000000000000000000000000000000000000000000000000000000000000000000000000000000000000000000000000000000000000000000000000000000000000000000000000000000000000000000000000000F50000000000000000000000000000000000000000000000000000000000
310
0000000000000000000000000000000000000000000000000000000000000000000000000000000000000000000000000000000000000000F5F5F5F5F5F5F5F5F5F500F5000000000000F5000000000000F5000000000000F500000000000000F5BEBE000000000000000000000000000000000000000000000000000000F5
310
BEBEBE0000000000F5000000000000000000000000000000000000000000000000000000000000000000000000000000000000000000000000000000000000000000000000000000000000000000000000000000000000000000000000000000000000F5000000000000000000000000000000000000000000000000000000
310
00000000000000000000000000000000000000000000000000000000000000000000000000000000000000000000000000000000000000000000F5F5F5F5F5F5F5F5F5F500F5000000000000F5000000000000F5000000000000F500000000000000F5BEBEF5F5F5F5F5F5F5F5F5F5F5F5F5F5F5F5F5F5F5F5F5F5F5F5F5F5
310
F5F5F5F5F5F5F5F5F5F5F5000000000000000000000000000000000000000000000000000000000000000000000000000000000000000000000000000000000000000000000000000000000000000000000000000000000000000000000000000000000000F500000000000000000000000000000000000000000000000000
310
000000000000000000000000000000000000000000000000000000000000000000000000000000000000000000000000000000000000000000000000F5BEBE0000000000000000F5000000000000F5000000000000F5000000000000F500000000000000F500000000F5F5F5F5F5F5F5F5F5F5F5F5F500F5F5F5F5F5F50000
310
000000000000000000000000F5000000000000000000000000000000000000000000000000000000000000000000000000000000000000000000000000000000000000000000000000000000000000000000000000000000000000000000000000000000000000F50000000000000000000000000000000000000000000000
310
0000000000000000000000000000000000000000000000000000000000000000000000000000000000000000000000000000000000000000000000000000F5BEBEF5F5F5F5F5F5F5F5F5000000000000F5000000000000F5000000000000F500000000000000F500000000F5F5F5F5F5F5F5F5F5F5F5F5F5F5F5F5F5F5F5F5
310
0000000000000000000000000000F5000000000000000000000000000000000000000000000000000000000000000000000000000000000000000000000000000000000000000000000000000000000000000000000000000000000000000000000000000000000000F5000000000000000000000000000000000000000000
310
00000000000000000000000000000000000000000000000000000000000000000000000000000000000000000000000000000000000000000000000000000000F500000000000000000000F5000000000000F5000000000000F5000000000000F500000000000000F500000000F5F5F5F5F5F5F5F5F5000000000000000000
310
00000000000000000000000000000000F5000000000000000000000000000000000000000000000000000000000000000000000000000000000000000000000000000000000000000000000000000000000000000000000000000000000000000000000000000000000000F500000000000000000000000000000000000000
310
000000000000000000000000000000000000000000000000000000000000000000000000000000000000000000000000000000000000000000000000000000000000F500000000000000000000F500BEBEBE0000F500BEBEBEBE00F50000BEBEBE00F50000BEBEBE0000F5BEBE0000F5F5F500F5F5F5F50000000000000000
310
000000000000000000000000000000000000F5000000000000000000000000000000000000000000000000000000000000000000000000000000000000000000000000000000000000000000000000000000000000000000000000000000000000000000000000000000000000F50000000000000000000000000000000000
310
0000000000000000000000000000000000000000000000000000000000000000000000000000000000000000000000000000000000000000000000000000000000000000F500000000000000000000F5F5F5F5F5F5F5F5F5F5F5F5F5F5F5F5F5F5F5F5F5F5F5F5BEBEBEF5F5F5BEBEF5BEF5F5F5F5F5F5F5F5F5F5F5F5F5F5
310
F5F5F5F5F5F5F5BEF5F5F5F5F5F5F5BEF5F5F5F5F5000000000000000000000000000000000000000000000000000000000000000000000000000000000000000000000000000000000000000000000000000000000000000000000000000000000000000000000000000000000000F5000000000000000000000000000000
310
00000000000000000000000000000000000000000000000000000000000000000000000000000000000000000000000000000000000000000000000000000000000000000000F5BEBEBE00000000000000F500000000000000000000000000000000000000000000000000000000F5BEBE00BE00000000000000BEBEBEBEBE
310
BE0000000000000000BEBEBEBEBEBEBEBEBEBEBEBE00F5000000000000000000000000000000000000000000000000000000000000000000000000000000000000000000000000000000000000000000000000000000000000000000000000000000000000000000000000000000000000F500000000000000000000000000
310
000000000000000000000000000000000000000000000000000000000000000000000000000000000000000000000000000000000000000000000000000000000000000000000000F5BEBEBE00000000000000F5000000F5F5F5F5F5F5F5F5F5F5F5F5F5F5F5F5F5F5F5F50000000000F5BEBEBEBE00000000000000BEBEBE
310
BEBEBE0000000000000000BEBEBEBEBEBEBEBEBEBEBEBE00F5000000000000000000000000000000000000000000000000000000000000000000000000000000000000000000000000000000000000000000000000000000000000000000000000000000000000000000000000000000000000F50000000000000000000000
310
0000000000000000000000000000000000000000000000000000000000000000000000000000000000000000000000000000000000000000000000000000000000000000000000000000F5F5F5F5F5F5F5F5F5F5F5F500000000000000000000000000000000000000000000000000000000F5BEBEBEBEBEBEBEBEBEBEBEBE
310
BEBEBEBEBEBEBEBEBEBEBEBEBEBEBEBEBEBEBEBEBEBEBEBEBEBEF5000000000000000000000000000000000000000000000000000000000000000000000000000000000000000000000000000000000000000000000000000000000000000000000000000000000000000000000000000000000000F5000000000000000000
310
00000000000000000000000000000000000000000000000000000000000000000000000000000000000000000000000000000000000000000000000000000000000000000000000000000000F500000000F5F500000000F500000000000000000000000000000000000000000000000000000000F5BEBE00BE000000000000
310
000000000000000000000000000000BE00BE0000BE0000BE00000000F5000000000000000000000000000000000000000000000000000000000000000000000000000000000000000000000000000000000000000000000000000000000000000000000000000000000000000000000000000000000000F500000000000000
310
000000000000000000000000000000000000000000000000000000000000000000000000000000000000000000000000000000000000000000000000000000000000000000000000000000000000F500000000F5F500000000F5F5F5F5F5F5F5F5F5F5F5F5F5F5F5F5F5F5F5F5F5F5F5F5F5F5F5F5F5F5BEBEBEBEBEBEBEBE
310
BEBEBEBEBEBEBEBEBEBEBEBEBEBEBEBEBEBEBEBEBEBEBEBEBEBEBEBEBEBEF5000000000000000000000000000000000000000000000000000000000000000000000000000000000000000000000000000000000000000000000000000000000000000000000000000000000000000000000000000000000000F50000000000
310
0000000000000000000000000000000000000000000000000000000000000000000000000000000000000000000000000000000000000000000000000000000000000000000000000000000000000000F5BEBEBE00000000000000F500000000000000000000000000000000000000000000000000000000F5BEBE00BE0000
310
00000000000000000000000000000000000000BE00BE0000BE0000BE00000000F5000000000000000000000000000000000000000000000000000000000000000000000000000000000000000000000000000000000000000000000000000000000000000000000000000000000000000000000000000000000000F5000000
310
00000000000000000000000000000000000000000000000000000000000000000000000000000000000000000000000000000000000000000000000000000000000000000000000000000000000000000000F5BEBEBE00000000000000F5BEBEBEBEBE0000000000000000000000000000000000000000000000F5BEBEBEBE
310
BEBEBEBEBEBEBEBEBEBEBEBEBEBEBEBEBEBEBEBEBEBEBEBEBEBEBEBEBEBEBEBEBEBEF5000000000000000000000000000000000000000000000000000000000000000000000000000000000000000000000000000000000000000000000000000000000000000000000000000000000000000000000000000000000000F500
310
000000000000000000000000000000000000000000000000000000000000000000000000000000000000000000000000000000000000000000000000000000000000000000000000000000000000000000000000F5F5F5F5F5F5F5F5F5F5F5F5BEBEBEBEBE0000000000000000000000000000000000000000000000F5BEBE
310
00BE000000000000000000000000000000000000000000BE00BE0000BE0000BE00000000F5000000000000000000000000000000000000000000000000000000000000000000000000000000000000000000000000000000000000000000000000000000000000000000000000000000000000000000000000000000000000
310
F500000000000000000000000000000000000000000000000000000000000000000000000000000000000000000000000000000000000000000000000000000000000000000000000000000000000000000000000000F500F52DF5F5F5F5F5F500F5F5F5F5F5F5F5F5F5F5F5F5F5F5F5F5F5F5F5F5F5F5F5F5F5F5F5F5F5F5
310
BEBEBEBEBEBEBEBEBEBEBEBEBEBEBEBEBEBEBEBEBEBEBEBEBEBEBEBEBEBEBEBEBEBEBEBEBEBEF500000000000000000000000000000000000000000000000000000000000000000000000000000000000000000000000000000000000000000000000000000000000000000000000000000000000000000000000000000000
310
0000F500000000000000000000000000000000000000000000000000000000000000000000000000000000000000000000000000000000000000000000000000000000000000000000000000000000000000000000000000F5002D2DF5F52D2D2DF500F5000000000000000000000000000000000000000000000000000000
310
00F500BE00BE000000000000000000000000000000000000000000BE00BE0000BE0000BE00000000F50000000000000000000000000000000000000000000000000000000000000000000000000000000000000000000000000000000000000000000000000000000000000000000000000000000000000000000000000000
310
00000000F500000000000000000000000000000000000000000000000000000000000000000000000000000000000000000000000000000000000000000000000000000000000000000000000000000000000000000000000000F500F5F5F5F5F5F5F5F500F5BEBE0000000000000000000000000000000000000000000000
310
000000F5BEBEBEBEBEBEBEBEBEBEBEBEBEBEBEBEBEBEBEBEBEBEBEBEBEBEBEBEBEBEBEBEBEBEBEBEBEBEF5000000000000000000000000000000000000000000000000000000000000000000000000000000000000000000000000000000000000000000000000000000000000000000000000000000000000000000000000
310
000000000000F500000000000000000000000000000000000000000000000000000000000000000000000000000000000000000000000000000000000000000000000000000000000000000000000000000000000000000000000000F500002D00000000000000F5BEBE000000000000000000000000000000000000000000
310
0000000000F5BEBE00BE000000000000000000000000000000000000000000BE00BE0000BE0000BE00000000F500000000000000000000000000000000000000000000000000000000000000000000000000000000000000000000000000000000000000000000000000000000000000000000000000000000000000000000
310
0000000000000000F500000000000000000000000000000000000000000000000000000000000000000000000000000000000000000000000000000000000000000000000000000000000000000000000000000000000000000000000000F5F5F5F5F5F5F5F5F5F5F5F5F5F5F5F5F5F5F5F5F5F5F5F5F5F5F5F5F5F5F5F5F5
310
F5F5F5F5F5F5F5F5F5F5F5F5F5F5F5F5F5F5F5F5F5F5F5F5F5F5F5F5F5F5F5F5F5F5F5F5F5F5F5F5F5F5F5F5F5F5F50000000000000000000000000000000000000000000000000000000000000000000000000000000000000000000000000000000000000000000000000000000000000000000000000000000000000000
310
00000000000000000000F50000000000000000000000000000000000000000000000000000000000000000000000000000000000000000000000000000000000000000000000000000000000000000000000000000000000000000000000000000000000000000000000000000000000000000000000000000000000000000
310
000000000000000000000000000000000000000000000000000000000000000000000000000000000000000000000000F5000000000000000000000000000000000000000000000000000000000000000000000000000000000000000000000000000000000000000000000000000000000000000000000000000000000000
310
000000000000000000000000F5000000000000000000000000000000000000000000000000000000000000000000000000000000000000000000000000000000000000000000000000000000000000000000000000000000000000000000000000000000000000000000000000000000000000000000000000000000000000
310
0000000000000000000000000000000000000000000000000000000000000000000000000000000000000000000000000000F500000000000000000000000000000000000000000000000000000000000000000000000000000000000000000000000000000000000000000000000000000000000000000000000000000000
310
0000000000000000000000000000F500000000000000000000000000000000000000000000000000000000000028282800000000000000000000000000000000000000000000000000000000000000000000000000000000000000000000000000000000000000000000000000000000000000000000000000000000000000
310
00000000000000000000000000000000000000000000000000000000000000000000000000000000000000000000000000000000F50000000000000000000000000000000000000000000000000000000000000000000000000000000000000000000000000000000000000000000000000000000000000000000000000000
310
00000000000000000000000000000000F50000000000000000000000000000000000000000000000000000000000280000002800000000000000000000000000000000000000000000000000000000000000000000000000000000000000000000000000000000000000000000000000000000000000000000000000000000
310
000000000000000000000000000000000000000000000000000000000000000000000000000000000000000000000000000000000000F5000000000000000000000000000000000000000000000000000000000000000000000000000000000000000000000000000000000000000000000000000000000000000000000000
310
000000000000000000000000000000000000F500000000000000000000000000000000000000000000000000000000002800F500280000000000000000000000000000000000000000000000000000000000000000000000000000000000000000000000000000000000000000000000000000000000000000000000000000
310
0000000000000000000000000000000000000000000000000000000000000000000000000000000000000000000000000000000000000000F500000000000000000000000000000000000000000000000000000000000000000000000000000000000000000000000000000000000000000000000000000000000000000000
310
0000000000000000000000000000000000000000F500000000000000000000000000000000000000000000000000000000280000F50028000000000000000000000000000000000000000000000000000000000000000000000000000000000000000000000000000000000000000000000000000000000000000000000000
310
00000000000000000000000000000000000000000000000000000000000000000000000000000000000000000000000000000000000000000000F50000000000000000000000000000000000000000000000000000000000000000000000000000000000000000000000000000000000000000000000000000000000000000
310
00000000000000000000000000000000000000000000F50000000000000000000000000000000000000000000000000000000000280000002800000000000000000000000000000000000000000000000000000000000000000000000000000000000000000000000000000000000000000000000000000000000000000000
310
000000000000000000000000000000000000000000000000000000000000000000000000000000000000000000000000000000000000000000000000F5000000000000000000000000000000000000000000000000000000000000000000000000000000000000000000000000000000000000000000000000000000000000
310
000000000000000000000000000000000000000000000000F5000000000000000000000000000000000000000000000000000000000000282828002800000000000000000000000000000000000000000000000000000000000000000000000000000000000000000000000000000000000000000000000000000000000000
310
0000000000000000000000000000000000000000000000000000000000000000000000000000000000000000000000000000000000000000000000000000F500000000000000000000000000000000000000000000000000000000000000000000000000000000000000000000000000000000000000000000000000000000
310
0000000000000000000000000000000000000000000000000000F500000000000000000000000000000000000000000000000000000000000000000000002800000000000000000000000000000000000000000000000000000000000000000000000000000000000000000000000000000000000000000000000000000000
310
00000000000000000000000000000000000000000000000000000000000000000000000000000000000000000000000000000000000000000000000000000000F50000000000000000000000000000000000000000000000000000000000000000000000000000000000000000000000000000000000000000000000000000
310
00000000000000000000000000000000000000000000000000000000F50000000000000000000000000000000000000000000000000000000000000000000000002828000000000000000000000000000000000000000000000000000000000000000000000000000000000000000000000000000000000000000000000000
310
000000000000000000000000000000000000000000000000000000000000000000000000000000000000000000000000000000000000000000000000000000000000F5000000000000000000000000000000000000000000000000000000000000000000000000000000000000000000000000000000000000000000000000
310
000000000000000000000000000000000000000000000000000000000000F5000000000000000000000000000000000000000000000000000000000000000000000000000028000000000000000000000000000000000000000000000000000000000000000000000000000000000000000000000000000000000000000000
310
0000000000000000000000000000000000000000000000000000000000000000000000000000000000000000000000000000000000000000000000000000000000000000F500000000000000000000000000000000000000000000000000000000000000000000000000000000000000000000000000000000000000000000
310
0000000000000000000000000000000000000000000000000000000000000000F500000000000000000000000000000000000000000000000000000000000000000000000000000028000000000000000000000000000000000000000000000000000000000000000000000000000000000000000000000000000000000000
310
00000000000000000000000000000000000000000000000000000000000000000000000000000000000000000000000000000000000000000000000000000000000000000000F50000000000000000000000000000000000000000000000000000000000000000000000000000000000000000000000000000000000000000
310
00000000000000000000000000000000000000000000000000000000000000000000F5000000000000000000000000000000000000000000000000000000000000000000000000000000282D2D00000000000000000000000000000000000000000000000000000000000000000000000000002D2D2D000000000000000000
310
00000000000000000000000000000000000000000000000000000000002D2D0000000000000000000000000000000000000000000000000000000000000000000000000000000000F5000000000000000000000000000000000000000000000000000000000000000000000000000000000000000000000000000000000000
310
000000000000000000000000000000000000000000000000000000000000000000000000F5000000000000000000000000000000000000000000000000000000000000000000002828282828DC2DF5F5F5F5F5000000000000000000000000000000000000000000000000F5F5F5F5F5F5F5F5F5F52D2D2DF5F5F5F5F5F5F5
310
F5F5F5000000000000000000000000000000000000000000000000F5F5F5F5F52DDC00000000000000000000000000000000000000000000000000000000000000000000000000000000F500000000000000000000000000000000000000000000000000000000000000000000000000000000000000000000000000000000
310
0000000000000000000000000000000000000000000000000000000000000000000000000000F5000000000000000000000000000000000000000000000000000000000000000000002800000000DCDCDCF5F5F5F5000000000000000000000000000000000000000000000000F5F500000000000000000000000000000000
310
000000F5F5000000000000000000000000000000000000000000000000F5F5F5F5F5F5DC00000000000000000000000000000000000000000000000000000000000000000000000000000000F50000000000000000000000000000000000000000000000000000000000000000000000000000000000000000000000000000
310
00000000000000000000000000000000000000000000000000000000000000000000000000000000F5000000000000000000000000000000000000000000000000000000000000000000002800000000DCDCDCF500F5F5000000000000000000000000000000000000000000000000F5F50000000000000000000000000000
310
0000000000F5F5000000000000000000000000000000000000000000000000F5F5F5F5F5F5DC00000000000000000000000000000000000000000000000000000000000000000000000000000000F5000000000000000000000000000000000000000000000000000000000000000000000000000000000000000000000000
310
000000000000000000000000000000000000000000000000000000000000000000000000000000000000F5000000000000000000000000000000000000000000000000000000000000000000002800000000DC00DCF5F5F5F5F5F5F5F50000000000000000000000000000000000000000F5F5F5F5F5F5F5F5F5F5F5F5F5F5
310
F5F5F5F5F5F5F5F5F50000000000000000000000000000000000000000F5F5F5F5F5000000F500DC00000000000000000000000000000000000000000000000000000000000000000000000000000000F500000000000000000000000000000000000000000000000000000000000000000000000000000000000000000000
310
0000000000000000000000000000000000000000000000000000000000000000000000000000000000000000F5000000000000000000000000000000000000000000000000000000000000000000002800000000DC00DC000000000000F5BEBEF5000000000000000000000000000000000000F5F5F5F5F5F5F5F5F5F5F5F5
310
F5F5F5F5F5F5F5F5F5F5F5000000000000000000000000000000000000F5F5F500000000000000F500DC00000000000000000000000000000000000000000000000000000000000000000000000000000000F50000000000000000000000000000000000000000000000000000000000000000000000000000000000000000
310
00000000000000000000000000000000000000000000000000000000000000000000000000000000000000000000F50000000000000000000000000000000000000000000000000000000000000000000028000000002DDCDC00000000000000BEBEBE000000000000000000000000000000000000F5F5F5F5F5F5F5F5F5F5
310
F5F5F5F5F5F5F5F5F5F5F5F5F5000000000000000000000000000000000000F5000000000000000000F5DC2D00000000000000000000000000000000000000000000000000000000000000000000000000000000F5000000000000000000000000000000000000000000000000000000000000000000000000000000000000
310
000000000000000000000000000000000000000000000000000000000000000000000000000000000000000000000000F500000000000000000000000000000000000000000000000000000000000000000000280000000000DCDC0000000000000000F5BE000000000000000000000000000000000000F528000000000000
310
00000000000000000000000000F5F5000000000000000000000000000000000000F5000000000000000000F5DC0000000000000000000000000000000000000000000000000000000000000000000000000000000000F500000000000000000000000000000000000000000000000000000000000000000000000000000000
310
0000000000000000000000000000000000000000000000000000000000000000000000000000000000000000000000000000F50000000000000000000000000000000000000000000000000000000000000000DCDC280000000000DCDC0000000000000000F5BE000000000000000000000000000000000000F52800000000
310
000000000000000000000000000000F5F5000000000000000000000000000000000000F5000000000000000000F5DC0000000000000000000000000000000000000000000000000000000000000000000000000000000000F50000000000000000000000000000000000000000000000000000000000000000000000000000
310
00000000000000000000000000000000000000000000000000000000000000000000000000000000000000000000000000000000F50000000000000000000000000000000000000000000000000000000000000000DCDCDC0000000000DCDC000000000000000028BE000000000000000000000000000000000000F5F50000
310
0000000000000000000000000000000000F5F5000000000000000000000000000000000000F5000000000000000000F5DC0000000000000000000000000000000000000000000000000000000000000000000000000000000000F5000000000000000000000000000000000000000000000000000000000000000000000000
310
000000000000000000000000000000000000000000000000000000000000000000000000000000000000000000000000000000000000F50000000000000000000000000000000000000000000000000000000000000000DCDCDC0000000000DCDC000000000000000028BE000000000000000000000000000000000000F5F5
310
000000000000000000000000000000002D2D00F5F5000000000000000000000000000000000000F5000000000000000000F5DC0000000000000000000000000000000000000000000000000000000000000000000000000000000000F500000000000000000000000000000000000000000000000000000000000000000000
310
0000000000000000000000000000000000000000000000000000000000000000000000000000000000000000000000000000000000000000F50000000000000000000000000000000000000000000000000000000000000000DCDCDC0000000000DCDC0000000000000000F528000000000000000000000000000000000000
310
F528000000000000000000000000000000002D2828F5F5000000000000000000000000000000000000F5000000000000000000F5DC0000000000000000000000000000000000000000000000000000000000000000000000000000000000F50000000000000000000000000000000000000000000000000000000000000000
310
00000000000000000000000000000000000000000000000000000000000000000000000000000000000000000000000000000000000000000000F500000000000000000000000000000000000000000000000000000000000000000000280000000000DCDC0000000000002D2DF52800000000000000000000000000000000
310
0000F52800000000000000000000000000000000000028F5F5000000000000000000000000000000000000F5000000000000000000F5DC0000000000000000000000000000000000000000000000000000000000000000000000000000000000F5000000000000000000000000000000000000000000000000000000000000
310
000000000000000000000000000000000000000000000000000000000000000000000000000000000000000000000000000000000000000000000000F5000000000000000000000000000000000000000000000000000000000000000000002800000000DCDCDC0000000000002DF5F5280000000000000000000000000000
310
00000000F52800000000000000000000000000000000000000F5F5280000282828000000000000000000000000F5000000000000000000F5DCDC00000000000000000000000000000000000000000000000000000000000000000000000000000000F500000000000000000000000000000000000000000000000000000000
310
0000000000000000000000000000000000000000000000000000000000000000000000000000000000000000000000000000000000000000000000000000F5000000000000000000000000000000000000000000000000000000000000000000002800000000DC2DDC00000000000000F5F528000000000000000000000000
310
000000000000F5F5F5F5F5F5F5F5F5F5F5F5F5F5F5F5F5F5F5F5F5F5F5002828000028000000000000000000000000F5F5F500000000000000F500DC00000000000000000000000000000000000000000000000000000000000000000000000000000000F50000000000000000000000000000000000000000000000000000
310
00000000000000000000000000000000000000000000000000000000000000000000000000000000000000000000000000000000000000000000000000000000F5000000000000000000000000000000000000000000000000000000000000000000002800000000DC28DC0000000000F5F5F5002800000000000000000000
310
0000000000000000F500000000F5F5000000000000000000F5F500000000F5002800F5F5002800000000000000000000000000F500000000000000F500DC00000000000000000000000000000000000000000000000000000000000000000000000000000000F5000000000000000000000000000000000000000000000000
310
000000000000000000000000000000000000000000000000000000000000000000000000000000000000000000000000000000000000000000000000000000000000F5000000000000000000000000000000000000000000000000000000000000000000002800000000DCDCDCF5F5F5F5F5F5F5F500282800000000000000
310
00000000000000000000F5F5F5F5F5F5F5F5F5F5F5F5F5F5F5F5F5F5F5F5F5F5F500280000F5002800000000000000000000000000F5F5F50F0F000000F5DCDC00000000000000000000000000000000000000000000000000000000000000000000000000000000F500000000000000000000000000000000000000000000
310
0000000000000000000000000000000000000000000000000000000000000000000000000000000000000000000000000000000000000000000000000000000000000000F5000000000000000000000000000000000000000000000000000000000000000000002800000028DCDCDC00000F000F0000000028002800000000
310
0000000000000000000000000F000000000000000000000F000000000000282D0000F500282800002828000000000000000000000000000000000FF500000000F5DC00000000000000000000000000000000000000000000000000000000000000000000000000000000F50000000000000000000000000000000000000000
310
00000000000000000000000000000000000000000000000000000000000000000000000000000000000000000000000000000000000000000000000000000000000000000000F5000000000000000000000000000000000000000000000000000000000000000000002800002800DCDCDC00000F000F000000002800002800
310
00000000000000000000000000000F000000000000000000000F0000000000002D282800F500000028282800000000000000000000000000000000000FF5000000DCDCDC00000000000000000000000000000000000000000000000000000000000000000000000000000000F5000000000000000000000000000000000000
310
000000000000000000000000000000000000000000000000000000000000000000000000000000000000000000000000000000000000000000000000000000000000000000000000F5000000000000000000000000000000000000000000000000000000000000000000002828282828DCDCBEBE0F0FF50F00000000280000
310
28000000000000000000000000000000F5F5F5F5F5F5F5F5F5F5F5F5F5F5F5F5F5F5F5F5F5F5F500000000000000000000000000000000000000000000000F0FF5F5F5DCDCDC00000000000000000000000000000000000000000000000000000000000000000000000000000000F500000000000000000000000000000000
310
0000000000000000000000000000000000000000000000000000000000000000000000000000000000000000000000000000000000000000000000000000000000000000000000000000F500000000000000000000000000000000000000000000000000000000000000000000002800000028000000000000000000000028
310
00000028000000000000000000000000000028000000000000000000000000000000000000000000282800000000000000000000000000000000000000000000000000000000000000000000000000000000000000000000000000000000000000000000000000000000000000000000F50000000000000000000000000000
310
00000000000000000000000000000000000000000000000000000000000000000000000000000000000000000000000000000000000000000000000000000000000000000000000000000000F50000000000000000000000000000000000000000000000000000000000000000000028000000002800000000000000000000
310
002800000000280028282800000000000000000028000000000000000000000000000000000000000000280028002828280000000000000000000000000000000000000000000000000000000000000000000000000000000000000000000000000000000000000000000000000000000000F5000000000000000000000000
310
000000000000000000000000000000000000000000000000000000000000000000000000000000000000000000000000000000000000000000000000000000000000000000000000000000000000F5000000000000000000000000000000000000000000000000000000000000282828280000000000280000000000000000
310
0000002800000000002800000028000000000000000028000000000000000000000000000000000000000000280000280000280000000000000000000000000000000000000000000000000000000000000000000000000000000000000000000000000000000000000000000000000000000000F500000000000000000000
310
0000000000000000000000000000000000000000000000000000000000000000000000000000000000000000000000000000000000000000000000000000000000000000000000000000000000000000F500000000000000000000000000000000000000000000000000000000002800F5F500280000000028000000000000
310
00000000002800000000002800F5002800000000000000002800000000000000000000000000000000000000000028002800F5F5002800000000000000000000000000000000000000000000000000000000000000000000000000000000000000000000000000000000000000000000000000000000F50000000000000000
310
00000000000000000000000000000000000000000000000000000000000000000000000000000000000000000000000000000000000000000000000000000000000000000000000000000000000000000000F500000000000000000000000000000000000000000000000000000000002800F5F50028000000002828282828
310
DCDCDC282828282800000000280000F50028000000000000000028282828282828282828DCDCDC28282828282828282828002800F5F5002800000000000000000000000000000000000000000000000000000000000000000000000000000000000000000000000000000000000000000000000000000000F5000000000000
310
000000000000000000000000000000000000000000000000000000000000000000000000000000000000000000000000000000000000000000000000000000000000000000000000000000000000000000000000F500000000000000000000000000000000000000000000000000000000002800F5F5002800000000000000
310
0000DCDCDC000000000000000000002800000028000000000000000000000000000000000000DCDCDC000000000000000000000028280000282800000000000000000000000000000000000000000000000000000000000000000000000000000000000000000000000000000000000000000000000000000000F500000000
310
0000000000000000000000000000000000000000000000000000000000000000000000000000000000000000000000000000000000000000000000000000000000000000000000000000000000000000000000000000F500000000000000000000000000000000000000000000000000000000000028282828000000000000
310
00000000DCDCDC000000000000000000000028282800000000000000000000000000000000000000DCDCDC000000000000000000000000002828280000000000000000000000000000000000000000000000000000000000000000000000000000000000000000000000000000000000000000000000000000000000F50000
310
00000000000000000000000000000000000000000000000000000000000000000000000000000000000000000000000000000000000000000000000000000000000000000000000000000000000000000000000000000000F50000000000000000000000000000000000000000000000000000000000000000000000000000
310
000000000000000000000000000000000000000000000000000000000000000000000000000000000000000000000000000000000000000000000000000000000000000000000000000000000000000000000000000000000000000000000000000000000000000000000000000000000000000000000000000000000000F5
310
000000000000000000000000000000000000000000000000000000000000000000000000000000000000000000000000000000000000000000000000000000000000000000000000000000000000000000000000000000000000F5000000000000000000000000000000000000000000000000000000000000000000000000
310
00000000000000000000000000000000000000000000000000000000000000000000000000000000000000000000000000000000000000000000000000000000000000000000000000000000000000000000000000000000000000000000000000000000000000000000000000000000000000000000000000000000000000
310
00F5000000000000000000000000000000000000000000000000000000000000000000000000000000000000000000000000000000000000000000000000000000000000000000000000000000000000000000000000000000000000F500000000000000000000000000000000000000000000000000000000000000000000
310
00000000000000000000000000000000000000000000000000000000000000000000000000000000000000000000000000000000000000000000000000000000000000000000000000000000000000000000000000000000000000000000000000000000000000000000000000000000000000000000000000000000000000
310
000000F5000000000000000000000000000000000000000000000000000000000000000000000000000000000000000000000000000000000000000000000000000000000000000000000000000000000000000000000000000000000000F50000000000000000000000000000000000000000000000000000000000000000
310
00000000000000000000000000000000000000000000000000000000000000000000000000000000000000000000000000000000000000000000000000000000000000000000000000000000000000000000000000000000000000000000000000000000000000000000000000000000000000000000000000000000000000
310
0000000000F5000000000000000000000000000000000000000000000000000000000000000000000000000000000000000000000000000000000000000000000000000000000000000000000000000000000000000000000000000000000000F5000000000000000000000000000000000000000000000000000000000000
310
00000000000000000000000000000000000000000000000000000000000000000000000000000000000000000000000000000000000000000000000000000000000000000000000000000000000000000000000000000000000000000000000000000000000000000000000000000000000000000000000000000000000000
310
00000000000000F5000000000000000000000000000000000000000000000000000000000000000000000000000000000000000000000000000000000000000000000000000000000000000000000000000000000000000000000000000000000000F500000000000000000000000000000000000000000000000000000000
310
00000000000000000000000000000000000000000000000000000000000000000000000000000000000000000000000000000000000000000000000000000000000000000000000000000000000000000000000000000000000000000000000000000000000000000000000000000000000000000000000000000000000000
310
000000000000000000F5000000000000000000000000000000000000000000000000000000000000000000000000000000000000000000000000000000000000000000000000000000000000000000000000000000000000000000000000000000000000F50000000000000000000000000000000000000000000000000000
310
00000000000000000000000000000000000000000000000000000000000000000000000000000000000000000000000000000000000000000000000000000000000000000000000000000000000000000000000000000000000000000000000000000000000000000000000000000000000000000000000000000000000000
310
0000000000000000000000F5000000000000000000000000000000000000000000000000000000000000000000000000000000000000000000000000000000000000000000000000000000000000000000000000000000000000000000000000000000000000F5000000000000000000000000000000000000000000000000
310
00000000000000000000000000000000000000000000000000000000000000000000000000000000000000000000000000000000000000000000000000000000000000000000000000000000000000000000000000000000000000000000000000000000000000000000000000000000000000000000000000000000000000
310
00000000000000000000000000F5000000000000000000000000000000000000000000000000000000000000000000000000000000000000000000000000000000000000000000000000000000000000000000000000000000000000000000000000000000000000F500000000000000000000000000000000000000000000
310
00000000000000000000000000000000000000000000000000000000000000000000000000000000000000000000000000000000000000000000000000000000000000000000000000000000000000000000000000000000000000000000000000000000000000000000000000000000000000000000000000000000000000
310
000000000000000000000000000000F5000000000000000000000000000000000000000000000000000000000000000000000000000000000000000000000000000000000000000000000000000000000000000000000000000000000000000000000000000000000000F50000000000000000000000000000000000000000
310
00000000000000000000000000000000000000000000000000000000000000000000000000000000000000000000000000000000000000000000000000000000000000000000000000000000000000000000000000000000000000000000000000000000000000000000000000000000000000000000000000000000000000
310
0000000000000000000000000000000000F5000000000000000000000000000000000000000000000000000000000000000000000000000000000000000000000000000000000000000000000000000000000000000000000000000000000000000000000000000000000000F5000000000000000000000000000000000000
310
00000000000000000000000000000000000000000000000000000000000000000000000000000000000000000000000000000000000000000000000000000000000000000000000000000000000000000000000000000000000000000000000000000000000000000000000000000000000000000000000000000000000000
310
00000000000000000000000000000000000000F5000000000000000000000000000000000000000000000000000000000000000000000000000000000000000000000000000000000000000000000000000000000000000000000000000000000000000000000000000000000000F500000000000000000000000000000000
310
00000000000000000000000000000000000000000000000000000000000000000000000000000000000000000000000000000000000000000000000000000000000000000000000000000000000000000000000000000000000000000000000000000000000000000000000000000000000000000000000000000000000000
310
000000000000000000000000000000000000000000F5000000000000000000000000000000000000000000000000000000000000000000000000000000000000000000000000000000000000000000000000000000000000000000000000000000000000000000000000000000000000F50000000000000000000000000000
310
00000000000000000000000000000000000000000000000000000000000000000000000000000000000000000000000000000000000000000000000000000000000000000000000000000000000000000000000000000000000000000000000000000000000000000000000000000000000000000000000000000000000000
310
0000000000000000000000000000000000000000000000F5000000000000000000000000000000000000000000000000000000000000000000000000000000000000000000000000000000000000000000000000000000000000000000000000000000000000000000000000000000000000F5000000000000000000000000
310
00000000000000000000000000000000000000000000000000000000000000000000000000000000000000000000000000000000000000000000000000000000000000000000000000000000000000000000000000000000000000000000000000000000000000000000000000000000000000000000000000000000000000
310
00000000000000000000000000000000000000000000000000F5000000000000000000000000000000000000000000000000000000000000000000000000000000000000000000000000000000000000000000000000000000000000000000000000000000000000000000000000000000000000F500000000000000000000
310
00000000000000000000000000000000000000000000000000000000000000000000000000000000000000000000000000000000000000000000000000000000000000000000002D00000000000000000000000000000000000000000000000000000000000000000000000000000000000000000000000000000000000000
310
000000000000000000000000000000000000000000000000000000F5000000000000000000000000000000000000000000000000000000000000000000000000000000000000000000000000000000000000000000000000000000000000000000000000000000000000000000000000000000000000F50000000000000000
310
0000000000000000000000000000000000000000000000000000000000000000000000000000000000000000000000000000000000000000000000000000F5F5F5F5F5F5F5F5F5F5F5F5F5F5F5F5F5F5F5F5F5F5F5000000000000000000000000000000000000000000000000000000000000000000000000000000000000
310
0000000000000000000000000000000000000000000000000000000000F5000000000000000000000000000000000000000000000000000000000000000000000000000000000000000000000000000000000000000000000000000000000000000000000000000000000000000000000000000000000000F5000000000000
310
00000000000000000000000000000000000000000000000000000000000000000000000000000000000000000000000000000000000000000000000000000000F50000000000000000000028F5F5F5F5F5F5F5F5F5BEBE00000000000000000000000000000000000000000000000000000000000000000000000000000000
310
00000000000000000000000000000000000000000000000000000000000000F5000000000000000000000000000000000000000000000000000000000000000000000000000000000000000000000000000000000000000000000000000000000000000000000000000000000000000000000000000000000000F500000000
310
000000000000000000000000000000000000000000000000000000000000000000000000000000000000000000000000000000000000000000000000000000000000F5F5F5F5F5F5F5F5F5F5F5F5000000000000000000F5F50000000000000000000000000000000000000000000000000000000000000000000000000000
310
000000000000000000000000000000000000000000000000000000000000000000F5000000000000000000000000000000000000000000000000000000000000000000000000000000000000000000000000000000000000000000000000000000000000000000000000000000000000000000000000000000000000F50000
310
0000000000000000000000000000000000000000000000000000000000000000000000000000000000000000000000000000000000000000000000000000000000000000F500000000000000000000F5F5F5F5F5F5F5F5F5F5BEBE000000000000000000000000000000000000000000000000000000000000000000000000
310
0000000000000000000000000000000000000000000000000000000000000000000000F5000000000000000000000000000000000000000000000000000000000000000000000000000000000000000000000000000000000000000000000000000000000000000000000000000000000000000000000000000000000000F5
310
00000000000000000000000000000000000000000000000000000000000000000000000000000000000000000000000000000000000000000000000000000000000000000000F500000000000000000000F500000000F5F5000000BEBE00000000000000000000000000000000000000000000000000000000000000000000
310
00000000000000000000000000000000000000000000000000000000000000000000000000F50000000000000000000000000000000000000000000000000000000000000000000000000000000000000000000000000000000000000000000000000000000000000000000000000000000000000000000000000000000000
310
00F5000000000000000000000000000000000000000000000000000000000000000000000000000000000000000000000000000000000000000000000000000000000000000000000F0F0F0F0F0F0F0F0F0F0F0F00000000F5F5000000BEF50000000000000000000000000000000000000000000000000000000000000000
310
000000000000000000000000000000000000000000000000000000000000000000000000000000F5000000000000000000000000000000000000000000000000000000000000000000000000000000000000000000000000000000000000000000000000000000000000000000000000000000000000000000000000000000
310
000000F5000000000000000000000000000000000000000000000000000000000000000000000000000000000000000000000000000000000000000000000000000000000000000000000F000000000000000000000F000000000000000000F5BE000000000000000000000000000000000000000000000000000000000000
310
0000000000000000000000000000000000000000000000000000000000000000000000000000000000F500000000000000000000000000000000000000000000000000000000000000000000000000000000000000000000000000000000000000000000000000000000000000000000000000000000000000000000000000
310
0000000000F500000000000000000000000000000000000000000000000000000000000000000000000000000000000000000000000000000000000000000000000000000000000000000000F5F500000000000000000F0FF5F5F5F5F5F5F5F5F5BEBE00000000000000000000000000000000000000000000000000000000
310
00000000000000000000000000000000000000000000000000000000000000000000000000000000000000F50000000000000000000000000000000000000000000000000000000000000000000000000000000000000000000000000000000000000000000000000000000000000000000000000000000000000000000000
310
00000000000000F500000000000000000000000000000000000000000000000000000000000000000000000000000000000000000000000000000000000000000000000000000000000000000000F5F50000000000000000F52D000000000000000000BEF50000000000000000000000000000000000000000000000000000
310
000000000000000000000000000000000000000000000000000000000000000000000000000000000000000000F5000000000000000000000000000000000000000000000000000000000000000000000000000000000000000000000000000000000000000000000000000000000000000000000000000000000000000000
310
000000000000000000F500000000000000000000000000000000000000000000000000000000000000000000000000000000000000000000000000000000000000000000000000000000000000000000F5F50000000000000000F52D000000000000000000F5BE000000000000000000000000000000000000000000000000
310
0000000000000000000000000000000000000000000000000000000000000000000000000000000000000000000000F500000000000000000000000000000000000000000000000000000000000000000000000000000000000000000000000000000000000000000000000000000000000000000000000000000000000000
310
0000000000000000000000F500000000000000000000000000000000000000000000000000000000000000000000000000000000000000000000000000000000000000000000000000000000000000000000F5F5F5F5F5F5F5F5F5F5F5F5F5F5F5F5F5F5F5F5F5BEBE00000000000000000000000000000000000000000000
310
00000000000000000000000000000000000000000000000000000000000000000000000000000000000000000000000000F50000000000000000000000000000000000000000000000000000000000000000000000000000000000000000000000000000000000000000000000000000000000000000000000000000000000
310
00000000000000000000000000F500000000000000000000000000000000000000000000000000000000000000000000000000000000000000000000000000000000000000000000000000000000000000000000F5F5F5F5F5F5F5F5F5F5F5F5DCDCDCDCDCDCDCDCDCF5F50000000000000000000000000000000000000000
310
000000000000000000000000000000000000000000000000000000000000000000000000000000000000000000000000000000F5000000000000000000000000000000000000000000000000000000000000000000000000000000000000000000000000000000000000000000000000000000000000000000000000000000
310
000000000000000000000000000000F500000000000000000000000000000000000000000000000000000000000000000000000000000000000000000000000000000000000000000000000000000000000000000000DCDCDCDCDCDCDCDCDCDCDCDCDCDCDCDCDCDCDCDCDCDCDC000000000000000000000000000000000000
310
0000000000000000000000000000000000000000000000000000000000000000000000000000000000000000000000000000000000F500000000000000000000000000000000000000000000000000000000000000000000000000000000000000000000000000000000000000000000000000000000000000000000000000
310
0000000000000000000000000000000000F50000000000000000000000000000000000000000000000000000000000000000000000000000000000000000000000000000000000000000000000000000000000000000000000000000000000000000002D000000000000000000000000000000000000000000000000000000
310
00000000000000000000000000000000000000000000000000000000000000000000000000000000000000000000000000000000000000F50000000000000000000000000000000000000000000000000000000000000000000000000000000000000000000000000000000000000000000000000000000000000000000000
310
00000000000000000000000000000000000000F50000000000000000000000000000000000000000000000000000000000000000000000000000000000000000000000000000000000000000000000000000000000000000000000000000000000000000000000000000000000000000000000000000000000000000000000
310
000000000000000000000000000000000000000000000000000000000000000000000000000000000000000000000000000000000000000000F5000000000000000000000000000000000000000000000000000000000000000000000000000000000000000000000000000000000000000000000000000000000000000000
310
000000000000000000000000000000000000000000F5000000000000000000000000000000000000000000000000000000000000000000000000000000000000000000000000000000000000000000000000000000000000000000000000000000000000000000000000000000000000000000000000000000000000000000
310
0000000000000000000000000000000000000000000000000000000000000000000000000000000000000000000000000000000000000000000000F500000000000000000000000000000000000000000000000000000000000000000000000000000000000000000000000000000000000000000000000000000000000000
310
0000000000000000000000000000000000000000000000F500000000000000000000000000000000000000000000000000000000000000000000000000000000000000000000000000000000000000000000000000000000000000000000000000000000000000000000000000000000000000000000000000000000000000
310
00000000000000000000000000000000000000000000000000000000000000000000000000000000000000000000000000000000000000000000000000F50000000000000000000000000000000000000000000000000000000000000000000000000000000000000000000000000000000000000000000000000000000000
310
00000000000000000000000000000000000000000000000000F50000000000000000000000000000000000000000000000000000000000000000000000000000000000000000000000000000000000000000000000000000000000000000000000000000000000000000000000000000000000000000000000000000000000
310
000000000000000000000000000000000000000000000000000000000000000000000000000000000000000000000000000000000000000000000000000000F5000000000000000000000000000000000000000000000000000000000000000000000000000000000000000000000000000000000000000000000000000000
310
000000000000000000000000000000000000000000000000000000F5000000000000000000000000000000000000000000000000000000000000000000000000000000000000000000000000000000000000000000000000000000000000000000000000000000000000000000000000000000000000000000000000000000
310
0000000000000000000000000000000000000000000000000000000000000000000000000000000000000000000000000000000000000000000000000000000000F500000000000000000000000000000000000000000000000000000000000000000000000000000000000000000000000000000000000000000000000000
310
0000000000000000000000000000000000000000000000000000000000F500000000000000000000000000000000000000000000000000000000000000000000000000000000000000000000000000000000000000000000000000000000000000000000000000000000000000000000000000000000000000000000000000
310
00000000000000000000000000000000000000000000000000000000000000000000000000000000000000000000000000000000000000000000000000000000000000F50000000000000000000000000000000000000000000000000000000000000000000000000000000000000000000000000000000000000000000000
310
00000000000000000000000000000000000000000000000000000000000000F500000000000000000000000000000000000000000000000000000000000000000000000000000000000000000000000000000000000000000000000000000000000000000000000000000000000000000000000000F5F5F5F5F5F5F5F5F5F5
310
F5F5F5F5F5F5F5F5F5F5F5F5F5F5F5F5F5F5F5F5F5F5F5F5F5F5F5F5F5F5F5F5F5F5F5F5F5F5F5F5F5F5F5F5F5F5F5F5F5F5F5F5F5F5F5F5F5F5F5F5F5F5F5F5F5F5F5F5F5F5000000000000000000000000000000000000000000000000000000000000000000000000000000000000000000000000000000000000000000
310
000000000000000000000000000000000000000000000000000000000000000000F500000000000000000000000000000000000000000000000000000000000000000000000000000000000000000000000000000000000000000000000000000000000000000000000000000000000000000000000000F50000DC0000DCDC
310
DCDCDCDC00000000000000000000000000000000000000BE0000DC0000DCDCDC00000000000000000000000000DCDCDCDCDC000000000000000000000000000000000000000000F500000000000000000000000000000000000000000000000000000000000000000000000000000000000000000000000000000000000000
310
0000000000000000000000000000000000000000000000000000000000000000000000F500000000000000000000000000000000000000000000000000000000000000000000000000000000000000000000000000000000000000000000000000000000000000000000000000000000000000000000000000F50000DC0000
310
DCDCDCDCDCDC00000000000000000000000000000000000000BE00DCDC0000BEDCDC00000000000000000000000000DCDCDCDCDC000000000000000000000000000000000000000000F50000000000000000000000000000000000000000000000000000000000000000000000000000000000000000000000000000000000
310
00000000000000000000000000000000000000000000000000000000000000000000000000F500000000000000000000000000000000000000000000000000000000000000000000000000000000000000000000000000000000000000000000000000000000000000000000000000000000000000000000000000F5BEBEDC
310
BEBEBEDCDCDCDCDCDCDCDCBEBEBEBEBEBEBEBEBEBEBEBEBEBEBEBEBEBEBEDCBEBEBEDCDCDCDCDCDCBEDCDCBEDCBEBEBEBEBEDCDCBEDCDCDCBEDCDCDCDCDCDCDCBEBEBEBEBEBEBEBEBEBEBEF5000000000000000000000000000000000000000000000000000000000000000000000000000000000000000000000000000000
310
000000000000000000000000000000000000000000000000000000000000000000000000000000F500000000000000000000000000000000000000000000000000000000000000000000000000000000000000000000000000000000000000000000000000000000000000000000000000000000000000000000000000F500
310
00DC0000DCDCDCDCDCDCDCDCDCDC000000000000000000000000000000BE00DCDC0000BEDCDCDCDCDCDCDCDCDCDCDC00000000DCDCDCDCDCDCDCDCDCDCDCDCDCDCDCDC00000000000000000000F500000000000000000000000000000000000000000000000000000000000000000000000000000000000000000000000000
310
0000000000000000000000000000000000000000000000000000000000000000000000000000000000F500000000000000000000000000000000000000000000000000000000000000000000000000000000000000000000000000000000000000000000000000000000000000000000000000000000000000000000000000
310
F5BEBEBEBEBEBEDCBEBEBEDCBEBEBEBEBEBEBEBEBEBEBEBEBEBEBEBEBEBEBEBEBEBEBEBEBEBEBEBEBEBEBEBEBEBEBEBEBEBEBEBEBEBEBEBEBEBEBEBEBEBEBEBEBEBEBEBEBEBEBEBEBEBEBEBEBEBEBEF50000000000000000000000000000000000000000000000000000000000000000000000000000000000000000000000
310
00000000000000000000000000000000000000000000000000000000000000000000000000000000000000F50000000000000000000000000000000000000000000000000000000000000000000000000000000000000000000000000000000000000000000000000000000000000000000000000000000000000000000000
310
0000F50000DC0000DCDCDCDCDCDCDCDCDCDCDCDCDCDC0000000000000000000000BE00DCDC0000DCDCDC00000000000000000000000000DCDCDCDC00000000000000000000000000000000000000000000F5000000000000000000000000000000000000000000000000000000000000000000000000000000000000000000
310
000000000000000000000000000000000000000000000000000000000000000000000000000000000000000000F5000000000000000000000000000000000000000000000000000000000000000000000000000000000000000000000000000000000000000000000000000000000000000000000000000000000000000000
310
00000000F50000DC0000BEDC0000DCDCDCDCDCDCDCDCDC000000000000000000000000BE00DCDC0000BEDCDC00000000000000000000000000BEDCDC0000000000000000000000000000000000000000000000F500000000000000000000000000000000000000000000000000000000000000000000000000000000000000
310
0000000000000000000000000000000000000000000000000000000000000000000000000000000000000000000000F500000000000000000000000000000000000000000000000000000000000000000000000000000000000000000000000000000000000000000000000000000000000000000000000000000000000000
310
000000000000F5BEBEDCBEBEBEBEDCBEDCDCBEBEBEBEBEBEBEBEBEBEBEBEBEBEBEBEBEBEBEBEBEBEDCBEBEBEDCDCBEBEBEBEBEBEBEBEBEBEBEBEBEBEDCDCBEBEBEBEBEBEBEBEBEBEBEBEBEBEBEBEBEBEBEBEBEBEBEF50000000000000000000000000000000000000000000000000000000000000000000000000000000000
310
00000000000000000000000000000000000000000000000000000000000000000000000000000000000000000000000000F50000000000000000000000000000000000000000000000000000000000000000000000000000000000000000000000000000000000000000000000000000000000000000000000000000000000
310
0000000000000000F50000DC0000DCDCDCDCDCDC00000000000000000000000000000000000000BE00DCDC0000BEDCDC00000000000000000000000000DCDCDCDC00000000000000000000000000000000000000000000F5000000000000000000000000000000000000000000000000000000000000000000000000000000
310
000000000000000000000000000000000000000000000000000000000000000000000000000000000000000000000000000000F5000000000000000000000000000000000000000000000000000000000000000000000000000000000000000000000000000000000000000000000000000000000000000000000000000000
310
00000000000000000000F5BEBEBEBEBEBEBEBEBEBEBEBEBEBEBEBEBEBEBEBEBEBEBEBEBEBEBEBEBEBEBEBEBEBEBEBEBEBEBEBEBEBEBEBEBEBEBEBEBEBEBEBEBEBEBEBEBEBEBEBEBEBEBEBEBEBEBEBEBEBEBEBEBEBEBEBEBEBEF500000000000000000000000000000000000000000000000000000000000000000000000000
310
0000000000000000000000000000000000000000000000000000000000000000000000000000000000000000000000000000000000F500000000000000000000000000000000000000000000000000000000000000000000000000000000000000000000000000000000000000000000000000000000000000000000000000
310
000000000000000000000000F50000DC0000DCDCDCDCDCDCDCDC0000000000000000000000000000000000BE0000DC0000DCDCDC00000000000000000000000000DCDCDCDC00000000000000000000000000000000000000000000F50000000000000000000000000000000000000000000000000000000000000000000000
310
00000000000000000000000000000000000000000000000000000000000000000000000000000000000000000000000000000000000000F50000000000000000000000000000000000000000000000000000000000000000000000000000000000000000000000000000000000000000000000000000000000000000000000
310
0000000000000000000000000000F50000DC0000DCDCDCDC00DC00000000000000000000000000000000000000BE00DCDC0000BEDCDC00000000000000000000000000BEDCDC0000000000000000000000000000000000000000000000F5000000000000000000000000000000000000000000000000000000000000000000
310
000000000000000000000000000000000000000000000000000000000000000000000000000000000000000000000000000000000000000000F5000000000000000000000000000000000000000000000000000000000000000000000000000000000000000000000000000000000000000000000000000000000000000000
310
00000000000000000000000000000000F5BEDCDCDCBEBEBEBEBEBEBEBEBEBEBEBEDCDCDCDCBEBEBEBEBEBEBEBEBEBEBEDCDCDCDCBEBEBEBEBEBEBEBEDCDCDCBEBEBEBEBEBEBEBEBEBEBEBEBEBEDCDCBEDCDCDCDCDCDCDCDCBEBEBEBEBEBEBEF500000000000000000000000000000000000000000000000000000000000000
310
0000000000000000000000000000000000000000000000000000000000000000000000000000000000000000000000000000000000000000000000F500000000000000000000000000000000000000000000000000000000000000000000000000000000000000000000000000000000000000000000000000000000000000
310
000000000000000000000000000000000000F500DCDCDCDCBE00000000000000000000DCDCDCDC00000000000000000000BEDCDCDCDC00BE0000000000DCDCDCDC000000000000BE00000000000000DCDCDCDCDCDCDCDCDCDCDC00000000000000F50000000000000000000000000000000000000000000000000000000000
310
00000000000000000000000000000000000000000000000000000000000000000000000000000000000000000000000000000000000000000000000000F50000000000000000000000000000000000000000000000000000000000000000000000000000000000000000000000000000000000000000000000000000000000
310
0000000000000000000000000000000000000000F5BEBEBEBEBEBEBEBEBEBEBEBEBEBEBEBEBEBEBEBEBEBEBEBEBEBEBEBEBEBEBEBEBEBEBEBEBEBEBEBEBEBEBEBEBEBEBEBEBEBEBEBEBEBEBEBEBEBEBEBEBEBEBEBEBEBEBEBEBEBEBEBEBEBEBEBEBEBEF5000000000000000000000000000000000000000000000000000000
310
000000000000000000000000000000000000000000000000000000000000000000000000000000000000000000000000000000000000000000000000000000F5000000000000000000000000000000000000000000000000000000000000000000000000000000000000000000000000000000000000000000000000000000
310
00000000000000000000000000000000000000000000F50000000000000000000000000000000000000000000000000000000000000000000000DCDCDCDCDCDCDCDC0000000000000000000000000000000000F5F5F5F5F5F5F5F5F5F5F5F5F5F5F5F5F5F5F500000000000000000000000000000000000000000000000000
310
0000000000000000000000000000000000000000000000000000000000000000000000000000000000000000000000000000000000000000000000000000000000F500000000000000000000000000000000000000000000000000000000000000000000000000000000000000000000000000000000000000000000000000
310
000000000000000000000000000000000000000000000000F50000000000000000000000000000000000000000000000000000000000000000000000DCDCDCDCDCDCDCDC0000000000000000000000000000000000F5F5F5F5F5F5F5F5F5F5F5F5F5F5F5F5F5F5F50000000000000000000000000000000000000000000000
310
00000000000000000000000000000000000000000000000000000000000000000000000000000000000000000000000000000000000000000000000000000000000000F5F5F5F5F5F5F5F5F5F5F5F5F5F5F5F5F5F5F5F5F5F5F5F5F5F5F5F5F5F5F5F5F5F5F5F5F5F5F5F5F5F5F5F5F5F5F5F5F5F5F5F5F5F5F5F5F5F5F5F5
310
F5F5F5F5F5F5F5F5F5F5F5F5F5F5F5F5F5F5F5F5F5F5F5F5F5F5F5F5F5F5F5F5F5F5F5F5F5F5F5F5F5F5F5F5F5F5F5F5F5F5F5F5F5F5F5F5F5F5F5F5F5F5F5F5F5F5F5F5F5F5F5F5F5F5F5F5F5F5F5F5F5F5F5F5F5F5F5F5F5F5F5F5F5F5F5F5F5F5F5F5F5F5F5F5F5F5000000000000000000000000000000000000000000
310
000000000000000000000000000000000000000000000000
  0
XRECORD
  5
29A5
102
{ACAD_REACTORS
330
29A4
102
}
330
29A4
100
AcDbXrecord
280
     1
102
SHADEPLOT
 70
     1
102
SHADEPLOTRESLEVEL
 70
     2
102
SHADEPLOTCUSTOMDPI
 70
   300
  0
XRECORD
  5
29A8
102
{ACAD_REACTORS
330
29A7
102
}
330
29A7
100
AcDbXrecord
280
     1
102
SHADEPLOT
 70
     1
102
SHADEPLOTRESLEVEL
 70
     2
102
SHADEPLOTCUSTOMDPI
 70
   300
  0
XRECORD
  5
29AF
102
{ACAD_REACTORS
330
25FC
102
}
330
25FC
100
AcDbXrecord
280
     1
102
MATERIAL
148
0.0
149
0.0
149
0.0
 93
        0
 94
      127
282
     0
 72
     0
 77
     0
171
     0
175
     0
179
     0
273
     0
  0
XRECORD
  5
25FE
102
{ACAD_REACTORS
330
25FC
102
}
330
25FC
100
AcDbXrecord
280
     1
270
     1
271
     1
  0
XRECORD
  5
25FD
102
{ACAD_REACTORS
330
25FC
102
}
330
25FC
100
AcDbXrecord
280
     1
270
     1
271
     1
  0
XRECORD
  5
2601
102
{ACAD_REACTORS
330
25FC
102
}
330
25FC
100
AcDbXrecord
280
     1
270
     1
271
     1
  0
XRECORD
  5
2600
102
{ACAD_REACTORS
330
25FC
102
}
330
25FC
100
AcDbXrecord
280
     1
270
     1
271
     1
  0
XRECORD
  5
2602
102
{ACAD_REACTORS
330
25FC
102
}
330
25FC
100
AcDbXrecord
280
     1
270
     1
271
     1
  0
XRECORD
  5
25FF
102
{ACAD_REACTORS
330
25FC
102
}
330
25FC
100
AcDbXrecord
280
     1
270
     1
271
     1
  0
XRECORD
  5
29AE
102
{ACAD_REACTORS
330
25F4
102
}
330
25F4
100
AcDbXrecord
280
     1
102
MATERIAL
148
0.0
149
0.0
149
0.0
 93
        0
 94
      127
282
     0
 72
     0
 77
     0
171
     0
175
     0
179
     0
273
     0
  0
XRECORD
  5
25F6
102
{ACAD_REACTORS
330
25F4
102
}
330
25F4
100
AcDbXrecord
280
     1
270
     1
271
     1
  0
XRECORD
  5
25F5
102
{ACAD_REACTORS
330
25F4
102
}
330
25F4
100
AcDbXrecord
280
     1
270
     1
271
     1
  0
XRECORD
  5
25F9
102
{ACAD_REACTORS
330
25F4
102
}
330
25F4
100
AcDbXrecord
280
     1
270
     1
271
     1
  0
XRECORD
  5
25F8
102
{ACAD_REACTORS
330
25F4
102
}
330
25F4
100
AcDbXrecord
280
     1
270
     1
271
     1
  0
XRECORD
  5
25FA
102
{ACAD_REACTORS
330
25F4
102
}
330
25F4
100
AcDbXrecord
280
     1
270
     1
271
     1
  0
XRECORD
  5
25F7
102
{ACAD_REACTORS
330
25F4
102
}
330
25F4
100
AcDbXrecord
280
     1
270
     1
271
     1
  0
XRECORD
  5
29B0
102
{ACAD_REACTORS
330
2604
102
}
330
2604
100
AcDbXrecord
280
     1
102
MATERIAL
148
0.0
149
0.0
149
0.0
 93
        0
 94
      127
282
     0
 72
     0
 77
     0
171
     0
175
     0
179
     0
273
     0
  0
XRECORD
  5
2606
102
{ACAD_REACTORS
330
2604
102
}
330
2604
100
AcDbXrecord
280
     1
270
     1
271
     1
  0
XRECORD
  5
2605
102
{ACAD_REACTORS
330
2604
102
}
330
2604
100
AcDbXrecord
280
     1
270
     1
271
     1
  0
XRECORD
  5
2609
102
{ACAD_REACTORS
330
2604
102
}
330
2604
100
AcDbXrecord
280
     1
270
     1
271
     1
  0
XRECORD
  5
2608
102
{ACAD_REACTORS
330
2604
102
}
330
2604
100
AcDbXrecord
280
     1
270
     1
271
     1
  0
XRECORD
  5
260A
102
{ACAD_REACTORS
330
2604
102
}
330
2604
100
AcDbXrecord
280
     1
270
     1
271
     1
  0
XRECORD
  5
2607
102
{ACAD_REACTORS
330
2604
102
}
330
2604
100
AcDbXrecord
280
     1
270
     1
271
     1
  0
XRECORD
  5
29A1
102
{ACAD_REACTORS
330
29A0
102
}
330
29A0
100
AcDbXrecord
280
     1
102
ACAD_ROUNDTRIP_2012_MLEADER_STYLE
298
     1
  0
CELLSTYLEMAP
  5
299F
102
{ACAD_REACTORS
330
281B
102
}
330
281B
100
AcDbCellStyleMap
 90
        3
300
CELLSTYLE
  1
TABLEFORMAT_BEGIN
 90
        5
170
     1
 91
        0
 92
    32768
 62
   257
 93
        1
300
CONTENTFORMAT
  1
CONTENTFORMAT_BEGIN
 90
        0
 91
        0
 92
        4
 93
        0
300

 40
0.0
140
1.0
 94
        5
 62
     0
340
11
144
6.0
309
CONTENTFORMAT_END
171
     1
301
MARGIN
  1
CELLMARGIN_BEGIN
 40
1.5
 40
1.5
 40
1.5
 40
1.5
 40
0.18
 40
0.18
309
CELLMARGIN_END
 94
        6
 95
        1
302
GRIDFORMAT
  1
GRIDFORMAT_BEGIN
 90
        0
 91
        1
 62
     0
 92
       -2
340
0
 93
        0
 40
0.045
309
GRIDFORMAT_END
 95
        2
302
GRIDFORMAT
  1
GRIDFORMAT_BEGIN
 90
        0
 91
        1
 62
     0
 92
       -2
340
0
 93
        0
 40
0.045
309
GRIDFORMAT_END
 95
        4
302
GRIDFORMAT
  1
GRIDFORMAT_BEGIN
 90
        0
 91
        1
 62
     0
 92
       -2
340
0
 93
        0
 40
0.045
309
GRIDFORMAT_END
 95
        8
302
GRIDFORMAT
  1
GRIDFORMAT_BEGIN
 90
        0
 91
        1
 62
     0
 92
       -2
340
0
 93
        0
 40
0.045
309
GRIDFORMAT_END
 95
       16
302
GRIDFORMAT
  1
GRIDFORMAT_BEGIN
 90
        0
 91
        1
 62
     0
 92
       -2
340
0
 93
        0
 40
0.045
309
GRIDFORMAT_END
 95
       32
302
GRIDFORMAT
  1
GRIDFORMAT_BEGIN
 90
        0
 91
        1
 62
     0
 92
       -2
340
0
 93
        0
 40
0.045
309
GRIDFORMAT_END
309
TABLEFORMAT_END
  1
CELLSTYLE_BEGIN
 90
        1
 91
        1
300
_TITLE
309
CELLSTYLE_END
300
CELLSTYLE
  1
TABLEFORMAT_BEGIN
 90
        5
170
     1
 91
        0
 92
        0
 62
   257
 93
        1
300
CONTENTFORMAT
  1
CONTENTFORMAT_BEGIN
 90
        0
 91
        0
 92
        4
 93
        0
300

 40
0.0
140
1.0
 94
        5
 62
     0
340
11
144
4.5
309
CONTENTFORMAT_END
171
     1
301
MARGIN
  1
CELLMARGIN_BEGIN
 40
1.5
 40
1.5
 40
1.5
 40
1.5
 40
0.18
 40
0.18
309
CELLMARGIN_END
 94
        6
 95
        1
302
GRIDFORMAT
  1
GRIDFORMAT_BEGIN
 90
        0
 91
        1
 62
     0
 92
       -2
340
0
 93
        0
 40
0.045
309
GRIDFORMAT_END
 95
        2
302
GRIDFORMAT
  1
GRIDFORMAT_BEGIN
 90
        0
 91
        1
 62
     0
 92
       -2
340
0
 93
        0
 40
0.045
309
GRIDFORMAT_END
 95
        4
302
GRIDFORMAT
  1
GRIDFORMAT_BEGIN
 90
        0
 91
        1
 62
     0
 92
       -2
340
0
 93
        0
 40
0.045
309
GRIDFORMAT_END
 95
        8
302
GRIDFORMAT
  1
GRIDFORMAT_BEGIN
 90
        0
 91
        1
 62
     0
 92
       -2
340
0
 93
        0
 40
0.045
309
GRIDFORMAT_END
 95
       16
302
GRIDFORMAT
  1
GRIDFORMAT_BEGIN
 90
        0
 91
        1
 62
     0
 92
       -2
340
0
 93
        0
 40
0.045
309
GRIDFORMAT_END
 95
       32
302
GRIDFORMAT
  1
GRIDFORMAT_BEGIN
 90
        0
 91
        1
 62
     0
 92
       -2
340
0
 93
        0
 40
0.045
309
GRIDFORMAT_END
309
TABLEFORMAT_END
  1
CELLSTYLE_BEGIN
 90
        2
 91
        1
300
_HEADER
309
CELLSTYLE_END
300
CELLSTYLE
  1
TABLEFORMAT_BEGIN
 90
        5
170
     1
 91
        0
 92
        0
 62
   257
 93
        1
300
CONTENTFORMAT
  1
CONTENTFORMAT_BEGIN
 90
        0
 91
        0
 92
        4
 93
        0
300

 40
0.0
140
1.0
 94
        2
 62
     0
340
11
144
4.5
309
CONTENTFORMAT_END
171
     1
301
MARGIN
  1
CELLMARGIN_BEGIN
 40
1.5
 40
1.5
 40
1.5
 40
1.5
 40
0.18
 40
0.18
309
CELLMARGIN_END
 94
        6
 95
        1
302
GRIDFORMAT
  1
GRIDFORMAT_BEGIN
 90
        0
 91
        1
 62
     0
 92
       -2
340
0
 93
        0
 40
0.045
309
GRIDFORMAT_END
 95
        2
302
GRIDFORMAT
  1
GRIDFORMAT_BEGIN
 90
        0
 91
        1
 62
     0
 92
       -2
340
0
 93
        0
 40
0.045
309
GRIDFORMAT_END
 95
        4
302
GRIDFORMAT
  1
GRIDFORMAT_BEGIN
 90
        0
 91
        1
 62
     0
 92
       -2
340
0
 93
        0
 40
0.045
309
GRIDFORMAT_END
 95
        8
302
GRIDFORMAT
  1
GRIDFORMAT_BEGIN
 90
        0
 91
        1
 62
     0
 92
       -2
340
0
 93
        0
 40
0.045
309
GRIDFORMAT_END
 95
       16
302
GRIDFORMAT
  1
GRIDFORMAT_BEGIN
 90
        0
 91
        1
 62
     0
 92
       -2
340
0
 93
        0
 40
0.045
309
GRIDFORMAT_END
 95
       32
302
GRIDFORMAT
  1
GRIDFORMAT_BEGIN
 90
        0
 91
        1
 62
     0
 92
       -2
340
0
 93
        0
 40
0.045
309
GRIDFORMAT_END
309
TABLEFORMAT_END
  1
CELLSTYLE_BEGIN
 90
        3
 91
        2
300
_DATA
309
CELLSTYLE_END
  0
XRECORD
  5
29AD
102
{ACAD_REACTORS
330
281B
102
}
330
281B
100
AcDbXrecord
280
     1
102
ACAD_ROUNDTRIP_PRE2007_TABLESTYLE
 90
        4
 91
        0
  1

 92
        4
 93
        0
  2

 94
        4
 95
        0
  3

  0
XRECORD
  5
29BC
102
{ACAD_REACTORS
330
29BB
102
}
330
29BB
100
AcDbXrecord
280
     1
102
RTVSPropertyOp0
 70
     1
102
RTVSPropertyOp1
 70
     1
102
RTVSPropertyOp2
 70
     1
102
RTVSPropertyOp3
 70
     1
102
RTVSPropertyOp4
 70
     1
102
RTVSPropertyOp5
 70
     1
102
RTVSPropertyOp6
 70
     1
102
RTVSPropertyOp7
 70
     1
102
RTVSPropertyOp8
 70
     1
102
RTVSPropertyOp9
 70
     1
102
RTVSPropertyOp10
 70
     1
102
RTVSPropertyOp11
 70
     1
102
RTVSPropertyOp12
 70
     1
102
RTVSPropertyOp13
 70
     1
102
RTVSPropertyOp14
 70
     1
102
RTVSPropertyOp15
 70
     1
102
RTVSPropertyOp16
 70
     1
102
RTVSPropertyOp17
 70
     1
102
RTVSPropertyOp18
 70
     1
102
RTVSPropertyOp19
 70
     1
102
RTVSPropertyOp20
 70
     1
102
RTVSPropertyOp21
 70
     1
102
RTVSPropertyOp22
 70
     1
102
RTVSPropertyOp23
 70
     1
102
RTVSPropertyOp24
 70
     1
102
RTVSPropertyOp25
 70
     1
102
RTVSPropertyOp26
 70
     1
102
RTVSPropertyOp27
 70
     1
102
RTVSPropertyOp28
 70
     1
102
RTVSPropertyOp29
 70
     1
102
RTVSPropertyOp30
 70
     1
102
RTVSPropertyOp31
 70
     1
102
RTVSPropertyOp32
 70
     1
  0
XRECORD
  5
29BA
102
{ACAD_REACTORS
330
29B9
102
}
330
29B9
100
AcDbXrecord
280
     1
102
RTVSPropertyOp0
 70
     1
102
RTVSPropertyOp1
 70
     1
102
RTVSPropertyOp2
 70
     1
102
RTVSPropertyOp3
 70
     1
102
RTVSPropertyOp4
 70
     1
102
RTVSPropertyOp5
 70
     1
102
RTVSPropertyOp6
 70
     1
102
RTVSPropertyOp7
 70
     1
102
RTVSPropertyOp8
 70
     1
102
RTVSPropertyOp9
 70
     1
102
RTVSPropertyOp10
 70
     1
102
RTVSPropertyOp11
 70
     1
102
RTVSPropertyOp12
 70
     1
102
RTVSPropertyOp13
 70
     1
102
RTVSPropertyOp14
 70
     1
102
RTVSPropertyOp15
 70
     1
102
RTVSPropertyOp16
 70
     1
102
RTVSPropertyOp17
 70
     1
102
RTVSPropertyOp18
 70
     1
102
RTVSPropertyOp19
 70
     1
102
RTVSPropertyOp20
 70
     1
102
RTVSPropertyOp21
 70
     1
102
RTVSPropertyOp22
 70
     1
102
RTVSPropertyOp23
 70
     1
102
RTVSPropertyOp24
 70
     1
102
RTVSPropertyOp25
 70
     1
102
RTVSPropertyOp26
 70
     1
102
RTVSPropertyOp27
 70
     1
102
RTVSPropertyOp28
 70
     1
102
RTVSPropertyOp29
 70
     1
102
RTVSPropertyOp30
 70
     1
102
RTVSPropertyOp31
 70
     1
102
RTVSPropertyOp32
 70
     1
  0
XRECORD
  5
29C8
102
{ACAD_REACTORS
330
29C7
102
}
330
29C7
100
AcDbXrecord
280
     1
102
RTVSPropertyOp0
 70
     1
102
RTVSPropertyOp1
 70
     1
102
RTVSPropertyOp2
 70
     1
102
RTVSPropertyOp3
 70
     1
102
RTVSPropertyOp4
 70
     1
102
RTVSPropertyOp5
 70
     1
102
RTVSPropertyOp6
 70
     1
102
RTVSPropertyOp7
 70
     1
102
RTVSPropertyOp8
 70
     1
102
RTVSPropertyOp9
 70
     1
102
RTVSPropertyOp10
 70
     1
102
RTVSPropertyOp11
 70
     1
102
RTVSPropertyOp12
 70
     1
102
RTVSPropertyOp13
 70
     1
102
RTVSPropertyOp14
 70
     1
102
RTVSPropertyOp15
 70
     1
102
RTVSPropertyOp16
 70
     1
102
RTVSPropertyOp17
 70
     1
102
RTVSPropertyOp18
 70
     1
102
RTVSPropertyOp19
 70
     1
102
RTVSPropertyOp20
 70
     1
102
RTVSPropertyOp21
 70
     1
102
RTVSPropertyOp22
 70
     1
102
RTVSPropertyOp23
 70
     1
102
RTVSPropertyOp24
 70
     1
102
RTVSPropertyOp25
 70
     1
102
RTVSPropertyOp26
 70
     1
102
RTVSPropertyOp27
 70
     1
102
RTVSPropertyOp28
 70
     1
102
RTVSPropertyOp29
 70
     1
102
RTVSPropertyOp30
 70
     1
102
RTVSPropertyOp31
 70
     1
102
RTVSPropertyOp32
 70
     1
  0
XRECORD
  5
29D0
102
{ACAD_REACTORS
330
29CF
102
}
330
29CF
100
AcDbXrecord
280
     1
102
RTVSPropertyOp0
 70
     1
102
RTVSPropertyOp1
 70
     1
102
RTVSPropertyOp2
 70
     1
102
RTVSPropertyOp3
 70
     1
102
RTVSPropertyOp4
 70
     1
102
RTVSPropertyOp5
 70
     1
102
RTVSPropertyOp6
 70
     1
102
RTVSPropertyOp7
 70
     1
102
RTVSPropertyOp8
 70
     1
102
RTVSPropertyOp9
 70
     1
102
RTVSPropertyOp10
 70
     1
102
RTVSPropertyOp11
 70
     1
102
RTVSPropertyOp12
 70
     1
102
RTVSPropertyOp13
 70
     1
102
RTVSPropertyOp14
 70
     1
102
RTVSPropertyOp15
 70
     1
102
RTVSPropertyOp16
 70
     1
102
RTVSPropertyOp17
 70
     1
102
RTVSPropertyOp18
 70
     1
102
RTVSPropertyOp19
 70
     1
102
RTVSPropertyOp20
 70
     1
102
RTVSPropertyOp21
 70
     1
102
RTVSPropertyOp22
 70
     1
102
RTVSPropertyOp23
 70
     1
102
RTVSPropertyOp24
 70
     1
102
RTVSPropertyOp25
 70
     1
102
RTVSPropertyOp26
 70
     1
102
RTVSPropertyOp27
 70
     1
102
RTVSPropertyOp28
 70
     1
102
RTVSPropertyOp29
 70
     1
102
RTVSPropertyOp30
 70
     1
102
RTVSPropertyOp31
 70
     1
102
RTVSPropertyOp32
 70
     1
  0
XRECORD
  5
29C2
102
{ACAD_REACTORS
330
29C1
102
}
330
29C1
100
AcDbXrecord
280
     1
102
RTVSPropertyOp0
 70
     1
102
RTVSPropertyOp1
 70
     1
102
RTVSPropertyOp2
 70
     1
102
RTVSPropertyOp3
 70
     1
102
RTVSPropertyOp4
 70
     1
102
RTVSPropertyOp5
 70
     1
102
RTVSPropertyOp6
 70
     1
102
RTVSPropertyOp7
 70
     1
102
RTVSPropertyOp8
 70
     1
102
RTVSPropertyOp9
 70
     1
102
RTVSPropertyOp10
 70
     1
102
RTVSPropertyOp11
 70
     1
102
RTVSPropertyOp12
 70
     1
102
RTVSPropertyOp13
 70
     1
102
RTVSPropertyOp14
 70
     1
102
RTVSPropertyOp15
 70
     1
102
RTVSPropertyOp16
 70
     1
102
RTVSPropertyOp17
 70
     1
102
RTVSPropertyOp18
 70
     1
102
RTVSPropertyOp19
 70
     1
102
RTVSPropertyOp20
 70
     1
102
RTVSPropertyOp21
 70
     1
102
RTVSPropertyOp22
 70
     1
102
RTVSPropertyOp23
 70
     1
102
RTVSPropertyOp24
 70
     1
102
RTVSPropertyOp25
 70
     1
102
RTVSPropertyOp26
 70
     1
102
RTVSPropertyOp27
 70
     1
102
RTVSPropertyOp28
 70
     1
102
RTVSPropertyOp29
 70
     1
102
RTVSPropertyOp30
 70
     1
102
RTVSPropertyOp31
 70
     1
102
RTVSPropertyOp32
 70
     1
  0
XRECORD
  5
29C6
102
{ACAD_REACTORS
330
29C5
102
}
330
29C5
100
AcDbXrecord
280
     1
102
RTVSPropertyOp0
 70
     1
102
RTVSPropertyOp1
 70
     1
102
RTVSPropertyOp2
 70
     1
102
RTVSPropertyOp3
 70
     1
102
RTVSPropertyOp4
 70
     1
102
RTVSPropertyOp5
 70
     1
102
RTVSPropertyOp6
 70
     1
102
RTVSPropertyOp7
 70
     1
102
RTVSPropertyOp8
 70
     1
102
RTVSPropertyOp9
 70
     1
102
RTVSPropertyOp10
 70
     1
102
RTVSPropertyOp11
 70
     1
102
RTVSPropertyOp12
 70
     1
102
RTVSPropertyOp13
 70
     1
102
RTVSPropertyOp14
 70
     1
102
RTVSPropertyOp15
 70
     1
102
RTVSPropertyOp16
 70
     1
102
RTVSPropertyOp17
 70
     1
102
RTVSPropertyOp18
 70
     1
102
RTVSPropertyOp19
 70
     1
102
RTVSPropertyOp20
 70
     1
102
RTVSPropertyOp21
 70
     1
102
RTVSPropertyOp22
 70
     1
102
RTVSPropertyOp23
 70
     1
102
RTVSPropertyOp24
 70
     1
102
RTVSPropertyOp25
 70
     1
102
RTVSPropertyOp26
 70
     1
102
RTVSPropertyOp27
 70
     1
102
RTVSPropertyOp28
 70
     1
102
RTVSPropertyOp29
 70
     1
102
RTVSPropertyOp30
 70
     1
102
RTVSPropertyOp31
 70
     1
102
RTVSPropertyOp32
 70
     1
  0
XRECORD
  5
29E0
102
{ACAD_REACTORS
330
29DF
102
}
330
29DF
100
AcDbXrecord
280
     1
102
RTVSPropertyOp0
 70
     0
102
RTVSPropertyOp1
 70
     0
102
RTVSPropertyOp2
 70
     0
102
RTVSPropertyOp3
 70
     0
102
RTVSPropertyOp4
 70
     0
102
RTVSPropertyOp5
 70
     0
102
RTVSPropertyOp6
 70
     0
102
RTVSPropertyOp7
 70
     0
102
RTVSPropertyOp8
 70
     0
102
RTVSPropertyOp9
 70
     0
102
RTVSPropertyOp10
 70
     0
102
RTVSPropertyOp11
 70
     0
102
RTVSPropertyOp12
 70
     0
102
RTVSPropertyOp13
 70
     0
102
RTVSPropertyOp14
 70
     2
102
RTVSPropertyOp15
 70
     0
102
RTVSPropertyOp16
 70
     0
102
RTVSPropertyOp17
 70
     0
102
RTVSPropertyOp18
 70
     0
102
RTVSPropertyOp19
 70
     0
102
RTVSPropertyOp20
 70
     0
102
RTVSPropertyOp21
 70
     0
102
RTVSPropertyOp22
 70
     0
102
RTVSPropertyOp23
 70
     0
102
RTVSPropertyOp24
 70
     0
102
RTVSPropertyOp25
 70
     0
102
RTVSPropertyOp26
 70
     0
102
RTVSPropertyOp27
 70
     0
102
RTVSPropertyOp28
 70
     0
102
RTVSPropertyOp29
 70
     0
102
RTVSPropertyOp30
 70
     0
102
RTVSPropertyOp31
 70
     0
102
RTVSPropertyOp32
 70
     0
  0
XRECORD
  5
29CE
102
{ACAD_REACTORS
330
29CD
102
}
330
29CD
100
AcDbXrecord
280
     1
102
RTVSPropertyOp0
 70
     1
102
RTVSPropertyOp1
 70
     1
102
RTVSPropertyOp2
 70
     1
102
RTVSPropertyOp3
 70
     1
102
RTVSPropertyOp4
 70
     1
102
RTVSPropertyOp5
 70
     1
102
RTVSPropertyOp6
 70
     1
102
RTVSPropertyOp7
 70
     1
102
RTVSPropertyOp8
 70
     1
102
RTVSPropertyOp9
 70
     1
102
RTVSPropertyOp10
 70
     1
102
RTVSPropertyOp11
 70
     1
102
RTVSPropertyOp12
 70
     1
102
RTVSPropertyOp13
 70
     1
102
RTVSPropertyOp14
 70
     1
102
RTVSPropertyOp15
 70
     1
102
RTVSPropertyOp16
 70
     1
102
RTVSPropertyOp17
 70
     1
102
RTVSPropertyOp18
 70
     1
102
RTVSPropertyOp19
 70
     1
102
RTVSPropertyOp20
 70
     1
102
RTVSPropertyOp21
 70
     1
102
RTVSPropertyOp22
 70
     1
102
RTVSPropertyOp23
 70
     1
102
RTVSPropertyOp24
 70
     1
102
RTVSPropertyOp25
 70
     1
102
RTVSPropertyOp26
 70
     1
102
RTVSPropertyOp27
 70
     1
102
RTVSPropertyOp28
 70
     1
102
RTVSPropertyOp29
 70
     1
102
RTVSPropertyOp30
 70
     1
102
RTVSPropertyOp31
 70
     1
102
RTVSPropertyOp32
 70
     1
  0
XRECORD
  5
29B2
102
{ACAD_REACTORS
330
29B1
102
}
330
29B1
100
AcDbXrecord
280
     1
102
RTVSPropertyOp0
 70
     1
102
RTVSPropertyOp1
 70
     1
102
RTVSPropertyOp2
 70
     1
102
RTVSPropertyOp3
 70
     1
102
RTVSPropertyOp4
 70
     1
102
RTVSPropertyOp5
 70
     1
102
RTVSPropertyOp6
 70
     1
102
RTVSPropertyOp7
 70
     1
102
RTVSPropertyOp8
 70
     1
102
RTVSPropertyOp9
 70
     1
102
RTVSPropertyOp10
 70
     1
102
RTVSPropertyOp11
 70
     1
102
RTVSPropertyOp12
 70
     1
102
RTVSPropertyOp13
 70
     1
102
RTVSPropertyOp14
 70
     1
102
RTVSPropertyOp15
 70
     1
102
RTVSPropertyOp16
 70
     1
102
RTVSPropertyOp17
 70
     1
102
RTVSPropertyOp18
 70
     1
102
RTVSPropertyOp19
 70
     1
102
RTVSPropertyOp20
 70
     1
102
RTVSPropertyOp21
 70
     1
102
RTVSPropertyOp22
 70
     1
102
RTVSPropertyOp23
 70
     1
102
RTVSPropertyOp24
 70
     1
102
RTVSPropertyOp25
 70
     1
102
RTVSPropertyOp26
 70
     1
102
RTVSPropertyOp27
 70
     1
102
RTVSPropertyOp28
 70
     1
102
RTVSPropertyOp29
 70
     1
102
RTVSPropertyOp30
 70
     1
102
RTVSPropertyOp31
 70
     1
102
RTVSPropertyOp32
 70
     1
  0
XRECORD
  5
29B4
102
{ACAD_REACTORS
330
29B3
102
}
330
29B3
100
AcDbXrecord
280
     1
102
RTVSPropertyOp0
 70
     1
102
RTVSPropertyOp1
 70
     1
102
RTVSPropertyOp2
 70
     1
102
RTVSPropertyOp3
 70
     1
102
RTVSPropertyOp4
 70
     1
102
RTVSPropertyOp5
 70
     1
102
RTVSPropertyOp6
 70
     1
102
RTVSPropertyOp7
 70
     1
102
RTVSPropertyOp8
 70
     1
102
RTVSPropertyOp9
 70
     1
102
RTVSPropertyOp10
 70
     1
102
RTVSPropertyOp11
 70
     1
102
RTVSPropertyOp12
 70
     1
102
RTVSPropertyOp13
 70
     1
102
RTVSPropertyOp14
 70
     1
102
RTVSPropertyOp15
 70
     1
102
RTVSPropertyOp16
 70
     1
102
RTVSPropertyOp17
 70
     1
102
RTVSPropertyOp18
 70
     1
102
RTVSPropertyOp19
 70
     1
102
RTVSPropertyOp20
 70
     1
102
RTVSPropertyOp21
 70
     1
102
RTVSPropertyOp22
 70
     1
102
RTVSPropertyOp23
 70
     1
102
RTVSPropertyOp24
 70
     1
102
RTVSPropertyOp25
 70
     1
102
RTVSPropertyOp26
 70
     1
102
RTVSPropertyOp27
 70
     1
102
RTVSPropertyOp28
 70
     1
102
RTVSPropertyOp29
 70
     1
102
RTVSPropertyOp30
 70
     1
102
RTVSPropertyOp31
 70
     1
102
RTVSPropertyOp32
 70
     1
  0
XRECORD
  5
29B6
102
{ACAD_REACTORS
330
29B5
102
}
330
29B5
100
AcDbXrecord
280
     1
102
RTVSPropertyOp0
 70
     1
102
RTVSPropertyOp1
 70
     1
102
RTVSPropertyOp2
 70
     1
102
RTVSPropertyOp3
 70
     1
102
RTVSPropertyOp4
 70
     1
102
RTVSPropertyOp5
 70
     1
102
RTVSPropertyOp6
 70
     1
102
RTVSPropertyOp7
 70
     1
102
RTVSPropertyOp8
 70
     1
102
RTVSPropertyOp9
 70
     1
102
RTVSPropertyOp10
 70
     1
102
RTVSPropertyOp11
 70
     1
102
RTVSPropertyOp12
 70
     1
102
RTVSPropertyOp13
 70
     1
102
RTVSPropertyOp14
 70
     1
102
RTVSPropertyOp15
 70
     1
102
RTVSPropertyOp16
 70
     1
102
RTVSPropertyOp17
 70
     1
102
RTVSPropertyOp18
 70
     1
102
RTVSPropertyOp19
 70
     1
102
RTVSPropertyOp20
 70
     1
102
RTVSPropertyOp21
 70
     1
102
RTVSPropertyOp22
 70
     1
102
RTVSPropertyOp23
 70
     1
102
RTVSPropertyOp24
 70
     1
102
RTVSPropertyOp25
 70
     1
102
RTVSPropertyOp26
 70
     1
102
RTVSPropertyOp27
 70
     1
102
RTVSPropertyOp28
 70
     1
102
RTVSPropertyOp29
 70
     1
102
RTVSPropertyOp30
 70
     1
102
RTVSPropertyOp31
 70
     1
102
RTVSPropertyOp32
 70
     1
  0
XRECORD
  5
29B8
102
{ACAD_REACTORS
330
29B7
102
}
330
29B7
100
AcDbXrecord
280
     1
102
RTVSPropertyOp0
 70
     1
102
RTVSPropertyOp1
 70
     1
102
RTVSPropertyOp2
 70
     1
102
RTVSPropertyOp3
 70
     1
102
RTVSPropertyOp4
 70
     1
102
RTVSPropertyOp5
 70
     1
102
RTVSPropertyOp6
 70
     1
102
RTVSPropertyOp7
 70
     1
102
RTVSPropertyOp8
 70
     1
102
RTVSPropertyOp9
 70
     1
102
RTVSPropertyOp10
 70
     1
102
RTVSPropertyOp11
 70
     1
102
RTVSPropertyOp12
 70
     1
102
RTVSPropertyOp13
 70
     1
102
RTVSPropertyOp14
 70
     1
102
RTVSPropertyOp15
 70
     1
102
RTVSPropertyOp16
 70
     1
102
RTVSPropertyOp17
 70
     1
102
RTVSPropertyOp18
 70
     1
102
RTVSPropertyOp19
 70
     1
102
RTVSPropertyOp20
 70
     1
102
RTVSPropertyOp21
 70
     1
102
RTVSPropertyOp22
 70
     1
102
RTVSPropertyOp23
 70
     1
102
RTVSPropertyOp24
 70
     1
102
RTVSPropertyOp25
 70
     1
102
RTVSPropertyOp26
 70
     1
102
RTVSPropertyOp27
 70
     1
102
RTVSPropertyOp28
 70
     1
102
RTVSPropertyOp29
 70
     1
102
RTVSPropertyOp30
 70
     1
102
RTVSPropertyOp31
 70
     1
102
RTVSPropertyOp32
 70
     1
  0
XRECORD
  5
29C0
102
{ACAD_REACTORS
330
29BF
102
}
330
29BF
100
AcDbXrecord
280
     1
102
RTVSPropertyOp0
 70
     1
102
RTVSPropertyOp1
 70
     1
102
RTVSPropertyOp2
 70
     1
102
RTVSPropertyOp3
 70
     1
102
RTVSPropertyOp4
 70
     1
102
RTVSPropertyOp5
 70
     1
102
RTVSPropertyOp6
 70
     1
102
RTVSPropertyOp7
 70
     1
102
RTVSPropertyOp8
 70
     1
102
RTVSPropertyOp9
 70
     1
102
RTVSPropertyOp10
 70
     1
102
RTVSPropertyOp11
 70
     1
102
RTVSPropertyOp12
 70
     1
102
RTVSPropertyOp13
 70
     1
102
RTVSPropertyOp14
 70
     1
102
RTVSPropertyOp15
 70
     1
102
RTVSPropertyOp16
 70
     1
102
RTVSPropertyOp17
 70
     1
102
RTVSPropertyOp18
 70
     1
102
RTVSPropertyOp19
 70
     1
102
RTVSPropertyOp20
 70
     1
102
RTVSPropertyOp21
 70
     1
102
RTVSPropertyOp22
 70
     1
102
RTVSPropertyOp23
 70
     1
102
RTVSPropertyOp24
 70
     1
102
RTVSPropertyOp25
 70
     1
102
RTVSPropertyOp26
 70
     1
102
RTVSPropertyOp27
 70
     1
102
RTVSPropertyOp28
 70
     1
102
RTVSPropertyOp29
 70
     1
102
RTVSPropertyOp30
 70
     1
102
RTVSPropertyOp31
 70
     1
102
RTVSPropertyOp32
 70
     1
  0
XRECORD
  5
29DC
102
{ACAD_REACTORS
330
29DB
102
}
330
29DB
100
AcDbXrecord
280
     1
102
RTVSPropertyOp0
 70
     0
102
RTVSPropertyOp1
 70
     0
102
RTVSPropertyOp2
 70
     0
102
RTVSPropertyOp3
 70
     0
102
RTVSPropertyOp4
 70
     0
102
RTVSPropertyOp5
 70
     0
102
RTVSPropertyOp6
 70
     0
102
RTVSPropertyOp7
 70
     0
102
RTVSPropertyOp8
 70
     0
102
RTVSPropertyOp9
 70
     0
102
RTVSPropertyOp10
 70
     0
102
RTVSPropertyOp11
 70
     0
102
RTVSPropertyOp12
 70
     0
102
RTVSPropertyOp13
 70
     0
102
RTVSPropertyOp14
 70
     2
102
RTVSPropertyOp15
 70
     0
102
RTVSPropertyOp16
 70
     0
102
RTVSPropertyOp17
 70
     0
102
RTVSPropertyOp18
 70
     0
102
RTVSPropertyOp19
 70
     0
102
RTVSPropertyOp20
 70
     0
102
RTVSPropertyOp21
 70
     0
102
RTVSPropertyOp22
 70
     0
102
RTVSPropertyOp23
 70
     0
102
RTVSPropertyOp24
 70
     0
102
RTVSPropertyOp25
 70
     0
102
RTVSPropertyOp26
 70
     0
102
RTVSPropertyOp27
 70
     0
102
RTVSPropertyOp28
 70
     0
102
RTVSPropertyOp29
 70
     0
102
RTVSPropertyOp30
 70
     0
102
RTVSPropertyOp31
 70
     0
102
RTVSPropertyOp32
 70
     0
  0
XRECORD
  5
29CC
102
{ACAD_REACTORS
330
29CB
102
}
330
29CB
100
AcDbXrecord
280
     1
102
RTVSPropertyOp0
 70
     1
102
RTVSPropertyOp1
 70
     1
102
RTVSPropertyOp2
 70
     1
102
RTVSPropertyOp3
 70
     1
102
RTVSPropertyOp4
 70
     1
102
RTVSPropertyOp5
 70
     1
102
RTVSPropertyOp6
 70
     1
102
RTVSPropertyOp7
 70
     1
102
RTVSPropertyOp8
 70
     1
102
RTVSPropertyOp9
 70
     1
102
RTVSPropertyOp10
 70
     1
102
RTVSPropertyOp11
 70
     1
102
RTVSPropertyOp12
 70
     1
102
RTVSPropertyOp13
 70
     1
102
RTVSPropertyOp14
 70
     1
102
RTVSPropertyOp15
 70
     1
102
RTVSPropertyOp16
 70
     1
102
RTVSPropertyOp17
 70
     1
102
RTVSPropertyOp18
 70
     1
102
RTVSPropertyOp19
 70
     1
102
RTVSPropertyOp20
 70
     1
102
RTVSPropertyOp21
 70
     1
102
RTVSPropertyOp22
 70
     1
102
RTVSPropertyOp23
 70
     1
102
RTVSPropertyOp24
 70
     1
102
RTVSPropertyOp25
 70
     1
102
RTVSPropertyOp26
 70
     1
102
RTVSPropertyOp27
 70
     1
102
RTVSPropertyOp28
 70
     1
102
RTVSPropertyOp29
 70
     1
102
RTVSPropertyOp30
 70
     1
102
RTVSPropertyOp31
 70
     1
102
RTVSPropertyOp32
 70
     1
  0
XRECORD
  5
29DE
102
{ACAD_REACTORS
330
29DD
102
}
330
29DD
100
AcDbXrecord
280
     1
102
RTVSPropertyOp0
 70
     0
102
RTVSPropertyOp1
 70
     0
102
RTVSPropertyOp2
 70
     0
102
RTVSPropertyOp3
 70
     0
102
RTVSPropertyOp4
 70
     0
102
RTVSPropertyOp5
 70
     0
102
RTVSPropertyOp6
 70
     0
102
RTVSPropertyOp7
 70
     0
102
RTVSPropertyOp8
 70
     0
102
RTVSPropertyOp9
 70
     0
102
RTVSPropertyOp10
 70
     0
102
RTVSPropertyOp11
 70
     0
102
RTVSPropertyOp12
 70
     0
102
RTVSPropertyOp13
 70
     0
102
RTVSPropertyOp14
 70
     2
102
RTVSPropertyOp15
 70
     0
102
RTVSPropertyOp16
 70
     0
102
RTVSPropertyOp17
 70
     0
102
RTVSPropertyOp18
 70
     0
102
RTVSPropertyOp19
 70
     0
102
RTVSPropertyOp20
 70
     0
102
RTVSPropertyOp21
 70
     0
102
RTVSPropertyOp22
 70
     0
102
RTVSPropertyOp23
 70
     0
102
RTVSPropertyOp24
 70
     0
102
RTVSPropertyOp25
 70
     0
102
RTVSPropertyOp26
 70
     0
102
RTVSPropertyOp27
 70
     0
102
RTVSPropertyOp28
 70
     0
102
RTVSPropertyOp29
 70
     0
102
RTVSPropertyOp30
 70
     0
102
RTVSPropertyOp31
 70
     0
102
RTVSPropertyOp32
 70
     0
  0
XRECORD
  5
29C4
102
{ACAD_REACTORS
330
29C3
102
}
330
29C3
100
AcDbXrecord
280
     1
102
RTVSPropertyOp0
 70
     1
102
RTVSPropertyOp1
 70
     1
102
RTVSPropertyOp2
 70
     1
102
RTVSPropertyOp3
 70
     1
102
RTVSPropertyOp4
 70
     1
102
RTVSPropertyOp5
 70
     1
102
RTVSPropertyOp6
 70
     1
102
RTVSPropertyOp7
 70
     1
102
RTVSPropertyOp8
 70
     1
102
RTVSPropertyOp9
 70
     1
102
RTVSPropertyOp10
 70
     1
102
RTVSPropertyOp11
 70
     1
102
RTVSPropertyOp12
 70
     1
102
RTVSPropertyOp13
 70
     1
102
RTVSPropertyOp14
 70
     1
102
RTVSPropertyOp15
 70
     1
102
RTVSPropertyOp16
 70
     1
102
RTVSPropertyOp17
 70
     1
102
RTVSPropertyOp18
 70
     1
102
RTVSPropertyOp19
 70
     1
102
RTVSPropertyOp20
 70
     1
102
RTVSPropertyOp21
 70
     1
102
RTVSPropertyOp22
 70
     1
102
RTVSPropertyOp23
 70
     1
102
RTVSPropertyOp24
 70
     1
102
RTVSPropertyOp25
 70
     1
102
RTVSPropertyOp26
 70
     1
102
RTVSPropertyOp27
 70
     1
102
RTVSPropertyOp28
 70
     1
102
RTVSPropertyOp29
 70
     1
102
RTVSPropertyOp30
 70
     1
102
RTVSPropertyOp31
 70
     1
102
RTVSPropertyOp32
 70
     1
  0
XRECORD
  5
29DA
102
{ACAD_REACTORS
330
29D9
102
}
330
29D9
100
AcDbXrecord
280
     1
102
RTVSPropertyOp0
 70
     1
102
RTVSPropertyOp1
 70
     1
102
RTVSPropertyOp2
 70
     1
102
RTVSPropertyOp3
 70
     1
102
RTVSPropertyOp4
 70
     1
102
RTVSPropertyOp5
 70
     1
102
RTVSPropertyOp6
 70
     1
102
RTVSPropertyOp7
 70
     1
102
RTVSPropertyOp8
 70
     1
102
RTVSPropertyOp9
 70
     1
102
RTVSPropertyOp10
 70
     1
102
RTVSPropertyOp11
 70
     1
102
RTVSPropertyOp12
 70
     1
102
RTVSPropertyOp13
 70
     1
102
RTVSPropertyOp14
 70
     1
102
RTVSPropertyOp15
 70
     1
102
RTVSPropertyOp16
 70
     1
102
RTVSPropertyOp17
 70
     1
102
RTVSPropertyOp18
 70
     1
102
RTVSPropertyOp19
 70
     1
102
RTVSPropertyOp20
 70
     1
102
RTVSPropertyOp21
 70
     1
102
RTVSPropertyOp22
 70
     1
102
RTVSPropertyOp23
 70
     1
102
RTVSPropertyOp24
 70
     1
102
RTVSPropertyOp25
 70
     1
102
RTVSPropertyOp26
 70
     1
102
RTVSPropertyOp27
 70
     1
102
RTVSPropertyOp28
 70
     1
102
RTVSPropertyOp29
 70
     1
102
RTVSPropertyOp30
 70
     1
102
RTVSPropertyOp31
 70
     1
102
RTVSPropertyOp32
 70
     1
  0
XRECORD
  5
29D8
102
{ACAD_REACTORS
330
29D7
102
}
330
29D7
100
AcDbXrecord
280
     1
102
RTVSPropertyOp0
 70
     1
102
RTVSPropertyOp1
 70
     1
102
RTVSPropertyOp2
 70
     1
102
RTVSPropertyOp3
 70
     1
102
RTVSPropertyOp4
 70
     1
102
RTVSPropertyOp5
 70
     1
102
RTVSPropertyOp6
 70
     1
102
RTVSPropertyOp7
 70
     1
102
RTVSPropertyOp8
 70
     1
102
RTVSPropertyOp9
 70
     1
102
RTVSPropertyOp10
 70
     1
102
RTVSPropertyOp11
 70
     1
102
RTVSPropertyOp12
 70
     1
102
RTVSPropertyOp13
 70
     1
102
RTVSPropertyOp14
 70
     1
102
RTVSPropertyOp15
 70
     1
102
RTVSPropertyOp16
 70
     1
102
RTVSPropertyOp17
 70
     1
102
RTVSPropertyOp18
 70
     1
102
RTVSPropertyOp19
 70
     1
102
RTVSPropertyOp20
 70
     1
102
RTVSPropertyOp21
 70
     1
102
RTVSPropertyOp22
 70
     1
102
RTVSPropertyOp23
 70
     1
102
RTVSPropertyOp24
 70
     1
102
RTVSPropertyOp25
 70
     1
102
RTVSPropertyOp26
 70
     1
102
RTVSPropertyOp27
 70
     1
102
RTVSPropertyOp28
 70
     1
102
RTVSPropertyOp29
 70
     1
102
RTVSPropertyOp30
 70
     1
102
RTVSPropertyOp31
 70
     1
102
RTVSPropertyOp32
 70
     1
  0
XRECORD
  5
29D2
102
{ACAD_REACTORS
330
29D1
102
}
330
29D1
100
AcDbXrecord
280
     1
102
RTVSPropertyOp0
 70
     1
102
RTVSPropertyOp1
 70
     1
102
RTVSPropertyOp2
 70
     1
102
RTVSPropertyOp3
 70
     1
102
RTVSPropertyOp4
 70
     1
102
RTVSPropertyOp5
 70
     1
102
RTVSPropertyOp6
 70
     1
102
RTVSPropertyOp7
 70
     1
102
RTVSPropertyOp8
 70
     1
102
RTVSPropertyOp9
 70
     1
102
RTVSPropertyOp10
 70
     1
102
RTVSPropertyOp11
 70
     1
102
RTVSPropertyOp12
 70
     1
102
RTVSPropertyOp13
 70
     1
102
RTVSPropertyOp14
 70
     1
102
RTVSPropertyOp15
 70
     1
102
RTVSPropertyOp16
 70
     1
102
RTVSPropertyOp17
 70
     1
102
RTVSPropertyOp18
 70
     1
102
RTVSPropertyOp19
 70
     1
102
RTVSPropertyOp20
 70
     1
102
RTVSPropertyOp21
 70
     1
102
RTVSPropertyOp22
 70
     1
102
RTVSPropertyOp23
 70
     1
102
RTVSPropertyOp24
 70
     1
102
RTVSPropertyOp25
 70
     1
102
RTVSPropertyOp26
 70
     1
102
RTVSPropertyOp27
 70
     1
102
RTVSPropertyOp28
 70
     1
102
RTVSPropertyOp29
 70
     1
102
RTVSPropertyOp30
 70
     1
102
RTVSPropertyOp31
 70
     1
102
RTVSPropertyOp32
 70
     1
  0
XRECORD
  5
29D4
102
{ACAD_REACTORS
330
29D3
102
}
330
29D3
100
AcDbXrecord
280
     1
102
RTVSPropertyOp0
 70
     1
102
RTVSPropertyOp1
 70
     1
102
RTVSPropertyOp2
 70
     1
102
RTVSPropertyOp3
 70
     1
102
RTVSPropertyOp4
 70
     1
102
RTVSPropertyOp5
 70
     1
102
RTVSPropertyOp6
 70
     1
102
RTVSPropertyOp7
 70
     1
102
RTVSPropertyOp8
 70
     1
102
RTVSPropertyOp9
 70
     1
102
RTVSPropertyOp10
 70
     1
102
RTVSPropertyOp11
 70
     1
102
RTVSPropertyOp12
 70
     1
102
RTVSPropertyOp13
 70
     1
102
RTVSPropertyOp14
 70
     1
102
RTVSPropertyOp15
 70
     1
102
RTVSPropertyOp16
 70
     1
102
RTVSPropertyOp17
 70
     1
102
RTVSPropertyOp18
 70
     1
102
RTVSPropertyOp19
 70
     1
102
RTVSPropertyOp20
 70
     1
102
RTVSPropertyOp21
 70
     1
102
RTVSPropertyOp22
 70
     1
102
RTVSPropertyOp23
 70
     1
102
RTVSPropertyOp24
 70
     1
102
RTVSPropertyOp25
 70
     1
102
RTVSPropertyOp26
 70
     1
102
RTVSPropertyOp27
 70
     1
102
RTVSPropertyOp28
 70
     1
102
RTVSPropertyOp29
 70
     1
102
RTVSPropertyOp30
 70
     1
102
RTVSPropertyOp31
 70
     1
102
RTVSPropertyOp32
 70
     1
  0
XRECORD
  5
29CA
102
{ACAD_REACTORS
330
29C9
102
}
330
29C9
100
AcDbXrecord
280
     1
102
RTVSPropertyOp0
 70
     1
102
RTVSPropertyOp1
 70
     1
102
RTVSPropertyOp2
 70
     1
102
RTVSPropertyOp3
 70
     1
102
RTVSPropertyOp4
 70
     1
102
RTVSPropertyOp5
 70
     1
102
RTVSPropertyOp6
 70
     1
102
RTVSPropertyOp7
 70
     1
102
RTVSPropertyOp8
 70
     1
102
RTVSPropertyOp9
 70
     1
102
RTVSPropertyOp10
 70
     1
102
RTVSPropertyOp11
 70
     1
102
RTVSPropertyOp12
 70
     1
102
RTVSPropertyOp13
 70
     1
102
RTVSPropertyOp14
 70
     1
102
RTVSPropertyOp15
 70
     1
102
RTVSPropertyOp16
 70
     1
102
RTVSPropertyOp17
 70
     1
102
RTVSPropertyOp18
 70
     1
102
RTVSPropertyOp19
 70
     1
102
RTVSPropertyOp20
 70
     1
102
RTVSPropertyOp21
 70
     1
102
RTVSPropertyOp22
 70
     1
102
RTVSPropertyOp23
 70
     1
102
RTVSPropertyOp24
 70
     1
102
RTVSPropertyOp25
 70
     1
102
RTVSPropertyOp26
 70
     1
102
RTVSPropertyOp27
 70
     1
102
RTVSPropertyOp28
 70
     1
102
RTVSPropertyOp29
 70
     1
102
RTVSPropertyOp30
 70
     1
102
RTVSPropertyOp31
 70
     1
102
RTVSPropertyOp32
 70
     1
  0
XRECORD
  5
29BE
102
{ACAD_REACTORS
330
29BD
102
}
330
29BD
100
AcDbXrecord
280
     1
102
RTVSPropertyOp0
 70
     1
102
RTVSPropertyOp1
 70
     1
102
RTVSPropertyOp2
 70
     1
102
RTVSPropertyOp3
 70
     1
102
RTVSPropertyOp4
 70
     1
102
RTVSPropertyOp5
 70
     1
102
RTVSPropertyOp6
 70
     1
102
RTVSPropertyOp7
 70
     1
102
RTVSPropertyOp8
 70
     1
102
RTVSPropertyOp9
 70
     1
102
RTVSPropertyOp10
 70
     1
102
RTVSPropertyOp11
 70
     1
102
RTVSPropertyOp12
 70
     1
102
RTVSPropertyOp13
 70
     1
102
RTVSPropertyOp14
 70
     1
102
RTVSPropertyOp15
 70
     1
102
RTVSPropertyOp16
 70
     1
102
RTVSPropertyOp17
 70
     1
102
RTVSPropertyOp18
 70
     1
102
RTVSPropertyOp19
 70
     1
102
RTVSPropertyOp20
 70
     1
102
RTVSPropertyOp21
 70
     1
102
RTVSPropertyOp22
 70
     1
102
RTVSPropertyOp23
 70
     1
102
RTVSPropertyOp24
 70
     1
102
RTVSPropertyOp25
 70
     1
102
RTVSPropertyOp26
 70
     1
102
RTVSPropertyOp27
 70
     1
102
RTVSPropertyOp28
 70
     1
102
RTVSPropertyOp29
 70
     1
102
RTVSPropertyOp30
 70
     1
102
RTVSPropertyOp31
 70
     1
102
RTVSPropertyOp32
 70
     1
  0
XRECORD
  5
29D6
102
{ACAD_REACTORS
330
29D5
102
}
330
29D5
100
AcDbXrecord
280
     1
102
RTVSPropertyOp0
 70
     1
102
RTVSPropertyOp1
 70
     1
102
RTVSPropertyOp2
 70
     1
102
RTVSPropertyOp3
 70
     1
102
RTVSPropertyOp4
 70
     1
102
RTVSPropertyOp5
 70
     1
102
RTVSPropertyOp6
 70
     1
102
RTVSPropertyOp7
 70
     1
102
RTVSPropertyOp8
 70
     1
102
RTVSPropertyOp9
 70
     1
102
RTVSPropertyOp10
 70
     1
102
RTVSPropertyOp11
 70
     1
102
RTVSPropertyOp12
 70
     1
102
RTVSPropertyOp13
 70
     1
102
RTVSPropertyOp14
 70
     1
102
RTVSPropertyOp15
 70
     1
102
RTVSPropertyOp16
 70
     1
102
RTVSPropertyOp17
 70
     1
102
RTVSPropertyOp18
 70
     1
102
RTVSPropertyOp19
 70
     1
102
RTVSPropertyOp20
 70
     1
102
RTVSPropertyOp21
 70
     1
102
RTVSPropertyOp22
 70
     1
102
RTVSPropertyOp23
 70
     1
102
RTVSPropertyOp24
 70
     1
102
RTVSPropertyOp25
 70
     1
102
RTVSPropertyOp26
 70
     1
102
RTVSPropertyOp27
 70
     1
102
RTVSPropertyOp28
 70
     1
102
RTVSPropertyOp29
 70
     1
102
RTVSPropertyOp30
 70
     1
102
RTVSPropertyOp31
 70
     1
102
RTVSPropertyOp32
 70
     1
  0
ENDSEC
  0
EOF
