  0
SECTION
  2
HEADER
  9
$ACADVER
  1
AC1015
  9
$ACADMAINTVER
 70
    20
  9
$DWGCODEPAGE
  3
ANSI_932
  9
$INSBASE
 10
0.0
 20
0.0
 30
0.0
  9
$EXTMIN
 10
0.0
 20
-0.0000000000001066
 30
0.0
  9
$EXTMAX
 10
806.0000000000002
 20
560.0000000000001
 30
0.0
  9
$LIMMIN
 10
0.0
 20
0.0
  9
$LIMMAX
 10
806.0
 20
560.0000000000001
  9
$ORTHOMODE
 70
     0
  9
$REGENMODE
 70
     1
  9
$FILLMODE
 70
     1
  9
$QTEXTMODE
 70
     0
  9
$MIRRTEXT
 70
     1
  9
$LTSCALE
 40
2.0
  9
$ATTMODE
 70
     1
  9
$TEXTSIZE
 40
1.0
  9
$TRACEWID
 40
1.0
  9
$TEXTSTYLE
  7
ACISOTS
  9
$CLAYER
  8
0
  9
$CELTYPE
  6
ByLayer
  9
$CECOLOR
 62
   256
  9
$CELTSCALE
 40
1.0
  9
$DISPSILH
 70
     0
  9
$DIMSCALE
 40
1.0
  9
$DIMASZ
 40
2.5
  9
$DIMEXO
 40
1.0
  9
$DIMDLI
 40
10.0
  9
$DIMRND
 40
0.0
  9
$DIMDLE
 40
0.0
  9
$DIMEXE
 40
1.0
  9
$DIMTP
 40
0.1
  9
$DIMTM
 40
0.1
  9
$DIMTXT
 40
3.5
  9
$DIMCEN
 40
0.0
  9
$DIMTSZ
 40
0.0
  9
$DIMTOL
 70
     0
  9
$DIMLIM
 70
     0
  9
$DIMTIH
 70
     0
  9
$DIMTOH
 70
     0
  9
$DIMSE1
 70
     0
  9
$DIMSE2
 70
     0
  9
$DIMTAD
 70
     1
  9
$DIMZIN
 70
     8
  9
$DIMBLK
  1

  9
$DIMASO
 70
     1
  9
$DIMSHO
 70
     1
  9
$DIMPOST
  1

  9
$DIMAPOST
  1
"
  9
$DIMALT
 70
     0
  9
$DIMALTD
 70
     2
  9
$DIMALTF
 40
0.0393701
  9
$DIMLFAC
 40
1.0
  9
$DIMTOFL
 70
     1
  9
$DIMTVP
 40
0.0
  9
$DIMTIX
 70
     0
  9
$DIMSOXD
 70
     0
  9
$DIMSAH
 70
     0
  9
$DIMBLK1
  1

  9
$DIMBLK2
  1

  9
$DIMSTYLE
  2
AM_ISO
  9
$DIMCLRD
 70
   256
  9
$DIMCLRE
 70
   256
  9
$DIMCLRT
 70
     2
  9
$DIMTFAC
 40
0.71
  9
$DIMGAP
 40
1.5
  9
$DIMJUST
 70
     0
  9
$DIMSD1
 70
     0
  9
$DIMSD2
 70
     0
  9
$DIMTOLJ
 70
     0
  9
$DIMTZIN
 70
     8
  9
$DIMALTZ
 70
     0
  9
$DIMALTTZ
 70
     0
  9
$DIMUPT
 70
     0
  9
$DIMDEC
 70
     2
  9
$DIMTDEC
 70
     3
  9
$DIMALTU
 70
     2
  9
$DIMALTTD
 70
     4
  9
$DIMTXSTY
  7
STANDARD
  9
$DIMAUNIT
 70
     0
  9
$DIMADEC
 70
     0
  9
$DIMALTRND
 40
0.0
  9
$DIMAZIN
 70
     2
  9
$DIMDSEP
 70
    46
  9
$DIMATFIT
 70
     3
  9
$DIMFRAC
 70
     0
  9
$DIMLDRBLK
  1

  9
$DIMLUNIT
 70
     2
  9
$DIMLWD
 70
    -1
  9
$DIMLWE
 70
    -1
  9
$DIMTMOVE
 70
     0
  9
$LUNITS
 70
     2
  9
$LUPREC
 70
     2
  9
$SKETCHINC
 40
1.0
  9
$FILLETRAD
 40
5.0
  9
$AUNITS
 70
     0
  9
$AUPREC
 70
     0
  9
$MENU
  1
.
  9
$ELEVATION
 40
0.0
  9
$PELEVATION
 40
0.0
  9
$THICKNESS
 40
0.0
  9
$LIMCHECK
 70
     0
  9
$CHAMFERA
 40
5.0
  9
$CHAMFERB
 40
5.0
  9
$CHAMFERC
 40
20.0
  9
$CHAMFERD
 40
0.0
  9
$SKPOLY
 70
     0
  9
$TDCREATE
 40
2453825.766918936
  9
$TDUCREATE
 40
2453825.391918936
  9
$TDUPDATE
 40
2456939.579896759
  9
$TDUUPDATE
 40
2456939.204896759
  9
$TDINDWG
 40
0.1049461343
  9
$TDUSRTIMER
 40
0.1049461343
  9
$USRTIMER
 70
     1
  9
$ANGBASE
 50
0.0
  9
$ANGDIR
 70
     0
  9
$PDMODE
 70
     0
  9
$PDSIZE
 40
0.0
  9
$PLINEWID
 40
0.0
  9
$SPLFRAME
 70
     0
  9
$SPLINETYPE
 70
     6
  9
$SPLINESEGS
 70
     8
  9
$HANDSEED
  5
2719
  9
$SURFTAB1
 70
     6
  9
$SURFTAB2
 70
     6
  9
$SURFTYPE
 70
     6
  9
$SURFU
 70
     6
  9
$SURFV
 70
     6
  9
$UCSBASE
  2

  9
$UCSNAME
  2

  9
$UCSORG
 10
0.0
 20
0.0
 30
0.0
  9
$UCSXDIR
 10
1.0
 20
0.0
 30
0.0
  9
$UCSYDIR
 10
0.0
 20
1.0
 30
0.0
  9
$UCSORTHOREF
  2

  9
$UCSORTHOVIEW
 70
     0
  9
$UCSORGTOP
 10
0.0
 20
0.0
 30
0.0
  9
$UCSORGBOTTOM
 10
0.0
 20
0.0
 30
0.0
  9
$UCSORGLEFT
 10
0.0
 20
0.0
 30
0.0
  9
$UCSORGRIGHT
 10
0.0
 20
0.0
 30
0.0
  9
$UCSORGFRONT
 10
0.0
 20
0.0
 30
0.0
  9
$UCSORGBACK
 10
0.0
 20
0.0
 30
0.0
  9
$PUCSBASE
  2

  9
$PUCSNAME
  2

  9
$PUCSORG
 10
0.0
 20
0.0
 30
0.0
  9
$PUCSXDIR
 10
1.0
 20
0.0
 30
0.0
  9
$PUCSYDIR
 10
0.0
 20
1.0
 30
0.0
  9
$PUCSORTHOREF
  2

  9
$PUCSORTHOVIEW
 70
     0
  9
$PUCSORGTOP
 10
0.0
 20
0.0
 30
0.0
  9
$PUCSORGBOTTOM
 10
0.0
 20
0.0
 30
0.0
  9
$PUCSORGLEFT
 10
0.0
 20
0.0
 30
0.0
  9
$PUCSORGRIGHT
 10
0.0
 20
0.0
 30
0.0
  9
$PUCSORGFRONT
 10
0.0
 20
0.0
 30
0.0
  9
$PUCSORGBACK
 10
0.0
 20
0.0
 30
0.0
  9
$USERI1
 70
     0
  9
$USERI2
 70
     0
  9
$USERI3
 70
     0
  9
$USERI4
 70
     0
  9
$USERI5
 70
     0
  9
$USERR1
 40
0.0
  9
$USERR2
 40
0.0
  9
$USERR3
 40
0.0
  9
$USERR4
 40
0.0
  9
$USERR5
 40
0.0
  9
$WORLDVIEW
 70
     1
  9
$SHADEDGE
 70
     3
  9
$SHADEDIF
 70
    70
  9
$TILEMODE
 70
     1
  9
$MAXACTVP
 70
    64
  9
$PINSBASE
 10
0.0
 20
0.0
 30
0.0
  9
$PLIMCHECK
 70
     0
  9
$PEXTMIN
 10
1.000000000000000E+20
 20
1.000000000000000E+20
 30
1.000000000000000E+20
  9
$PEXTMAX
 10
-1.000000000000000E+20
 20
-1.000000000000000E+20
 30
-1.000000000000000E+20
  9
$PLIMMIN
 10
-6.350006103515625
 20
-6.349999904632568
  9
$PLIMMAX
 10
273.0499877929688
 20
209.5499939918518
  9
$UNITMODE
 70
     0
  9
$VISRETAIN
 70
     1
  9
$PLINEGEN
 70
     0
  9
$PSLTSCALE
 70
     1
  9
$TREEDEPTH
 70
  3020
  9
$CMLSTYLE
  2
Standard
  9
$CMLJUST
 70
     0
  9
$CMLSCALE
 40
20.0
  9
$PROXYGRAPHICS
 70
     1
  9
$MEASUREMENT
 70
     1
  9
$CELWEIGHT
370
    -1
  9
$ENDCAPS
280
     0
  9
$JOINSTYLE
280
     0
  9
$LWDISPLAY
290
     0
  9
$INSUNITS
 70
     4
  9
$HYPERLINKBASE
  1

  9
$STYLESHEET
  1

  9
$XEDIT
290
     1
  9
$CEPSNTYPE
380
     0
  9
$PSTYLEMODE
290
     1
  9
$FINGERPRINTGUID
  2
{FDEAD578-A652-11D2-9A35-0060089B3A3F}
  9
$VERSIONGUID
  2
{CAEFD16A-33E9-4BFA-B265-AD358F45558D}
  9
$EXTNAMES
290
     1
  9
$PSVPSCALE
 40
0.0
  9
$OLESTARTUP
290
     0
  0
ENDSEC
  0
SECTION
  2
CLASSES
  0
CLASS
  1
ACDBDICTIONARYWDFLT
  2
AcDbDictionaryWithDefault
  3
ObjectDBX Classes
 90
        0
280
     0
281
     0
  0
CLASS
  1
ACDBPLACEHOLDER
  2
AcDbPlaceHolder
  3
ObjectDBX Classes
 90
        0
280
     0
281
     0
  0
CLASS
  1
LAYOUT
  2
AcDbLayout
  3
ObjectDBX Classes
 90
        0
280
     0
281
     0
  0
CLASS
  1
ACME_DOCUMENT
  2
AcMeDbDoc
  3
AcMeServices
 90
     1024
280
     0
281
     0
  0
CLASS
  1
AMGSETTINGSOBJ
  2
AmgSettingsObj
  3
"AcadM|Product Description: AutoCAD Mechanical|Company: Autodesk, Inc."
 90
     1024
280
     0
281
     0
  0
CLASS
  1
ACMESCOPE
  2
AcMeScope
  3
AcMeServices
 90
     1024
280
     0
281
     0
  0
CLASS
  1
ACMECOMMANDHISTORY
  2
AcMeCommandHistory
  3
AcMeServices
 90
     1024
280
     0
281
     0
  0
CLASS
  1
ACIMSYSVARMAN
  2
AcImSysVarManager
  3
AcMeServices
 90
     1024
280
     0
281
     0
  0
CLASS
  1
ACIMREALSYSVAR
  2
AcImRealSysVar
  3
AcMeServices
 90
     1024
280
     0
281
     0
  0
CLASS
  1
ACIMINTSYSVAR
  2
AcImIntSysVar
  3
AcMeServices
 90
     1024
280
     0
281
     0
  0
CLASS
  1
ACMEDRAWINGMAN
  2
AcMeDrawingMan
  3
AcMeServices
 90
     1024
280
     0
281
     0
  0
CLASS
  1
ACMEVIEW
  2
AcMeView
  3
AcMeServices
 90
     1024
280
     0
281
     0
  0
CLASS
  1
ACDBENTITYCACHE
  2
AcMeEntityCache
  3
AcMeServices
 90
     1024
280
     0
281
     0
  0
CLASS
  1
GSMANAGER
  2
AcMeGSManager
  3
AcMeServices
 90
    32768
280
     0
281
     0
  0
CLASS
  1
AMDTINTERNALREACTOR
  2
AmdtInternalReactor
  3
AcMeServices
 90
     1024
280
     0
281
     0
  0
CLASS
  1
ACMESTATEMGR
  2
AcMeStateMgr
  3
AcMeServices
 90
     1024
280
     0
281
     0
  0
CLASS
  1
ACGREFMASTER
  2
AcGrefMaster
  3
AcAttribServices
 90
     1024
280
     0
281
     0
  0
CLASS
  1
ACME_DATABASE
  2
AcMeDbDatabase
  3
AcMeServices
 90
     1024
280
     0
281
     0
  0
CLASS
  1
ACRFINSADJUSTERMGR
  2
AcRfInsAdjusterMgr
  3
AcMeServices
 90
     1024
280
     0
281
     0
  0
CLASS
  1
ACGREFACADMASTER
  2
AcGrefacadMaster
  3
AcGrefServices
 90
     1024
280
     0
281
     0
  0
CLASS
  1
AMIMASTER
  2
AmiMaster
  3
AmiServices
 90
     1024
280
     0
281
     0
  0
CLASS
  1
ACMDATADICTIONARY
  2
AcmDataDictionary
  3
"AcmSymBB|Product Description: AutoCAD Mechanical|Company: Autodesk, Inc."
 90
     1024
280
     0
281
     0
  0
CLASS
  1
ACMDATAENTRYBLOCK
  2
AcmDataEntryBlock
  3
AcmSymBB|Product Description: AutoCAD Mechanical|Company: Autodesk, Inc.
 90
     1024
280
     0
281
     0
  0
CLASS
  1
ACIMSTRSYSVAR
  2
AcImStrSysVar
  3
AcMeServices
 90
     1024
280
     0
281
     0
  0
CLASS
  1
ACMSTANDARDISO
  2
AcmStandardISO
  3
"Amdt_StdImp|Product Description: AutoCAD Mechanical|Company: Autodesk, Inc."
 90
     1024
280
     0
281
     0
  0
CLASS
  1
AMGOBJPROPCFG
  2
AmgObjPropCfg
  3
"AmgLay|Product Description: AutoCAD Mechanical|Company: Autodesk, Inc."
 90
     1025
280
     0
281
     0
  0
CLASS
  1
AMDTEDGESTANDARDISO
  2
AmdtEdgeStdISO
  3
"Amdt_StdImp|Product Description: AutoCAD Mechanical|Company: Autodesk, Inc."
 90
     1024
280
     0
281
     0
  0
CLASS
  1
ACMSURFSTANDARDISO
  2
AcmSurfTextStdISO
  3
"Amdt_StdImp|Product Description: AutoCAD Mechanical|Company: Autodesk, Inc."
 90
     1024
280
     0
281
     0
  0
CLASS
  1
ACMFCFSTANDARDISO
  2
AcmFCFStdISO
  3
"Amdt_StdImp|Product Description: AutoCAD Mechanical|Company: Autodesk, Inc."
 90
     1024
280
     0
281
     0
  0
CLASS
  1
ACMWELDSTANDARDISO
  2
AcmWeldingStdISO
  3
"Amdt_StdImp|Product Description: AutoCAD Mechanical|Company: Autodesk, Inc."
 90
     1024
280
     0
281
     0
  0
CLASS
  1
ACMIDSTANDARDISO
  2
AcmIdStdISO
  3
"Amdt_StdImp|Product Description: AutoCAD Mechanical|Company: Autodesk, Inc."
 90
     1024
280
     0
281
     0
  0
CLASS
  1
ACMDATUMSTANDARDISO
  2
AcmDatumStdISO
  3
"Amdt_StdImp|Product Description: AutoCAD Mechanical|Company: Autodesk, Inc."
 90
     1024
280
     0
281
     0
  0
CLASS
  1
ACMBOMSTANDARDISO
  2
AcmBOMStdISO
  3
"Amdt_StdImp|Product Description: AutoCAD Mechanical|Company: Autodesk, Inc."
 90
     1024
280
     0
281
     0
  0
CLASS
  1
ACMDETAILSTANDARDISO
  2
AmdtDetailSymStdISO
  3
"Amdt_StdImp|Product Description: AutoCAD Mechanical|Company: Autodesk, Inc."
 90
     1024
280
     0
281
     0
  0
CLASS
  1
ACMSECTIONSTANDARDISO
  2
AmdtSectionSymStdISO
  3
"Amdt_StdImp|Product Description: AutoCAD Mechanical|Company: Autodesk, Inc."
 90
     1024
280
     0
281
     0
  0
CLASS
  1
ACMCENTERLINESTANDARDISO
  2
AmdtCenterLineStdISO
  3
"Amdt_StdImp|Product Description: AutoCAD Mechanical|Company: Autodesk, Inc."
 90
     1024
280
     0
281
     0
  0
CLASS
  1
ACMNOTESTANDARDISO
  2
AmdtNoteStdISO
  3
"Amdt_StdImp|Product Description: AutoCAD Mechanical|Company: Autodesk, Inc."
 90
     1024
280
     0
281
     0
  0
CLASS
  1
ACAMGLAYSTD
  2
AcAmgLayStd
  3
"AmgLay|Product Description: AutoCAD Mechanical|Company: Autodesk, Inc."
 90
     1024
280
     0
281
     0
  0
CLASS
  1
ACAMGDIMSTD
  2
AcAmgDimStd
  3
"AmgDim|Product Description: AutoCAD Mechanical|Company: Autodesk, Inc."
 90
     1024
280
     0
281
     0
  0
CLASS
  1
ACAMGHOLECHARTSTDISO
  2
AcAmgHoleChartStdISO
  3
AmgDim|Product Description: AutoCAD Mechanical|Company: Autodesk, Inc.
 90
     1024
280
     0
281
     0
  0
CLASS
  1
ACAMGTITLESTD
  2
AcAmgTitleStd
  3
"AmgTitle|Product Description: AutoCAD Mechanical|Company: Autodesk, Inc."
 90
     4095
280
     0
281
     0
  0
CLASS
  1
LAYER_INDEX
  2
AcDbLayerIndex
  3
ObjectDBX Classes
 90
    32768
280
     0
281
     0
  0
CLASS
  1
IDBUFFER
  2
AcDbIdBuffer
  3
ObjectDBX Classes
 90
    32768
280
     0
281
     0
  0
CLASS
  1
DICTIONARYVAR
  2
AcDbDictionaryVar
  3
ObjectDBX Classes
 90
        0
280
     0
281
     0
  0
CLASS
  1
AM_DRAWING_MGR
  2
AcDmDwgMgr
  3
AcMechDwgViewMgmt
 90
     1024
280
     0
281
     0
  0
CLASS
  1
AM_DWG_DOCUMENT
  2
AcDmDwgDocument
  3
AcMechDwgViewMgmt
 90
     1024
280
     0
281
     0
  0
CLASS
  1
AM_DWG_SHEET
  2
AcDmSheet
  3
AcMechDwgViewMgmt
 90
     1024
280
     0
281
     0
  0
CLASS
  1
AM_VIEWDIMPARMAP
  2
AcDmViewDimParMap
  3
AcMechDwgViewMgmt
 90
     1024
280
     0
281
     0
  0
CLASS
  1
AM_DWGMGR_NAME
  2
AcDmDwgMgrName
  3
AcMechDwgViewMgmt
 90
     1024
280
     0
281
     0
  0
CLASS
  1
AMDTMENUSTATEMGR
  2
AmdtMenuStateMgr
  3
McadcomServices
 90
     1024
280
     0
281
     0
  0
CLASS
  1
AMDTMCOMMENUSTATE
  2
AmdtMcomMenuState
  3
McadcomServices
 90
     1024
280
     0
281
     0
  0
CLASS
  1
MAPIAMMOUDLE
  2
MApiAmModule
  3
MApiAmServices
 90
     1024
280
     0
281
     0
  0
CLASS
  1
AMDTADMENUSTATE
  2
AmdtAdMenuState
  3
DesignerServices
 90
    32768
280
     0
281
     0
  0
CLASS
  1
ADAPPL
  2
AcAdAppl
  3
DesignerAssemblies
 90
     1024
280
     0
281
     0
  0
CLASS
  1
DEPMGR
  2
AcAdDepMgr
  3
DesignerAssemblies
 90
     1024
280
     0
281
     0
  0
CLASS
  1
PARAMMGR
  2
AcAdParamMgr
  3
DesignerAssemblies
 90
     1024
280
     0
281
     0
  0
CLASS
  1
PARAMSCOPE
  2
AcAdParamScope
  3
DesignerAssemblies
 90
     1024
280
     0
281
     0
  0
CLASS
  1
NAMEDAPPL
  2
AcAdNamedAppl
  3
DesignerAssemblies
 90
     1024
280
     0
281
     0
  0
CLASS
  1
AMDTDMMENUSTATE
  2
AmdtDmMenuState
  3
AcMechDwgViewMgmt
 90
    32768
280
     0
281
     0
  0
CLASS
  1
AMDTAMMENUSTATE
  2
AmdtAmMenuState
  3
DesignerAssemblies
 90
     1024
280
     0
281
     0
  0
CLASS
  1
ACAMPROJECT
  2
AcAmProject
  3
DesignerAssemblies
 90
     1024
280
     0
281
     0
  0
CLASS
  1
ACAMGRCOMPDEF
  2
AcAmGrCompDef
  3
DesignerAssemblies
 90
     1024
280
     0
281
     0
  0
CLASS
  1
ACCMCONTEXT
  2
AcCmContext
  3
DesignerAssemblies
 90
     1024
280
     0
281
     0
  0
CLASS
  1
ACAMCOMPDEF
  2
AcAmCompDef
  3
DesignerAssemblies
 90
     1024
280
     0
281
     0
  0
CLASS
  1
ACAMCOMPDEFMGR
  2
AcAmCompDefMgr
  3
DesignerAssemblies
 90
     1024
280
     0
281
     0
  0
CLASS
  1
AMCONTEXTMGR
  2
AcAmContextMgr
  3
DesignerAssemblies
 90
     1024
280
     0
281
     0
  0
CLASS
  1
ACAMCONTEXTMODELER
  2
AcAmContextModeler
  3
DesignerAssemblies
 90
     1024
280
     0
281
     0
  0
CLASS
  1
ACMTHREADLINESTANDARDISO
  2
AmdtThreadLineStdISO
  3
"Amdt_StdImp|Product Description: AutoCAD Mechanical|Company: Autodesk, Inc."
 90
     1024
280
     0
281
     0
  0
CLASS
  1
CATALOGSTATE
  2
AcAmCatalogState
  3
DesignerAssemblies
 90
     1024
280
     0
281
     0
  0
CLASS
  1
ACAMGRCOMPDEFSET
  2
AcAmGrCompDefSet
  3
DesignerAssemblies
 90
     1024
280
     0
281
     0
  0
CLASS
  1
AMDTBROWSERDBTAB
  2
AmdtBrowserDbTab
  3
McadcomServices
 90
     1024
280
     0
281
     0
  0
CLASS
  1
CBROWSERAPPOBJECT
  2
CBrowserAppObject
  3
McadcomServices
 90
     1024
280
     0
281
     0
  0
CLASS
  1
DM_PLACEHOLDER
  2
AcDmSelsetPlaceholder
  3
McadcomServices
 90
     1024
280
     0
281
     0
  0
CLASS
  1
AMDTNOTETEMPLATEDB
  2
AmdtNoteTemplateDB
  3
AcmSymBB|Product Description: AutoCAD Mechanical|Company: Autodesk, Inc.
 90
     1024
280
     0
281
     0
  0
CLASS
  1
ACMBOM
  2
AcmBom
  3
"AcmSymBB|Product Description: AutoCAD Mechanical|Company: Autodesk, Inc."
 90
     1024
280
     0
281
     0
  0
CLASS
  1
AMDTFORMULAUPDATEDISPATCHER
  2
AmdtFormulaUpdateDispatcher
  3
AcMeServices
 90
     1024
280
     0
281
     0
  0
CLASS
  1
ACAMGFILTERDAT
  2
AcAmgFilterDat
  3
"AcadM|Product Description: AutoCAD Mechanical|Company: Autodesk, Inc."
 90
     1024
280
     0
281
     0
  0
CLASS
  1
ACMDATAENTRYPART
  2
AcmDataEntryPart
  3
AcmSymBB|Product Description: AutoCAD Mechanical|Company: Autodesk, Inc.
 90
     1024
280
     0
281
     0
  0
CLASS
  1
ACMPARTREF
  2
AcmPartRef
  3
"AcmSymBB|Product Description: AutoCAD Mechanical|Company: Autodesk, Inc."
 90
     4095
280
     0
281
     1
  0
CLASS
  1
ACMBOMROW
  2
AcmBomRow
  3
"AcmSymBB|Product Description: AutoCAD Mechanical|Company: Autodesk, Inc."
 90
     1024
280
     0
281
     0
  0
CLASS
  1
ACMDATAENTRY
  2
AcmDataEntry
  3
AcmSymBB|Product Description: AutoCAD Mechanical|Company: Autodesk, Inc.
 90
     1024
280
     0
281
     0
  0
CLASS
  1
ACMBALLOON
  2
AcmBalloon
  3
"AcmSymBB|Product Description: AutoCAD Mechanical|Company: Autodesk, Inc."
 90
     4095
280
     0
281
     1
  0
CLASS
  1
ACMPARTLIST
  2
AcmPartList
  3
"AcmSymBB|Product Description: AutoCAD Mechanical|Company: Autodesk, Inc."
 90
     4095
280
     0
281
     1
  0
CLASS
  1
ACDBLINERES
  2
AcDbLineRes
  3
AcGrefServices
 90
     1024
280
     0
281
     0
  0
CLASS
  1
ACRFINSADJ
  2
AcRfInsAdjuster
  3
AcMeServices
 90
     1024
280
     0
281
     0
  0
CLASS
  1
DIMASSOC
  2
AcDbDimAssoc
  3
"AcDbDimAssoc|Product Desc:     AcDim ARX App For Dimension|Company:          Autodesk, Inc.|WEB Address:      www.autodesk.com"
 90
        0
280
     0
281
     0
  0
CLASS
  1
AMDTACMWBLOCKBOMENTITY
  2
AmdtAcmWblockBomEntity
  3
"AcmSymBB|Product Description: AutoCAD Mechanical|Company: Autodesk, Inc."
 90
     4095
280
     0
281
     1
  0
CLASS
  1
SORTENTSTABLE
  2
AcDbSortentsTable
  3
ObjectDBX Classes
 90
        0
280
     0
281
     0
  0
CLASS
  1
ACMPICKOBJ
  2
AcmPickEnt
  3
"AcmSymBB|Product Description: AutoCAD Mechanical|Company: Autodesk, Inc."
 90
    33792
280
     0
281
     1
  0
CLASS
  1
ACDBOPPOLYLINERES
  2
AcDbOpPolylineRes
  3
AcGrefServices
 90
     1024
280
     0
281
     0
  0
CLASS
  1
ACRFATTGENMGR
  2
AcRfAttGeneralMgr
  3
AcAttribServices
 90
     1024
280
     0
281
     0
  0
CLASS
  1
TABLESTYLE
  2
AcDbTableStyle
  3
ObjectDBX Classes
 90
     4095
280
     0
281
     0
  0
CLASS
  1
VAACXREFPANELOBJECT
  2
VaAcXREFPanelObject
  3
VAAC_ADDIN
 90
    32768
280
     0
281
     0
  0
CLASS
  1
VAACIMAGEINVENTORY
  2
VaAcImageInventory
  3
VAAC_ADDIN
 90
    32768
280
     0
281
     0
  0
CLASS
  1
MATERIAL
  2
AcDbMaterial
  3
ObjectDBX Classes
 90
     1153
280
     0
281
     0
  0
CLASS
  1
VISUALSTYLE
  2
AcDbVisualStyle
  3
ObjectDBX Classes
 90
     4095
280
     0
281
     0
  0
CLASS
  1
SCALE
  2
AcDbScale
  3
ObjectDBX Classes
 90
     1153
280
     0
281
     0
  0
CLASS
  1
MLEADERSTYLE
  2
AcDbMLeaderStyle
  3
ACDB_MLEADERSTYLE_CLASS
 90
     4095
280
     0
281
     0
  0
CLASS
  1
ACRFOBJATTMGR
  2
AcRfObjAttGroupMgr
  3
AcAttribServices
 90
     1024
280
     0
281
     0
  0
CLASS
  1
ACRFMCADAPIATTHOLDER
  2
AcRfMCADAPIAttHolder
  3
AcAttribServices
 90
     1024
280
     0
281
     0
  0
CLASS
  1
AMDTSYSATTR
  2
AmdtSystemAttribute
  3
AcAttribServices
 90
     1024
280
     0
281
     0
  0
CLASS
  1
ACMTAPERSTANDARDISO
  2
AcmTaperStdISO
  3
"Amdt_StdImp|Product Description: AutoCAD Mechanical|Company: Autodesk, Inc."
 90
     1024
280
     0
281
     0
  0
CLASS
  1
ACMANOOTATIONVIEWSTANDARDISO
  2
AmdtAnViewStdISO
  3
"Amdt_StdImp|Product Description: AutoCAD Mechanical|Company: Autodesk, Inc."
 90
     1024
280
     0
281
     0
  0
CLASS
  1
EXACXREFPANELOBJECT
  2
ExAcXREFPanelObject
  3
EXAC_ESW
 90
     1025
280
     0
281
     0
  0
CLASS
  1
NPOCOLLECTION
  2
AcDbImpNonPersistentObjectsCollection
  3
ObjectDBX Classes
 90
     1153
280
     0
281
     0
  0
CLASS
  1
CELLSTYLEMAP
  2
AcDbCellStyleMap
  3
ObjectDBX Classes
 90
     1152
280
     0
281
     0
  0
ENDSEC
  0
SECTION
  2
TABLES
  0
TABLE
  2
VPORT
  5
8
330
0
100
AcDbSymbolTable
 70
     1
  0
VPORT
  5
24AE
330
8
100
AcDbSymbolTableRecord
100
AcDbViewportTableRecord
  2
*Active
 70
     0
 10
0.0
 20
0.0
 11
1.0
 21
1.0
 12
403.0000075068612
 22
280.0000052156847
 13
0.0
 23
0.0
 14
5.0
 24
5.0
 15
20.0
 25
20.0
 16
0.0
 26
0.0
 36
1.0
 17
0.0
 27
0.0
 37
0.0
 40
565.8184756548187
 41
2.219454329774614
 42
50.0
 43
0.0
 44
0.0
 50
0.0
 51
0.0
 71
    16
 72
   100
 73
     1
 74
     3
 75
     0
 76
     0
 77
     0
 78
     0
281
     0
 65
     1
110
0.0
120
0.0
130
0.0
111
1.0
121
0.0
131
0.0
112
0.0
122
1.0
132
0.0
 79
     0
146
0.0
1001
ACAD_NAV_VCDISPLAY
1070
     3
  0
ENDTAB
  0
TABLE
  2
LTYPE
  5
5
330
0
100
AcDbSymbolTable
 70
    23
  0
LTYPE
  5
14
330
5
100
AcDbSymbolTableRecord
100
AcDbLinetypeTableRecord
  2
ByBlock
 70
     0
  3

 72
    65
 73
     0
 40
0.0
  0
LTYPE
  5
15
330
5
100
AcDbSymbolTableRecord
100
AcDbLinetypeTableRecord
  2
ByLayer
 70
     0
  3

 72
    65
 73
     0
 40
0.0
  0
LTYPE
  5
16
330
5
100
AcDbSymbolTableRecord
100
AcDbLinetypeTableRecord
  2
Continuous
 70
     0
  3
Solid line
 72
    65
 73
     0
 40
0.0
  0
LTYPE
  5
64
330
5
100
AcDbSymbolTableRecord
100
AcDbLinetypeTableRecord
  2
AM_ISO02W050
 70
     0
  3
__ __ __ __ __ __ __ __ __ __ __ __ __ __ __
 72
    65
 73
     2
 40
7.5
 49
6.0
 74
     0
 49
-1.5
 74
     0
  0
LTYPE
  5
65
330
5
100
AcDbSymbolTableRecord
100
AcDbLinetypeTableRecord
  2
AM_ISO08W050
 70
     0
  3
____ . ____ . ____ . ____ . ____ . ____ . ____
 72
    65
 73
     4
 40
18.0
 49
12.0
 74
     0
 49
-1.5
 74
     0
 49
3.0
 74
     0
 49
-1.5
 74
     0
  0
LTYPE
  5
66
330
5
100
AcDbSymbolTableRecord
100
AcDbLinetypeTableRecord
  2
AM_ISO09W050
 70
     0
  3
_____ . . _____ . . _____ . . ____ .. ____
 72
    65
 73
     6
 40
22.5
 49
12.0
 74
     0
 49
-1.5
 74
     0
 49
3.0
 74
     0
 49
-1.5
 74
     0
 49
3.0
 74
     0
 49
-1.5
 74
     0
  0
LTYPE
  5
67
330
5
100
AcDbSymbolTableRecord
100
AcDbLinetypeTableRecord
  2
Amconstr
 70
     0
  3
_______________________
 72
    65
 73
     2
 40
9999.0
 49
9999.0
 74
     0
 49
0.0
 74
     0
  0
LTYPE
  5
68
330
5
100
AcDbSymbolTableRecord
100
AcDbLinetypeTableRecord
  2
AM_ISO08W050x2
 70
     0
  3
__ . __ . __ . __ . __ . __
 72
    65
 73
     4
 40
9.0
 49
6.0
 74
     0
 49
-0.75
 74
     0
 49
1.5
 74
     0
 49
-0.75
 74
     0
  0
LTYPE
  5
69
330
5
100
AcDbSymbolTableRecord
100
AcDbLinetypeTableRecord
  2
AM_ISO02W050x2
 70
     0
  3
 _ _ _ _ _ _ _ _ _ _ _ _
 72
    65
 73
     2
 40
3.75
 49
3.0
 74
     0
 49
-0.75
 74
     0
  0
LTYPE
  5
6C
330
5
100
AcDbSymbolTableRecord
100
AcDbLinetypeTableRecord
  2
Amzigzag
 70
     0
  3
/\/-/\/-/\/-/\/-/\/-/\/
 72
    65
 73
     2
 40
11.0001
 49
0.0001
 74
     4
 75
   135
340
6B
 46
0.04
 50
0.0
 44
0.0
 45
0.0
 49
-11.0
 74
     0
  0
LTYPE
  5
7A
330
5
100
AcDbSymbolTableRecord
100
AcDbLinetypeTableRecord
  2
ACISOWELD
 70
     0
  3
_ _ _ _ _
 72
    65
 73
     2
 40
2.0
 49
2.0
 74
     0
 49
-1.0
 74
     0
  0
LTYPE
  5
7B
330
5
100
AcDbSymbolTableRecord
100
AcDbLinetypeTableRecord
  2
ACISOTGB
 70
     0
  3
__ . . __ . .
 72
    65
 73
     6
 40
9.0
 49
4.0
 74
     0
 49
-1.0
 74
     0
 49
1.0
 74
     0
 49
-1.0
 74
     0
 49
1.0
 74
     0
 49
-1.0
 74
     0
  0
LTYPE
  5
7C
330
5
100
AcDbSymbolTableRecord
100
AcDbLinetypeTableRecord
  2
ACISOTGL
 70
     0
  3
_ _ _ _ _
 72
    65
 73
     2
 40
3.0
 49
2.0
 74
     0
 49
-1.0
 74
     0
  0
LTYPE
  5
7E
330
5
100
AcDbSymbolTableRecord
100
AcDbLinetypeTableRecord
  2
CENTER
 70
     0
  3
__ . __
 72
    65
 73
     4
 40
7.0
 49
4.0
 74
     0
 49
-1.0
 74
     0
 49
1.0
 74
     0
 49
-1.0
 74
     0
  0
LTYPE
  5
D8
330
5
100
AcDbSymbolTableRecord
100
AcDbLinetypeTableRecord
  2
HIDDEN
 70
     0
  3
Hidden __ __ __ __ __ __ __ __ __ __ __ __ __ _
 72
    65
 73
     2
 40
9.524999999999998
 49
6.349999999999999
 74
     0
 49
-3.174999999999999
 74
     0
  0
LTYPE
  5
D9
330
5
100
AcDbSymbolTableRecord
100
AcDbLinetypeTableRecord
  2
PHANTOM2
 70
     0
  3
Phantom (.5x) ___ _ _ ___ _ _ ___ _ _ ___ _ _
 72
    65
 73
     6
 40
31.75
 49
15.875
 74
     0
 49
-3.174999999999999
 74
     0
 49
3.174999999999999
 74
     0
 49
-3.174999999999999
 74
     0
 49
3.174999999999999
 74
     0
 49
-3.174999999999999
 74
     0
  0
LTYPE
  5
301
330
5
100
AcDbSymbolTableRecord
100
AcDbLinetypeTableRecord
  2
gen3
 70
     0
  3
-- -- -- -- -- -- -- -- -- -- -- -- -- -- --
 72
    65
 73
     2
 40
6.25
 49
4.75
 74
     0
 49
-1.5
 74
     0
  0
LTYPE
  5
302
330
5
100
AcDbSymbolTableRecord
100
AcDbLinetypeTableRecord
  2
gen7
 70
     0
  3
____ . ____ . ____ . ____ . ____ . ____ . ____
 72
    65
 73
     4
 40
13.75
 49
9.75
 74
     0
 49
-1.5
 74
     0
 49
1.0
 74
     0
 49
-1.5
 74
     0
  0
LTYPE
  5
303
330
5
100
AcDbSymbolTableRecord
100
AcDbLinetypeTableRecord
  2
gen3a
 70
     0
  3
 - - - - -
 72
    65
 73
     2
 40
3.125
 49
2.25
 74
     0
 49
-0.875
 74
     0
  0
LTYPE
  5
304
330
5
100
AcDbSymbolTableRecord
100
AcDbLinetypeTableRecord
  2
gen7a
 70
     0
  3
__ . __ . __
 72
    65
 73
     4
 40
6.875
 49
4.75
 74
     0
 49
-0.875
 74
     0
 49
0.375
 74
     0
 49
-0.875
 74
     0
  0
LTYPE
  5
305
330
5
100
AcDbSymbolTableRecord
100
AcDbLinetypeTableRecord
  2
gen4a
 70
     0
  3
_____ . . _____ . . _____ . . ____ .. ____
 72
    65
 73
     6
 40
16.25
 49
9.75
 74
     0
 49
-1.5
 74
     0
 49
1.0
 74
     0
 49
-1.5
 74
     0
 49
1.0
 74
     0
 49
-1.5
 74
     0
  0
LTYPE
  5
306
330
5
100
AcDbSymbolTableRecord
100
AcDbLinetypeTableRecord
  2
genzigzag
 70
     0
  3
/\/-/\/-/\/-/\/-/\/-/\/
 72
    65
 73
     2
 40
12.0001
 49
0.0001
 74
     4
 75
   135
340
6B
 46
2.0
 50
0.0
 44
0.0
 45
0.0
 49
-12.0
 74
     0
  0
LTYPE
  5
4D4
330
5
100
AcDbSymbolTableRecord
100
AcDbLinetypeTableRecord
  2
TRATTOPUNTO
 70
     0
  3
Tratto punto__ . __ . __ . __ . __ . __ . __ . 
 72
    65
 73
     4
 40
25.4
 49
12.7
 74
     0
 49
-6.349999999999998
 74
     0
 49
0.0
 74
     0
 49
-6.349999999999998
 74
     0
  0
LTYPE
  5
251C
330
5
100
AcDbSymbolTableRecord
100
AcDbLinetypeTableRecord
  2
DASHED
 70
     0
  3
Dashed __ __ __ __ __ __ __ __ __ __ __ __ __ _
 72
    65
 73
     2
 40
0.75
 49
0.5
 74
     0
 49
-0.25
 74
     0
  0
LTYPE
  5
251D
330
5
100
AcDbSymbolTableRecord
100
AcDbLinetypeTableRecord
  2
DOT
 70
     0
  3
Dot . . . . . . . . . . . . . . . . . . . . . .
 72
    65
 73
     2
 40
0.25
 49
0.0
 74
     0
 49
-0.25
 74
     0
  0
ENDTAB
  0
TABLE
  2
LAYER
  5
2
102
{ACAD_XDICTIONARY
360
2EE
102
}
330
0
100
AcDbSymbolTable
 70
    15
  0
LAYER
  5
10
102
{ACAD_XDICTIONARY
360
26B4
102
}
330
2
100
AcDbSymbolTableRecord
100
AcDbLayerTableRecord
  2
0
 70
     0
 62
     7
  6
Continuous
370
    -3
390
F
  0
LAYER
  5
2F0
102
{ACAD_XDICTIONARY
360
26B6
102
}
330
2
100
AcDbSymbolTableRecord
100
AcDbLayerTableRecord
  2
AM_5
 70
     0
 62
     3
  6
Continuous
370
    13
390
F
  0
LAYER
  5
2F1
102
{ACAD_XDICTIONARY
360
26B8
102
}
330
2
100
AcDbSymbolTableRecord
100
AcDbLayerTableRecord
  2
AM_7
 70
     0
 62
     4
  6
AM_ISO08W050
370
    13
390
F
  0
LAYER
  5
307
330
2
100
AcDbSymbolTableRecord
100
AcDbLayerTableRecord
  2
Defpoints
 70
     0
 62
     7
  6
Continuous
290
     0
370
    -3
390
F
  0
LAYER
  5
33C
102
{ACAD_XDICTIONARY
360
26BA
102
}
330
2
100
AcDbSymbolTableRecord
100
AcDbLayerTableRecord
  2
7A
 70
     0
 62
     4
  6
gen7a
370
    -3
390
F
  0
LAYER
  5
33D
102
{ACAD_XDICTIONARY
360
26BC
102
}
330
2
100
AcDbSymbolTableRecord
100
AcDbLayerTableRecord
  2
RAHM2
 70
     0
 62
     1
  6
Continuous
370
    -3
390
F
  0
LAYER
  5
45E
102
{ACAD_XDICTIONARY
360
26BE
102
}
330
2
100
AcDbSymbolTableRecord
100
AcDbLayerTableRecord
  2
AM_12
 70
     0
 62
     7
  6
Continuous
290
     0
370
    50
390
F
  0
LAYER
  5
45F
102
{ACAD_XDICTIONARY
360
26C0
102
}
330
2
100
AcDbSymbolTableRecord
100
AcDbLayerTableRecord
  2
AM_PAREF
 70
     0
 62
     4
  6
Continuous
290
     0
370
    25
390
F
  0
LAYER
  5
4D5
102
{ACAD_XDICTIONARY
360
26C2
102
}
330
2
100
AcDbSymbolTableRecord
100
AcDbLayerTableRecord
  2
AM_8
 70
     0
 62
     1
  6
Continuous
370
    25
390
F
  0
LAYER
  5
1751
102
{ACAD_XDICTIONARY
360
26C4
102
}
330
2
100
AcDbSymbolTableRecord
100
AcDbLayerTableRecord
  2
ﾎﾞﾃﾞｨｰ
 70
     0
 62
     7
  6
Continuous
370
    25
390
F
  0
LAYER
  5
1752
102
{ACAD_XDICTIONARY
360
26C6
102
}
330
2
100
AcDbSymbolTableRecord
100
AcDbLayerTableRecord
  2
ﾍﾞｰｽ
 70
     0
 62
     2
  6
Continuous
370
    25
390
F
  0
LAYER
  5
1753
102
{ACAD_XDICTIONARY
360
26C8
102
}
330
2
100
AcDbSymbolTableRecord
100
AcDbLayerTableRecord
  2
ﾀｰﾐﾅﾙｶﾊﾞｰ
 70
     0
 62
     5
  6
Continuous
370
    25
390
F
  0
LAYER
  5
1754
102
{ACAD_XDICTIONARY
360
26CA
102
}
330
2
100
AcDbSymbolTableRecord
100
AcDbLayerTableRecord
  2
前面ﾊﾟﾈﾙ
 70
     0
 62
     3
  6
Continuous
370
    25
390
F
  0
LAYER
  5
1755
102
{ACAD_XDICTIONARY
360
26CC
102
}
330
2
100
AcDbSymbolTableRecord
100
AcDbLayerTableRecord
  2
ﾎｯｸ
 70
     0
 62
     4
  6
Continuous
370
    25
390
F
  0
LAYER
  5
2289
102
{ACAD_XDICTIONARY
360
26CE
102
}
330
2
100
AcDbSymbolTableRecord
100
AcDbLayerTableRecord
  2
AM_CL
 70
     0
 62
     1
  6
Amconstr
370
    25
390
F
  0
ENDTAB
  0
TABLE
  2
STYLE
  5
3
330
0
100
AcDbSymbolTable
 70
     8
  0
STYLE
  5
11
330
3
100
AcDbSymbolTableRecord
100
AcDbTextStyleTableRecord
  2
STANDARD
 70
     0
 40
0.0
 41
1.0
 50
0.0
 71
     0
 42
1.0
  3
ISOCP.SHX
  4
EXTFONT.SHX
  0
STYLE
  5
6B
330
3
100
AcDbSymbolTableRecord
100
AcDbTextStyleTableRecord
  2

 70
     1
 40
0.0
 41
1.0
 50
0.0
 71
     0
 42
2.5
  3
ltypeshp.shx
  4

  0
STYLE
  5
6D
330
3
100
AcDbSymbolTableRecord
100
AcDbTextStyleTableRecord
  2
ACISOTS
 70
     0
 40
1.0
 41
1.0
 50
0.0
 71
     0
 42
1.0
  3
isocp.shx
  4
bigfont.shx
  0
STYLE
  5
79
330
3
100
AcDbSymbolTableRecord
100
AcDbTextStyleTableRecord
  2
ACISOGDT
 70
     0
 40
0.0
 41
1.0
 50
0.0
 71
     0
 42
2.5
  3
amgdt.shx
  4

  0
STYLE
  5
133
330
3
100
AcDbSymbolTableRecord
100
AcDbTextStyleTableRecord
  2
USER1
 70
     0
 40
0.0
 41
1.0
 50
0.0
 71
     0
 42
2.5
  3
TXT.SHX
  4

  0
STYLE
  5
134
330
3
100
AcDbSymbolTableRecord
100
AcDbTextStyleTableRecord
  2
USER2
 70
     0
 40
0.0
 41
1.0
 50
0.0
 71
     0
 42
2.5
  3
SIMPLEX.SHX
  4

  0
STYLE
  5
135
330
3
100
AcDbSymbolTableRecord
100
AcDbTextStyleTableRecord
  2
USER3
 70
     0
 40
0.0
 41
1.0
 50
0.0
 71
     0
 42
2.5
  3
ITALIC.SHX
  4

  0
STYLE
  5
33F
330
3
100
AcDbSymbolTableRecord
100
AcDbTextStyleTableRecord
  2

 70
     1
 40
0.0
 41
1.0
 50
0.0
 71
     0
 42
3.0
  3
genltshp.shx
  4

  0
ENDTAB
  0
TABLE
  2
VIEW
  5
6
330
0
100
AcDbSymbolTable
 70
     6
  0
VIEW
  5
3A4
330
6
100
AcDbSymbolTableRecord
100
AcDbViewTableRecord
  2
AM_VIEW1
 70
     0
 40
280.0000000000001
 10
204.3288996372431
 20
420.0000000000001
 41
408.6577992744861
 11
0.0
 21
0.0
 31
1.0
 12
0.0
 22
0.0
 32
0.0
 42
50.0
 43
0.0
 44
0.0
 50
0.0
 71
    16
281
     0
 72
     0
  0
VIEW
  5
3A5
330
6
100
AcDbSymbolTableRecord
100
AcDbViewTableRecord
  2
AM_VIEW2
 70
     0
 40
280.0000000000001
 10
601.671100362757
 20
420.0000000000001
 41
408.6577992744861
 11
0.0
 21
0.0
 31
1.0
 12
0.0
 22
0.0
 32
0.0
 42
50.0
 43
0.0
 44
0.0
 50
0.0
 71
    16
281
     0
 72
     0
  0
VIEW
  5
3A6
330
6
100
AcDbSymbolTableRecord
100
AcDbViewTableRecord
  2
AM_VIEW3
 70
     0
 40
280.0000000000001
 10
204.3288996372431
 20
140.0
 41
408.6577992744861
 11
0.0
 21
0.0
 31
1.0
 12
0.0
 22
0.0
 32
0.0
 42
50.0
 43
0.0
 44
0.0
 50
0.0
 71
    16
281
     0
 72
     0
  0
VIEW
  5
3A7
330
6
100
AcDbSymbolTableRecord
100
AcDbViewTableRecord
  2
AM_VIEW4
 70
     0
 40
280.0000000000001
 10
601.671100362757
 20
140.0
 41
408.6577992744861
 11
0.0
 21
0.0
 31
1.0
 12
0.0
 22
0.0
 32
0.0
 42
50.0
 43
0.0
 44
0.0
 50
0.0
 71
    16
281
     0
 72
     0
  0
VIEW
  5
3A8
330
6
100
AcDbSymbolTableRecord
100
AcDbViewTableRecord
  2
AM_VIEW5
 70
     0
 40
280.0000000000001
 10
403.0
 20
280.0000000000001
 41
408.657799274486
 11
0.0
 21
0.0
 31
1.0
 12
0.0
 22
0.0
 32
0.0
 42
50.0
 43
0.0
 44
0.0
 50
0.0
 71
    16
281
     0
 72
     0
  0
VIEW
  5
3A9
330
6
100
AcDbSymbolTableRecord
100
AcDbViewTableRecord
  2
AM_VIEW6
 70
     0
 40
559.9944000000001
 10
403.0
 20
280.0000000000001
 41
817.3074253929867
 11
0.0
 21
0.0
 31
1.0
 12
0.0
 22
0.0
 32
0.0
 42
50.0
 43
0.0
 44
0.0
 50
0.0
 71
    16
281
     0
 72
     0
  0
ENDTAB
  0
TABLE
  2
UCS
  5
7
330
0
100
AcDbSymbolTable
 70
     0
  0
ENDTAB
  0
TABLE
  2
APPID
  5
9
330
0
100
AcDbSymbolTable
 70
    37
  0
APPID
  5
12
330
9
100
AcDbSymbolTableRecord
100
AcDbRegAppTableRecord
  2
ACAD
 70
     0
  0
APPID
  5
46
330
9
100
AcDbSymbolTableRecord
100
AcDbRegAppTableRecord
  2
MCAD_NO_VIS
 70
     0
  0
APPID
  5
47
330
9
100
AcDbSymbolTableRecord
100
AcDbRegAppTableRecord
  2
ACAD_TEMP_GRAPHIC
 70
     0
  0
APPID
  5
58
330
9
100
AcDbSymbolTableRecord
100
AcDbRegAppTableRecord
  2
ACATTRIBSERVICES
 70
     0
  0
APPID
  5
EE
330
9
100
AcDbSymbolTableRecord
100
AcDbRegAppTableRecord
  2
AD_DRAW
 70
     0
  0
APPID
  5
10C
330
9
100
AcDbSymbolTableRecord
100
AcDbRegAppTableRecord
  2
DESIGNERASSEMBLIES
 70
     0
  0
APPID
  5
111
330
9
100
AcDbSymbolTableRecord
100
AcDbRegAppTableRecord
  2
ACADM_DIM_EDIT
 70
     0
  0
APPID
  5
112
330
9
100
AcDbSymbolTableRecord
100
AcDbRegAppTableRecord
  2
AMDT_DM_ADJ
 70
     0
  0
APPID
  5
30F
330
9
100
AcDbSymbolTableRecord
100
AcDbRegAppTableRecord
  2
GENIUS_GENREC_14
 70
     0
  0
APPID
  5
310
330
9
100
AcDbSymbolTableRecord
100
AcDbRegAppTableRecord
  2
GENIUS_GENODEF_13
 70
     0
  0
APPID
  5
311
330
9
100
AcDbSymbolTableRecord
100
AcDbRegAppTableRecord
  2
GENIUS_GENOBJ-N-REC_13
 70
     0
  0
APPID
  5
312
330
9
100
AcDbSymbolTableRecord
100
AcDbRegAppTableRecord
  2
GENIUS_GENCFG_13
 70
     0
  0
APPID
  5
313
330
9
100
AcDbSymbolTableRecord
100
AcDbRegAppTableRecord
  2
GENIUS_GENCFG0_13
 70
     0
  0
APPID
  5
314
330
9
100
AcDbSymbolTableRecord
100
AcDbRegAppTableRecord
  2
GENIUS_GENCFG1_13
 70
     0
  0
APPID
  5
315
330
9
100
AcDbSymbolTableRecord
100
AcDbRegAppTableRecord
  2
GENIUS_GENCFG2_13
 70
     0
  0
APPID
  5
316
330
9
100
AcDbSymbolTableRecord
100
AcDbRegAppTableRecord
  2
GENIUS_GENCFG3_13
 70
     0
  0
APPID
  5
317
330
9
100
AcDbSymbolTableRecord
100
AcDbRegAppTableRecord
  2
GENIUS_GENCFG4_13
 70
     0
  0
APPID
  5
318
330
9
100
AcDbSymbolTableRecord
100
AcDbRegAppTableRecord
  2
GENIUS_GEVCFG0_13
 70
     0
  0
APPID
  5
319
330
9
100
AcDbSymbolTableRecord
100
AcDbRegAppTableRecord
  2
GENIUS_GENOENT_13
 70
     0
  0
APPID
  5
31A
330
9
100
AcDbSymbolTableRecord
100
AcDbRegAppTableRecord
  2
GENIUS_GENDIMSH_14
 70
     0
  0
APPID
  5
31B
330
9
100
AcDbSymbolTableRecord
100
AcDbRegAppTableRecord
  2
GENIUS_GENOBJ-N-CRS_13
 70
     0
  0
APPID
  5
31C
330
9
100
AcDbSymbolTableRecord
100
AcDbRegAppTableRecord
  2
GENIUS_GENOREF_13
 70
     0
  0
APPID
  5
31D
330
9
100
AcDbSymbolTableRecord
100
AcDbRegAppTableRecord
  2
GENIUS_GENOLIS_13
 70
     0
  0
APPID
  5
31E
330
9
100
AcDbSymbolTableRecord
100
AcDbRegAppTableRecord
  2
GENIUS_GENOBJ-N-TIT_13
 70
     0
  0
APPID
  5
31F
330
9
100
AcDbSymbolTableRecord
100
AcDbRegAppTableRecord
  2
GENIUS_GENTITLE_13
 70
     0
  0
APPID
  5
320
330
9
100
AcDbSymbolTableRecord
100
AcDbRegAppTableRecord
  2
GENIUS_GENSCREG_15
 70
     0
  0
APPID
  5
321
330
9
100
AcDbSymbolTableRecord
100
AcDbRegAppTableRecord
  2
GENIUS_GENOBJ-N-SDF_13
 70
     0
  0
APPID
  5
322
330
9
100
AcDbSymbolTableRecord
100
AcDbRegAppTableRecord
  2
GENIUS_GENOBJ-N-CEN_13
 70
     0
  0
APPID
  5
323
330
9
100
AcDbSymbolTableRecord
100
AcDbRegAppTableRecord
  2
GENIUS_GENOBJ-N-HTC_13
 70
     0
  0
APPID
  5
324
330
9
100
AcDbSymbolTableRecord
100
AcDbRegAppTableRecord
  2
GENIUS_GENHATCH_13
 70
     0
  0
APPID
  5
325
330
9
100
AcDbSymbolTableRecord
100
AcDbRegAppTableRecord
  2
GENIUS_GENOBJ-N-ZOO_13
 70
     0
  0
APPID
  5
326
330
9
100
AcDbSymbolTableRecord
100
AcDbRegAppTableRecord
  2
GENIUS_GENZOO_17
 70
     0
  0
APPID
  5
A49
330
9
100
AcDbSymbolTableRecord
100
AcDbRegAppTableRecord
  2
GENIUS_GENOBJ-N-FIL_13
 70
     0
  0
APPID
  5
A4A
330
9
100
AcDbSymbolTableRecord
100
AcDbRegAppTableRecord
  2
ACAD_PSEXT
 70
     0
  0
APPID
  5
1BB4
330
9
100
AcDbSymbolTableRecord
100
AcDbRegAppTableRecord
  2
GENIUS_GENCEN_19
 70
     0
  0
APPID
  5
251E
330
9
100
AcDbSymbolTableRecord
100
AcDbRegAppTableRecord
  2
ACAD_NAV_VCDISPLAY
 70
     0
  0
APPID
  5
2718
330
9
100
AcDbSymbolTableRecord
100
AcDbRegAppTableRecord
  2
ACAD_MLEADERVER
 70
     0
  0
ENDTAB
  0
TABLE
  2
DIMSTYLE
  5
A
330
0
100
AcDbSymbolTable
 70
    16
100
AcDbDimStyleTable
 71
     1
340
81
  0
DIMSTYLE
105
27
330
A
100
AcDbSymbolTableRecord
100
AcDbDimStyleTableRecord
  2
ISO-25
 70
     0
 41
2.5
 42
0.625
 43
3.75
 44
1.25
 73
     0
 74
     0
 77
     1
 78
     8
140
2.5
141
2.5
143
0.03937007874016
147
0.625
171
     3
172
     1
271
     2
272
     2
274
     3
278
    44
283
     0
284
     8
340
11
  0
DIMSTYLE
105
81
102
{ACAD_REACTORS
330
18DF
330
18E2
330
1A5F
102
}
330
A
100
AcDbSymbolTableRecord
100
AcDbDimStyleTableRecord
  2
AM_ISO
 70
     0
  4
"
 41
2.5
 42
1.0
 43
10.0
 44
1.0
 47
0.1
 48
0.1
 73
     0
 74
     0
 77
     1
 78
     8
 79
     2
140
3.5
141
0.0
143
0.0393701
146
0.71
147
1.5
172
     1
176
   256
177
   256
178
     2
271
     2
272
     3
274
     4
283
     0
284
     8
340
11
371
    -1
372
    -1
  0
DIMSTYLE
105
82
330
A
100
AcDbSymbolTableRecord
100
AcDbDimStyleTableRecord
  2
AM_ISO$3
 70
     0
  4
"
 41
2.5
 42
1.0
 43
10.0
 44
1.0
 47
0.1
 48
0.1
 73
     0
 77
     1
 78
     8
 79
     2
140
3.5
141
0.0
143
0.0393701
146
0.71
147
1.5
176
   256
177
   256
178
     2
271
     2
272
     3
274
     4
283
     0
284
     8
288
     1
289
     0
340
11
371
    -1
372
    -1
  0
DIMSTYLE
105
83
330
A
100
AcDbSymbolTableRecord
100
AcDbDimStyleTableRecord
  2
AM_ISO$4
 70
     0
  4
"
 41
2.5
 42
1.0
 43
10.0
 44
1.0
 47
0.1
 48
0.1
 73
     0
 77
     1
 78
     8
 79
     2
140
3.5
141
0.0
143
0.0393701
146
0.71
147
1.5
176
   256
177
   256
178
     2
271
     2
272
     3
274
     4
283
     0
284
     8
288
     1
289
     0
340
11
371
    -1
372
    -1
  0
DIMSTYLE
105
84
330
A
100
AcDbSymbolTableRecord
100
AcDbDimStyleTableRecord
  2
AM_ISO$6
 70
     0
  4
"
 41
2.5
 42
1.0
 43
10.0
 44
1.0
 47
0.1
 48
0.1
 73
     0
 74
     0
 78
     8
 79
     2
140
3.5
141
0.0
143
0.0393701
146
0.71
147
1.5
172
     1
176
   256
177
   256
178
     2
271
     2
272
     3
274
     4
283
     0
284
     8
340
11
371
    -1
372
    -1
  0
DIMSTYLE
105
85
330
A
100
AcDbSymbolTableRecord
100
AcDbDimStyleTableRecord
  2
AM_ISO$7
 70
     0
  4
"
 41
2.5
 42
1.0
 43
10.0
 44
1.0
 47
0.1
 48
0.1
 73
     0
 74
     0
 77
     1
 78
     8
 79
     2
140
5.0
141
0.0
143
0.0393701
146
0.71
147
1.5
172
     1
176
   256
177
   256
178
     2
271
     2
272
     3
274
     4
283
     0
284
     8
340
11
371
    -1
372
    -1
  0
DIMSTYLE
105
86
330
A
100
AcDbSymbolTableRecord
100
AcDbDimStyleTableRecord
  2
AM_ISO$SF
 70
     0
  4
"
 41
2.5
 42
1.0
 43
10.0
 44
1.0
 47
0.1
 48
0.1
 73
     0
 74
     0
 75
     1
 76
     1
 77
     1
 78
     8
 79
     2
140
3.5
141
0.0
143
0.0393701
146
0.71
147
1.5
172
     1
176
   256
177
   256
178
     2
271
     2
272
     3
274
     4
283
     0
284
     8
340
11
371
    -1
372
    -1
  0
DIMSTYLE
105
8B
330
A
100
AcDbSymbolTableRecord
100
AcDbDimStyleTableRecord
  2
AM_ISO$SH
 70
     0
  4
"
 41
2.5
 42
1.0
 43
10.0
 44
1.0
 47
0.1
 48
0.1
 73
     0
 74
     0
 75
     1
 76
     1
 77
     1
 78
     8
 79
     2
140
3.5
141
0.0
143
0.0393701
144
2.0
146
0.71
147
1.5
172
     1
173
     1
176
   256
177
   256
178
     2
271
     2
272
     3
274
     4
283
     0
284
     8
340
11
343
87
371
    -1
372
    -1
  0
DIMSTYLE
105
308
330
A
100
AcDbSymbolTableRecord
100
AcDbDimStyleTableRecord
  2
GEN-ISO
 70
     0
  4
"
 41
2.5
 42
1.0
 43
10.0
 44
1.0
 47
0.1
 48
0.1
 73
     0
 74
     0
 77
     1
 78
     8
140
3.5
141
0.0
143
0.0393701
146
0.71
147
1.5
172
     1
176
   256
177
   256
178
     2
271
     2
272
     3
274
     4
283
     0
340
11
  0
DIMSTYLE
105
309
330
A
100
AcDbSymbolTableRecord
100
AcDbDimStyleTableRecord
  2
GEN-ISO$3
 70
     0
  4
"
 41
2.5
 42
1.0
 43
10.0
 44
1.0
 47
0.1
 48
0.1
 73
     0
 77
     1
 78
     8
140
3.5
141
0.0
143
0.0393701
146
0.71
147
1.5
176
   256
177
   256
178
     2
271
     2
272
     3
274
     4
283
     0
288
     1
289
     0
340
11
  0
DIMSTYLE
105
30A
330
A
100
AcDbSymbolTableRecord
100
AcDbDimStyleTableRecord
  2
GEN-ISO$4
 70
     0
  4
"
 41
2.5
 42
1.0
 43
10.0
 44
1.0
 47
0.1
 48
0.1
 73
     0
 77
     1
 78
     8
140
3.5
141
0.0
143
0.0393701
146
0.71
147
1.5
176
   256
177
   256
178
     2
271
     2
272
     3
274
     4
283
     0
288
     1
289
     0
340
11
  0
DIMSTYLE
105
30B
330
A
100
AcDbSymbolTableRecord
100
AcDbDimStyleTableRecord
  2
GEN-ISO$6
 70
     0
  4
"
 41
2.5
 42
1.0
 43
10.0
 44
1.0
 47
0.1
 48
0.1
 73
     0
 74
     0
 78
     8
140
3.5
141
0.0
143
0.0393701
146
0.71
147
1.5
176
   256
177
   256
178
     2
271
     2
272
     3
274
     4
283
     0
340
11
  0
DIMSTYLE
105
30C
330
A
100
AcDbSymbolTableRecord
100
AcDbDimStyleTableRecord
  2
GEN-ISO-POS
 70
     0
  4
"
 41
2.5
 42
1.0
 43
10.0
 44
1.0
 47
0.1
 48
0.1
 73
     0
 74
     0
 78
     8
140
5.0
141
0.0
143
0.0393701
146
0.71
147
1.5
176
   256
177
   256
178
     2
271
     2
272
     3
274
     4
283
     0
340
11
  0
DIMSTYLE
105
30D
330
A
100
AcDbSymbolTableRecord
100
AcDbDimStyleTableRecord
  2
GEN-ISO-AXE-F
 70
     0
  4
"
 41
2.5
 42
1.0
 43
10.0
 44
1.0
 47
0.1
 48
0.1
 73
     0
 74
     0
 75
     1
 76
     1
 77
     1
 78
     8
140
3.5
141
0.0
143
0.0393701
146
0.71
147
1.5
172
     1
176
   256
177
   256
178
     2
271
     2
272
     3
274
     4
283
     0
340
11
  0
DIMSTYLE
105
30E
330
A
100
AcDbSymbolTableRecord
100
AcDbDimStyleTableRecord
  2
GEN-ISO-AXE-H
 70
     0
  4
"
 41
2.5
 42
1.0
 43
10.0
 44
1.0
 47
0.1
 48
0.1
 73
     0
 74
     0
 75
     1
 76
     1
 77
     1
 78
     8
140
3.5
141
0.0
143
0.0393701
144
2.0
146
0.71
147
1.5
172
     1
173
     1
176
   256
177
   256
178
     2
271
     2
272
     3
274
     4
283
     0
340
11
  0
DIMSTYLE
105
1ADD
330
A
100
AcDbSymbolTableRecord
100
AcDbDimStyleTableRecord
  2
AM_ANSI
 70
     0
  4
mm
 41
0.1
 42
0.05
 43
0.5
 44
0.1
 47
0.1
 48
0.1
 78
     7
 79
     2
140
0.12
141
0.0
146
0.71
147
0.06
176
   256
177
   256
178
     2
274
     4
284
     7
340
11
371
    -1
372
    -1
  0
ENDTAB
  0
TABLE
  2
BLOCK_RECORD
  5
1
330
0
100
AcDbSymbolTable
 70
    22
  0
BLOCK_RECORD
  5
1F
102
{ACAD_XDICTIONARY
360
8F
102
}
330
1
100
AcDbSymbolTableRecord
100
AcDbBlockTableRecord
  2
*Model_Space
340
22
  0
BLOCK_RECORD
  5
1B
330
1
100
AcDbSymbolTableRecord
100
AcDbBlockTableRecord
  2
*Paper_Space
340
1E
  0
BLOCK_RECORD
  5
23
330
1
100
AcDbSymbolTableRecord
100
AcDbBlockTableRecord
  2
*Paper_Space0
340
26
  0
BLOCK_RECORD
  5
87
330
1
100
AcDbSymbolTableRecord
100
AcDbBlockTableRecord
  2
GENAXEH
340
0
  0
BLOCK_RECORD
  5
2FB
330
1
100
AcDbSymbolTableRecord
100
AcDbBlockTableRecord
  2
_Open30
340
0
  0
BLOCK_RECORD
  5
327
102
{ACAD_XDICTIONARY
360
330
102
}
330
1
100
AcDbSymbolTableRecord
100
AcDbBlockTableRecord
  2
TAKACHI-A3
340
0
102
{BLKREFS
331
79F
102
}
  0
BLOCK_RECORD
  5
340
102
{ACAD_XDICTIONARY
360
395
102
}
330
1
100
AcDbSymbolTableRecord
100
AcDbBlockTableRecord
  2
TAKACHI-TITLE
340
0
102
{BLKREFS
331
7A1
102
}
  0
BLOCK_RECORD
  5
1A62
330
1
100
AcDbSymbolTableRecord
100
AcDbBlockTableRecord
  2
*D6
340
0
  0
BLOCK_RECORD
  5
1A6E
330
1
100
AcDbSymbolTableRecord
100
AcDbBlockTableRecord
  2
*D7
340
0
  0
BLOCK_RECORD
  5
1A7A
330
1
100
AcDbSymbolTableRecord
100
AcDbBlockTableRecord
  2
*D8
340
0
  0
BLOCK_RECORD
  5
1ADE
102
{ACAD_XDICTIONARY
360
1AE6
102
}
330
1
100
AcDbSymbolTableRecord
100
AcDbBlockTableRecord
  2
TK-A3
340
0
102
{BLKREFS
331
79F
102
}
  0
BLOCK_RECORD
  5
1AEC
102
{ACAD_XDICTIONARY
360
1B45
102
}
330
1
100
AcDbSymbolTableRecord
100
AcDbBlockTableRecord
  2
TK-TITLE
340
0
102
{BLKREFS
331
7A1
102
}
  0
BLOCK_RECORD
  5
2623
330
1
100
AcDbSymbolTableRecord
100
AcDbBlockTableRecord
  2
*S11
340
0
  0
BLOCK_RECORD
  5
262A
330
1
100
AcDbSymbolTableRecord
100
AcDbBlockTableRecord
  2
*S12
340
0
  0
BLOCK_RECORD
  5
2632
330
1
100
AcDbSymbolTableRecord
100
AcDbBlockTableRecord
  2
*S13
340
0
  0
BLOCK_RECORD
  5
2639
330
1
100
AcDbSymbolTableRecord
100
AcDbBlockTableRecord
  2
*S14
340
0
  0
BLOCK_RECORD
  5
2641
330
1
100
AcDbSymbolTableRecord
100
AcDbBlockTableRecord
  2
*S15
340
0
  0
BLOCK_RECORD
  5
2648
330
1
100
AcDbSymbolTableRecord
100
AcDbBlockTableRecord
  2
*S16
340
0
  0
BLOCK_RECORD
  5
2650
330
1
100
AcDbSymbolTableRecord
100
AcDbBlockTableRecord
  2
*S17
340
0
  0
BLOCK_RECORD
  5
2657
330
1
100
AcDbSymbolTableRecord
100
AcDbBlockTableRecord
  2
*S18
340
0
  0
BLOCK_RECORD
  5
265F
330
1
100
AcDbSymbolTableRecord
100
AcDbBlockTableRecord
  2
*S19
340
0
  0
BLOCK_RECORD
  5
2666
330
1
100
AcDbSymbolTableRecord
100
AcDbBlockTableRecord
  2
*S20
340
0
  0
BLOCK_RECORD
  5
266E
330
1
100
AcDbSymbolTableRecord
100
AcDbBlockTableRecord
  2
*S21
340
0
  0
ENDTAB
  0
ENDSEC
  0
SECTION
  2
BLOCKS
  0
BLOCK
  5
20
330
1F
100
AcDbEntity
  8
0
100
AcDbBlockBegin
  2
*Model_Space
 70
     0
 10
0.0
 20
0.0
 30
0.0
  3
*Model_Space
  1

  0
ENDBLK
  5
21
330
1F
100
AcDbEntity
  8
0
100
AcDbBlockEnd
  0
BLOCK
  5
1C
330
1B
100
AcDbEntity
 67
     1
  8
0
100
AcDbBlockBegin
  2
*Paper_Space
 70
     0
 10
0.0
 20
0.0
 30
0.0
  3
*Paper_Space
  1

  0
ENDBLK
  5
1D
330
1B
100
AcDbEntity
 67
     1
  8
0
100
AcDbBlockEnd
  0
BLOCK
  5
24
330
23
100
AcDbEntity
 67
     1
  8
0
100
AcDbBlockBegin
  2
*Paper_Space0
 70
     0
 10
0.0
 20
0.0
 30
0.0
  3
*Paper_Space0
  1

  0
VIEWPORT
  5
17C
102
{ACAD_XDICTIONARY
360
26E2
102
}
330
23
100
AcDbEntity
 67
     1
  8
0
100
AcDbViewport
 10
133.3499908447266
 20
123.6089706563676
 30
0.0
 40
370.2266912936524
 41
272.4401407679965
 68
     0
 69
     0
 12
133.3499908447266
 22
123.6089706563676
 13
0.0
 23
0.0
 14
10.0
 24
10.0
 15
10.0
 25
10.0
 16
0.0
 26
0.0
 36
1.0
 17
0.0
 27
0.0
 37
0.0
 42
50.0
 43
0.0
 44
0.0
 45
272.4401407679965
 50
0.0
 51
0.0
 72
   100
 90
    32800
  1

281
     0
 71
     1
 74
     0
110
0.0
120
0.0
130
0.0
111
1.0
121
0.0
131
0.0
112
0.0
122
1.0
132
0.0
 79
     0
146
0.0
  0
ENDBLK
  5
25
330
23
100
AcDbEntity
 67
     1
  8
0
100
AcDbBlockEnd
  0
BLOCK
  5
89
330
87
100
AcDbEntity
  8
0
100
AcDbBlockBegin
  2
GENAXEH
 70
     0
 10
0.0
 20
0.0
 30
0.0
  3
GENAXEH
  1

  0
LINE
  5
88
330
87
100
AcDbEntity
  8
0
100
AcDbLine
 10
-1.0
 20
0.0
 30
0.0
 11
1.0
 21
0.0
 31
0.0
  0
ENDBLK
  5
8A
330
87
100
AcDbEntity
  8
0
100
AcDbBlockEnd
  0
BLOCK
  5
2FC
330
2FB
100
AcDbEntity
  8
0
100
AcDbBlockBegin
  2
_Open30
 70
     0
 10
0.0
 20
0.0
 30
0.0
  3
_Open30
  1

  0
LINE
  5
2FD
330
2FB
100
AcDbEntity
  8
0
  6
ByBlock
 62
     0
370
    -2
100
AcDbLine
 10
-1.0
 20
0.26794919
 30
0.0
 11
0.0
 21
0.0
 31
0.0
  0
LINE
  5
2FE
330
2FB
100
AcDbEntity
  8
0
  6
ByBlock
 62
     0
370
    -2
100
AcDbLine
 10
0.0
 20
0.0
 30
0.0
 11
-1.0
 21
-0.26794919
 31
0.0
  0
LINE
  5
2FF
330
2FB
100
AcDbEntity
  8
0
  6
ByBlock
 62
     0
370
    -2
100
AcDbLine
 10
0.0
 20
0.0
 30
0.0
 11
-1.0
 21
0.0
 31
0.0
  0
ENDBLK
  5
300
330
2FB
100
AcDbEntity
  8
0
100
AcDbBlockEnd
  0
BLOCK
  5
331
330
327
100
AcDbEntity
  8
0
100
AcDbBlockBegin
  2
TAKACHI-A3
 70
     0
 10
0.0
 20
0.0
 30
0.0
  3
TAKACHI-A3
  1

  0
LWPOLYLINE
  5
328
330
327
100
AcDbEntity
  8
0
100
AcDbPolyline
 90
        4
 70
     1
 43
0.0
 10
10.0
 20
0.0
 10
410.0
 20
0.0
 10
410.0
 20
280.0
 10
10.00000000000003
 20
280.0
1001
GENIUS_GENREC_14
1002
{
1000
PYDIR
1011
10.00000000000001
1021
280.0
1031
0.0
1002
}
1002
{
1000
PXDIR
1011
410.0
1021
0.0
1031
0.0
1002
}
1002
{
1000
PORI
1011
10.0
1021
0.0
1031
0.0
1002
}
1002
{
1000
PINS
1011
210.0
1021
139.9999999999999
1031
0.0
1002
}
1002
{
1000
HVAL
1000
280
1002
}
1002
{
1000
H
1070
     2
1002
}
1002
{
1000
WVAL
1000
400
1002
}
1002
{
1000
W
1070
     2
1002
}
1002
{
1000
C
1070
     4
1002
}
1001
GENIUS_GENODEF_13
1002
{
1000
HIER
1070
     0
1002
}
1002
{
1000
MANEDIT
1070
     0
1002
}
1002
{
1000
NOSEL
1070
     0
1002
}
1002
{
1000
BEHIND
1070
     0
1002
}
1002
{
1000
REACTOR
1002
}
1001
GENIUS_GENOBJ-N-REC_13
1002
{
1000
OWNER
1000
GEN
1002
}
  0
TEXT
  5
329
330
327
100
AcDbEntity
  8
0
 60
     1
100
AcDbText
 10
15.00000000000003
 20
50.0
 30
0.0
 40
2.5
  1
!GENTITLE-LL
100
AcDbText
  0
TEXT
  5
32A
330
327
100
AcDbEntity
  8
0
 60
     1
100
AcDbText
 10
410.0
 20
0.0
 30
0.0
 40
2.5
  1
!GENTITLE-INSERT
100
AcDbText
  0
TEXT
  5
32B
330
327
100
AcDbEntity
  8
0
 60
     1
100
AcDbText
 10
405.0
 20
275.0
 30
0.0
 40
2.5
  1
!GENTITLE-RU
100
AcDbText
  0
TEXT
  5
32C
330
327
100
AcDbEntity
  8
0
 60
     1
100
AcDbText
 10
410.0
 20
280.0
 30
0.0
 40
2.5
  1
!GENTITLE-MAX
100
AcDbText
  0
LINE
  5
32D
330
327
100
AcDbEntity
  8
0
100
AcDbLine
 10
366.0
 20
275.0
 30
0.0
 11
410.0
 21
275.0
 31
0.0
  0
MTEXT
  5
32E
330
327
100
AcDbEntity
  8
0
100
AcDbMText
 10
409.3592953827348
 20
276.108542987227
 30
0.0
 40
2.5
 41
43.07840397728298
 71
     9
 72
     5
  1
(文書番号：TY-34)2004.10.29
 73
     1
 44
1.0
1001
ACAD
1000
MTEXTBEGIN
1070
    73
1070
     1
1070
    44
1040
1.0
1070
    74
1070
     0
1000
MTEXTEND
  0
LINE
  5
32F
330
327
100
AcDbEntity
  8
0
100
AcDbLine
 10
366.0
 20
280.0
 30
0.0
 11
366.0
 21
275.0
 31
0.0
  0
ENDBLK
  5
332
330
327
100
AcDbEntity
  8
0
100
AcDbBlockEnd
  0
BLOCK
  5
396
330
340
100
AcDbEntity
  8
0
100
AcDbBlockBegin
  2
TAKACHI-TITLE
 70
     2
 10
0.0
 20
0.0
 30
0.0
  3
TAKACHI-TITLE
  1

  0
LINE
  5
341
330
340
100
AcDbEntity
  8
RAHM2
100
AcDbLine
 10
-195.0
 20
30.00000000000003
 30
0.0
 11
-94.0
 21
30.00000000000003
 31
0.0
  0
LINE
  5
342
330
340
100
AcDbEntity
  8
RAHM2
100
AcDbLine
 10
-195.0
 20
35.00000000000003
 30
0.0
 11
-94.0
 21
35.00000000000003
 31
0.0
  0
LINE
  5
343
330
340
100
AcDbEntity
  8
RAHM2
100
AcDbLine
 10
-195.0
 20
40.00000000000002
 30
0.0
 11
-94.0
 21
40.00000000000002
 31
0.0
  0
LINE
  5
344
330
340
100
AcDbEntity
  8
RAHM2
100
AcDbLine
 10
-195.0
 20
45.00000000000002
 30
0.0
 11
-94.0
 21
45.00000000000002
 31
0.0
  0
LINE
  5
345
330
340
100
AcDbEntity
  8
0
100
AcDbLine
 10
-195.0
 20
7.0
 30
0.0
 11
-94.0
 21
7.0
 31
0.0
  0
LINE
  5
346
330
340
100
AcDbEntity
  8
0
100
AcDbLine
 10
-195.0
 20
19.99999999999997
 30
0.0
 11
-94.0
 21
19.99999999999997
 31
0.0
  0
ATTDEF
  5
347
330
340
100
AcDbEntity
  8
0
100
AcDbText
 10
-183.2438527145607
 20
8.617517191094748
 30
0.0
 40
2.5
  1

 11
-183.2438527145607
 21
8.617517191094748
 31
0.0
100
AcDbAttributeDefinition
  3
サブタイトル
  2
GEN-TITLE-DES2
 70
     0
 74
     1
  0
ATTDEF
  5
348
330
340
100
AcDbEntity
  8
0
100
AcDbText
 10
-183.2438527145607
 20
1.617517191094748
 30
0.0
 40
3.0
  1

 11
-183.2438527145607
 21
1.617517191094748
 31
0.0
100
AcDbAttributeDefinition
  3
図番
  2
GEN-TITLE-NR
 70
     0
 74
     1
  0
MTEXT
  5
349
330
340
100
AcDbEntity
  8
RAHM2
100
AcDbMText
 10
-193.8002551371314
 20
5.801035407279641
 30
0.0
 40
2.5
 41
90.0
 71
     1
 72
     5
  1
図番
 73
     1
 44
1.0
1001
ACAD
1000
MTEXTBEGIN
1070
    73
1070
     1
1070
    44
1040
1.0
1070
    74
1070
     0
1000
MTEXTEND
  0
ATTDEF
  5
34A
330
340
100
AcDbEntity
  8
0
100
AcDbText
 10
-183.2438527145607
 20
13.87395286168501
 30
0.0
 40
4.0
  1

 11
-183.2438527145607
 21
13.87395286168501
 31
0.0
100
AcDbAttributeDefinition
  3
品名
  2
GEN-TITLE-DES1
 70
     0
 74
     1
  0
LINE
  5
34B
330
340
100
AcDbEntity
  8
RAHM2
100
AcDbLine
 10
-187.5751288694036
 20
30.40000000000004
 30
0.0
 11
-190.0
 21
34.60000000000003
 31
0.0
  0
LINE
  5
34C
330
340
100
AcDbEntity
  8
RAHM2
100
AcDbLine
 10
-190.0
 20
34.60000000000003
 30
0.0
 11
-192.4248711305964
 21
30.40000000000004
 31
0.0
  0
LINE
  5
34D
330
340
100
AcDbEntity
  8
RAHM2
100
AcDbLine
 10
-185.0
 20
50.00000000000003
 30
0.0
 11
-185.0
 21
19.99999999999994
 31
0.0
  0
LINE
  5
34E
330
340
100
AcDbEntity
  8
RAHM2
100
AcDbLine
 10
-192.4248711305964
 20
30.40000000000004
 30
0.0
 11
-187.5751288694036
 21
30.40000000000004
 31
0.0
  0
MTEXT
  5
34F
330
340
100
AcDbEntity
  8
RAHM2
100
AcDbMText
 10
-190.0
 20
22.49999999999997
 30
0.0
 40
2.5
 41
10.0
 71
     5
 72
     5
  1
符号
 73
     1
 44
1.0
1001
ACAD
1000
MTEXTBEGIN
1070
    73
1070
     1
1070
    44
1040
1.0
1070
    74
1070
     0
1000
MTEXTEND
  0
MTEXT
  5
350
330
340
100
AcDbEntity
  8
RAHM2
100
AcDbMText
 10
-193.8002551371314
 20
18.80103540727961
 30
0.0
 40
2.5
 41
90.0
 71
     1
 72
     5
  1
品名
 73
     1
 44
1.0
1001
ACAD
1000
MTEXTBEGIN
1070
    73
1070
     1
1070
    44
1040
1.0
1070
    74
1070
     0
1000
MTEXTEND
  0
LINE
  5
351
330
340
100
AcDbEntity
  8
RAHM2
100
AcDbLine
 10
-192.4248711305964
 20
45.40000000000003
 30
0.0
 11
-187.5751288694036
 21
45.40000000000003
 31
0.0
  0
LINE
  5
352
330
340
100
AcDbEntity
  8
RAHM2
100
AcDbLine
 10
-187.5751288694036
 20
45.40000000000003
 30
0.0
 11
-190.0
 21
49.60000000000002
 31
0.0
  0
LINE
  5
353
330
340
100
AcDbEntity
  8
RAHM2
100
AcDbLine
 10
-192.4248711305964
 20
40.40000000000003
 30
0.0
 11
-187.5751288694036
 21
40.40000000000003
 31
0.0
  0
LINE
  5
354
330
340
100
AcDbEntity
  8
RAHM2
100
AcDbLine
 10
-187.5751288694036
 20
40.40000000000003
 30
0.0
 11
-190.0
 21
44.60000000000002
 31
0.0
  0
LINE
  5
355
330
340
100
AcDbEntity
  8
RAHM2
100
AcDbLine
 10
-192.4248711305964
 20
35.40000000000004
 30
0.0
 11
-187.5751288694036
 21
35.40000000000004
 31
0.0
  0
LINE
  5
356
330
340
100
AcDbEntity
  8
RAHM2
100
AcDbLine
 10
-187.5751288694036
 20
35.40000000000004
 30
0.0
 11
-190.0
 21
39.60000000000002
 31
0.0
  0
LINE
  5
357
330
340
100
AcDbEntity
  8
RAHM2
100
AcDbLine
 10
-190.0
 20
39.60000000000002
 30
0.0
 11
-192.4248711305964
 21
35.40000000000004
 31
0.0
  0
LINE
  5
358
330
340
100
AcDbEntity
  8
RAHM2
100
AcDbLine
 10
-190.0
 20
44.60000000000002
 30
0.0
 11
-192.4248711305964
 21
40.40000000000003
 31
0.0
  0
LINE
  5
359
330
340
100
AcDbEntity
  8
RAHM2
100
AcDbLine
 10
-190.0
 20
49.60000000000002
 30
0.0
 11
-192.4248711305964
 21
45.40000000000003
 31
0.0
  0
LINE
  5
35A
330
340
100
AcDbEntity
  8
RAHM2
100
AcDbLine
 10
-129.0
 20
50.00000000000003
 30
0.0
 11
-129.0
 21
19.99999999999994
 31
0.0
  0
MTEXT
  5
35B
330
340
100
AcDbEntity
  8
RAHM2
100
AcDbMText
 10
-157.1448171868856
 20
22.49999999999997
 30
0.0
 40
2.5
 41
45.0
 71
     5
 72
     5
  1
変更記事
 73
     1
 44
1.0
1001
ACAD
1000
MTEXTBEGIN
1070
    73
1070
     1
1070
    44
1040
1.0
1070
    74
1070
     0
1000
MTEXTEND
  0
LINE
  5
35C
330
340
100
AcDbEntity
  8
0
100
AcDbLine
 10
-34.0
 20
50.0
 30
0.0
 11
-34.0
 21
0.0
 31
0.0
  0
LINE
  5
35D
330
340
100
AcDbEntity
  8
0
100
AcDbLine
 10
-94.0
 20
50.0
 30
0.0
 11
-94.0
 21
0.0
 31
0.0
  0
MTEXT
  5
35E
330
340
100
AcDbEntity
  8
0
100
AcDbMText
 10
-64.0
 20
5.0
 30
0.0
 40
3.5
 41
60.0
 71
     5
 72
     5
  1
\fＭＳ ゴシック|b0|i0|c128|p49;株式会社タカチ電機工業
 73
     1
 44
1.0
1001
ACAD
1000
MTEXTBEGIN
1070
    73
1070
     1
1070
    44
1040
1.0
1070
    74
1070
     0
1000
MTEXTEND
  0
LINE
  5
35F
330
340
100
AcDbEntity
  8
0
100
AcDbLine
 10
-94.0
 20
10.0
 30
0.0
 11
-34.0
 21
10.0
 31
0.0
  0
ATTDEF
  5
360
330
340
100
AcDbEntity
  8
0
100
AcDbText
 10
-58.01405119799745
 20
39.25500556178349
 30
0.0
 40
3.0
  1

 72
     2
 11
-58.01405119799745
 21
39.25500556178349
 31
0.0
100
AcDbAttributeDefinition
  3
尺度
  2
GEN-TITLE-SCA
 70
     0
  0
ATTDEF
  5
361
330
340
100
AcDbEntity
  8
0
100
AcDbText
 10
-77.00284966649007
 20
30.62180787943475
 30
0.0
 40
3.0
  1

 11
-77.00284966649007
 21
30.62180787943475
 31
0.0
100
AcDbAttributeDefinition
  3
材質
  2
GEN-TITLE-MAT1
 70
     0
 74
     1
  0
ATTDEF
  5
362
330
340
100
AcDbEntity
  8
0
100
AcDbText
 10
-77.00284966649007
 20
20.62180787943475
 30
0.0
 40
3.0
  1

 11
-77.00284966649007
 21
20.62180787943475
 31
0.0
100
AcDbAttributeDefinition
  3
表面処理
  2
GEN-TITLE-MAT2
 70
     0
 74
     1
  0
ATTDEF
  5
363
330
340
100
AcDbEntity
  8
0
100
AcDbText
 10
-77.00284966649007
 20
11.61751719109475
 30
0.0
 40
3.0
  1

 11
-77.00284966649007
 21
11.61751719109475
 31
0.0
100
AcDbAttributeDefinition
  3
日付
  2
GEN-TITLE-DAT
 70
     0
 74
     1
  0
LINE
  5
364
330
340
100
AcDbEntity
  8
0
100
AcDbLine
 10
-94.0
 20
37.5
 30
0.0
 11
-34.0
 21
37.5
 31
0.0
  0
LINE
  5
365
330
340
100
AcDbEntity
  8
0
100
AcDbLine
 10
-94.0
 20
27.5
 30
0.0
 11
-34.0
 21
27.5
 31
0.0
  0
LINE
  5
366
330
340
100
AcDbEntity
  8
0
100
AcDbLine
 10
-94.0
 20
17.5
 30
0.0
 11
-34.0
 21
17.5
 31
0.0
  0
LINE
  5
367
330
340
100
AcDbEntity
  8
RAHM2
100
AcDbLine
 10
-109.0
 20
50.00000000000003
 30
0.0
 11
-109.0
 21
19.99999999999994
 31
0.0
  0
MTEXT
  5
368
330
340
100
AcDbEntity
  8
RAHM2
100
AcDbMText
 10
-119.4582894723942
 20
32.50000000000003
 30
0.0
 40
2.5
 41
20.0
 71
     5
 72
     5
  1
・  ・   
 73
     1
 44
1.0
1001
ACAD
1000
MTEXTBEGIN
1070
    73
1070
     1
1070
    44
1040
1.0
1070
    74
1070
     0
1000
MTEXTEND
  0
MTEXT
  5
369
330
340
100
AcDbEntity
  8
RAHM2
100
AcDbMText
 10
-118.738119805002
 20
22.49999999999997
 30
0.0
 40
2.5
 41
20.0
 71
     5
 72
     5
  1
年・月・日
 73
     1
 44
1.0
1001
ACAD
1000
MTEXTBEGIN
1070
    73
1070
     1
1070
    44
1040
1.0
1070
    74
1070
     0
1000
MTEXTEND
  0
MTEXT
  5
36A
330
340
100
AcDbEntity
  8
RAHM2
100
AcDbMText
 10
-101.5
 20
22.49999999999997
 30
0.0
 40
2.5
 41
15.0
 71
     5
 72
     5
  1
担当
 73
     1
 44
1.0
1001
ACAD
1000
MTEXTBEGIN
1070
    73
1070
     1
1070
    44
1040
1.0
1070
    74
1070
     0
1000
MTEXTEND
  0
MTEXT
  5
36B
330
340
100
AcDbEntity
  8
RAHM2
100
AcDbMText
 10
-119.4582894723942
 20
42.50000000000002
 30
0.0
 40
2.5
 41
20.0
 71
     5
 72
     5
  1
・  ・   
 73
     1
 44
1.0
1001
ACAD
1000
MTEXTBEGIN
1070
    73
1070
     1
1070
    44
1040
1.0
1070
    74
1070
     0
1000
MTEXTEND
  0
MTEXT
  5
36C
330
340
100
AcDbEntity
  8
RAHM2
100
AcDbMText
 10
-119.4582894723942
 20
37.50000000000003
 30
0.0
 40
2.5
 41
20.0
 71
     5
 72
     5
  1
・  ・   
 73
     1
 44
1.0
1001
ACAD
1000
MTEXTBEGIN
1070
    73
1070
     1
1070
    44
1040
1.0
1070
    74
1070
     0
1000
MTEXTEND
  0
MTEXT
  5
36D
330
340
100
AcDbEntity
  8
RAHM2
100
AcDbMText
 10
-119.4582894723942
 20
47.50000000000002
 30
0.0
 40
2.5
 41
20.0
 71
     5
 72
     5
  1
・  ・   
 73
     1
 44
1.0
1001
ACAD
1000
MTEXTBEGIN
1070
    73
1070
     1
1070
    44
1040
1.0
1070
    74
1070
     0
1000
MTEXTEND
  0
MTEXT
  5
36E
330
340
100
AcDbEntity
  8
RAHM2
100
AcDbMText
 10
-92.80025513713145
 20
16.30103540727964
 30
0.0
 40
2.5
 41
60.0
 71
     1
 72
     5
  1
日付
 73
     1
 44
1.0
1001
ACAD
1000
MTEXTBEGIN
1070
    73
1070
     1
1070
    44
1040
1.0
1070
    74
1070
     0
1000
MTEXTEND
  0
MTEXT
  5
36F
330
340
100
AcDbEntity
  8
RAHM2
100
AcDbMText
 10
-92.80025513713145
 20
26.30103540727964
 30
0.0
 40
2.5
 41
60.0
 71
     1
 72
     5
  1
表面処理
 73
     1
 44
1.0
1001
ACAD
1000
MTEXTBEGIN
1070
    73
1070
     1
1070
    44
1040
1.0
1070
    74
1070
     0
1000
MTEXTEND
  0
LINE
  5
370
330
340
100
AcDbEntity
  8
7A
100
AcDbLine
 10
-89.0
 20
43.75
 30
0.0
 11
-75.2186915997147
 21
43.75
 31
0.0
1001
GENIUS_GENOREF_13
1005
383
  0
LINE
  5
371
330
340
100
AcDbEntity
  8
0
100
AcDbLine
 10
-84.0
 20
45.75
 30
0.0
 11
-76.0
 21
46.74999999999999
 31
0.0
  0
LINE
  5
372
330
340
100
AcDbEntity
  8
0
100
AcDbLine
 10
-76.0
 20
40.75
 30
0.0
 11
-84.0
 21
41.74999999999999
 31
0.0
  0
LINE
  5
373
330
340
100
AcDbEntity
  8
7A
100
AcDbLine
 10
-89.0
 20
43.75
 30
0.0
 11
-89.0
 21
47.32478664473148
 31
0.0
1001
GENIUS_GENOREF_13
1005
383
  0
CIRCLE
  5
374
330
340
100
AcDbEntity
  8
0
100
AcDbCircle
 10
-89.0
 20
43.75
 30
0.0
 40
2.0
  0
CIRCLE
  5
375
330
340
100
AcDbEntity
  8
0
100
AcDbCircle
 10
-89.0
 20
43.75
 30
0.0
 40
3.0
  0
LINE
  5
376
330
340
100
AcDbEntity
  8
0
100
AcDbLine
 10
-84.0
 20
41.74999999999999
 30
0.0
 11
-84.0
 21
45.75
 31
0.0
  0
MTEXT
  5
377
330
340
100
AcDbEntity
  8
RAHM2
100
AcDbMText
 10
-92.80025513713145
 20
36.30103540727964
 30
0.0
 40
2.5
 41
60.0
 71
     1
 72
     5
  1
材質
 73
     1
 44
1.0
1001
ACAD
1000
MTEXTBEGIN
1070
    73
1070
     1
1070
    44
1040
1.0
1070
    74
1070
     0
1000
MTEXTEND
  0
LINE
  5
378
330
340
100
AcDbEntity
  8
7A
100
AcDbLine
 10
-89.0
 20
43.75
 30
0.0
 11
-92.72303737125117
 21
43.75
 31
0.0
1001
GENIUS_GENOREF_13
1005
383
  0
LINE
  5
379
330
340
100
AcDbEntity
  8
7A
100
AcDbLine
 10
-89.0
 20
43.75
 30
0.0
 11
-89.0
 21
40.03991724228479
 31
0.0
1001
GENIUS_GENOREF_13
1005
383
  0
LINE
  5
37A
330
340
100
AcDbEntity
  8
0
100
AcDbLine
 10
-76.0
 20
46.74999999999999
 30
0.0
 11
-76.0
 21
40.75
 31
0.0
  0
LINE
  5
37B
330
340
100
AcDbEntity
  8
0
100
AcDbLine
 10
-74.0
 20
50.0
 30
0.0
 11
-74.0
 21
37.5
 31
0.0
  0
MTEXT
  5
37C
330
340
100
AcDbEntity
  8
RAHM2
100
AcDbMText
 10
-72.80025513713145
 20
48.80103540727964
 30
0.0
 40
2.5
 41
20.0
 71
     1
 72
     5
  1
尺度
 73
     1
 44
1.0
1001
ACAD
1000
MTEXTBEGIN
1070
    73
1070
     1
1070
    44
1040
1.0
1070
    74
1070
     0
1000
MTEXTEND
  0
ATTDEF
  5
37D
330
340
100
AcDbEntity
  8
0
100
AcDbText
 10
-37.76317379391503
 20
39.25500556178349
 30
0.0
 40
3.0
  1

 72
     2
 11
-37.76317379391503
 21
39.25500556178349
 31
0.0
100
AcDbAttributeDefinition
  3
数量
  2
GEN-TITLE-QTY
 70
     0
  0
LINE
  5
37E
330
340
100
AcDbEntity
  8
0
100
AcDbLine
 10
-34.0
 20
25.0
 30
0.0
 11
0.0
 21
25.0
 31
0.0
  0
LINE
  5
37F
330
340
100
AcDbEntity
  8
0
100
AcDbLine
 10
-54.0
 20
50.0
 30
0.0
 11
-54.0
 21
37.5
 31
0.0
  0
MTEXT
  5
380
330
340
100
AcDbEntity
  8
RAHM2
100
AcDbMText
 10
-52.80025513713145
 20
48.80103540727964
 30
0.0
 40
2.5
 41
20.0
 71
     1
 72
     5
  1
数量
 73
     1
 44
1.0
1001
ACAD
1000
MTEXTBEGIN
1070
    73
1070
     1
1070
    44
1040
1.0
1070
    74
1070
     0
1000
MTEXTEND
  0
MTEXT
  5
381
330
340
100
AcDbEntity
  8
RAHM2
100
AcDbMText
 10
-25.5
 20
23.80103540727964
 30
0.0
 40
2.5
 41
17.0
 71
     2
 72
     5
  1
承認
 73
     1
 44
1.0
1001
ACAD
1000
MTEXTBEGIN
1070
    73
1070
     1
1070
    44
1040
1.0
1070
    74
1070
     0
1000
MTEXTEND
  0
MTEXT
  5
382
330
340
100
AcDbEntity
  8
RAHM2
100
AcDbMText
 10
-25.5
 20
48.80103540727964
 30
0.0
 40
2.5
 41
17.0
 71
     2
 72
     5
  1
承認
 73
     1
 44
1.0
1001
ACAD
1000
MTEXTBEGIN
1070
    73
1070
     1
1070
    44
1040
1.0
1070
    74
1070
     0
1000
MTEXTEND
  0
POINT
  5
383
330
340
100
AcDbEntity
  8
0
 60
     1
100
AcDbPoint
 10
-320.5355579819676
 20
-138.1104841268254
 30
0.0
1001
GENIUS_GENODEF_13
1002
{
1000
HIER
1070
    10
1002
}
1002
{
1000
MANEDIT
1070
     0
1002
}
1002
{
1000
NOSEL
1070
     0
1002
}
1002
{
1000
BEHIND
1070
     0
1002
}
1002
{
1000
REACTOR
1002
}
1001
GENIUS_GENOBJ-N-CRS_13
1002
{
1000
OWNER
1000
GEN
1002
}
1001
GENIUS_GENOENT_13
1002
{
1000
MYREF
1005
383
1002
}
1002
{
1000
GRP
1005
0
1002
}
1001
GENIUS_GENOLIS_13
1002
{
1000
ENT
1005
379
1005
378
1005
373
1005
370
1002
}
  0
LINE
  5
384
330
340
100
AcDbEntity
  8
RAHM2
100
AcDbLine
 10
-190.0
 20
29.60000000000002
 30
0.0
 11
-192.4248711305964
 21
25.40000000000004
 31
0.0
  0
LINE
  5
385
330
340
100
AcDbEntity
  8
RAHM2
100
AcDbLine
 10
-187.5751288694036
 20
25.40000000000004
 30
0.0
 11
-190.0
 21
29.60000000000002
 31
0.0
  0
LINE
  5
386
330
340
100
AcDbEntity
  8
RAHM2
100
AcDbLine
 10
-192.4248711305964
 20
25.40000000000004
 30
0.0
 11
-187.5751288694036
 21
25.40000000000004
 31
0.0
  0
LINE
  5
387
330
340
100
AcDbEntity
  8
RAHM2
100
AcDbLine
 10
-195.0
 20
25.00000000000003
 30
0.0
 11
-94.0
 21
25.00000000000003
 31
0.0
  0
MTEXT
  5
388
330
340
100
AcDbEntity
  8
RAHM2
100
AcDbMText
 10
-119.4582894723942
 20
27.50000000000003
 30
0.0
 40
2.5
 41
20.0
 71
     5
 72
     5
  1
・  ・   
 73
     1
 44
1.0
1001
ACAD
1000
MTEXTBEGIN
1070
    73
1070
     1
1070
    44
1040
1.0
1070
    74
1070
     0
1000
MTEXTEND
  0
TEXT
  5
389
330
340
100
AcDbEntity
  8
RAHM2
100
AcDbText
 10
-190.8155863565801
 20
25.65000000000003
 30
0.0
 40
2.5
  1
1
 72
     1
 11
-190.1905863565802
 21
25.65000000000003
 31
0.0
100
AcDbText
 73
     1
  0
TEXT
  5
38A
330
340
100
AcDbEntity
  8
RAHM2
100
AcDbText
 10
-190.9183316929134
 20
30.65000000000003
 30
0.0
 40
2.5
  1
2
 72
     1
 11
-190.0
 21
30.65000000000003
 31
0.0
100
AcDbText
 73
     1
  0
TEXT
  5
38B
330
340
100
AcDbEntity
  8
RAHM2
100
AcDbText
 10
-190.9267766952966
 20
35.65000000000001
 30
0.0
 40
2.5
  1
3
 72
     1
 11
-190.0
 21
35.65000000000001
 31
0.0
100
AcDbText
 73
     1
  0
TEXT
  5
38C
330
340
100
AcDbEntity
  8
RAHM2
100
AcDbText
 10
-191.0
 20
40.65000000000003
 30
0.0
 40
2.5
  1
4
 72
     1
 11
-190.0
 21
40.65000000000003
 31
0.0
100
AcDbText
 73
     1
  0
TEXT
  5
38D
330
340
100
AcDbEntity
  8
RAHM2
100
AcDbText
 10
-190.9267766952966
 20
45.65000000000003
 30
0.0
 40
2.5
  1
5
 72
     1
 11
-190.0
 21
45.65000000000003
 31
0.0
100
AcDbText
 73
     1
  0
LINE
  5
38E
330
340
100
AcDbEntity
  8
0
100
AcDbLine
 10
-17.0
 20
50.0
 30
0.0
 11
-17.0
 21
0.0
 31
0.0
  0
LINE
  5
38F
330
340
100
AcDbEntity
  8
0
100
AcDbLine
 10
-195.0
 20
0.0
 30
0.0
 11
0.0
 21
0.0
 31
0.0
1001
GENIUS_GENREC_14
1002
{
1000
PYDIR
1011
-184.0
1021
50.0
1031
0.0
1002
}
1002
{
1000
PXDIR
1011
0.0
1021
0.0
1031
0.0
1002
}
1002
{
1000
PORI
1011
-184.0
1021
0.0
1031
0.0
1002
}
1002
{
1000
PINS
1011
-100.5
1021
25.0
1031
0.0
1002
}
1002
{
1000
HVAL
1000
50
1002
}
1002
{
1000
H
1070
     2
1002
}
1002
{
1000
WVAL
1000
167
1002
}
1002
{
1000
W
1070
     2
1002
}
1002
{
1000
C
1070
     4
1002
}
1001
GENIUS_GENODEF_13
1002
{
1000
HIER
1070
     0
1002
}
1002
{
1000
MANEDIT
1070
     0
1002
}
1002
{
1000
NOSEL
1070
     0
1002
}
1002
{
1000
BEHIND
1070
     0
1002
}
1002
{
1000
REACTOR
1002
}
1001
GENIUS_GENOBJ-N-REC_13
1002
{
1000
OWNER
1000
GEN
1002
}
  0
LINE
  5
390
330
340
100
AcDbEntity
  8
0
100
AcDbLine
 10
0.0
 20
0.0
 30
0.0
 11
0.0
 21
50.0
 31
0.0
1001
GENIUS_GENREC_14
1002
{
1000
PYDIR
1011
-184.0
1021
50.0
1031
0.0
1002
}
1002
{
1000
PXDIR
1011
0.0
1021
0.0
1031
0.0
1002
}
1002
{
1000
PORI
1011
-184.0
1021
0.0
1031
0.0
1002
}
1002
{
1000
PINS
1011
-100.5
1021
25.0
1031
0.0
1002
}
1002
{
1000
HVAL
1000
50
1002
}
1002
{
1000
H
1070
     2
1002
}
1002
{
1000
WVAL
1000
167
1002
}
1002
{
1000
W
1070
     2
1002
}
1002
{
1000
C
1070
     4
1002
}
1001
GENIUS_GENODEF_13
1002
{
1000
HIER
1070
     0
1002
}
1002
{
1000
MANEDIT
1070
     0
1002
}
1002
{
1000
NOSEL
1070
     0
1002
}
1002
{
1000
BEHIND
1070
     0
1002
}
1002
{
1000
REACTOR
1002
}
1001
GENIUS_GENOBJ-N-REC_13
1002
{
1000
OWNER
1000
GEN
1002
}
  0
LINE
  5
391
330
340
100
AcDbEntity
  8
0
100
AcDbLine
 10
0.0
 20
50.0
 30
0.0
 11
-195.0
 21
50.00000000000003
 31
0.0
1001
GENIUS_GENREC_14
1002
{
1000
PYDIR
1011
-184.0
1021
50.0
1031
0.0
1002
}
1002
{
1000
PXDIR
1011
0.0
1021
0.0
1031
0.0
1002
}
1002
{
1000
PORI
1011
-184.0
1021
0.0
1031
0.0
1002
}
1002
{
1000
PINS
1011
-100.5
1021
25.0
1031
0.0
1002
}
1002
{
1000
HVAL
1000
50
1002
}
1002
{
1000
H
1070
     2
1002
}
1002
{
1000
WVAL
1000
167
1002
}
1002
{
1000
W
1070
     2
1002
}
1002
{
1000
C
1070
     4
1002
}
1001
GENIUS_GENODEF_13
1002
{
1000
HIER
1070
     0
1002
}
1002
{
1000
MANEDIT
1070
     0
1002
}
1002
{
1000
NOSEL
1070
     0
1002
}
1002
{
1000
BEHIND
1070
     0
1002
}
1002
{
1000
REACTOR
1002
}
1001
GENIUS_GENOBJ-N-REC_13
1002
{
1000
OWNER
1000
GEN
1002
}
  0
LINE
  5
392
330
340
100
AcDbEntity
  8
0
100
AcDbLine
 10
-195.0
 20
50.00000000000003
 30
0.0
 11
-195.0
 21
0.0
 31
0.0
1001
GENIUS_GENREC_14
1002
{
1000
PYDIR
1011
-195.0
1021
50.0
1031
0.0
1002
}
1002
{
1000
PXDIR
1011
-11.0
1021
0.0
1031
0.0
1002
}
1002
{
1000
PORI
1011
-195.0
1021
0.0
1031
0.0
1002
}
1002
{
1000
PINS
1011
-111.5
1021
25.0
1031
0.0
1002
}
1002
{
1000
HVAL
1000
50
1002
}
1002
{
1000
H
1070
     2
1002
}
1002
{
1000
WVAL
1000
167
1002
}
1002
{
1000
W
1070
     2
1002
}
1002
{
1000
C
1070
     4
1002
}
1001
GENIUS_GENODEF_13
1002
{
1000
HIER
1070
     0
1002
}
1002
{
1000
MANEDIT
1070
     0
1002
}
1002
{
1000
NOSEL
1070
     0
1002
}
1002
{
1000
BEHIND
1070
     0
1002
}
1002
{
1000
REACTOR
1002
}
1001
GENIUS_GENOBJ-N-REC_13
1002
{
1000
OWNER
1000
GEN
1002
}
  0
MTEXT
  5
393
330
340
100
AcDbEntity
  8
RAHM2
100
AcDbMText
 10
-8.5
 20
48.80103540727964
 30
0.0
 40
2.5
 41
17.0
 71
     2
 72
     5
  1
検図
 73
     1
 44
1.0
1001
ACAD
1000
MTEXTBEGIN
1070
    73
1070
     1
1070
    44
1040
1.0
1070
    74
1070
     0
1000
MTEXTEND
  0
MTEXT
  5
394
330
340
100
AcDbEntity
  8
RAHM2
100
AcDbMText
 10
-8.5
 20
23.80103540727964
 30
0.0
 40
2.5
 41
17.0
 71
     2
 72
     5
  1
製図
 73
     1
 44
1.0
1001
ACAD
1000
MTEXTBEGIN
1070
    73
1070
     1
1070
    44
1040
1.0
1070
    74
1070
     0
1000
MTEXTEND
  0
ENDBLK
  5
397
330
340
100
AcDbEntity
  8
0
100
AcDbBlockEnd
  0
BLOCK
  5
1A6C
330
1A62
100
AcDbEntity
  8
0
100
AcDbBlockBegin
  2
*D6
 70
     1
 10
0.0
 20
0.0
 30
0.0
  3
*D6
  1

  0
LINE
  5
2417
330
1A62
100
AcDbEntity
  8
AM_5
100
AcDbLine
 10
213.5606136665717
 20
261.409592768153
 30
0.0
 11
213.5606136665717
 21
285.6595937681529
 31
0.0
  0
LINE
  5
2418
330
1A62
100
AcDbEntity
  8
AM_5
100
AcDbLine
 10
271.5606136665719
 20
239.109592768153
 30
0.0
 11
271.5606136665719
 21
285.6595937681529
 31
0.0
  0
LINE
  5
2419
330
1A62
100
AcDbEntity
  8
AM_5
100
AcDbLine
 10
218.5606136665717
 20
283.6595937681529
 30
0.0
 11
266.5606136665719
 21
283.6595937681529
 31
0.0
  0
SOLID
  5
241A
330
1A62
100
AcDbEntity
  8
AM_5
100
AcDbTrace
 10
218.5606136665717
 20
284.4929271014862
 30
0.0
 11
218.5606136665717
 21
282.8262604348196
 31
0.0
 12
213.5606136665717
 22
283.6595937681529
 32
0.0
 13
213.5606136665717
 23
283.6595937681529
 33
0.0
  0
SOLID
  5
241B
330
1A62
100
AcDbEntity
  8
AM_5
100
AcDbTrace
 10
266.5606136665719
 20
284.4929271014862
 30
0.0
 11
266.5606136665719
 21
282.8262604348196
 31
0.0
 12
271.5606136665719
 22
283.6595937681529
 32
0.0
 13
271.5606136665719
 23
283.6595937681529
 33
0.0
  0
MTEXT
  5
241C
330
1A62
100
AcDbEntity
  8
AM_5
 62
     2
100
AcDbMText
 10
242.5606136665718
 20
290.159593768153
 30
0.0
 40
7.0
 41
0.0
 71
     5
 72
     1
  1
58
 73
     1
 44
1.0
1001
ACAD
1000
MTEXTBEGIN
1070
    73
1070
     1
1070
    44
1040
1.0
1070
    74
1070
     0
1000
MTEXTEND
  0
POINT
  5
241D
330
1A62
100
AcDbEntity
  8
Defpoints
 62
     0
100
AcDbPoint
 10
213.5606136665717
 20
259.409592768153
 30
0.0
  0
POINT
  5
241E
330
1A62
100
AcDbEntity
  8
Defpoints
 62
     0
100
AcDbPoint
 10
271.5606136665719
 20
237.109592768153
 30
0.0
  0
POINT
  5
241F
330
1A62
100
AcDbEntity
  8
Defpoints
 62
     0
100
AcDbPoint
 10
271.5606136665719
 20
283.6595937681529
 30
0.0
  0
ENDBLK
  5
1A6D
330
1A62
100
AcDbEntity
  8
0
100
AcDbBlockEnd
  0
BLOCK
  5
1A78
330
1A6E
100
AcDbEntity
  8
0
100
AcDbBlockBegin
  2
*D7
 70
     1
 10
0.0
 20
0.0
 30
0.0
  3
*D7
  1

  0
LINE
  5
243B
330
1A6E
100
AcDbEntity
  8
AM_5
100
AcDbLine
 10
364.8790232457432
 20
261.6595927681532
 30
0.0
 11
364.8790232457432
 21
285.6595927681526
 31
0.0
  0
LINE
  5
243C
330
1A6E
100
AcDbEntity
  8
AM_5
100
AcDbLine
 10
435.8790232457434
 20
261.659592768152
 30
0.0
 11
435.8790232457434
 21
285.6595927681526
 31
0.0
  0
LINE
  5
243D
330
1A6E
100
AcDbEntity
  8
AM_5
100
AcDbLine
 10
369.8790232457432
 20
283.6595927681526
 30
0.0
 11
430.8790232457434
 21
283.6595927681526
 31
0.0
  0
SOLID
  5
243E
330
1A6E
100
AcDbEntity
  8
AM_5
100
AcDbTrace
 10
369.8790232457432
 20
284.4929261014859
 30
0.0
 11
369.8790232457432
 21
282.8262594348193
 31
0.0
 12
364.8790232457432
 22
283.6595927681526
 32
0.0
 13
364.8790232457432
 23
283.6595927681526
 33
0.0
  0
SOLID
  5
243F
330
1A6E
100
AcDbEntity
  8
AM_5
100
AcDbTrace
 10
430.8790232457434
 20
284.4929261014859
 30
0.0
 11
430.8790232457434
 21
282.8262594348193
 31
0.0
 12
435.8790232457434
 22
283.6595927681526
 32
0.0
 13
435.8790232457434
 23
283.6595927681526
 33
0.0
  0
MTEXT
  5
2440
330
1A6E
100
AcDbEntity
  8
AM_5
 62
     2
100
AcDbMText
 10
400.3790232457433
 20
290.1595927681526
 30
0.0
 40
7.0
 41
0.0
 71
     5
 72
     1
  1
71
 73
     1
 44
1.0
1001
ACAD
1000
MTEXTBEGIN
1070
    73
1070
     1
1070
    44
1040
1.0
1070
    74
1070
     0
1000
MTEXTEND
  0
POINT
  5
2441
330
1A6E
100
AcDbEntity
  8
Defpoints
 62
     0
100
AcDbPoint
 10
364.8790232457432
 20
259.6595927681532
 30
0.0
  0
POINT
  5
2442
330
1A6E
100
AcDbEntity
  8
Defpoints
 62
     0
100
AcDbPoint
 10
435.8790232457434
 20
259.659592768152
 30
0.0
  0
POINT
  5
2443
330
1A6E
100
AcDbEntity
  8
Defpoints
 62
     0
100
AcDbPoint
 10
435.8790232457434
 20
283.6595927681526
 30
0.0
  0
ENDBLK
  5
1A79
330
1A6E
100
AcDbEntity
  8
0
100
AcDbBlockEnd
  0
BLOCK
  5
1A84
330
1A7A
100
AcDbEntity
  8
0
100
AcDbBlockBegin
  2
*D8
 70
     1
 10
0.0
 20
0.0
 30
0.0
  3
*D8
  1

  0
LINE
  5
2420
330
1A7A
100
AcDbEntity
  8
AM_5
100
AcDbLine
 10
211.5606136665719
 20
169.809592768153
 30
0.0
 11
187.5606126665717
 21
169.809592768153
 31
0.0
  0
LINE
  5
2421
330
1A7A
100
AcDbEntity
  8
AM_5
100
AcDbLine
 10
211.5606136665718
 20
259.4095927681529
 30
0.0
 11
187.5606126665717
 21
259.4095927681529
 31
0.0
  0
LINE
  5
2422
330
1A7A
100
AcDbEntity
  8
AM_5
100
AcDbLine
 10
189.5606126665717
 20
174.809592768153
 30
0.0
 11
189.5606126665717
 21
254.4095927681529
 31
0.0
  0
SOLID
  5
2423
330
1A7A
100
AcDbEntity
  8
AM_5
100
AcDbTrace
 10
188.7272793332383
 20
174.809592768153
 30
0.0
 11
190.393945999905
 21
174.809592768153
 31
0.0
 12
189.5606126665717
 22
169.809592768153
 32
0.0
 13
189.5606126665717
 23
169.809592768153
 33
0.0
  0
SOLID
  5
2424
330
1A7A
100
AcDbEntity
  8
AM_5
100
AcDbTrace
 10
188.7272793332384
 20
254.4095927681529
 30
0.0
 11
190.393945999905
 21
254.4095927681529
 31
0.0
 12
189.5606126665717
 22
259.4095927681529
 32
0.0
 13
189.5606126665717
 23
259.4095927681529
 33
0.0
  0
MTEXT
  5
2425
330
1A7A
100
AcDbEntity
  8
AM_5
 62
     2
100
AcDbMText
 10
183.0606126665717
 20
214.609592768153
 30
0.0
 40
7.0
 41
0.0
 71
     5
 72
     1
  1
89.6
 11
0.0000000000000001
 21
1.0
 31
0.0
 73
     1
 44
1.0
1001
ACAD
1000
MTEXTBEGIN
1070
    73
1070
     1
1070
    44
1040
1.0
1070
    74
1070
     0
1000
MTEXTEND
  0
POINT
  5
2426
330
1A7A
100
AcDbEntity
  8
Defpoints
 62
     0
100
AcDbPoint
 10
213.5606136665719
 20
169.809592768153
 30
0.0
  0
POINT
  5
2427
330
1A7A
100
AcDbEntity
  8
Defpoints
 62
     0
100
AcDbPoint
 10
213.5606136665718
 20
259.4095927681529
 30
0.0
  0
POINT
  5
2428
330
1A7A
100
AcDbEntity
  8
Defpoints
 62
     0
100
AcDbPoint
 10
189.5606126665717
 20
259.4095927681529
 30
0.0
  0
ENDBLK
  5
1A85
330
1A7A
100
AcDbEntity
  8
0
100
AcDbBlockEnd
  0
BLOCK
  5
1AE7
330
1ADE
100
AcDbEntity
  8
0
100
AcDbBlockBegin
  2
TK-A3
 70
     0
 10
0.0
 20
0.0
 30
0.0
  3
TK-A3
  1

  0
LINE
  5
1ADF
330
1ADE
100
AcDbEntity
  8
0
100
AcDbLine
 10
359.0
 20
280.0
 30
0.0
 11
359.0
 21
275.0
 31
0.0
  0
MTEXT
  5
1AE0
330
1ADE
100
AcDbEntity
  8
0
100
AcDbMText
 10
402.3592953827349
 20
276.108542987227
 30
0.0
 40
2.5
 41
43.07840397728298
 71
     9
 72
     5
  1
(文書番号：TY-34)2008.02.08
 73
     1
 44
1.0
1001
ACAD
1000
MTEXTBEGIN
1070
    73
1070
     1
1070
    44
1040
1.0
1070
    74
1070
     0
1000
MTEXTEND
  0
LINE
  5
1AE1
330
1ADE
100
AcDbEntity
  8
0
100
AcDbLine
 10
359.0
 20
275.0
 30
0.0
 11
403.0
 21
275.0
 31
0.0
  0
TEXT
  5
1AE2
330
1ADE
100
AcDbEntity
  8
0
 60
     1
100
AcDbText
 10
403.0
 20
0.0
 30
0.0
 40
2.5
  1
!GENTITLE-INSERT
100
AcDbText
  0
TEXT
  5
1AE3
330
1ADE
100
AcDbEntity
  8
0
 60
     1
100
AcDbText
 10
0.0
 20
0.0
 30
0.0
 40
2.5
  1
!GENTITLE-LL
100
AcDbText
  0
TEXT
  5
1AE4
330
1ADE
100
AcDbEntity
  8
0
 60
     1
100
AcDbText
 10
403.0
 20
280.0
 30
0.0
 40
2.5
  1
!GENTITLE-MAX
100
AcDbText
  0
LWPOLYLINE
  5
1AE5
330
1ADE
100
AcDbEntity
  8
0
100
AcDbPolyline
 90
        4
 70
     1
 43
0.0
 10
0.0
 20
0.0
 10
403.0
 20
0.0
 10
403.0
 20
280.0
 10
0.0
 20
280.0000000000001
1001
GENIUS_GENREC_14
1002
{
1000
PYDIR
1011
0.0000000000000178
1021
280.0
1031
0.0
1002
}
1002
{
1000
PXDIR
1011
403.0
1021
0.0
1031
0.0
1002
}
1002
{
1000
PORI
1011
0.0
1021
0.0
1031
0.0
1002
}
1002
{
1000
PINS
1011
0.0
1021
0.0
1031
0.0
1002
}
1002
{
1000
PINS2
1011
403.0
1021
280.0
1031
0.0
1002
}
1002
{
1000
C
1070
     1
1002
}
1001
GENIUS_GENODEF_13
1002
{
1000
HIER
1070
     0
1002
}
1002
{
1000
MANEDIT
1070
     0
1002
}
1002
{
1000
NOSEL
1070
     0
1002
}
1002
{
1000
BEHIND
1070
     0
1002
}
1002
{
1000
OTHER
1070
     0
1002
}
1002
{
1000
REACTOR
1002
}
1001
GENIUS_GENOBJ-N-REC_13
1002
{
1000
OWNER
1000
GEN
1002
}
  0
ENDBLK
  5
1AE8
330
1ADE
100
AcDbEntity
  8
0
100
AcDbBlockEnd
  0
BLOCK
  5
1B46
330
1AEC
100
AcDbEntity
  8
0
100
AcDbBlockBegin
  2
TK-TITLE
 70
     2
 10
0.0
 20
0.0
 30
0.0
  3
TK-TITLE
  1

  0
LINE
  5
1AED
330
1AEC
100
AcDbEntity
  8
0
100
AcDbLine
 10
-167.0
 20
12.49999999999996
 30
0.0
 11
-193.0000000000001
 21
12.49999999999996
 31
0.0
  0
LINE
  5
1AEE
330
1AEC
100
AcDbEntity
  8
0
100
AcDbLine
 10
-167.0
 20
37.49999999999998
 30
0.0
 11
-193.0000000000001
 21
37.49999999999998
 31
0.0
  0
ATTDEF
  5
1AEF
330
1AEC
100
AcDbEntity
  8
0
100
AcDbText
 10
-180.2171951662138
 20
3.588342537610664
 30
0.0
 40
3.0
  1

 72
     1
 11
-180.2171951662138
 21
3.588342537610664
 31
0.0
100
AcDbAttributeDefinition
  3
日付
  2
GEN-TITLE-DAT
 70
     0
 74
     1
  0
MTEXT
  5
1AF0
330
1AEC
100
AcDbEntity
  8
RAHM2
100
AcDbMText
 10
-191.8002551371315
 20
11.3010354072796
 30
0.0
 40
2.5
 41
60.0
 71
     1
 72
     5
  1
日付
 73
     1
 44
1.0
1001
ACAD
1000
MTEXTBEGIN
1070
    73
1070
     1
1070
    44
1040
1.0
1070
    74
1070
     0
1000
MTEXTEND
  0
ATTDEF
  5
1AF1
330
1AEC
100
AcDbEntity
  8
0
100
AcDbText
 10
-177.824739614424
 20
28.29999999999998
 30
0.0
 40
3.0
  1

 72
     2
 11
-177.824739614424
 21
28.29999999999998
 31
0.0
100
AcDbAttributeDefinition
  3
尺度
  2
GEN-TITLE-SCA
 70
     0
 74
     1
  0
MTEXT
  5
1AF2
330
1AEC
100
AcDbEntity
  8
RAHM2
100
AcDbMText
 10
-191.8002551371315
 20
36.30103540727966
 30
0.0
 40
2.5
 41
20.0
 71
     1
 72
     5
  1
尺度
 73
     1
 44
1.0
1001
ACAD
1000
MTEXTBEGIN
1070
    73
1070
     1
1070
    44
1040
1.0
1070
    74
1070
     0
1000
MTEXTEND
  0
MTEXT
  5
1AF3
330
1AEC
100
AcDbEntity
  8
RAHM2
100
AcDbMText
 10
-191.8002551371315
 20
23.80103540727963
 30
0.0
 40
2.5
 41
20.0
 71
     1
 72
     5
  1
数量
 73
     1
 44
1.0
1001
ACAD
1000
MTEXTBEGIN
1070
    73
1070
     1
1070
    44
1040
1.0
1070
    74
1070
     0
1000
MTEXTEND
  0
ATTDEF
  5
1AF4
330
1AEC
100
AcDbEntity
  8
0
100
AcDbText
 10
-175.6127409126095
 20
15.79999999999994
 30
0.0
 40
3.0
  1

 72
     2
 11
-175.6127409126095
 21
15.79999999999994
 31
0.0
100
AcDbAttributeDefinition
  3
数量
  2
GEN-TITLE-QTY
 70
     0
 74
     1
  0
LINE
  5
1AF5
330
1AEC
100
AcDbEntity
  8
0
100
AcDbLine
 10
-193.0000000000001
 20
49.99999999999999
 30
0.0
 11
-193.0000000000001
 21
-0.0000000000000142
 31
0.0
  0
LINE
  5
1AF6
330
1AEC
100
AcDbEntity
  8
7A
100
AcDbLine
 10
-184.7167418745796
 20
43.74999999999995
 30
0.0
 11
-170.9354334742943
 21
43.74999999999995
 31
0.0
1001
GENIUS_GENOREF_13
1005
1B44
  0
LINE
  5
1AF7
330
1AEC
100
AcDbEntity
  8
0
100
AcDbLine
 10
-179.7167418745796
 20
45.74999999999994
 30
0.0
 11
-171.7167418745796
 21
46.74999999999995
 31
0.0
  0
LINE
  5
1AF8
330
1AEC
100
AcDbEntity
  8
0
100
AcDbLine
 10
-171.7167418745796
 20
40.74999999999994
 30
0.0
 11
-179.7167418745796
 21
41.74999999999995
 31
0.0
  0
LINE
  5
1AF9
330
1AEC
100
AcDbEntity
  8
7A
100
AcDbLine
 10
-184.7167418745796
 20
43.74999999999995
 30
0.0
 11
-184.7167418745796
 21
47.32478664473144
 31
0.0
1001
GENIUS_GENOREF_13
1005
1B44
  0
CIRCLE
  5
1AFA
330
1AEC
100
AcDbEntity
  8
0
100
AcDbCircle
 10
-184.7167418745796
 20
43.74999999999995
 30
0.0
 40
2.0
  0
CIRCLE
  5
1AFB
330
1AEC
100
AcDbEntity
  8
0
100
AcDbCircle
 10
-184.7167418745796
 20
43.74999999999995
 30
0.0
 40
3.0
  0
LINE
  5
1AFC
330
1AEC
100
AcDbEntity
  8
0
100
AcDbLine
 10
-179.7167418745796
 20
41.74999999999995
 30
0.0
 11
-179.7167418745796
 21
45.74999999999994
 31
0.0
  0
LINE
  5
1AFD
330
1AEC
100
AcDbEntity
  8
7A
100
AcDbLine
 10
-184.7167418745796
 20
43.74999999999995
 30
0.0
 11
-188.4397792458307
 21
43.74999999999995
 31
0.0
1001
GENIUS_GENOREF_13
1005
1B44
  0
LINE
  5
1AFE
330
1AEC
100
AcDbEntity
  8
7A
100
AcDbLine
 10
-184.7167418745796
 20
43.74999999999995
 30
0.0
 11
-184.7167418745796
 21
40.03991724228473
 31
0.0
1001
GENIUS_GENOREF_13
1005
1B44
  0
LINE
  5
1AFF
330
1AEC
100
AcDbEntity
  8
0
100
AcDbLine
 10
-171.7167418745796
 20
46.74999999999995
 30
0.0
 11
-171.7167418745796
 21
40.74999999999994
 31
0.0
  0
LINE
  5
1B00
330
1AEC
100
AcDbEntity
  8
0
100
AcDbLine
 10
-167.0
 20
24.99999999999997
 30
0.0
 11
-193.0000000000001
 21
24.99999999999997
 31
0.0
  0
LINE
  5
1B01
330
1AEC
100
AcDbEntity
  8
0
100
AcDbLine
 10
-167.0
 20
39.99999999999991
 30
0.0
 11
-96.0
 21
39.99999999999992
 31
0.0
  0
MTEXT
  5
1B02
330
1AEC
100
AcDbEntity
  8
RAHM2
100
AcDbMText
 10
-165.8002551371314
 20
38.80103540727956
 30
0.0
 40
2.5
 41
60.0
 71
     1
 72
     5
  1
表面処理
 73
     1
 44
1.0
1001
ACAD
1000
MTEXTBEGIN
1070
    73
1070
     1
1070
    44
1040
1.0
1070
    74
1070
     0
1000
MTEXTEND
  0
MTEXT
  5
1B03
330
1AEC
100
AcDbEntity
  8
RAHM2
100
AcDbMText
 10
-165.8002551371314
 20
48.80103540727955
 30
0.0
 40
2.5
 41
60.0
 71
     1
 72
     5
  1
材質
 73
     1
 44
1.0
1001
ACAD
1000
MTEXTBEGIN
1070
    73
1070
     1
1070
    44
1040
1.0
1070
    74
1070
     0
1000
MTEXTEND
  0
ATTDEF
  5
1B04
330
1AEC
100
AcDbEntity
  8
0
100
AcDbText
 10
-148.9618675835291
 20
33.29999999999991
 30
0.0
 40
3.0
  1

100
AcDbAttributeDefinition
  3
表面処理
  2
GEN-TITLE-MAT2
 70
     0
  0
ATTDEF
  5
1B05
330
1AEC
100
AcDbEntity
  8
0
100
AcDbText
 10
-148.9618675835291
 20
43.29999999999991
 30
0.0
 40
3.0
  1

100
AcDbAttributeDefinition
  3
材質
  2
GEN-TITLE-MAT1
 70
     0
  0
MTEXT
  5
1B06
330
1AEC
100
AcDbEntity
  8
0
100
AcDbMText
 10
-131.5000000000001
 20
24.99999999999992
 30
0.0
 40
3.5
 41
60.0
 71
     5
 72
     5
  1
\fＭＳ ゴシック|b0|i0|c128|p49;株式会社タカチ電機工業
 73
     1
 44
1.0
1001
ACAD
1000
MTEXTBEGIN
1070
    73
1070
     1
1070
    44
1040
1.0
1070
    74
1070
     0
1000
MTEXTEND
  0
LINE
  5
1B07
330
1AEC
100
AcDbEntity
  8
0
100
AcDbLine
 10
-167.0
 20
29.99999999999992
 30
0.0
 11
-96.0
 21
29.99999999999992
 31
0.0
  0
MTEXT
  5
1B08
330
1AEC
100
AcDbEntity
  8
RAHM2
100
AcDbMText
 10
-158.1250000000001
 20
18.80103540727956
 30
0.0
 40
2.5
 41
17.0
 71
     2
 72
     5
  1
承認
 73
     1
 44
1.0
1001
ACAD
1000
MTEXTBEGIN
1070
    73
1070
     1
1070
    44
1040
1.0
1070
    74
1070
     0
1000
MTEXTEND
  0
MTEXT
  5
1B09
330
1AEC
100
AcDbEntity
  8
RAHM2
100
AcDbMText
 10
-140.3750000000001
 20
18.80103540727958
 30
0.0
 40
2.5
 41
17.0
 71
     2
 72
     5
  1
承認
 73
     1
 44
1.0
1001
ACAD
1000
MTEXTBEGIN
1070
    73
1070
     1
1070
    44
1040
1.0
1070
    74
1070
     0
1000
MTEXTEND
  0
LINE
  5
1B0A
330
1AEC
100
AcDbEntity
  8
0
100
AcDbLine
 10
-149.2500000000001
 20
19.99999999999993
 30
0.0
 11
-149.2500000000001
 21
-0.0000000000000462
 31
0.0
  0
LINE
  5
1B0B
330
1AEC
100
AcDbEntity
  8
0
100
AcDbLine
 10
-167.0
 20
49.99999999999995
 30
0.0
 11
-167.0
 21
-0.0000000000000497
 31
0.0
  0
MTEXT
  5
1B0C
330
1AEC
100
AcDbEntity
  8
RAHM2
100
AcDbMText
 10
-122.6250000000001
 20
18.80103540727958
 30
0.0
 40
2.5
 41
17.0
 71
     2
 72
     5
  1
検図
 73
     1
 44
1.0
1001
ACAD
1000
MTEXTBEGIN
1070
    73
1070
     1
1070
    44
1040
1.0
1070
    74
1070
     0
1000
MTEXTEND
  0
LINE
  5
1B0D
330
1AEC
100
AcDbEntity
  8
0
100
AcDbLine
 10
-131.5000000000001
 20
19.99999999999993
 30
0.0
 11
-131.5000000000001
 21
-0.0000000000000533
 31
0.0
  0
LINE
  5
1B0E
330
1AEC
100
AcDbEntity
  8
0
100
AcDbLine
 10
-113.75
 20
19.99999999999993
 30
0.0
 11
-113.75
 21
-0.0000000000000533
 31
0.0
  0
LINE
  5
1B0F
330
1AEC
100
AcDbEntity
  8
0
100
AcDbLine
 10
-167.0
 20
19.99999999999993
 30
0.0
 11
-96.0
 21
19.99999999999993
 31
0.0
  0
MTEXT
  5
1B10
330
1AEC
100
AcDbEntity
  8
RAHM2
100
AcDbMText
 10
-104.875
 20
18.80103540727957
 30
0.0
 40
2.5
 41
17.0
 71
     2
 72
     5
  1
製図
 73
     1
 44
1.0
1001
ACAD
1000
MTEXTBEGIN
1070
    73
1070
     1
1070
    44
1040
1.0
1070
    74
1070
     0
1000
MTEXTEND
  0
MTEXT
  5
1B11
330
1AEC
100
AcDbEntity
  8
RAHM2
100
AcDbMText
 10
-16.85742592933491
 20
3.434762466565985
 30
0.0
 40
2.5
 41
7.936478436748416
 71
     5
 72
     5
  1
Rev.
 73
     1
 44
1.0
1001
ACAD
1000
MTEXTBEGIN
1070
    73
1070
     1
1070
    44
1040
1.0
1070
    74
1070
     0
1000
MTEXTEND
  0
LINE
  5
1B12
330
1AEC
100
AcDbEntity
  8
0
100
AcDbLine
 10
-21.17541926625711
 20
0.0
 30
0.0
 11
-21.17541926625734
 21
7.0
 31
0.0
  0
LINE
  5
1B13
330
1AEC
100
AcDbEntity
  8
RAHM2
100
AcDbLine
 10
-96.0
 20
29.99999999999992
 30
0.0
 11
0.0000000000001137
 21
30.00000000000003
 31
0.0
  0
LINE
  5
1B14
330
1AEC
100
AcDbEntity
  8
RAHM2
100
AcDbLine
 10
-96.0
 20
35.00000000000003
 30
0.0
 11
0.0000000000001137
 21
35.00000000000003
 31
0.0
  0
LINE
  5
1B15
330
1AEC
100
AcDbEntity
  8
RAHM2
100
AcDbLine
 10
-96.0
 20
39.99999999999993
 30
0.0
 11
0.0000000000001137
 21
40.00000000000002
 31
0.0
  0
LINE
  5
1B16
330
1AEC
100
AcDbEntity
  8
RAHM2
100
AcDbLine
 10
-96.0
 20
45.00000000000002
 30
0.0
 11
0.0000000000001137
 21
45.00000000000002
 31
0.0
  0
LINE
  5
1B17
330
1AEC
100
AcDbEntity
  8
0
100
AcDbLine
 10
-96.0
 20
7.0
 30
0.0
 11
0.0000000000001137
 21
7.0
 31
0.0
  0
LINE
  5
1B18
330
1AEC
100
AcDbEntity
  8
0
100
AcDbLine
 10
-96.0
 20
19.99999999999997
 30
0.0
 11
0.0000000000001137
 21
19.99999999999997
 31
0.0
  0
MTEXT
  5
1B19
330
1AEC
100
AcDbEntity
  8
RAHM2
100
AcDbMText
 10
-94.80025513713144
 20
5.801035407279627
 30
0.0
 40
2.5
 41
90.0
 71
     1
 72
     5
  1
図番
 73
     1
 44
1.0
1001
ACAD
1000
MTEXTBEGIN
1070
    73
1070
     1
1070
    44
1040
1.0
1070
    74
1070
     0
1000
MTEXTEND
  0
LINE
  5
1B1A
330
1AEC
100
AcDbEntity
  8
RAHM2
100
AcDbLine
 10
-88.57512886940355
 20
30.40000000000002
 30
0.0
 11
-91.0
 21
34.60000000000001
 31
0.0
  0
LINE
  5
1B1B
330
1AEC
100
AcDbEntity
  8
RAHM2
100
AcDbLine
 10
-91.0
 20
34.60000000000001
 30
0.0
 11
-93.42487113059645
 21
30.40000000000002
 31
0.0
  0
LINE
  5
1B1C
330
1AEC
100
AcDbEntity
  8
RAHM2
100
AcDbLine
 10
-86.0
 20
50.00000000000001
 30
0.0
 11
-86.0
 21
19.99999999999993
 31
0.0
  0
LINE
  5
1B1D
330
1AEC
100
AcDbEntity
  8
RAHM2
100
AcDbLine
 10
-93.42487113059645
 20
30.40000000000002
 30
0.0
 11
-88.57512886940355
 21
30.40000000000002
 31
0.0
  0
MTEXT
  5
1B1E
330
1AEC
100
AcDbEntity
  8
RAHM2
100
AcDbMText
 10
-91.0
 20
22.49999999999996
 30
0.0
 40
2.5
 41
10.0
 71
     5
 72
     5
  1
符号
 73
     1
 44
1.0
1001
ACAD
1000
MTEXTBEGIN
1070
    73
1070
     1
1070
    44
1040
1.0
1070
    74
1070
     0
1000
MTEXTEND
  0
MTEXT
  5
1B1F
330
1AEC
100
AcDbEntity
  8
RAHM2
100
AcDbMText
 10
-94.80025513713144
 20
18.8010354072796
 30
0.0
 40
2.5
 41
90.0
 71
     1
 72
     5
  1
品名
 73
     1
 44
1.0
1001
ACAD
1000
MTEXTBEGIN
1070
    73
1070
     1
1070
    44
1040
1.0
1070
    74
1070
     0
1000
MTEXTEND
  0
LINE
  5
1B20
330
1AEC
100
AcDbEntity
  8
RAHM2
100
AcDbLine
 10
-93.42487113059645
 20
45.40000000000001
 30
0.0
 11
-88.57512886940355
 21
45.40000000000001
 31
0.0
  0
LINE
  5
1B21
330
1AEC
100
AcDbEntity
  8
RAHM2
100
AcDbLine
 10
-88.57512886940355
 20
45.40000000000001
 30
0.0
 11
-91.0
 21
49.6
 31
0.0
  0
LINE
  5
1B22
330
1AEC
100
AcDbEntity
  8
RAHM2
100
AcDbLine
 10
-93.42487113059645
 20
40.40000000000001
 30
0.0
 11
-88.57512886940355
 21
40.40000000000001
 31
0.0
  0
LINE
  5
1B23
330
1AEC
100
AcDbEntity
  8
RAHM2
100
AcDbLine
 10
-88.57512886940355
 20
40.40000000000001
 30
0.0
 11
-91.0
 21
44.6
 31
0.0
  0
LINE
  5
1B24
330
1AEC
100
AcDbEntity
  8
RAHM2
100
AcDbLine
 10
-93.42487113059645
 20
35.40000000000002
 30
0.0
 11
-88.57512886940355
 21
35.40000000000002
 31
0.0
  0
LINE
  5
1B25
330
1AEC
100
AcDbEntity
  8
RAHM2
100
AcDbLine
 10
-88.57512886940355
 20
35.40000000000002
 30
0.0
 11
-91.0
 21
39.60000000000001
 31
0.0
  0
LINE
  5
1B26
330
1AEC
100
AcDbEntity
  8
RAHM2
100
AcDbLine
 10
-91.0
 20
39.60000000000001
 30
0.0
 11
-93.42487113059645
 21
35.40000000000002
 31
0.0
  0
LINE
  5
1B27
330
1AEC
100
AcDbEntity
  8
RAHM2
100
AcDbLine
 10
-91.0
 20
44.6
 30
0.0
 11
-93.42487113059645
 21
40.40000000000001
 31
0.0
  0
LINE
  5
1B28
330
1AEC
100
AcDbEntity
  8
RAHM2
100
AcDbLine
 10
-91.0
 20
49.6
 30
0.0
 11
-93.42487113059645
 21
45.40000000000001
 31
0.0
  0
LINE
  5
1B29
330
1AEC
100
AcDbEntity
  8
RAHM2
100
AcDbLine
 10
-31.82081941068907
 20
50.00000000000003
 30
0.0
 11
-31.82081941068918
 21
19.99999999999994
 31
0.0
  0
MTEXT
  5
1B2A
330
1AEC
100
AcDbEntity
  8
RAHM2
100
AcDbMText
 10
-59.0
 20
22.49999999999996
 30
0.0
 40
2.5
 41
45.0
 71
     5
 72
     5
  1
変更記事
 73
     1
 44
1.0
1001
ACAD
1000
MTEXTBEGIN
1070
    73
1070
     1
1070
    44
1040
1.0
1070
    74
1070
     0
1000
MTEXTEND
  0
LINE
  5
1B2B
330
1AEC
100
AcDbEntity
  8
RAHM2
100
AcDbLine
 10
-11.82081941068907
 20
50.00000000000003
 30
0.0
 11
-11.82081941068907
 21
19.99999999999994
 31
0.0
  0
MTEXT
  5
1B2C
330
1AEC
100
AcDbEntity
  8
RAHM2
100
AcDbMText
 10
-22.27910888308327
 20
32.50000000000003
 30
0.0
 40
2.5
 41
20.0
 71
     5
 72
     5
  1
・  ・   
 73
     1
 44
1.0
1001
ACAD
1000
MTEXTBEGIN
1070
    73
1070
     1
1070
    44
1040
1.0
1070
    74
1070
     0
1000
MTEXTEND
  0
MTEXT
  5
1B2D
330
1AEC
100
AcDbEntity
  8
RAHM2
100
AcDbMText
 10
-21.55893921569111
 20
22.49999999999997
 30
0.0
 40
2.5
 41
20.0
 71
     5
 72
     5
  1
年・月・日
 73
     1
 44
1.0
1001
ACAD
1000
MTEXTBEGIN
1070
    73
1070
     1
1070
    44
1040
1.0
1070
    74
1070
     0
1000
MTEXTEND
  0
MTEXT
  5
1B2E
330
1AEC
100
AcDbEntity
  8
RAHM2
100
AcDbMText
 10
-5.910409705344477
 20
22.49999999999997
 30
0.0
 40
2.5
 41
15.0
 71
     5
 72
     5
  1
担当
 73
     1
 44
1.0
1001
ACAD
1000
MTEXTBEGIN
1070
    73
1070
     1
1070
    44
1040
1.0
1070
    74
1070
     0
1000
MTEXTEND
  0
MTEXT
  5
1B2F
330
1AEC
100
AcDbEntity
  8
RAHM2
100
AcDbMText
 10
-22.27910888308327
 20
42.50000000000002
 30
0.0
 40
2.5
 41
20.0
 71
     5
 72
     5
  1
・  ・   
 73
     1
 44
1.0
1001
ACAD
1000
MTEXTBEGIN
1070
    73
1070
     1
1070
    44
1040
1.0
1070
    74
1070
     0
1000
MTEXTEND
  0
MTEXT
  5
1B30
330
1AEC
100
AcDbEntity
  8
RAHM2
100
AcDbMText
 10
-22.27910888308327
 20
37.50000000000003
 30
0.0
 40
2.5
 41
20.0
 71
     5
 72
     5
  1
・  ・   
 73
     1
 44
1.0
1001
ACAD
1000
MTEXTBEGIN
1070
    73
1070
     1
1070
    44
1040
1.0
1070
    74
1070
     0
1000
MTEXTEND
  0
MTEXT
  5
1B31
330
1AEC
100
AcDbEntity
  8
RAHM2
100
AcDbMText
 10
-22.27910888308327
 20
47.50000000000002
 30
0.0
 40
2.5
 41
20.0
 71
     5
 72
     5
  1
・  ・   
 73
     1
 44
1.0
1001
ACAD
1000
MTEXTBEGIN
1070
    73
1070
     1
1070
    44
1040
1.0
1070
    74
1070
     0
1000
MTEXTEND
  0
LINE
  5
1B32
330
1AEC
100
AcDbEntity
  8
RAHM2
100
AcDbLine
 10
-91.0
 20
29.60000000000001
 30
0.0
 11
-93.42487113059645
 21
25.40000000000002
 31
0.0
  0
LINE
  5
1B33
330
1AEC
100
AcDbEntity
  8
RAHM2
100
AcDbLine
 10
-88.57512886940355
 20
25.40000000000002
 30
0.0
 11
-91.0
 21
29.60000000000001
 31
0.0
  0
LINE
  5
1B34
330
1AEC
100
AcDbEntity
  8
RAHM2
100
AcDbLine
 10
-93.42487113059645
 20
25.40000000000002
 30
0.0
 11
-88.57512886940355
 21
25.40000000000002
 31
0.0
  0
LINE
  5
1B35
330
1AEC
100
AcDbEntity
  8
RAHM2
100
AcDbLine
 10
-96.0
 20
25.0
 30
0.0
 11
0.0000000000001137
 21
25.00000000000003
 31
0.0
  0
MTEXT
  5
1B36
330
1AEC
100
AcDbEntity
  8
RAHM2
100
AcDbMText
 10
-22.27910888308327
 20
27.50000000000003
 30
0.0
 40
2.5
 41
20.0
 71
     5
 72
     5
  1
・  ・   
 73
     1
 44
1.0
1001
ACAD
1000
MTEXTBEGIN
1070
    73
1070
     1
1070
    44
1040
1.0
1070
    74
1070
     0
1000
MTEXTEND
  0
TEXT
  5
1B37
330
1AEC
100
AcDbEntity
  8
RAHM2
100
AcDbText
 10
-91.81558635658019
 20
25.65000000000002
 30
0.0
 40
2.5
  1
1
 72
     1
 11
-91.19058635658019
 21
25.65000000000002
 31
0.0
100
AcDbText
 73
     1
  0
TEXT
  5
1B38
330
1AEC
100
AcDbEntity
  8
RAHM2
100
AcDbText
 10
-91.91833169291339
 20
30.65000000000002
 30
0.0
 40
2.5
  1
2
 72
     1
 11
-91.0
 21
30.65000000000002
 31
0.0
100
AcDbText
 73
     1
  0
TEXT
  5
1B39
330
1AEC
100
AcDbEntity
  8
RAHM2
100
AcDbText
 10
-91.92677669529663
 20
35.64999999999999
 30
0.0
 40
2.5
  1
3
 72
     1
 11
-91.0
 21
35.64999999999999
 31
0.0
100
AcDbText
 73
     1
  0
TEXT
  5
1B3A
330
1AEC
100
AcDbEntity
  8
RAHM2
100
AcDbText
 10
-92.0
 20
40.65000000000002
 30
0.0
 40
2.5
  1
4
 72
     1
 11
-91.0
 21
40.65000000000002
 31
0.0
100
AcDbText
 73
     1
  0
TEXT
  5
1B3B
330
1AEC
100
AcDbEntity
  8
RAHM2
100
AcDbText
 10
-91.92677669529663
 20
45.65000000000002
 30
0.0
 40
2.5
  1
5
 72
     1
 11
-91.0
 21
45.65000000000002
 31
0.0
100
AcDbText
 73
     1
  0
LINE
  5
1B3C
330
1AEC
100
AcDbEntity
  8
0
100
AcDbLine
 10
-193.0000000000001
 20
0.0
 30
0.0
 11
0.0
 21
0.0
 31
0.0
1001
GENIUS_GENREC_14
1002
{
1000
PYDIR
1011
-184.0
1021
50.0
1031
0.0
1002
}
1002
{
1000
PXDIR
1011
0.0
1021
0.0
1031
0.0
1002
}
1002
{
1000
PORI
1011
-184.0
1021
0.0
1031
0.0
1002
}
1002
{
1000
PINS
1011
-100.5
1021
25.0
1031
0.0
1002
}
1002
{
1000
HVAL
1000
50
1002
}
1002
{
1000
H
1070
     2
1002
}
1002
{
1000
WVAL
1000
167
1002
}
1002
{
1000
W
1070
     2
1002
}
1002
{
1000
C
1070
     4
1002
}
1001
GENIUS_GENODEF_13
1002
{
1000
HIER
1070
     0
1002
}
1002
{
1000
MANEDIT
1070
     0
1002
}
1002
{
1000
NOSEL
1070
     0
1002
}
1002
{
1000
BEHIND
1070
     0
1002
}
1002
{
1000
REACTOR
1002
}
1001
GENIUS_GENOBJ-N-REC_13
1002
{
1000
OWNER
1000
GEN
1002
}
  0
LINE
  5
1B3D
330
1AEC
100
AcDbEntity
  8
0
100
AcDbLine
 10
0.0
 20
50.0
 30
0.0
 11
-193.0000000000001
 21
50.00000000000002
 31
0.0
1001
GENIUS_GENREC_14
1002
{
1000
PYDIR
1011
-184.0
1021
50.0
1031
0.0
1002
}
1002
{
1000
PXDIR
1011
0.0
1021
0.0
1031
0.0
1002
}
1002
{
1000
PORI
1011
-184.0
1021
0.0
1031
0.0
1002
}
1002
{
1000
PINS
1011
-100.5
1021
25.0
1031
0.0
1002
}
1002
{
1000
HVAL
1000
50
1002
}
1002
{
1000
H
1070
     2
1002
}
1002
{
1000
WVAL
1000
167
1002
}
1002
{
1000
W
1070
     2
1002
}
1002
{
1000
C
1070
     4
1002
}
1001
GENIUS_GENODEF_13
1002
{
1000
HIER
1070
     0
1002
}
1002
{
1000
MANEDIT
1070
     0
1002
}
1002
{
1000
NOSEL
1070
     0
1002
}
1002
{
1000
BEHIND
1070
     0
1002
}
1002
{
1000
REACTOR
1002
}
1001
GENIUS_GENOBJ-N-REC_13
1002
{
1000
OWNER
1000
GEN
1002
}
  0
LINE
  5
1B3E
330
1AEC
100
AcDbEntity
  8
0
100
AcDbLine
 10
-96.0
 20
50.00000000000001
 30
0.0
 11
-96.0
 21
-0.0000000000000142
 31
0.0
1001
GENIUS_GENREC_14
1002
{
1000
PYDIR
1011
-96.0
1021
49.99999999999999
1031
0.0
1002
}
1002
{
1000
PXDIR
1011
88.0
1021
-0.0000000000000142
1031
0.0
1002
}
1002
{
1000
PORI
1011
-96.0
1021
-0.0000000000000142
1031
0.0
1002
}
1002
{
1000
PINS
1011
-12.5
1021
24.99999999999999
1031
0.0
1002
}
1002
{
1000
HVAL
1000
50
1002
}
1002
{
1000
H
1070
     2
1002
}
1002
{
1000
WVAL
1000
167
1002
}
1002
{
1000
W
1070
     2
1002
}
1002
{
1000
C
1070
     4
1002
}
1001
GENIUS_GENODEF_13
1002
{
1000
HIER
1070
     0
1002
}
1002
{
1000
MANEDIT
1070
     0
1002
}
1002
{
1000
NOSEL
1070
     0
1002
}
1002
{
1000
BEHIND
1070
     0
1002
}
1002
{
1000
REACTOR
1002
}
1001
GENIUS_GENOBJ-N-REC_13
1002
{
1000
OWNER
1000
GEN
1002
}
  0
ATTDEF
  5
1B3F
330
1AEC
100
AcDbEntity
  8
0
100
AcDbText
 10
-84.0
 20
1.999999999999957
 30
0.0
 40
3.0
  1

100
AcDbAttributeDefinition
  3
図番
  2
GEN-TITLE-NR1
 70
     0
  0
ATTDEF
  5
1B40
330
1AEC
100
AcDbEntity
  8
0
100
AcDbText
 10
-84.0
 20
9.149999999999948
 30
0.0
 40
2.5
  1

100
AcDbAttributeDefinition
  3
サブタイトル
  2
GEN-TITLE-DES2
 70
     0
  0
LINE
  5
1B41
330
1AEC
100
AcDbEntity
  8
0
100
AcDbLine
 10
0.0
 20
0.0
 30
0.0
 11
0.0
 21
50.0
 31
0.0
1001
GENIUS_GENREC_14
1002
{
1000
PYDIR
1011
-414.0
1021
291.0
1031
0.0
1002
}
1002
{
1000
PXDIR
1011
6.0
1021
-6.0
1031
0.0
1002
}
1002
{
1000
PORI
1011
-414.0
1021
-6.0
1031
0.0
1002
}
1002
{
1000
PINS
1011
-414.0
1021
-6.0
1031
0.0
1002
}
1002
{
1000
HVAL
1000
297
1002
}
1002
{
1000
H
1070
     2
1002
}
1002
{
1000
WVAL
1000
420
1002
}
1002
{
1000
W
1070
     2
1002
}
1002
{
1000
C
1070
     1
1002
}
1001
GENIUS_GENODEF_13
1002
{
1000
HIER
1070
     0
1002
}
1002
{
1000
MANEDIT
1070
     0
1002
}
1002
{
1000
NOSEL
1070
     0
1002
}
1002
{
1000
BEHIND
1070
     0
1002
}
1002
{
1000
OTHER
1070
     0
1002
}
1002
{
1000
REACTOR
1002
}
1001
GENIUS_GENOBJ-N-REC_13
1002
{
1000
OWNER
1000
GEN
1002
}
  0
ATTDEF
  5
1B42
330
1AEC
100
AcDbEntity
  8
0
100
AcDbText
 10
-84.14251901585329
 20
12.82790432564377
 30
0.0
 40
3.5
  1

100
AcDbAttributeDefinition
  3
品名
  2
GEN-TITLE-DES1
 70
     0
  0
ATTDEF
  5
1B43
330
1AEC
100
AcDbEntity
  8
0
100
AcDbText
 10
-8.002309189545826
 20
1.705189434395036
 30
0.0
 40
2.5
  1

100
AcDbAttributeDefinition
  3
Rev.
  2
GEN-TITLE-NR2
 70
     0
  0
POINT
  5
1B44
330
1AEC
100
AcDbEntity
  8
0
 60
     1
100
AcDbPoint
 10
-418.5355579819675
 20
-138.1104841268254
 30
0.0
1001
GENIUS_GENODEF_13
1002
{
1000
HIER
1070
    10
1002
}
1002
{
1000
MANEDIT
1070
     0
1002
}
1002
{
1000
NOSEL
1070
     0
1002
}
1002
{
1000
BEHIND
1070
     0
1002
}
1002
{
1000
REACTOR
1002
}
1001
GENIUS_GENOBJ-N-CRS_13
1002
{
1000
OWNER
1000
GEN
1002
}
1001
GENIUS_GENOENT_13
1002
{
1000
MYREF
1005
1B44
1002
}
1002
{
1000
GRP
1005
0
1002
}
1001
GENIUS_GENOLIS_13
1002
{
1000
ENT
1005
1AFE
1005
1AFD
1005
1AF9
1005
1AF6
1002
}
  0
ENDBLK
  5
1B47
330
1AEC
100
AcDbEntity
  8
0
100
AcDbBlockEnd
  0
BLOCK
  5
2627
330
2623
100
AcDbEntity
  8
0
100
AcDbBlockBegin
  2
*S11
 70
     1
 10
0.0
 20
0.0
 30
0.0
  3
*S11
  1

  0
CIRCLE
  5
2624
330
2623
100
AcDbEntity
  8
AM_12
 62
     4
100
AcDbCircle
 10
261.4012063888304
 20
229.3239285995432
 30
0.0
 40
3.5
  0
LINE
  5
2625
330
2623
100
AcDbEntity
  8
AM_12
 62
     4
100
AcDbLine
 10
257.9012063888304
 20
225.8239285995431
 30
0.0
 11
264.9012063888304
 21
232.8239285995431
 31
0.0
  0
LINE
  5
2626
330
2623
100
AcDbEntity
  8
AM_12
 62
     4
100
AcDbLine
 10
257.9012063888304
 20
232.8239285995431
 30
0.0
 11
264.9012063888304
 21
225.8239285995431
 31
0.0
  0
ENDBLK
  5
2628
330
2623
100
AcDbEntity
  8
0
100
AcDbBlockEnd
  0
BLOCK
  5
262F
330
262A
100
AcDbEntity
  8
0
100
AcDbBlockBegin
  2
*S12
 70
     1
 10
0.0
 20
0.0
 30
0.0
  3
*S12
  1

  0
LINE
  5
262B
330
262A
100
AcDbEntity
  8
AM_5
100
AcDbLine
 10
301.9412658524532
 20
273.7111150697692
 30
0.0
 11
266.1218938370725
 21
234.4925947733262
 31
0.0
  0
TRACE
  5
262C
330
262A
100
AcDbEntity
  8
AM_5
  6
Continuous
100
AcDbTrace
 10
265.4414260291346
 20
235.1140850634438
 30
0.0
 11
266.8023616450105
 21
233.8711044832086
 31
0.0
 12
261.4012063888304
 22
229.3239285995432
 32
0.0
 13
261.4012063888304
 23
229.3239285995432
 33
0.0
  0
MTEXT
  5
262D
330
262A
100
AcDbEntity
  8
AM_5
 62
     7
100
AcDbMText
 10
310.202468886877
 20
282.7562808738895
 30
0.0
 40
7.0
 41
0.0
 71
     5
 72
     5
  1
1
  7
ACISOTS
 73
     1
 44
1.0
1001
ACAD
1000
MTEXTBEGIN
1070
    73
1070
     1
1070
    44
1040
1.0
1070
    74
1070
     0
1000
MTEXTEND
  0
CIRCLE
  5
262E
330
262A
100
AcDbEntity
  8
AM_5
 62
     3
100
AcDbCircle
 10
310.202468886877
 20
282.7562808738895
 30
0.0
 40
12.25
  0
ENDBLK
  5
2630
330
262A
100
AcDbEntity
  8
0
100
AcDbBlockEnd
  0
BLOCK
  5
2636
330
2632
100
AcDbEntity
  8
0
100
AcDbBlockBegin
  2
*S13
 70
     1
 10
0.0
 20
0.0
 30
0.0
  3
*S13
  1

  0
CIRCLE
  5
2633
330
2632
100
AcDbEntity
  8
AM_12
 62
     4
100
AcDbCircle
 10
217.3684433471489
 20
240.8434169895019
 30
0.0
 40
3.5
  0
LINE
  5
2634
330
2632
100
AcDbEntity
  8
AM_12
 62
     4
100
AcDbLine
 10
213.8684433471489
 20
237.3434169895018
 30
0.0
 11
220.8684433471489
 21
244.3434169895019
 31
0.0
  0
LINE
  5
2635
330
2632
100
AcDbEntity
  8
AM_12
 62
     4
100
AcDbLine
 10
213.8684433471489
 20
244.3434169895019
 30
0.0
 11
220.8684433471489
 21
237.3434169895018
 31
0.0
  0
ENDBLK
  5
2637
330
2632
100
AcDbEntity
  8
0
100
AcDbBlockEnd
  0
BLOCK
  5
263E
330
2639
100
AcDbEntity
  8
0
100
AcDbBlockBegin
  2
*S14
 70
     1
 10
0.0
 20
0.0
 30
0.0
  3
*S14
  1

  0
LINE
  5
263A
330
2639
100
AcDbEntity
  8
AM_5
100
AcDbLine
 10
185.3956005244914
 20
275.9969564073939
 30
0.0
 11
212.6585176796548
 21
246.0218916883567
 31
0.0
  0
TRACE
  5
263B
330
2639
100
AcDbEntity
  8
AM_5
  6
Continuous
100
AcDbTrace
 10
211.9767585548992
 20
245.4018182135467
 30
0.0
 11
213.3402768044104
 21
246.6419651631667
 31
0.0
 12
217.3684433471489
 22
240.8434169895019
 32
0.0
 13
217.3684433471489
 23
240.8434169895019
 33
0.0
  0
MTEXT
  5
263C
330
2639
100
AcDbEntity
  8
AM_5
 62
     7
100
AcDbMText
 10
177.1532306063767
 20
285.0592871303899
 30
0.0
 40
7.0
 41
0.0
 71
     5
 72
     5
  1
2
  7
ACISOTS
 73
     1
 44
1.0
1001
ACAD
1000
MTEXTBEGIN
1070
    73
1070
     1
1070
    44
1040
1.0
1070
    74
1070
     0
1000
MTEXTEND
  0
CIRCLE
  5
263D
330
2639
100
AcDbEntity
  8
AM_5
 62
     3
100
AcDbCircle
 10
177.1532306063767
 20
285.0592871303899
 30
0.0
 40
12.25
  0
ENDBLK
  5
263F
330
2639
100
AcDbEntity
  8
0
100
AcDbBlockEnd
  0
BLOCK
  5
2645
330
2641
100
AcDbEntity
  8
0
100
AcDbBlockBegin
  2
*S15
 70
     1
 10
0.0
 20
0.0
 30
0.0
  3
*S15
  1

  0
CIRCLE
  5
2642
330
2641
100
AcDbEntity
  8
AM_12
 62
     4
100
AcDbCircle
 10
424.8443144065287
 20
252.6505550042901
 30
0.0
 40
3.5
  0
LINE
  5
2643
330
2641
100
AcDbEntity
  8
AM_12
 62
     4
100
AcDbLine
 10
421.3443144065287
 20
249.1505550042901
 30
0.0
 11
428.3443144065286
 21
256.1505550042901
 31
0.0
  0
LINE
  5
2644
330
2641
100
AcDbEntity
  8
AM_12
 62
     4
100
AcDbLine
 10
421.3443144065287
 20
256.1505550042901
 30
0.0
 11
428.3443144065286
 21
249.1505550042901
 31
0.0
  0
ENDBLK
  5
2646
330
2641
100
AcDbEntity
  8
0
100
AcDbBlockEnd
  0
BLOCK
  5
264D
330
2648
100
AcDbEntity
  8
0
100
AcDbBlockBegin
  2
*S16
 70
     1
 10
0.0
 20
0.0
 30
0.0
  3
*S16
  1

  0
LINE
  5
2649
330
2648
100
AcDbEntity
  8
AM_5
100
AcDbLine
 10
455.3344856881216
 20
275.5497850907989
 30
0.0
 11
430.4415285763837
 21
256.8542668803318
 31
0.0
  0
TRACE
  5
264A
330
2648
100
AcDbEntity
  8
AM_5
  6
Continuous
100
AcDbTrace
 10
429.8880994112343
 20
257.591154102037
 30
0.0
 11
430.9949577415332
 21
256.1173796586266
 31
0.0
 12
424.8443144065287
 22
252.6505550042901
 32
0.0
 13
424.8443144065287
 23
252.6505550042901
 33
0.0
  0
MTEXT
  5
264B
330
2648
100
AcDbEntity
  8
AM_5
 62
     7
100
AcDbMText
 10
465.1296104853679
 20
282.9062808738718
 30
0.0
 40
7.0
 41
0.0
 71
     5
 72
     5
  1
3
  7
ACISOTS
 73
     1
 44
1.0
1001
ACAD
1000
MTEXTBEGIN
1070
    73
1070
     1
1070
    44
1040
1.0
1070
    74
1070
     0
1000
MTEXTEND
  0
CIRCLE
  5
264C
330
2648
100
AcDbEntity
  8
AM_5
 62
     3
100
AcDbCircle
 10
465.1296104853679
 20
282.9062808738718
 30
0.0
 40
12.25
  0
ENDBLK
  5
264E
330
2648
100
AcDbEntity
  8
0
100
AcDbBlockEnd
  0
BLOCK
  5
2654
330
2650
100
AcDbEntity
  8
0
100
AcDbBlockBegin
  2
*S17
 70
     1
 10
0.0
 20
0.0
 30
0.0
  3
*S17
  1

  0
CIRCLE
  5
2651
330
2650
100
AcDbEntity
  8
AM_12
 62
     4
100
AcDbCircle
 10
425.4822277144102
 20
218.564481895424
 30
0.0
 40
3.5
  0
LINE
  5
2652
330
2650
100
AcDbEntity
  8
AM_12
 62
     4
100
AcDbLine
 10
421.9822277144102
 20
215.064481895424
 30
0.0
 11
428.9822277144102
 21
222.064481895424
 31
0.0
  0
LINE
  5
2653
330
2650
100
AcDbEntity
  8
AM_12
 62
     4
100
AcDbLine
 10
421.9822277144102
 20
222.064481895424
 30
0.0
 11
428.9822277144102
 21
215.064481895424
 31
0.0
  0
ENDBLK
  5
2655
330
2650
100
AcDbEntity
  8
0
100
AcDbBlockEnd
  0
BLOCK
  5
265C
330
2657
100
AcDbEntity
  8
0
100
AcDbBlockBegin
  2
*S18
 70
     1
 10
0.0
 20
0.0
 30
0.0
  3
*S18
  1

  0
LINE
  5
2658
330
2657
100
AcDbEntity
  8
AM_5
100
AcDbLine
 10
454.2580087329941
 20
237.1172385490884
 30
0.0
 11
431.3654461557916
 21
222.3575994484388
 31
0.0
  0
TRACE
  5
2659
330
2657
100
AcDbEntity
  8
AM_5
  6
Continuous
100
AcDbTrace
 10
430.8660727585227
 20
223.1321398466431
 30
0.0
 11
431.8648195530606
 21
221.5830590502345
 31
0.0
 12
425.4822277144102
 22
218.564481895424
 32
0.0
 13
425.4822277144102
 23
218.564481895424
 33
0.0
  0
MTEXT
  5
265A
330
2657
100
AcDbEntity
  8
AM_5
 62
     7
100
AcDbMText
 10
464.5536410054116
 20
243.7551942668643
 30
0.0
 40
7.0
 41
0.0
 71
     5
 72
     5
  1
4
  7
ACISOTS
 73
     1
 44
1.0
1001
ACAD
1000
MTEXTBEGIN
1070
    73
1070
     1
1070
    44
1040
1.0
1070
    74
1070
     0
1000
MTEXTEND
  0
CIRCLE
  5
265B
330
2657
100
AcDbEntity
  8
AM_5
 62
     3
100
AcDbCircle
 10
464.5536410054116
 20
243.7551942668643
 30
0.0
 40
12.25
  0
ENDBLK
  5
265D
330
2657
100
AcDbEntity
  8
0
100
AcDbBlockEnd
  0
BLOCK
  5
2663
330
265F
100
AcDbEntity
  8
0
100
AcDbBlockBegin
  2
*S19
 70
     1
 10
0.0
 20
0.0
 30
0.0
  3
*S19
  1

  0
CIRCLE
  5
2660
330
265F
100
AcDbEntity
  8
AM_12
 62
     4
100
AcDbCircle
 10
217.545334156863
 20
167.8492177344221
 30
0.0
 40
3.5
  0
LINE
  5
2661
330
265F
100
AcDbEntity
  8
AM_12
 62
     4
100
AcDbLine
 10
214.045334156863
 20
164.3492177344221
 30
0.0
 11
221.045334156863
 21
171.3492177344221
 31
0.0
  0
LINE
  5
2662
330
265F
100
AcDbEntity
  8
AM_12
 62
     4
100
AcDbLine
 10
214.045334156863
 20
171.3492177344221
 30
0.0
 11
221.045334156863
 21
164.3492177344221
 31
0.0
  0
ENDBLK
  5
2664
330
265F
100
AcDbEntity
  8
0
100
AcDbBlockEnd
  0
BLOCK
  5
266B
330
2666
100
AcDbEntity
  8
0
100
AcDbBlockBegin
  2
*S20
 70
     1
 10
0.0
 20
0.0
 30
0.0
  3
*S20
  1

  0
LINE
  5
2667
330
2666
100
AcDbEntity
  8
AM_5
100
AcDbLine
 10
182.9895935540879
 20
138.1645317261139
 30
0.0
 11
212.2355127177782
 21
163.2878806185058
 31
0.0
  0
TRACE
  5
2668
330
2666
100
AcDbEntity
  8
AM_5
  6
Continuous
100
AcDbTrace
 10
212.8360241387474
 20
162.5888293674262
 30
0.0
 11
211.635001296809
 21
163.9869318695855
 31
0.0
 12
217.545334156863
 22
167.8492177344221
 32
0.0
 13
217.545334156863
 23
167.8492177344221
 33
0.0
  0
MTEXT
  5
2669
330
2666
100
AcDbEntity
  8
AM_5
 62
     7
100
AcDbMText
 10
173.6974060356896
 20
130.1821917732603
 30
0.0
 40
7.0
 41
0.0
 71
     5
 72
     5
  1
5
  7
ACISOTS
 73
     1
 44
1.0
1001
ACAD
1000
MTEXTBEGIN
1070
    73
1070
     1
1070
    44
1040
1.0
1070
    74
1070
     0
1000
MTEXTEND
  0
CIRCLE
  5
266A
330
2666
100
AcDbEntity
  8
AM_5
 62
     3
100
AcDbCircle
 10
173.6974060356896
 20
130.1821917732603
 30
0.0
 40
12.25
  0
ENDBLK
  5
266C
330
2666
100
AcDbEntity
  8
0
100
AcDbBlockEnd
  0
BLOCK
  5
26B1
330
266E
100
AcDbEntity
  8
0
100
AcDbBlockBegin
  2
*S21
 70
     1
 10
0.0
 20
0.0
 30
0.0
  3
*S21
  1

  0
LINE
  5
266F
330
266E
100
AcDbEntity
  8
0
 62
     1
100
AcDbLine
 10
420.0
 20
522.95
 30
0.0
 11
806.0
 21
522.95
 31
0.0
  0
LINE
  5
2670
330
266E
100
AcDbEntity
  8
0
 62
     1
100
AcDbLine
 10
420.0
 20
510.6
 30
0.0
 11
806.0
 21
510.6
 31
0.0
  0
LINE
  5
2671
330
266E
100
AcDbEntity
  8
0
 62
     1
100
AcDbLine
 10
420.0
 20
498.2499999999999
 30
0.0
 11
806.0
 21
498.2499999999999
 31
0.0
  0
LINE
  5
2672
330
266E
100
AcDbEntity
  8
0
 62
     1
100
AcDbLine
 10
420.0
 20
485.8999999999999
 30
0.0
 11
806.0
 21
485.8999999999999
 31
0.0
  0
MTEXT
  5
2673
330
266E
100
AcDbEntity
  8
0
 62
     2
100
AcDbMText
 10
435.0
 20
532.6
 30
0.0
 40
7.0
 41
26.4
 71
     2
 72
     5
  1
1
  7
ACISOTS
 73
     1
 44
1.0
1001
ACAD
1000
MTEXTBEGIN
1070
    73
1070
     1
1070
    44
1040
1.0
1070
    74
1070
     0
1000
MTEXTEND
  0
LINE
  5
2674
330
266E
100
AcDbEntity
  8
0
 62
     1
100
AcDbLine
 10
450.0
 20
535.2999999999999
 30
0.0
 11
450.0
 21
522.95
 31
0.0
  0
MTEXT
  5
2675
330
266E
100
AcDbEntity
  8
0
 62
     2
100
AcDbMText
 10
451.7999999999999
 20
532.6
 30
0.0
 40
7.0
 41
116.4
 71
     1
 72
     5
  1
ボディー
  7
ACISOTS
 73
     1
 44
1.0
1001
ACAD
1000
MTEXTBEGIN
1070
    73
1070
     1
1070
    44
1040
1.0
1070
    74
1070
     0
1000
MTEXTEND
  0
LINE
  5
2676
330
266E
100
AcDbEntity
  8
0
 62
     1
100
AcDbLine
 10
570.0
 20
535.2999999999999
 30
0.0
 11
570.0
 21
522.95
 31
0.0
  0
MTEXT
  5
2677
330
266E
100
AcDbEntity
  8
0
 62
     2
100
AcDbMText
 10
585.0
 20
532.6
 30
0.0
 40
7.0
 41
26.4
 71
     2
 72
     5
  1
1
  7
ACISOTS
 73
     1
 44
1.0
1001
ACAD
1000
MTEXTBEGIN
1070
    73
1070
     1
1070
    44
1040
1.0
1070
    74
1070
     0
1000
MTEXTEND
  0
LINE
  5
2678
330
266E
100
AcDbEntity
  8
0
 62
     1
100
AcDbLine
 10
600.0
 20
535.2999999999999
 30
0.0
 11
600.0
 21
522.95
 31
0.0
  0
MTEXT
  5
2679
330
266E
100
AcDbEntity
  8
0
 62
     2
100
AcDbMText
 10
601.7999999999999
 20
532.6
 30
0.0
 40
7.0
 41
76.4
 71
     1
 72
     5
  1
ﾉﾘﾙ
  7
ACISOTS
 73
     1
 44
1.0
1001
ACAD
1000
MTEXTBEGIN
1070
    73
1070
     1
1070
    44
1040
1.0
1070
    74
1070
     0
1000
MTEXTEND
  0
LINE
  5
267A
330
266E
100
AcDbEntity
  8
0
 62
     1
100
AcDbLine
 10
680.0
 20
535.2999999999999
 30
0.0
 11
680.0
 21
522.95
 31
0.0
  0
MTEXT
  5
267B
330
266E
100
AcDbEntity
  8
0
 62
     2
100
AcDbMText
 10
681.7999999999999
 20
532.6
 30
0.0
 40
7.0
 41
122.4
 71
     1
 72
     5
  1
ｸﾞﾚｰ
  7
ACISOTS
 73
     1
 44
1.0
1001
ACAD
1000
MTEXTBEGIN
1070
    73
1070
     1
1070
    44
1040
1.0
1070
    74
1070
     0
1000
MTEXTEND
  0
MTEXT
  5
267C
330
266E
100
AcDbEntity
  8
0
 62
     2
100
AcDbMText
 10
435.0
 20
520.2499999999999
 30
0.0
 40
7.0
 41
26.4
 71
     2
 72
     5
  1
2
  7
ACISOTS
 73
     1
 44
1.0
1001
ACAD
1000
MTEXTBEGIN
1070
    73
1070
     1
1070
    44
1040
1.0
1070
    74
1070
     0
1000
MTEXTEND
  0
LINE
  5
267D
330
266E
100
AcDbEntity
  8
0
 62
     1
100
AcDbLine
 10
450.0
 20
522.95
 30
0.0
 11
450.0
 21
510.6
 31
0.0
  0
MTEXT
  5
267E
330
266E
100
AcDbEntity
  8
0
 62
     2
100
AcDbMText
 10
451.7999999999999
 20
520.2499999999999
 30
0.0
 40
7.0
 41
116.4
 71
     1
 72
     5
  1
ベース
  7
ACISOTS
 73
     1
 44
1.0
1001
ACAD
1000
MTEXTBEGIN
1070
    73
1070
     1
1070
    44
1040
1.0
1070
    74
1070
     0
1000
MTEXTEND
  0
LINE
  5
267F
330
266E
100
AcDbEntity
  8
0
 62
     1
100
AcDbLine
 10
570.0
 20
522.95
 30
0.0
 11
570.0
 21
510.6
 31
0.0
  0
MTEXT
  5
2680
330
266E
100
AcDbEntity
  8
0
 62
     2
100
AcDbMText
 10
585.0
 20
520.2499999999999
 30
0.0
 40
7.0
 41
26.4
 71
     2
 72
     5
  1
1
  7
ACISOTS
 73
     1
 44
1.0
1001
ACAD
1000
MTEXTBEGIN
1070
    73
1070
     1
1070
    44
1040
1.0
1070
    74
1070
     0
1000
MTEXTEND
  0
LINE
  5
2681
330
266E
100
AcDbEntity
  8
0
 62
     1
100
AcDbLine
 10
600.0
 20
522.95
 30
0.0
 11
600.0
 21
510.6
 31
0.0
  0
MTEXT
  5
2682
330
266E
100
AcDbEntity
  8
0
 62
     2
100
AcDbMText
 10
601.7999999999999
 20
520.2499999999999
 30
0.0
 40
7.0
 41
76.4
 71
     1
 72
     5
  1
ﾉﾘﾙ
  7
ACISOTS
 73
     1
 44
1.0
1001
ACAD
1000
MTEXTBEGIN
1070
    73
1070
     1
1070
    44
1040
1.0
1070
    74
1070
     0
1000
MTEXTEND
  0
LINE
  5
2683
330
266E
100
AcDbEntity
  8
0
 62
     1
100
AcDbLine
 10
680.0
 20
522.95
 30
0.0
 11
680.0
 21
510.6
 31
0.0
  0
MTEXT
  5
2684
330
266E
100
AcDbEntity
  8
0
 62
     2
100
AcDbMText
 10
681.7999999999999
 20
520.2499999999999
 30
0.0
 40
7.0
 41
122.4
 71
     1
 72
     5
  1
ｸﾞﾚｰ
  7
ACISOTS
 73
     1
 44
1.0
1001
ACAD
1000
MTEXTBEGIN
1070
    73
1070
     1
1070
    44
1040
1.0
1070
    74
1070
     0
1000
MTEXTEND
  0
MTEXT
  5
2685
330
266E
100
AcDbEntity
  8
0
 62
     2
100
AcDbMText
 10
435.0
 20
507.8999999999999
 30
0.0
 40
7.0
 41
26.4
 71
     2
 72
     5
  1
3
  7
ACISOTS
 73
     1
 44
1.0
1001
ACAD
1000
MTEXTBEGIN
1070
    73
1070
     1
1070
    44
1040
1.0
1070
    74
1070
     0
1000
MTEXTEND
  0
LINE
  5
2686
330
266E
100
AcDbEntity
  8
0
 62
     1
100
AcDbLine
 10
450.0
 20
510.6
 30
0.0
 11
450.0
 21
498.2499999999999
 31
0.0
  0
MTEXT
  5
2687
330
266E
100
AcDbEntity
  8
0
 62
     2
100
AcDbMText
 10
451.7999999999999
 20
507.8999999999999
 30
0.0
 40
7.0
 41
116.4
 71
     1
 72
     5
  1
ターミナルカバー
  7
ACISOTS
 73
     1
 44
1.0
1001
ACAD
1000
MTEXTBEGIN
1070
    73
1070
     1
1070
    44
1040
1.0
1070
    74
1070
     0
1000
MTEXTEND
  0
LINE
  5
2688
330
266E
100
AcDbEntity
  8
0
 62
     1
100
AcDbLine
 10
570.0
 20
510.6
 30
0.0
 11
570.0
 21
498.2499999999999
 31
0.0
  0
MTEXT
  5
2689
330
266E
100
AcDbEntity
  8
0
 62
     2
100
AcDbMText
 10
585.0
 20
507.8999999999999
 30
0.0
 40
7.0
 41
26.4
 71
     2
 72
     5
  1
2
  7
ACISOTS
 73
     1
 44
1.0
1001
ACAD
1000
MTEXTBEGIN
1070
    73
1070
     1
1070
    44
1040
1.0
1070
    74
1070
     0
1000
MTEXTEND
  0
LINE
  5
268A
330
266E
100
AcDbEntity
  8
0
 62
     1
100
AcDbLine
 10
600.0
 20
510.6
 30
0.0
 11
600.0
 21
498.2499999999999
 31
0.0
  0
MTEXT
  5
268B
330
266E
100
AcDbEntity
  8
0
 62
     2
100
AcDbMText
 10
601.7999999999999
 20
507.8999999999999
 30
0.0
 40
7.0
 41
76.4
 71
     1
 72
     5
  1
ﾉﾘﾙ
  7
ACISOTS
 73
     1
 44
1.0
1001
ACAD
1000
MTEXTBEGIN
1070
    73
1070
     1
1070
    44
1040
1.0
1070
    74
1070
     0
1000
MTEXTEND
  0
LINE
  5
268C
330
266E
100
AcDbEntity
  8
0
 62
     1
100
AcDbLine
 10
680.0
 20
510.6
 30
0.0
 11
680.0
 21
498.2499999999999
 31
0.0
  0
MTEXT
  5
268D
330
266E
100
AcDbEntity
  8
0
 62
     2
100
AcDbMText
 10
681.7999999999999
 20
507.8999999999999
 30
0.0
 40
7.0
 41
122.4
 71
     1
 72
     5
  1
ｸﾞﾚｰ
  7
ACISOTS
 73
     1
 44
1.0
1001
ACAD
1000
MTEXTBEGIN
1070
    73
1070
     1
1070
    44
1040
1.0
1070
    74
1070
     0
1000
MTEXTEND
  0
MTEXT
  5
268E
330
266E
100
AcDbEntity
  8
0
 62
     2
100
AcDbMText
 10
435.0
 20
495.5499999999999
 30
0.0
 40
7.0
 41
26.4
 71
     2
 72
     5
  1
4
  7
ACISOTS
 73
     1
 44
1.0
1001
ACAD
1000
MTEXTBEGIN
1070
    73
1070
     1
1070
    44
1040
1.0
1070
    74
1070
     0
1000
MTEXTEND
  0
LINE
  5
268F
330
266E
100
AcDbEntity
  8
0
 62
     1
100
AcDbLine
 10
450.0
 20
498.2499999999999
 30
0.0
 11
450.0
 21
485.8999999999999
 31
0.0
  0
MTEXT
  5
2690
330
266E
100
AcDbEntity
  8
0
 62
     2
100
AcDbMText
 10
451.7999999999999
 20
495.5499999999999
 30
0.0
 40
7.0
 41
116.4
 71
     1
 72
     5
  1
前面パネル
  7
ACISOTS
 73
     1
 44
1.0
1001
ACAD
1000
MTEXTBEGIN
1070
    73
1070
     1
1070
    44
1040
1.0
1070
    74
1070
     0
1000
MTEXTEND
  0
LINE
  5
2691
330
266E
100
AcDbEntity
  8
0
 62
     1
100
AcDbLine
 10
570.0
 20
498.2499999999999
 30
0.0
 11
570.0
 21
485.8999999999999
 31
0.0
  0
MTEXT
  5
2692
330
266E
100
AcDbEntity
  8
0
 62
     2
100
AcDbMText
 10
585.0
 20
495.5499999999999
 30
0.0
 40
7.0
 41
26.4
 71
     2
 72
     5
  1
1
  7
ACISOTS
 73
     1
 44
1.0
1001
ACAD
1000
MTEXTBEGIN
1070
    73
1070
     1
1070
    44
1040
1.0
1070
    74
1070
     0
1000
MTEXTEND
  0
LINE
  5
2693
330
266E
100
AcDbEntity
  8
0
 62
     1
100
AcDbLine
 10
600.0
 20
498.2499999999999
 30
0.0
 11
600.0
 21
485.8999999999999
 31
0.0
  0
MTEXT
  5
2694
330
266E
100
AcDbEntity
  8
0
 62
     2
100
AcDbMText
 10
601.7999999999999
 20
495.5499999999999
 30
0.0
 40
7.0
 41
76.4
 71
     1
 72
     5
  1
ﾉﾘﾙ/ﾎﾟﾘｶｰﾎﾞﾈｰﾄ
  7
ACISOTS
 73
     1
 44
1.0
1001
ACAD
1000
MTEXTBEGIN
1070
    73
1070
     1
1070
    44
1040
1.0
1070
    74
1070
     0
1000
MTEXTEND
  0
LINE
  5
2695
330
266E
100
AcDbEntity
  8
0
 62
     1
100
AcDbLine
 10
680.0
 20
498.2499999999999
 30
0.0
 11
680.0
 21
485.8999999999999
 31
0.0
  0
MTEXT
  5
2696
330
266E
100
AcDbEntity
  8
0
 62
     2
100
AcDbMText
 10
681.7999999999999
 20
495.5499999999999
 30
0.0
 40
7.0
 41
122.4
 71
     1
 72
     5
  1
ｸﾞﾚｰ/ｸﾘｱｰ
  7
ACISOTS
 73
     1
 44
1.0
1001
ACAD
1000
MTEXTBEGIN
1070
    73
1070
     1
1070
    44
1040
1.0
1070
    74
1070
     0
1000
MTEXTEND
  0
MTEXT
  5
2697
330
266E
100
AcDbEntity
  8
0
 62
     2
100
AcDbMText
 10
435.0
 20
483.1999999999999
 30
0.0
 40
7.0
 41
26.4
 71
     2
 72
     5
  1
5
  7
ACISOTS
 73
     1
 44
1.0
1001
ACAD
1000
MTEXTBEGIN
1070
    73
1070
     1
1070
    44
1040
1.0
1070
    74
1070
     0
1000
MTEXTEND
  0
LINE
  5
2698
330
266E
100
AcDbEntity
  8
0
 62
     1
100
AcDbLine
 10
450.0
 20
485.8999999999999
 30
0.0
 11
450.0
 21
473.55
 31
0.0
  0
MTEXT
  5
2699
330
266E
100
AcDbEntity
  8
0
 62
     2
100
AcDbMText
 10
451.7999999999999
 20
483.1999999999999
 30
0.0
 40
7.0
 41
116.4
 71
     1
 72
     5
  1
ホック
  7
ACISOTS
 73
     1
 44
1.0
1001
ACAD
1000
MTEXTBEGIN
1070
    73
1070
     1
1070
    44
1040
1.0
1070
    74
1070
     0
1000
MTEXTEND
  0
LINE
  5
269A
330
266E
100
AcDbEntity
  8
0
 62
     1
100
AcDbLine
 10
570.0
 20
485.8999999999999
 30
0.0
 11
570.0
 21
473.55
 31
0.0
  0
MTEXT
  5
269B
330
266E
100
AcDbEntity
  8
0
 62
     2
100
AcDbMText
 10
585.0
 20
483.1999999999999
 30
0.0
 40
7.0
 41
26.4
 71
     2
 72
     5
  1
1
  7
ACISOTS
 73
     1
 44
1.0
1001
ACAD
1000
MTEXTBEGIN
1070
    73
1070
     1
1070
    44
1040
1.0
1070
    74
1070
     0
1000
MTEXTEND
  0
LINE
  5
269C
330
266E
100
AcDbEntity
  8
0
 62
     1
100
AcDbLine
 10
600.0
 20
485.8999999999999
 30
0.0
 11
600.0
 21
473.55
 31
0.0
  0
MTEXT
  5
269D
330
266E
100
AcDbEntity
  8
0
 62
     2
100
AcDbMText
 10
601.7999999999999
 20
483.1999999999999
 30
0.0
 40
7.0
 41
76.4
 71
     1
 72
     5
  1
ﾉﾘﾙ
  7
ACISOTS
 73
     1
 44
1.0
1001
ACAD
1000
MTEXTBEGIN
1070
    73
1070
     1
1070
    44
1040
1.0
1070
    74
1070
     0
1000
MTEXTEND
  0
LINE
  5
269E
330
266E
100
AcDbEntity
  8
0
 62
     1
100
AcDbLine
 10
680.0
 20
485.8999999999999
 30
0.0
 11
680.0
 21
473.55
 31
0.0
  0
MTEXT
  5
269F
330
266E
100
AcDbEntity
  8
0
 62
     2
100
AcDbMText
 10
681.7999999999999
 20
483.1999999999999
 30
0.0
 40
7.0
 41
122.4
 71
     1
 72
     5
  1
ﾌﾞﾗｯｸ
  7
ACISOTS
 73
     1
 44
1.0
1001
ACAD
1000
MTEXTBEGIN
1070
    73
1070
     1
1070
    44
1040
1.0
1070
    74
1070
     0
1000
MTEXTEND
  0
LINE
  5
26A0
330
266E
100
AcDbEntity
  8
0
 62
     1
100
AcDbLine
 10
420.0
 20
535.2999999999999
 30
0.0
 11
806.0
 21
535.2999999999999
 31
0.0
  0
MTEXT
  5
26A1
330
266E
100
AcDbEntity
  8
0
 62
     2
100
AcDbMText
 10
435.0
 20
544.95
 30
0.0
 40
7.0
 41
26.4
 71
     2
 72
     5
  1
照番
  7
ACISOTS
 73
     1
 44
1.0
1001
ACAD
1000
MTEXTBEGIN
1070
    73
1070
     1
1070
    44
1040
1.0
1070
    74
1070
     0
1000
MTEXTEND
  0
LINE
  5
26A2
330
266E
100
AcDbEntity
  8
0
 62
     1
100
AcDbLine
 10
450.0
 20
547.6499999999999
 30
0.0
 11
450.0
 21
535.2999999999999
 31
0.0
  0
MTEXT
  5
26A3
330
266E
100
AcDbEntity
  8
0
 62
     2
100
AcDbMText
 10
510.0
 20
544.95
 30
0.0
 40
7.0
 41
116.4
 71
     2
 72
     5
  1
名称
  7
ACISOTS
 73
     1
 44
1.0
1001
ACAD
1000
MTEXTBEGIN
1070
    73
1070
     1
1070
    44
1040
1.0
1070
    74
1070
     0
1000
MTEXTEND
  0
LINE
  5
26A4
330
266E
100
AcDbEntity
  8
0
 62
     1
100
AcDbLine
 10
570.0
 20
547.6499999999999
 30
0.0
 11
570.0
 21
535.2999999999999
 31
0.0
  0
MTEXT
  5
26A5
330
266E
100
AcDbEntity
  8
0
 62
     2
100
AcDbMText
 10
585.0
 20
544.95
 30
0.0
 40
7.0
 41
26.4
 71
     2
 72
     5
  1
数量
  7
ACISOTS
 73
     1
 44
1.0
1001
ACAD
1000
MTEXTBEGIN
1070
    73
1070
     1
1070
    44
1040
1.0
1070
    74
1070
     0
1000
MTEXTEND
  0
LINE
  5
26A6
330
266E
100
AcDbEntity
  8
0
 62
     1
100
AcDbLine
 10
600.0
 20
547.6499999999999
 30
0.0
 11
600.0
 21
535.2999999999999
 31
0.0
  0
MTEXT
  5
26A7
330
266E
100
AcDbEntity
  8
0
 62
     2
100
AcDbMText
 10
640.0
 20
544.95
 30
0.0
 40
7.0
 41
76.4
 71
     2
 72
     5
  1
材質
  7
ACISOTS
 73
     1
 44
1.0
1001
ACAD
1000
MTEXTBEGIN
1070
    73
1070
     1
1070
    44
1040
1.0
1070
    74
1070
     0
1000
MTEXTEND
  0
LINE
  5
26A8
330
266E
100
AcDbEntity
  8
0
 62
     1
100
AcDbLine
 10
680.0
 20
547.6499999999999
 30
0.0
 11
680.0
 21
535.2999999999999
 31
0.0
  0
MTEXT
  5
26A9
330
266E
100
AcDbEntity
  8
0
 62
     2
100
AcDbMText
 10
743.0
 20
544.95
 30
0.0
 40
7.0
 41
122.4
 71
     2
 72
     5
  1
色・表面処理
  7
ACISOTS
 73
     1
 44
1.0
1001
ACAD
1000
MTEXTBEGIN
1070
    73
1070
     1
1070
    44
1040
1.0
1070
    74
1070
     0
1000
MTEXTEND
  0
MTEXT
  5
26AA
330
266E
100
AcDbEntity
  8
0
 62
     2
100
AcDbMText
 10
613.0
 20
553.825
 30
0.0
 40
7.0
 41
0.0
 71
     5
 72
     5
  1
構成内容
  7
ACISOTS
 73
     1
 44
1.0
1001
ACAD
1000
MTEXTBEGIN
1070
    73
1070
     1
1070
    44
1040
1.0
1070
    74
1070
     0
1000
MTEXTEND
  0
LINE
  5
26AB
330
266E
100
AcDbEntity
  8
0
 62
     1
100
AcDbLine
 10
420.0
 20
547.6499999999999
 30
0.0
 11
806.0
 21
547.6499999999999
 31
0.0
  0
LINE
  5
26AC
330
266E
100
AcDbEntity
  8
0
 62
     1
100
AcDbLine
 10
420.0
 20
560.0
 30
0.0
 11
806.0
 21
560.0
 31
0.0
  0
LINE
  5
26AD
330
266E
100
AcDbEntity
  8
0
 62
     7
100
AcDbLine
 10
420.0
 20
473.55
 30
0.0
 11
420.0
 21
560.0
 31
0.0
  0
LINE
  5
26AE
330
266E
100
AcDbEntity
  8
0
 62
     7
100
AcDbLine
 10
420.0
 20
560.0
 30
0.0
 11
806.0
 21
560.0
 31
0.0
  0
LINE
  5
26AF
330
266E
100
AcDbEntity
  8
0
 62
     7
100
AcDbLine
 10
806.0
 20
560.0
 30
0.0
 11
806.0
 21
473.55
 31
0.0
  0
LINE
  5
26B0
330
266E
100
AcDbEntity
  8
0
 62
     7
100
AcDbLine
 10
420.0
 20
473.55
 30
0.0
 11
806.0
 21
473.55
 31
0.0
  0
ENDBLK
  5
26B2
330
266E
100
AcDbEntity
  8
0
100
AcDbBlockEnd
  0
ENDSEC
  0
SECTION
  2
ENTITIES
  0
INSERT
  5
79F
330
1F
100
AcDbEntity
  8
0
370
     0
100
AcDbBlockReference
  2
TK-A3
 10
0.0
 20
0.0
 30
0.0
 41
2.0
 42
2.0
 43
2.0
1001
GENIUS_GENOREF_13
1005
7CB
1001
GENIUS_GENOBJ-N-SDF_13
1002
{
1000
OWNER
1000
GEN
1002
}
1001
GENIUS_GENODEF_13
1002
{
1000
HIER
1070
     0
1002
}
1002
{
1000
MANEDIT
1070
     0
1002
}
1002
{
1000
NOSEL
1070
     0
1002
}
1002
{
1000
BEHIND
1070
     0
1002
}
1002
{
1000
OTHER
1070
     0
1002
}
1002
{
1000
REACTOR
1002
}
1001
GENIUS_GENSCREG_15
1040
2.0
1040
1.0
1011
0.0
1021
0.0
1031
0.0
1011
806.0
1021
560.0000000000001
1031
0.0
1070
     3
  0
INSERT
  5
7A1
330
1F
100
AcDbEntity
  8
0
370
     0
100
AcDbBlockReference
 66
     1
  2
TK-TITLE
 10
806.0
 20
0.0
 30
0.0
 41
2.0
 42
2.0
 43
2.0
1001
GENIUS_GENOREF_13
1005
7CB
  0
ATTRIB
  5
1B4B
330
7A1
100
AcDbEntity
  8
0
100
AcDbText
 10
424.4616136045801
 20
7.176685075221328
 30
0.0
 40
6.0
  1
2008/08/22
 72
     1
 11
445.5656096675722
 21
7.176685075221328
 31
0.0
100
AcDbAttribute
  2
GEN-TITLE-DAT
 70
     0
 74
     1
  0
ATTRIB
  5
1B4C
330
7A1
100
AcDbEntity
  8
0
100
AcDbText
 10
441.8901664404432
 20
56.59999999999995
 30
0.0
 40
6.0
  1
1:2
 72
     2
 11
450.3505207711518
 21
56.59999999999995
 31
0.0
100
AcDbAttribute
  2
GEN-TITLE-SCA
 70
     0
 74
     1
  0
ATTRIB
  5
1B4D
330
7A1
100
AcDbEntity
  8
0
100
AcDbText
 10
454.7745181747809
 20
31.59999999999988
 30
0.0
 40
6.0
  1

 72
     2
 11
454.7745181747809
 21
31.59999999999988
 31
0.0
100
AcDbAttribute
  2
GEN-TITLE-QTY
 70
     0
 74
     1
  0
ATTRIB
  5
1B4E
330
7A1
100
AcDbEntity
  8
0
100
AcDbText
 10
508.0762648329416
 20
66.59999999999982
 30
0.0
 40
6.0
  1

100
AcDbAttribute
  2
GEN-TITLE-MAT2
 70
     0
  0
ATTRIB
  5
1B4F
330
7A1
100
AcDbEntity
  8
0
100
AcDbText
 10
508.0762648329416
 20
86.59999999999982
 30
0.0
 40
6.0
  1

100
AcDbAttribute
  2
GEN-TITLE-MAT1
 70
     0
  0
ATTRIB
  5
1B50
330
7A1
100
AcDbEntity
  8
0
100
AcDbText
 10
638.0
 20
3.999999999999914
 30
0.0
 40
6.0
  1

100
AcDbAttribute
  2
GEN-TITLE-NR1
 70
     0
  0
ATTRIB
  5
1B51
330
7A1
100
AcDbEntity
  8
0
100
AcDbText
 10
638.0
 20
18.2999999999999
 30
0.0
 40
5.0
  1
H53型窓開閉DINモジュールボックス
100
AcDbAttribute
  2
GEN-TITLE-DES2
 70
     0
  0
ATTRIB
  5
1B52
330
7A1
100
AcDbEntity
  8
0
100
AcDbText
 10
637.7149619682934
 20
25.65580865128755
 30
0.0
 40
7.0
  1
H53-4MG-
100
AcDbAttribute
  2
GEN-TITLE-DES1
 70
     0
  0
ATTRIB
  5
1B53
330
7A1
100
AcDbEntity
  8
0
100
AcDbText
 10
789.9953816209083
 20
3.410378868790072
 30
0.0
 40
5.0
  1

100
AcDbAttribute
  2
GEN-TITLE-NR2
 70
     0
  0
SEQEND
  5
1B4A
330
7A1
100
AcDbEntity
  8
0
370
     0
  0
POINT
  5
7CB
330
1F
100
AcDbEntity
  8
0
 60
     1
100
AcDbPoint
 10
0.0
 20
0.0
 30
0.0
1001
GENIUS_GENOENT_13
1002
{
1000
MYREF
1005
7CB
1002
}
1002
{
1000
GRP
1005
0
1002
}
1001
GENIUS_GENOBJ-N-TIT_13
1002
{
1000
OWNER
1000
GEN
1002
}
1001
GENIUS_GENODEF_13
1002
{
1000
HIER
1070
     1
1002
}
1002
{
1000
MANEDIT
1070
     0
1002
}
1002
{
1000
NOSEL
1070
     0
1002
}
1002
{
1000
BEHIND
1070
     0
1002
}
1002
{
1000
OTHER
1070
     0
1002
}
1002
{
1000
REACTOR
1002
}
1001
GENIUS_GENOLIS_13
1002
{
1000
ENT
1005
7A1
1005
79F
1005
1B49
1002
}
1001
GENIUS_GENTITLE_13
1002
{
1000
BORDER
1000
TK-A3
1002
}
1002
{
1000
TITLE
1000
TK-TITLE
1002
}
1002
{
1000
SCALE
1000
1:2
1002
}
1002
{
1000
TITLESTD
1000
ISO
1002
}
1002
{
1000
HRA
1005
79F
1002
}
1002
{
1000
HTIT
1005
7A1
1002
}
1002
{
1000
GENIUSID
1005
7CB
1002
}
1002
{
1000
INVTXTID
1005
0
1002
}
1002
{
1000
UNCHG
1002
{
1000
GEN-TITLE-SIZ
1000
GEN-TITLE-SCA
1002
}
1002
}
  0
INSERT
  5
842
102
{ACAD_REACTORS
330
841
102
}
330
1F
100
AcDbEntity
  8
AM_12
100
AcDbBlockReference
  2
*S11
 10
0.0
 20
0.0
 30
0.0
  0
INSERT
  5
847
102
{ACAD_REACTORS
330
846
102
}
330
1F
100
AcDbEntity
  8
AM_5
100
AcDbBlockReference
  2
*S12
 10
0.0
 20
0.0
 30
0.0
  0
INSERT
  5
84A
102
{ACAD_REACTORS
330
849
102
}
330
1F
100
AcDbEntity
  8
AM_12
100
AcDbBlockReference
  2
*S13
 10
0.0
 20
0.0
 30
0.0
  0
INSERT
  5
84F
102
{ACAD_REACTORS
330
84E
102
}
330
1F
100
AcDbEntity
  8
AM_5
100
AcDbBlockReference
  2
*S14
 10
0.0
 20
0.0
 30
0.0
  0
INSERT
  5
851
102
{ACAD_REACTORS
330
850
102
}
330
1F
100
AcDbEntity
  8
AM_12
100
AcDbBlockReference
  2
*S15
 10
0.0
 20
0.0
 30
0.0
  0
INSERT
  5
854
102
{ACAD_REACTORS
330
853
102
}
330
1F
100
AcDbEntity
  8
AM_5
100
AcDbBlockReference
  2
*S16
 10
0.0
 20
0.0
 30
0.0
  0
INSERT
  5
856
102
{ACAD_REACTORS
330
855
102
}
330
1F
100
AcDbEntity
  8
AM_12
100
AcDbBlockReference
  2
*S17
 10
0.0
 20
0.0
 30
0.0
  0
INSERT
  5
859
102
{ACAD_REACTORS
330
858
102
}
330
1F
100
AcDbEntity
  8
AM_5
100
AcDbBlockReference
  2
*S18
 10
0.0
 20
0.0
 30
0.0
  0
INSERT
  5
85B
102
{ACAD_REACTORS
330
85A
102
}
330
1F
100
AcDbEntity
  8
AM_12
100
AcDbBlockReference
  2
*S19
 10
0.0
 20
0.0
 30
0.0
  0
INSERT
  5
85E
102
{ACAD_REACTORS
330
85D
102
}
330
1F
100
AcDbEntity
  8
AM_5
100
AcDbBlockReference
  2
*S20
 10
0.0
 20
0.0
 30
0.0
  0
DIMENSION
  5
18DF
102
{ACAD_XDICTIONARY
360
18E0
102
}
102
{ACAD_REACTORS
330
18E1
102
}
330
1F
100
AcDbEntity
  8
AM_5
100
AcDbDimension
  2
*D6
 10
271.5606136665719
 20
283.6595937681529
 30
0.0
 11
242.5606136665718
 21
290.159593768153
 31
0.0
 70
    32
 71
     5
 42
58.00000000000022
  3
AM_ISO
100
AcDbAlignedDimension
 13
213.5606136665717
 23
259.409592768153
 33
0.0
 14
271.5606136665719
 24
237.109592768153
 34
0.0
100
AcDbRotatedDimension
1001
ACAD
1000
DSTYLE
1002
{
1070
    40
1040
2.0
1002
}
  0
DIMENSION
  5
18E2
330
1F
100
AcDbEntity
  8
AM_5
100
AcDbDimension
  2
*D7
 10
435.8790232457434
 20
283.6595927681526
 30
0.0
 11
400.3790232457433
 21
290.1595927681526
 31
0.0
 70
    32
 71
     5
 42
71.00000000000022
  3
AM_ISO
100
AcDbAlignedDimension
 13
364.8790232457432
 23
259.6595927681532
 33
0.0
 14
435.8790232457434
 24
259.659592768152
 34
0.0
100
AcDbRotatedDimension
1001
ACAD
1000
DSTYLE
1002
{
1070
    40
1040
2.0
1002
}
  0
LINE
  5
19C2
330
1F
100
AcDbEntity
  8
ﾎﾞﾃﾞｨｰ
100
AcDbLine
 10
253.3606136665718
 20
186.4095927681529
 30
0.0
 11
248.3606136665719
 21
185.609592768153
 31
0.0
  0
LINE
  5
19C4
330
1F
100
AcDbEntity
  8
ﾎﾞﾃﾞｨｰ
100
AcDbLine
 10
260.4606136665718
 20
193.609592768153
 30
0.0
 11
260.4606136665718
 21
194.4095927681529
 31
0.0
  0
LINE
  5
19C5
330
1F
100
AcDbEntity
  8
ﾎﾞﾃﾞｨｰ
100
AcDbLine
 10
258.9606136665718
 20
191.7095927681529
 30
0.0
 11
258.9606136665718
 21
193.4095927681529
 31
0.0
  0
LINE
  5
19C6
330
1F
100
AcDbEntity
  8
ﾎﾞﾃﾞｨｰ
100
AcDbLine
 10
258.9606136665718
 20
191.7095927681529
 30
0.0
 11
260.0606136665719
 21
191.7095927681529
 31
0.0
  0
LINE
  5
19C7
330
1F
100
AcDbEntity
  8
ﾎﾞﾃﾞｨｰ
100
AcDbLine
 10
258.9606136665718
 20
193.4095927681529
 30
0.0
 11
260.4606136665718
 21
194.4095927681529
 31
0.0
  0
LINE
  5
19CB
330
1F
100
AcDbEntity
  8
ﾎﾞﾃﾞｨｰ
100
AcDbLine
 10
226.5606136665718
 20
169.559592768153
 30
0.0
 11
226.5606136665718
 21
171.4595927681529
 31
0.0
  0
LINE
  5
19CC
330
1F
100
AcDbEntity
  8
ﾎﾞﾃﾞｨｰ
100
AcDbLine
 10
220.5606136665718
 20
171.4595927681529
 30
0.0
 11
226.5606136665718
 21
171.4595927681529
 31
0.0
  0
LINE
  5
19CD
330
1F
100
AcDbEntity
  8
ﾎﾞﾃﾞｨｰ
100
AcDbLine
 10
225.0606136665719
 20
184.109592768153
 30
0.0
 11
225.0606136665719
 21
185.609592768153
 31
0.0
  0
LINE
  5
19CE
330
1F
100
AcDbEntity
  8
ﾎﾞﾃﾞｨｰ
100
AcDbLine
 10
239.9606136665719
 20
184.109592768153
 30
0.0
 11
239.9606136665719
 21
185.609592768153
 31
0.0
  0
LINE
  5
19D0
330
1F
100
AcDbEntity
  8
ﾎﾞﾃﾞｨｰ
100
AcDbLine
 10
239.8606136665714
 20
169.559592768153
 30
0.0
 11
239.8606136665713
 21
169.834592768153
 31
0.0
  0
LINE
  5
19D1
330
1F
100
AcDbEntity
  8
ﾎﾞﾃﾞｨｰ
100
AcDbLine
 10
255.0606136665719
 20
186.609592768153
 30
0.0
 11
260.0606136665719
 21
186.4595927681529
 31
0.0
  0
LINE
  5
19D2
330
1F
100
AcDbEntity
  8
ﾎﾞﾃﾞｨｰ
100
AcDbLine
 10
255.0606136665719
 20
189.109592768153
 30
0.0
 11
260.0606136665719
 21
189.2595927681528
 31
0.0
  0
LINE
  5
19D3
330
1F
100
AcDbEntity
  8
ﾎﾞﾃﾞｨｰ
100
AcDbLine
 10
255.0606136665719
 20
186.609592768153
 30
0.0
 11
255.0606136665719
 21
189.109592768153
 31
0.0
  0
LINE
  5
19D4
330
1F
100
AcDbEntity
  8
ﾎﾞﾃﾞｨｰ
100
AcDbLine
 10
262.1606136665718
 20
194.609592768153
 30
0.0
 11
267.6606136665718
 21
194.609592768153
 31
0.0
  0
LINE
  5
19D5
330
1F
100
AcDbEntity
  8
ﾎﾞﾃﾞｨｰ
100
AcDbLine
 10
262.1606136665718
 20
194.609592768153
 30
0.0
 11
262.1606136665718
 21
197.609592768153
 31
0.0
  0
LINE
  5
19D6
330
1F
100
AcDbEntity
  8
ﾎﾞﾃﾞｨｰ
100
AcDbLine
 10
262.1606136665718
 20
197.609592768153
 30
0.0
 11
269.0606136665717
 21
197.609592768153
 31
0.0
  0
LINE
  5
19DA
330
1F
100
AcDbEntity
  8
ﾎﾞﾃﾞｨｰ
100
AcDbLine
 10
269.0606136665717
 20
211.5595927681531
 30
0.0
 11
267.6606136665718
 21
211.5595927681531
 31
0.0
  0
LINE
  5
19DB
330
1F
100
AcDbEntity
  8
ﾎﾞﾃﾞｨｰ
100
AcDbLine
 10
267.6606136665718
 20
212.3825927681529
 30
0.0
 11
267.6606136665718
 21
197.609592768153
 31
0.0
  0
LINE
  5
19DC
330
1F
100
AcDbEntity
  8
ﾎﾞﾃﾞｨｰ
100
AcDbLine
 10
269.0606136665717
 20
212.284592768153
 30
0.0
 11
269.0606136665717
 21
195.309592768153
 31
0.0
  0
LINE
  5
19DD
330
1F
100
AcDbEntity
  8
ﾎﾞﾃﾞｨｰ
100
AcDbLine
 10
269.0606136665717
 20
195.309592768153
 30
0.0
 11
269.0606136665719
 21
193.609592768153
 31
0.0
  0
LINE
  5
19DE
330
1F
100
AcDbEntity
  8
ﾎﾞﾃﾞｨｰ
100
AcDbLine
 10
267.6606136665718
 20
195.309592768153
 30
0.0
 11
267.6606136665718
 21
193.609592768153
 31
0.0
  0
LINE
  5
19DF
330
1F
100
AcDbEntity
  8
ﾎﾞﾃﾞｨｰ
100
AcDbLine
 10
267.6606136665718
 20
195.309592768153
 30
0.0
 11
269.0606136665717
 21
195.309592768153
 31
0.0
  0
LINE
  5
19E0
330
1F
100
AcDbEntity
  8
ﾎﾞﾃﾞｨｰ
100
AcDbLine
 10
253.3606136665718
 20
185.609592768153
 30
0.0
 11
261.5606136665719
 21
185.609592768153
 31
0.0
  0
LINE
  5
19E1
330
1F
100
AcDbEntity
  8
ﾎﾞﾃﾞｨｰ
100
AcDbLine
 10
253.3606136665718
 20
185.609592768153
 30
0.0
 11
253.3606136665718
 21
186.4095927681529
 31
0.0
  0
LINE
  5
19E2
330
1F
100
AcDbEntity
  8
ﾎﾞﾃﾞｨｰ
100
AcDbLine
 10
260.0606136665719
 20
185.609592768153
 30
0.0
 11
260.0606136665719
 21
191.7095927681529
 31
0.0
  0
LINE
  5
19E3
330
1F
100
AcDbEntity
  8
ﾎﾞﾃﾞｨｰ
100
AcDbLine
 10
225.0606136665719
 20
185.609592768153
 30
0.0
 11
248.3606136665719
 21
185.609592768153
 31
0.0
  0
LINE
  5
19E4
330
1F
100
AcDbEntity
  8
ﾎﾞﾃﾞｨｰ
100
AcDbLine
 10
260.4606136665718
 20
193.609592768153
 30
0.0
 11
271.5606136665719
 21
193.609592768153
 31
0.0
  0
LINE
  5
19E5
330
1F
100
AcDbEntity
  8
ﾎﾞﾃﾞｨｰ
100
AcDbLine
 10
260.0606136665719
 20
187.5095927681528
 30
0.0
 11
261.5606136665719
 21
187.5095927681531
 31
0.0
  0
LINE
  5
19E6
330
1F
100
AcDbEntity
  8
ﾎﾞﾃﾞｨｰ
100
AcDbLine
 10
261.5606136665719
 20
192.109592768153
 30
0.0
 11
261.5606136665719
 21
184.109592768153
 31
0.0
  0
LINE
  5
19E7
102
{ACAD_REACTORS
330
18E1
102
}
330
1F
100
AcDbEntity
  8
ﾎﾞﾃﾞｨｰ
100
AcDbLine
 10
271.5606136665719
 20
237.109592768153
 30
0.0
 11
271.5606136665719
 21
192.109592768153
 31
0.0
  0
LINE
  5
19E8
330
1F
100
AcDbEntity
  8
ﾎﾞﾃﾞｨｰ
100
AcDbLine
 10
261.5606136665719
 20
192.109592768153
 30
0.0
 11
271.5606136665719
 21
192.109592768153
 31
0.0
1001
GENIUS_GENODEF_13
1002
{
1000
HIER
1070
     0
1002
}
1002
{
1000
MANEDIT
1070
     0
1002
}
1002
{
1000
NOSEL
1070
     0
1002
}
1002
{
1000
BEHIND
1070
     0
1002
}
1002
{
1000
REACTOR
1002
}
1001
GENIUS_GENOBJ-N-CEN_13
1002
{
1000
OWNER
1000
GEN
1002
}
  0
LINE
  5
19EB
330
1F
100
AcDbEntity
  8
ﾎﾞﾃﾞｨｰ
100
AcDbLine
 10
225.0606136665719
 20
184.109592768153
 30
0.0
 11
238.8677565237148
 21
184.109592768153
 31
0.0
1001
GENIUS_GENODEF_13
1002
{
1000
HIER
1070
     0
1002
}
1002
{
1000
MANEDIT
1070
     0
1002
}
1002
{
1000
NOSEL
1070
     0
1002
}
1002
{
1000
BEHIND
1070
     0
1002
}
1002
{
1000
REACTOR
1002
}
1001
GENIUS_GENOBJ-N-CEN_13
1002
{
1000
OWNER
1000
GEN
1002
}
  0
LINE
  5
19ED
330
1F
100
AcDbEntity
  8
ﾎﾞﾃﾞｨｰ
100
AcDbLine
 10
220.5606136665718
 20
169.559592768153
 30
0.0
 11
239.8606136665714
 21
169.559592768153
 31
0.0
  0
LINE
  5
19F0
330
1F
100
AcDbEntity
  8
ﾍﾞｰｽ
100
AcDbLine
 10
223.5606136665718
 20
171.4595927681529
 30
0.0
 11
223.5606136665716
 21
257.759592768153
 31
0.0
  0
LINE
  5
19F1
330
1F
100
AcDbEntity
  8
ﾍﾞｰｽ
100
AcDbLine
 10
220.5606136665719
 20
181.9095927681529
 30
0.0
 11
220.5606136665717
 21
247.309592768153
 31
0.0
  0
LINE
  5
19F8
330
1F
100
AcDbEntity
  8
ﾍﾞｰｽ
100
AcDbLine
 10
213.5606136665719
 20
169.809592768153
 30
0.0
 11
213.5606136665719
 21
195.0095927681531
 31
0.0
  0
LINE
  5
19FD
330
1F
100
AcDbEntity
  8
ﾍﾞｰｽ
100
AcDbLine
 10
218.4606136665719
 20
196.109592768153
 30
0.0
 11
213.5606136665719
 21
195.0095927681531
 31
0.0
  0
LINE
  5
19FF
330
1F
100
AcDbEntity
  8
ﾍﾞｰｽ
100
AcDbLine
 10
217.0606136665719
 20
181.9095927681529
 30
0.0
 11
217.0606136665719
 21
175.4095927681529
 31
0.0
  0
LINE
  5
1A00
330
1F
100
AcDbEntity
  8
ﾍﾞｰｽ
100
AcDbLine
 10
220.5606136665719
 20
181.9095927681529
 30
0.0
 11
213.5606136665719
 21
181.9095927681529
 31
0.0
  0
LINE
  5
1A01
330
1F
100
AcDbEntity
  8
ﾍﾞｰｽ
100
AcDbLine
 10
220.5606136665719
 20
175.4095927681529
 30
0.0
 11
213.5606136665719
 21
175.4095927681529
 31
0.0
  0
LINE
  5
1A02
330
1F
100
AcDbEntity
  8
ﾍﾞｰｽ
100
AcDbLine
 10
223.5606136665718
 20
171.4595927681529
 30
0.0
 11
220.5606136665718
 21
171.4595927681529
 31
0.0
  0
LINE
  5
1A03
330
1F
100
AcDbEntity
  8
ﾍﾞｰｽ
100
AcDbLine
 10
220.5606136665719
 20
169.809592768153
 30
0.0
 11
220.5606136665719
 21
175.4095927681529
 31
0.0
  0
LINE
  5
1A05
102
{ACAD_REACTORS
330
1A61
102
}
330
1F
100
AcDbEntity
  8
ﾍﾞｰｽ
100
AcDbLine
 10
213.5606136665719
 20
169.809592768153
 30
0.0
 11
220.5606136665719
 21
169.809592768153
 31
0.0
  0
LINE
  5
1A08
330
1F
100
AcDbEntity
  8
ﾎﾞﾃﾞｨｰ
100
AcDbLine
 10
220.5606136665718
 20
169.559592768153
 30
0.0
 11
220.5606136665718
 21
171.4595927681529
 31
0.0
  0
LINE
  5
1A09
330
1F
100
AcDbEntity
  8
前面ﾊﾟﾈﾙ
100
AcDbLine
 10
269.0606136665719
 20
193.609592768153
 30
0.0
 11
271.5606136665712
 21
193.6095927681527
 31
0.0
  0
LINE
  5
1A0A
330
1F
100
AcDbEntity
  8
前面ﾊﾟﾈﾙ
100
AcDbLine
 10
266.5606136665719
 20
212.4595927681529
 30
0.0
 11
266.5606136665719
 21
216.7595927681531
 31
0.0
  0
LINE
  5
1A0B
330
1F
100
AcDbEntity
  8
前面ﾊﾟﾈﾙ
100
AcDbLine
 10
267.760613666572
 20
216.8435927681531
 30
0.0
 11
267.760613666572
 21
212.3818149903751
 31
0.0
  0
LINE
  5
1A0C
330
1F
100
AcDbEntity
  8
前面ﾊﾟﾈﾙ
100
AcDbLine
 10
269.0606136665717
 20
212.284592768153
 30
0.0
 11
266.5606136665719
 21
212.4595927681529
 31
0.0
  0
LINE
  5
1A0D
330
1F
100
AcDbEntity
  8
前面ﾊﾟﾈﾙ
100
AcDbLine
 10
269.0606136665715
 20
235.6095927681532
 30
0.0
 11
269.0606136665719
 21
193.609592768153
 31
0.0
  0
LINE
  5
1A0E
330
1F
100
AcDbEntity
  8
前面ﾊﾟﾈﾙ
100
AcDbLine
 10
271.5606136665719
 20
235.6095927681533
 30
0.0
 11
271.5606136665719
 21
193.6095927681527
 31
0.0
  0
LINE
  5
1A0F
330
1F
100
AcDbEntity
  8
前面ﾊﾟﾈﾙ
100
AcDbLine
 10
271.2606136665729
 20
234.9095927681533
 30
0.0
 11
271.2606136665706
 21
194.3095927681528
 31
0.0
  0
LINE
  5
1A10
330
1F
100
AcDbEntity
  8
前面ﾊﾟﾈﾙ
100
AcDbLine
 10
271.2606136665706
 20
194.3095927681528
 30
0.0
 11
271.5606136665719
 21
194.3095927681528
 31
0.0
  0
ARC
  5
1A13
330
1F
100
AcDbEntity
  8
ﾀｰﾐﾅﾙｶﾊﾞｰ
100
AcDbCircle
 10
235.7606136665719
 20
171.859592768153
 30
0.0
 40
0.5
100
AcDbArc
 50
180.0
 51
270.0
1001
GENIUS_GENODEF_13
1002
{
1000
HIER
1070
     0
1002
}
1002
{
1000
MANEDIT
1070
     0
1002
}
1002
{
1000
NOSEL
1070
     0
1002
}
1002
{
1000
BEHIND
1070
     0
1002
}
1002
{
1000
REACTOR
1002
}
1001
GENIUS_GENOBJ-N-FIL_13
1002
{
1000
OWNER
1000
GEN
1002
}
  0
ARC
  5
1A14
330
1F
100
AcDbEntity
  8
ﾀｰﾐﾅﾙｶﾊﾞｰ
100
AcDbCircle
 10
235.7606136665719
 20
183.359592768153
 30
0.0
 40
0.5
100
AcDbArc
 50
90.0
 51
180.0
1001
GENIUS_GENODEF_13
1002
{
1000
HIER
1070
     0
1002
}
1002
{
1000
MANEDIT
1070
     0
1002
}
1002
{
1000
NOSEL
1070
     0
1002
}
1002
{
1000
BEHIND
1070
     0
1002
}
1002
{
1000
REACTOR
1002
}
1001
GENIUS_GENOBJ-N-FIL_13
1002
{
1000
OWNER
1000
GEN
1002
}
  0
LINE
  5
1A15
330
1F
100
AcDbEntity
  8
ﾀｰﾐﾅﾙｶﾊﾞｰ
100
AcDbLine
 10
244.9606136665719
 20
171.359592768153
 30
0.0
 11
226.5606136665719
 21
171.359592768153
 31
0.0
  0
LINE
  5
1A16
330
1F
100
AcDbEntity
  8
ﾀｰﾐﾅﾙｶﾊﾞｰ
100
AcDbLine
 10
240.0606136665711
 20
183.859592768153
 30
0.0
 11
239.960613666572
 21
183.8595927681528
 31
0.0
  0
LINE
  5
1A17
330
1F
100
AcDbEntity
  8
ﾀｰﾐﾅﾙｶﾊﾞｰ
100
AcDbLine
 10
235.2606136665719
 20
183.359592768153
 30
0.0
 11
235.2606136665719
 21
171.859592768153
 31
0.0
  0
LINE
  5
1A18
330
1F
100
AcDbEntity
  8
ﾀｰﾐﾅﾙｶﾊﾞｰ
100
AcDbLine
 10
246.5606136665718
 20
170.0595927681531
 30
0.0
 11
240.0606136665707
 21
169.859592768153
 31
0.0
  0
LINE
  5
1A19
330
1F
100
AcDbEntity
  8
ﾀｰﾐﾅﾙｶﾊﾞｰ
100
AcDbLine
 10
240.0606136665711
 20
183.859592768153
 30
0.0
 11
246.5606136665718
 21
183.659592768153
 31
0.0
  0
LINE
  5
1A1A
330
1F
100
AcDbEntity
  8
ﾀｰﾐﾅﾙｶﾊﾞｰ
100
AcDbLine
 10
240.0606136665707
 20
169.859592768153
 30
0.0
 11
226.5606136665719
 21
169.859592768153
 31
0.0
  0
LINE
  5
1A1B
330
1F
100
AcDbEntity
  8
ﾀｰﾐﾅﾙｶﾊﾞｰ
100
AcDbLine
 10
226.5606136665719
 20
171.359592768153
 30
0.0
 11
226.5606136665719
 21
169.859592768153
 31
0.0
  0
LINE
  5
1A1C
330
1F
100
AcDbEntity
  8
ﾀｰﾐﾅﾙｶﾊﾞｰ
100
AcDbLine
 10
246.5606136665718
 20
183.659592768153
 30
0.0
 11
246.5606136665718
 21
170.0595927681531
 31
0.0
  0
LINE
  5
1A1D
330
1F
100
AcDbEntity
  8
ﾀｰﾐﾅﾙｶﾊﾞｰ
100
AcDbLine
 10
246.5606136665718
 20
182.659592768153
 30
0.0
 11
246.2606136665718
 21
182.659592768153
 31
0.0
  0
LINE
  5
1A1E
330
1F
100
AcDbEntity
  8
ﾀｰﾐﾅﾙｶﾊﾞｰ
100
AcDbLine
 10
246.2606136665718
 20
182.659592768153
 30
0.0
 11
246.2606136665718
 21
171.0595927681531
 31
0.0
  0
LINE
  5
1A1F
330
1F
100
AcDbEntity
  8
ﾀｰﾐﾅﾙｶﾊﾞｰ
100
AcDbLine
 10
246.2606136665718
 20
171.0595927681531
 30
0.0
 11
246.560613666572
 21
171.0595927681531
 31
0.0
  0
LINE
  5
1A20
330
1F
100
AcDbEntity
  8
ﾀｰﾐﾅﾙｶﾊﾞｰ
100
AcDbLine
 10
236.5606136665719
 20
183.8595927681528
 30
0.0
 11
236.5606136665719
 21
182.659592768153
 31
0.0
  0
LINE
  5
1A21
330
1F
100
AcDbEntity
  8
ﾀｰﾐﾅﾙｶﾊﾞｰ
100
AcDbLine
 10
236.5606136665719
 20
182.659592768153
 30
0.0
 11
244.9606136665719
 21
182.659592768153
 31
0.0
  0
LINE
  5
1A22
330
1F
100
AcDbEntity
  8
ﾀｰﾐﾅﾙｶﾊﾞｰ
100
AcDbLine
 10
244.9606136665719
 20
182.659592768153
 30
0.0
 11
244.9606136665719
 21
171.359592768153
 31
0.0
  0
LINE
  5
1A23
330
1F
100
AcDbEntity
  8
ﾀｰﾐﾅﾙｶﾊﾞｰ
100
AcDbLine
 10
239.960613666572
 20
183.859592768153
 30
0.0
 11
239.960613666572
 21
184.5595927681529
 31
0.0
  0
LINE
  5
1A24
330
1F
100
AcDbEntity
  8
ﾀｰﾐﾅﾙｶﾊﾞｰ
100
AcDbLine
 10
239.960613666572
 20
184.5595927681529
 30
0.0
 11
238.260613666572
 21
183.859592768153
 31
0.0
  0
LINE
  5
1A25
330
1F
100
AcDbEntity
  8
ﾀｰﾐﾅﾙｶﾊﾞｰ
100
AcDbLine
 10
238.260613666572
 20
183.8595927681528
 30
0.0
 11
235.7606136665719
 21
183.8595927681528
 31
0.0
  0
LINE
  5
1A26
330
1F
100
AcDbEntity
  8
ﾎﾞﾃﾞｨｰ
100
AcDbLine
 10
239.9606136665718
 20
184.109592768153
 30
0.0
 11
261.5606136665719
 21
184.109592768153
 31
0.0
1001
GENIUS_GENODEF_13
1002
{
1000
HIER
1070
     0
1002
}
1002
{
1000
MANEDIT
1070
     0
1002
}
1002
{
1000
NOSEL
1070
     0
1002
}
1002
{
1000
BEHIND
1070
     0
1002
}
1002
{
1000
REACTOR
1002
}
1001
GENIUS_GENOBJ-N-CEN_13
1002
{
1000
OWNER
1000
GEN
1002
}
  0
HATCH
  5
1A27
330
1F
100
AcDbEntity
  8
AM_8
100
AcDbHatch
 10
0.0
 20
0.0
 30
0.0
210
0.0
220
0.0
230
1.0
  2
_U
 70
     0
 71
     0
 91
        1
 92
        1
 93
       17
 72
     1
 10
246.5606136665718
 20
182.659592768153
 11
246.5606136665718
 21
183.659592768153
 72
     1
 10
246.5606136665718
 20
183.659592768153
 11
240.060613666571
 21
183.859592768153
 72
     1
 10
240.0606136665711
 20
183.859592768153
 11
239.9606136665719
 21
183.859592768153
 72
     1
 10
239.960613666572
 20
183.8595927681528
 11
239.960613666572
 21
184.5595927681529
 72
     1
 10
239.960613666572
 20
184.5595927681529
 11
238.260613666572
 21
183.8595927681529
 72
     1
 10
238.260613666572
 20
183.859592768153
 11
236.5606136665719
 21
183.8595927681529
 72
     1
 10
236.5606136665719
 20
183.8595927681528
 11
236.5606136665719
 21
182.6595927681529
 72
     1
 10
236.5606136665719
 20
182.659592768153
 11
244.9606136665719
 21
182.659592768153
 72
     1
 10
244.9606136665719
 20
182.659592768153
 11
244.9606136665719
 21
171.359592768153
 72
     1
 10
244.9606136665719
 20
171.359592768153
 11
226.5606136665719
 21
171.3595927681532
 72
     1
 10
226.5606136665719
 20
171.359592768153
 11
226.5606136665719
 21
169.8595927681529
 72
     1
 10
226.5606136665719
 20
169.859592768153
 11
240.0606136665707
 21
169.859592768153
 72
     1
 10
240.0606136665707
 20
169.859592768153
 11
246.5606136665719
 21
170.0595927681531
 72
     1
 10
246.5606136665718
 20
170.0595927681531
 11
246.5606136665718
 21
171.0595927681531
 72
     1
 10
246.5606136665718
 20
171.0595927681531
 11
246.2606136665718
 21
171.0595927681531
 72
     1
 10
246.2606136665718
 20
171.0595927681531
 11
246.2606136665718
 21
182.659592768153
 72
     1
 10
246.2606136665718
 20
182.659592768153
 11
246.5606136665718
 21
182.659592768153
 97
        0
 75
     0
 76
     0
 52
-45.00000000000001
 41
5.0
 77
     0
 78
     1
 53
315.0
 43
-97.25505780246948
 44
484.1160744259506
 45
3.535533905932738
 46
3.535533905932736
 79
     0
 98
        1
 10
-97.25505780246948
 20
484.1160744259506
1001
GENIUS_GENOBJ-N-HTC_13
1002
{
1000
OWNER
1000
GEN
1002
}
1001
GENIUS_GENODEF_13
1002
{
1000
HIER
1070
     0
1002
}
1002
{
1000
MANEDIT
1070
     0
1002
}
1002
{
1000
NOSEL
1070
     0
1002
}
1002
{
1000
BEHIND
1070
     0
1002
}
1002
{
1000
OTHER
1070
     0
1002
}
1002
{
1000
REACTOR
1002
}
1001
GENIUS_GENHATCH_13
1002
{
1000
DATA
1040
45.0
1042
2.5
1000
_U
1070
     0
1011
245.6399330517025
1021
177.5311549088232
1031
0.0
1002
}
1002
{
1000
UCS
1010
0.0
1020
0.0
1030
0.0
1010
1.0
1020
0.0
1030
0.0
1010
0.0
1020
1.0
1030
0.0
1002
}
  0
LINE
  5
1A2C
330
1F
100
AcDbEntity
  8
ﾎｯｸ
100
AcDbLine
 10
215.9606136665719
 20
169.809592768153
 30
0.0
 11
215.9606136665719
 21
165.309592768153
 31
0.0
  0
LINE
  5
1A2D
330
1F
100
AcDbEntity
  8
ﾎｯｸ
100
AcDbLine
 10
219.4606136665719
 20
165.309592768153
 30
0.0
 11
219.4606136665719
 21
169.809592768153
 31
0.0
  0
LINE
  5
1A2E
330
1F
100
AcDbEntity
  8
ﾎｯｸ
100
AcDbLine
 10
214.0606136665719
 20
195.1218376661121
 30
0.0
 11
214.0606136665718
 21
197.309592768153
 31
0.0
  0
LINE
  5
1A2F
330
1F
100
AcDbEntity
  8
ﾎｯｸ
100
AcDbLine
 10
214.0606136665718
 20
197.309592768153
 30
0.0
 11
216.0606136665718
 21
199.309592768153
 31
0.0
  0
LINE
  5
1A30
330
1F
100
AcDbEntity
  8
ﾎｯｸ
100
AcDbLine
 10
216.0606136665718
 20
199.309592768153
 30
0.0
 11
217.0606136665718
 21
197.309592768153
 31
0.0
  0
LINE
  5
1A31
330
1F
100
AcDbEntity
  8
ﾎｯｸ
100
AcDbLine
 10
217.0606136665718
 20
197.309592768153
 30
0.0
 11
218.4606136665719
 21
197.309592768153
 31
0.0
  0
LINE
  5
1A32
330
1F
100
AcDbEntity
  8
ﾍﾞｰｽ
100
AcDbLine
 10
218.4606136665719
 20
196.109592768153
 30
0.0
 11
218.4606136665717
 21
232.409592768153
 31
0.0
  0
LINE
  5
1A33
330
1F
100
AcDbEntity
  8
ﾎｯｸ
100
AcDbLine
 10
215.9606136665719
 20
165.309592768153
 30
0.0
 11
219.4606136665719
 21
165.309592768153
 31
0.0
  0
DIMENSION
  5
1A5F
102
{ACAD_XDICTIONARY
360
1A60
102
}
102
{ACAD_REACTORS
330
1A61
102
}
330
1F
100
AcDbEntity
  8
AM_5
100
AcDbDimension
  2
*D8
 10
189.5606126665717
 20
259.4095927681529
 30
0.0
 11
183.0606126665717
 21
214.609592768153
 31
0.0
 70
    32
 71
     5
 42
89.59999999999984
  3
AM_ISO
100
AcDbAlignedDimension
 13
213.5606136665719
 23
169.809592768153
 33
0.0
 14
213.5606136665718
 24
259.4095927681529
 34
0.0
 50
90.0
100
AcDbRotatedDimension
1001
ACAD
1000
DSTYLE
1002
{
1070
    40
1040
2.0
1002
}
  0
INSERT
  5
1EE8
102
{ACAD_REACTORS
330
1E3
102
}
330
1F
100
AcDbEntity
  8
0
100
AcDbBlockReference
  2
*S21
 10
0.0
 20
0.0
 30
0.0
  0
HATCH
  5
1F1E
330
1F
100
AcDbEntity
  8
AM_8
100
AcDbHatch
 10
0.0
 20
0.0
 30
0.0
210
0.0
220
0.0
230
1.0
  2
_U
 70
     0
 71
     0
 91
        1
 92
        1
 93
        5
 72
     1
 10
226.5606136665719
 20
171.359592768153
 11
226.5606136665718
 21
171.4595927681529
 72
     1
 10
226.5606136665718
 20
171.4595927681529
 11
220.5606136665718
 21
171.4595927681529
 72
     1
 10
220.5606136665718
 20
171.4595927681529
 11
220.5606136665718
 21
169.559592768153
 72
     1
 10
220.5606136665718
 20
169.559592768153
 11
226.5606136665718
 21
169.559592768153
 72
     1
 10
226.5606136665718
 20
169.559592768153
 11
226.5606136665719
 21
171.359592768153
 97
        0
 75
     0
 76
     0
 52
45.0
 41
3.0
 77
     0
 78
     1
 53
45.0
 43
7.037802768641427
 44
8.185208782726022
 45
-2.121320343559642
 46
2.121320343559642
 79
     0
 98
        1
 10
6.037802768641427
 20
8.185208782726022
1001
GENIUS_GENODEF_13
1002
{
1000
HIER
1070
     0
1002
}
1002
{
1000
MANEDIT
1070
     0
1002
}
1002
{
1000
NOSEL
1070
     0
1002
}
1002
{
1000
BEHIND
1070
     0
1002
}
1002
{
1000
OTHER
1070
     0
1002
}
1002
{
1000
REACTOR
1002
}
1001
GENIUS_GENOBJ-N-HTC_13
1002
{
1000
OWNER
1000
GEN
1002
}
1001
GENIUS_GENHATCH_13
1002
{
1000
DATA
1040
45.0
1042
1.5
1000
_U
1070
     0
1011
224.1108842038258
1021
170.3966559433106
1031
0.0
1002
}
1002
{
1000
UCS
1010
0.0
1020
0.0
1030
0.0
1010
1.0
1020
0.0
1030
0.0
1010
0.0
1020
1.0
1030
0.0
1002
}
  0
HATCH
  5
1F23
330
1F
100
AcDbEntity
  8
AM_8
100
AcDbHatch
 10
0.0
 20
0.0
 30
0.0
210
0.0
220
0.0
230
1.0
  2
_U
 70
     0
 71
     0
 91
        1
 92
        1
 93
        7
 72
     1
 10
261.5606136665719
 20
185.609592768153
 11
253.3606136665718
 21
185.609592768153
 72
     1
 10
253.3606136665718
 20
185.609592768153
 11
253.3606136665718
 21
186.4095927681529
 72
     1
 10
253.3606136665718
 20
186.4095927681529
 11
248.3606136665719
 21
185.609592768153
 72
     1
 10
248.3606136665719
 20
185.609592768153
 11
239.9606136665719
 21
185.609592768153
 72
     1
 10
239.9606136665719
 20
185.609592768153
 11
239.9606136665718
 21
184.109592768153
 72
     1
 10
239.9606136665718
 20
184.109592768153
 11
261.5606136665719
 21
184.109592768153
 72
     1
 10
261.5606136665719
 20
184.109592768153
 11
261.5606136665719
 21
185.609592768153
 97
        0
 75
     0
 76
     0
 52
45.0
 41
3.0
 77
     0
 78
     1
 53
45.0
 43
7.037802768641427
 44
8.185208782726022
 45
-2.121320343559642
 46
2.121320343559642
 79
     0
 98
        1
 10
6.037802768641427
 20
8.185208782726022
1001
GENIUS_GENODEF_13
1002
{
1000
HIER
1070
     0
1002
}
1002
{
1000
MANEDIT
1070
     0
1002
}
1002
{
1000
NOSEL
1070
     0
1002
}
1002
{
1000
BEHIND
1070
     0
1002
}
1002
{
1000
OTHER
1070
     0
1002
}
1002
{
1000
REACTOR
1002
}
1001
GENIUS_GENOBJ-N-HTC_13
1002
{
1000
OWNER
1000
GEN
1002
}
1001
GENIUS_GENHATCH_13
1002
{
1000
DATA
1040
45.0
1042
1.5
1000
_U
1070
     0
1011
252.2653427116392
1021
184.9290562393262
1031
0.0
1002
}
1002
{
1000
UCS
1010
0.0
1020
0.0
1030
0.0
1010
1.0
1020
0.0
1030
0.0
1010
0.0
1020
1.0
1030
0.0
1002
}
  0
HATCH
  5
1F27
330
1F
100
AcDbEntity
  8
AM_8
100
AcDbHatch
 10
0.0
 20
0.0
 30
0.0
210
0.0
220
0.0
230
1.0
  2
_U
 70
     0
 71
     0
 91
        1
 92
        1
 93
       10
 72
     1
 10
260.4606136665718
 20
194.4095927681529
 11
258.9606136665718
 21
193.4095927681529
 72
     1
 10
258.9606136665718
 20
193.4095927681529
 11
258.9606136665718
 21
191.7095927681529
 72
     1
 10
258.9606136665718
 20
191.7095927681529
 11
260.0606136665719
 21
191.7095927681529
 72
     1
 10
260.0606136665719
 20
191.7095927681529
 11
260.0606136665719
 21
187.5095927681528
 72
     1
 10
260.0606136665719
 20
187.5095927681528
 11
261.5606136665719
 21
187.5095927681531
 72
     1
 10
261.5606136665719
 20
187.5095927681531
 11
261.5606136665719
 21
192.109592768153
 72
     1
 10
261.5606136665719
 20
192.109592768153
 11
271.5606136665719
 21
192.109592768153
 72
     1
 10
271.5606136665719
 20
192.109592768153
 11
271.5606136665719
 21
193.609592768153
 72
     1
 10
271.5606136665719
 20
193.609592768153
 11
260.4606136665718
 21
193.609592768153
 72
     1
 10
260.4606136665718
 20
193.609592768153
 11
260.4606136665718
 21
194.4095927681529
 97
        0
 75
     0
 76
     0
 52
45.0
 41
3.0
 77
     0
 78
     1
 53
45.0
 43
7.037802768641427
 44
8.185208782726022
 45
-2.121320343559642
 46
2.121320343559642
 79
     0
 98
        1
 10
6.037802768641427
 20
8.185208782726022
1001
GENIUS_GENOBJ-N-HTC_13
1002
{
1000
OWNER
1000
GEN
1002
}
1001
GENIUS_GENODEF_13
1002
{
1000
HIER
1070
     0
1002
}
1002
{
1000
MANEDIT
1070
     0
1002
}
1002
{
1000
NOSEL
1070
     0
1002
}
1002
{
1000
BEHIND
1070
     0
1002
}
1002
{
1000
OTHER
1070
     0
1002
}
1002
{
1000
REACTOR
1002
}
1001
GENIUS_GENHATCH_13
1002
{
1000
DATA
1040
45.0
1042
1.5
1000
_U
1070
     0
1011
261.0700092686715
1021
192.8093010540233
1031
0.0
1002
}
1002
{
1000
UCS
1010
0.0
1020
0.0
1030
0.0
1010
1.0
1020
0.0
1030
0.0
1010
0.0
1020
1.0
1030
0.0
1002
}
  0
LINE
  5
1F58
330
1F
100
AcDbEntity
  8
ﾎﾞﾃﾞｨｰ
100
AcDbLine
 10
560.8974328249164
 20
245.1095927681688
 30
0.0
 11
560.8974328249169
 21
259.6595927681687
 31
0.0
  0
LINE
  5
1F60
330
1F
100
AcDbEntity
  8
ﾎﾞﾃﾞｨｰ
100
AcDbLine
 10
586.0974328249154
 20
253.2595927681684
 30
0.0
 11
586.0974328249154
 21
247.7595927681684
 31
0.0
  0
LINE
  5
1F61
330
1F
100
AcDbEntity
  8
ﾎﾞﾃﾞｨｰ
100
AcDbLine
 10
586.0974328249154
 20
253.2595927681684
 30
0.0
 11
580.1974328249155
 21
253.4595927681684
 31
0.0
  0
LINE
  5
1F62
330
1F
100
AcDbEntity
  8
ﾎﾞﾃﾞｨｰ
100
AcDbLine
 10
586.0974328249154
 20
247.7595927681684
 30
0.0
 11
580.1974328249153
 21
247.5595927681685
 31
0.0
  0
LINE
  5
1F70
330
1F
100
AcDbEntity
  8
ﾎﾞﾃﾞｨｰ
100
AcDbLine
 10
529.1974328249152
 20
237.1095927681693
 30
0.0
 11
529.1974328249144
 21
192.1095927681693
 31
0.0
  0
LINE
  5
1F72
330
1F
100
AcDbEntity
  8
ﾎﾞﾃﾞｨｰ
100
AcDbLine
 10
539.1974328249151
 20
237.1095927681691
 30
0.0
 11
529.1974328249152
 21
237.1095927681693
 31
0.0
1001
GENIUS_GENODEF_13
1002
{
1000
HIER
1070
     0
1002
}
1002
{
1000
MANEDIT
1070
     0
1002
}
1002
{
1000
NOSEL
1070
     0
1002
}
1002
{
1000
BEHIND
1070
     0
1002
}
1002
{
1000
REACTOR
1002
}
1001
GENIUS_GENOBJ-N-CEN_13
1002
{
1000
OWNER
1000
GEN
1002
}
  0
LINE
  5
1F73
330
1F
100
AcDbEntity
  8
ﾎﾞﾃﾞｨｰ
100
AcDbLine
 10
560.8974328249164
 20
245.1095927681688
 30
0.0
 11
539.1974328249152
 21
245.1095927681691
 31
0.0
1001
GENIUS_GENODEF_13
1002
{
1000
HIER
1070
     0
1002
}
1002
{
1000
MANEDIT
1070
     0
1002
}
1002
{
1000
NOSEL
1070
     0
1002
}
1002
{
1000
BEHIND
1070
     0
1002
}
1002
{
1000
REACTOR
1002
}
1001
GENIUS_GENOBJ-N-CEN_13
1002
{
1000
OWNER
1000
GEN
1002
}
  0
LINE
  5
1F75
330
1F
100
AcDbEntity
  8
ﾎﾞﾃﾞｨｰ
100
AcDbLine
 10
539.1974328249152
 20
245.1095927681691
 30
0.0
 11
539.1974328249151
 21
237.1095927681691
 31
0.0
  0
LINE
  5
1F77
330
1F
100
AcDbEntity
  8
ﾎﾞﾃﾞｨｰ
100
AcDbLine
 10
580.1974328249156
 20
259.6595927681684
 30
0.0
 11
560.8974328249169
 21
259.6595927681687
 31
0.0
  0
LINE
  5
1F78
330
1F
100
AcDbEntity
  8
ﾎﾞﾃﾞｨｰ
100
AcDbLine
 10
580.1974328249156
 20
259.6595927681684
 30
0.0
 11
580.1974328249155
 21
253.4595927681684
 31
0.0
  0
LINE
  5
1F7A
330
1F
100
AcDbEntity
  8
ﾍﾞｰｽ
100
AcDbLine
 10
580.1974328249142
 20
181.9095927681684
 30
0.0
 11
580.1974328249155
 21
247.3095927681685
 31
0.0
  0
LINE
  5
1F7B
330
1F
100
AcDbEntity
  8
ﾍﾞｰｽ
100
AcDbLine
 10
587.197432824915
 20
229.7095927681683
 30
0.0
 11
587.1974328249157
 21
259.4095927681683
 31
0.0
  0
LINE
  5
1F7C
330
1F
100
AcDbEntity
  8
ﾍﾞｰｽ
100
AcDbLine
 10
583.8974328249155
 20
247.3095927681684
 30
0.0
 11
583.8974328249154
 21
247.6850164969819
 31
0.0
  0
LINE
  5
1F7D
330
1F
100
AcDbEntity
  8
ﾍﾞｰｽ
100
AcDbLine
 10
580.1974328249156
 20
253.9095927681684
 30
0.0
 11
587.1974328249156
 21
253.9095927681683
 31
0.0
  0
LINE
  5
1F7E
330
1F
100
AcDbEntity
  8
ﾍﾞｰｽ
100
AcDbLine
 10
580.1974328249157
 20
259.4095927681684
 30
0.0
 11
587.1974328249157
 21
259.4095927681683
 31
0.0
  0
LINE
  5
1F7F
330
1F
100
AcDbEntity
  8
ﾍﾞｰｽ
100
AcDbLine
 10
580.1974328249156
 20
253.9095927681684
 30
0.0
 11
580.1974328249157
 21
259.4095927681684
 31
0.0
  0
LINE
  5
1F80
330
1F
100
AcDbEntity
  8
ﾍﾞｰｽ
100
AcDbLine
 10
580.1974328249155
 20
247.3095927681685
 30
0.0
 11
587.1974328249154
 21
247.3095927681684
 31
0.0
  0
LINE
  5
1F81
330
1F
100
AcDbEntity
  8
ﾍﾞｰｽ
100
AcDbLine
 10
587.197432824914
 20
169.8095927681684
 30
0.0
 11
587.1974328249145
 21
195.0095927681684
 31
0.0
  0
LINE
  5
1F82
330
1F
100
AcDbEntity
  8
ﾍﾞｰｽ
100
AcDbLine
 10
582.2974328249151
 20
232.4095927681684
 30
0.0
 11
587.1974328249151
 21
232.4095927681683
 31
0.0
  0
LINE
  5
1F83
330
1F
100
AcDbEntity
  8
ﾍﾞｰｽ
100
AcDbLine
 10
585.1974328249151
 20
229.7095927681683
 30
0.0
 11
583.1974328249152
 21
232.4095927681684
 31
0.0
  0
LINE
  5
1F85
330
1F
100
AcDbEntity
  8
ﾍﾞｰｽ
100
AcDbLine
 10
585.1974328249151
 20
229.7095927681683
 30
0.0
 11
587.1974328249151
 21
229.7095927681683
 31
0.0
  0
LINE
  5
1F86
330
1F
100
AcDbEntity
  8
ﾍﾞｰｽ
100
AcDbLine
 10
582.2974328249144
 20
196.1095927681684
 30
0.0
 11
587.1974328249145
 21
195.0095927681684
 31
0.0
  0
LINE
  5
1F88
330
1F
100
AcDbEntity
  8
ﾍﾞｰｽ
100
AcDbLine
 10
583.6974328249142
 20
181.9095927681683
 30
0.0
 11
583.6974328249142
 21
181.5409487003714
 31
0.0
  0
LINE
  5
1F89
330
1F
100
AcDbEntity
  8
ﾍﾞｰｽ
100
AcDbLine
 10
580.1974328249142
 20
181.9095927681684
 30
0.0
 11
587.1974328249142
 21
181.9095927681683
 31
0.0
  0
LINE
  5
1F8A
330
1F
100
AcDbEntity
  8
ﾍﾞｰｽ
100
AcDbLine
 10
580.197432824914
 20
175.4095927681684
 30
0.0
 11
587.197432824914
 21
175.4095927681683
 31
0.0
  0
LINE
  5
1F8C
330
1F
100
AcDbEntity
  8
ﾍﾞｰｽ
100
AcDbLine
 10
580.197432824914
 20
169.8095927681685
 30
0.0
 11
580.197432824914
 21
175.4095927681684
 31
0.0
  0
LINE
  5
1F8E
330
1F
100
AcDbEntity
  8
ﾍﾞｰｽ
100
AcDbLine
 10
587.197432824914
 20
169.8095927681684
 30
0.0
 11
580.197432824914
 21
169.8095927681685
 31
0.0
  0
LINE
  5
1F8F
330
1F
100
AcDbEntity
  8
ﾎﾞﾃﾞｨｰ
100
AcDbLine
 10
580.1974328249153
 20
247.5595927681685
 30
0.0
 11
580.1974328249144
 21
181.6595927681681
 31
0.0
  0
LINE
  5
1F90
330
1F
100
AcDbEntity
  8
ﾍﾞｰｽ
100
AcDbLine
 10
583.8974328249157
 20
253.334169039355
 30
0.0
 11
583.8974328249157
 21
253.9095927681683
 31
0.0
  0
LINE
  5
1FB0
330
1F
100
AcDbEntity
  8
ﾀｰﾐﾅﾙｶﾊﾞｰ
100
AcDbLine
 10
554.1974328249154
 20
245.5595927681688
 30
0.0
 11
554.1974328249157
 21
259.1595927681688
 31
0.0
  0
LINE
  5
1FB1
330
1F
100
AcDbEntity
  8
ﾀｰﾐﾅﾙｶﾊﾞｰ
100
AcDbLine
 10
560.8974328249164
 20
245.3595927681687
 30
0.0
 11
554.1974328249154
 21
245.5595927681688
 31
0.0
  0
LINE
  5
1FB2
330
1F
100
AcDbEntity
  8
ﾀｰﾐﾅﾙｶﾊﾞｰ
100
AcDbLine
 10
554.1974328249157
 20
259.1595927681688
 30
0.0
 11
560.6974328249168
 21
259.3595927681688
 31
0.0
  0
LINE
  5
1FB3
330
1F
100
AcDbEntity
  8
ﾀｰﾐﾅﾙｶﾊﾞｰ
100
AcDbLine
 10
560.8974328249169
 20
259.3595927681688
 30
0.0
 11
560.6974328249168
 21
259.3595927681688
 31
0.0
  0
LINE
  5
1FB4
330
1F
100
AcDbEntity
  8
ﾎｯｸ
100
AcDbLine
 10
584.797432824914
 20
169.8095927681684
 30
0.0
 11
584.7974328249139
 21
165.3095927681684
 31
0.0
  0
LINE
  5
1FB5
330
1F
100
AcDbEntity
  8
ﾎｯｸ
100
AcDbLine
 10
581.2974328249139
 20
165.3095927681684
 30
0.0
 11
581.297432824914
 21
169.8095927681684
 31
0.0
  0
LINE
  5
1FB6
330
1F
100
AcDbEntity
  8
ﾎｯｸ
100
AcDbLine
 10
586.6974328249145
 20
195.1218376661275
 30
0.0
 11
586.6974328249145
 21
197.3095927681684
 31
0.0
  0
LINE
  5
1FB7
330
1F
100
AcDbEntity
  8
ﾎｯｸ
100
AcDbLine
 10
586.6974328249145
 20
197.3095927681684
 30
0.0
 11
584.6974328249145
 21
199.3095927681684
 31
0.0
  0
LINE
  5
1FB8
330
1F
100
AcDbEntity
  8
ﾎｯｸ
100
AcDbLine
 10
584.6974328249145
 20
199.3095927681684
 30
0.0
 11
583.6974328249145
 21
197.3095927681684
 31
0.0
  0
LINE
  5
1FB9
330
1F
100
AcDbEntity
  8
ﾎｯｸ
100
AcDbLine
 10
583.6974328249145
 20
197.3095927681684
 30
0.0
 11
582.2974328249144
 21
197.3095927681684
 31
0.0
  0
LINE
  5
1FBA
330
1F
100
AcDbEntity
  8
ﾍﾞｰｽ
100
AcDbLine
 10
582.2974328249144
 20
196.1095927681684
 30
0.0
 11
582.2974328249151
 21
232.4095927681684
 31
0.0
  0
LINE
  5
1FBB
330
1F
100
AcDbEntity
  8
ﾎｯｸ
100
AcDbLine
 10
584.7974328249139
 20
165.3095927681684
 30
0.0
 11
581.2974328249139
 21
165.3095927681684
 31
0.0
  0
LINE
  5
2061
330
1F
100
AcDbEntity
  8
ﾎﾞﾃﾞｨｰ
100
AcDbLine
 10
220.5606136665718
 20
259.6595927681528
 30
0.0
 11
220.5606136665718
 21
257.7595927681529
 31
0.0
  0
HATCH
  5
2062
330
1F
100
AcDbEntity
  8
AM_8
100
AcDbHatch
 10
0.0
 20
0.0
 30
0.0
210
0.0
220
0.0
230
1.0
  2
_USER
 70
     0
 71
     0
 91
        1
 92
        1
 93
       17
 72
     1
 10
236.5606136665717
 20
245.3595927681531
 11
238.2606136665718
 21
245.3595927681529
 72
     1
 10
238.2606136665718
 20
245.3595927681529
 11
239.9606136665719
 21
244.659592768153
 72
     1
 10
239.9606136665719
 20
244.659592768153
 11
239.9606136665719
 21
245.3595927681529
 72
     1
 10
239.9606136665719
 20
245.3595927681529
 11
240.0606136665711
 21
245.3595927681529
 72
     1
 10
240.060613666571
 20
245.3595927681529
 11
246.5606136665718
 21
245.559592768153
 72
     1
 10
246.5606136665718
 20
245.559592768153
 11
246.5606136665718
 21
246.559592768153
 72
     1
 10
246.5606136665718
 20
246.559592768153
 11
246.2606136665718
 21
246.559592768153
 72
     1
 10
246.2606136665717
 20
246.559592768153
 11
246.2606136665716
 21
258.1595927681529
 72
     1
 10
246.2606136665717
 20
258.1595927681529
 11
246.5606136665718
 21
258.1595927681529
 72
     1
 10
246.5606136665717
 20
258.1595927681529
 11
246.5606136665717
 21
259.1595927681529
 72
     1
 10
246.5606136665717
 20
259.1595927681529
 11
240.0606136665705
 21
259.3595927681529
 72
     1
 10
240.0606136665705
 20
259.3595927681529
 11
226.5606136665716
 21
259.3595927681529
 72
     1
 10
226.5606136665716
 20
259.3595927681529
 11
226.5606136665716
 21
257.8595927681528
 72
     1
 10
226.5606136665716
 20
257.8595927681528
 11
244.9606136665717
 21
257.8595927681529
 72
     1
 10
244.9606136665717
 20
257.8595927681529
 11
244.9606136665717
 21
246.559592768153
 72
     1
 10
244.9606136665718
 20
246.559592768153
 11
236.5606136665718
 21
246.559592768153
 72
     1
 10
236.5606136665717
 20
246.559592768153
 11
236.5606136665717
 21
245.3595927681531
 97
        0
 75
     0
 76
     0
 52
135.0
 41
5.0
 77
     0
 78
     1
 53
135.0
 43
87.32833946091082
 44
-163.0551147716689
 45
-3.535533905932737
 46
-3.535533905932737
 79
     0
 98
        1
 10
86.32833946091082
 20
-163.0551147716689
1001
GENIUS_GENOBJ-N-HTC_13
1002
{
1000
OWNER
1000
GEN
1002
}
1001
GENIUS_GENODEF_13
1002
{
1000
HIER
1070
     0
1002
}
1002
{
1000
MANEDIT
1070
     0
1002
}
1002
{
1000
NOSEL
1070
     0
1002
}
1002
{
1000
BEHIND
1070
     0
1002
}
1002
{
1000
OTHER
1070
     0
1002
}
1002
{
1000
REACTOR
1002
}
1001
GENIUS_GENHATCH_13
1002
{
1000
DATA
1040
45.0
1042
2.5
1000
_U
1070
     0
1011
239.0009421894549
1021
245.8629104871936
1031
0.0
1002
}
1002
{
1000
UCS
1010
0.0
1020
0.0
1030
0.0
1010
1.0
1020
0.0
1030
0.0
1010
0.0
1020
1.0
1030
0.0
1002
}
  0
HATCH
  5
2063
330
1F
100
AcDbEntity
  8
AM_8
100
AcDbHatch
 10
0.0
 20
0.0
 30
0.0
210
0.0
220
0.0
230
1.0
  2
_U
 70
     0
 71
     0
 91
        1
 92
        1
 93
        7
 72
     1
 10
261.5606136665718
 20
243.609592768153
 11
261.5606136665718
 21
245.1095927681531
 72
     1
 10
261.5606136665718
 20
245.1095927681531
 11
239.9606136665718
 21
245.1095927681531
 72
     1
 10
239.9606136665718
 20
245.1095927681531
 11
239.9606136665719
 21
243.6095927681529
 72
     1
 10
239.9606136665719
 20
243.6095927681529
 11
248.3606136665719
 21
243.6095927681529
 72
     1
 10
248.3606136665719
 20
243.6095927681529
 11
253.3606136665717
 21
242.8095927681531
 72
     1
 10
253.3606136665717
 20
242.8095927681531
 11
253.3606136665717
 21
243.609592768153
 72
     1
 10
253.3606136665717
 20
243.609592768153
 11
261.5606136665718
 21
243.609592768153
 97
        0
 75
     0
 76
     0
 52
135.0
 41
3.0
 77
     0
 78
     1
 53
135.0
 43
87.32833946091082
 44
-163.3051147716688
 45
-2.121320343559642
 46
-2.121320343559642
 79
     0
 98
        1
 10
86.32833946091082
 20
-163.3051147716688
1001
GENIUS_GENOBJ-N-HTC_13
1002
{
1000
OWNER
1000
GEN
1002
}
1001
GENIUS_GENODEF_13
1002
{
1000
HIER
1070
     0
1002
}
1002
{
1000
MANEDIT
1070
     0
1002
}
1002
{
1000
NOSEL
1070
     0
1002
}
1002
{
1000
BEHIND
1070
     0
1002
}
1002
{
1000
OTHER
1070
     0
1002
}
1002
{
1000
REACTOR
1002
}
1001
GENIUS_GENHATCH_13
1002
{
1000
DATA
1040
45.0
1042
2.5
1000
_U
1070
     0
1011
253.3132192252271
1021
244.3300320588566
1031
0.0
1002
}
1002
{
1000
UCS
1010
0.0
1020
0.0
1030
0.0
1010
1.0
1020
0.0
1030
0.0
1010
0.0
1020
1.0
1030
0.0
1002
}
  0
HATCH
  5
2064
330
1F
100
AcDbEntity
  8
AM_8
100
AcDbHatch
 10
0.0
 20
0.0
 30
0.0
210
0.0
220
0.0
230
1.0
  2
_U
 70
     0
 71
     0
 91
        1
 92
        1
 93
       10
 72
     1
 10
271.5606136665718
 20
237.1095927681531
 11
261.5606136665718
 21
237.109592768153
 72
     1
 10
261.5606136665718
 20
237.109592768153
 11
261.5606136665718
 21
241.709592768153
 72
     1
 10
261.5606136665718
 20
241.709592768153
 11
260.0606136665718
 21
241.7095927681531
 72
     1
 10
260.0606136665718
 20
241.7095927681531
 11
260.0606136665718
 21
237.5095927681531
 72
     1
 10
260.0606136665718
 20
237.5095927681531
 11
258.9606136665716
 21
237.5095927681531
 72
     1
 10
258.9606136665716
 20
237.5095927681531
 11
258.9606136665716
 21
235.809592768153
 72
     1
 10
258.9606136665718
 20
235.809592768153
 11
260.4606136665718
 21
234.8095927681531
 72
     1
 10
260.4606136665718
 20
234.8095927681531
 11
260.4606136665718
 21
235.6095927681531
 72
     1
 10
260.4606136665718
 20
235.6095927681531
 11
271.5606136665718
 21
235.6095927681532
 72
     1
 10
271.5606136665718
 20
235.6095927681532
 11
271.5606136665718
 21
237.1095927681531
 97
        0
 75
     0
 76
     0
 52
135.0
 41
2.0
 77
     0
 78
     1
 53
135.0
 43
87.32833946091082
 44
-163.3051147716688
 45
-1.414213562373095
 46
-1.414213562373094
 79
     0
 98
        1
 10
86.32833946091082
 20
-163.3051147716688
1001
GENIUS_GENODEF_13
1002
{
1000
HIER
1070
     0
1002
}
1002
{
1000
MANEDIT
1070
     0
1002
}
1002
{
1000
NOSEL
1070
     0
1002
}
1002
{
1000
BEHIND
1070
     0
1002
}
1002
{
1000
OTHER
1070
     0
1002
}
1002
{
1000
REACTOR
1002
}
1001
GENIUS_GENOBJ-N-HTC_13
1002
{
1000
OWNER
1000
GEN
1002
}
1001
GENIUS_GENHATCH_13
1002
{
1000
DATA
1040
45.0
1042
2.5
1000
_U
1070
     0
1011
261.0705874635691
1021
236.3956329153817
1031
0.0
1002
}
1002
{
1000
UCS
1010
0.0
1020
0.0
1030
0.0
1010
1.0
1020
0.0
1030
0.0
1010
0.0
1020
1.0
1030
0.0
1002
}
  0
LINE
  5
2065
330
1F
100
AcDbEntity
  8
ﾎﾞﾃﾞｨｰ
100
AcDbLine
 10
220.5606136665718
 20
259.6595927681528
 30
0.0
 11
239.8606136665713
 21
259.6595927681529
 31
0.0
  0
LINE
  5
2066
330
1F
100
AcDbEntity
  8
ﾎﾞﾃﾞｨｰ
100
AcDbLine
 10
220.5606136665718
 20
257.7595927681529
 30
0.0
 11
226.5606136665716
 21
257.759592768153
 31
0.0
  0
LINE
  5
2067
330
1F
100
AcDbEntity
  8
ﾎﾞﾃﾞｨｰ
100
AcDbLine
 10
239.9606136665718
 20
245.1095927681531
 30
0.0
 11
261.5606136665718
 21
245.1095927681531
 31
0.0
1001
GENIUS_GENODEF_13
1002
{
1000
HIER
1070
     0
1002
}
1002
{
1000
MANEDIT
1070
     0
1002
}
1002
{
1000
NOSEL
1070
     0
1002
}
1002
{
1000
BEHIND
1070
     0
1002
}
1002
{
1000
REACTOR
1002
}
1001
GENIUS_GENOBJ-N-CEN_13
1002
{
1000
OWNER
1000
GEN
1002
}
  0
LINE
  5
2068
330
1F
100
AcDbEntity
  8
ﾀｰﾐﾅﾙｶﾊﾞｰ
100
AcDbLine
 10
238.2606136665718
 20
245.3595927681531
 30
0.0
 11
235.7606136665717
 21
245.359592768153
 31
0.0
  0
LINE
  5
2069
330
1F
100
AcDbEntity
  8
ﾀｰﾐﾅﾙｶﾊﾞｰ
100
AcDbLine
 10
239.9606136665719
 20
244.659592768153
 30
0.0
 11
238.2606136665718
 21
245.3595927681529
 31
0.0
  0
LINE
  5
206A
330
1F
100
AcDbEntity
  8
ﾀｰﾐﾅﾙｶﾊﾞｰ
100
AcDbLine
 10
239.9606136665719
 20
245.3595927681529
 30
0.0
 11
239.9606136665719
 21
244.659592768153
 31
0.0
  0
LINE
  5
206B
330
1F
100
AcDbEntity
  8
ﾀｰﾐﾅﾙｶﾊﾞｰ
100
AcDbLine
 10
244.9606136665718
 20
246.559592768153
 30
0.0
 11
244.9606136665717
 21
257.8595927681529
 31
0.0
  0
LINE
  5
206C
330
1F
100
AcDbEntity
  8
ﾀｰﾐﾅﾙｶﾊﾞｰ
100
AcDbLine
 10
236.5606136665717
 20
246.559592768153
 30
0.0
 11
244.9606136665718
 21
246.559592768153
 31
0.0
  0
LINE
  5
206D
330
1F
100
AcDbEntity
  8
ﾀｰﾐﾅﾙｶﾊﾞｰ
100
AcDbLine
 10
236.5606136665717
 20
245.3595927681531
 30
0.0
 11
236.5606136665717
 21
246.559592768153
 31
0.0
  0
LINE
  5
206E
330
1F
100
AcDbEntity
  8
ﾀｰﾐﾅﾙｶﾊﾞｰ
100
AcDbLine
 10
246.2606136665717
 20
258.1595927681529
 30
0.0
 11
246.5606136665718
 21
258.1595927681529
 31
0.0
  0
LINE
  5
206F
330
1F
100
AcDbEntity
  8
ﾀｰﾐﾅﾙｶﾊﾞｰ
100
AcDbLine
 10
246.2606136665717
 20
246.559592768153
 30
0.0
 11
246.2606136665717
 21
258.1595927681529
 31
0.0
  0
LINE
  5
2070
330
1F
100
AcDbEntity
  8
ﾀｰﾐﾅﾙｶﾊﾞｰ
100
AcDbLine
 10
246.5606136665718
 20
246.559592768153
 30
0.0
 11
246.2606136665717
 21
246.559592768153
 31
0.0
  0
LINE
  5
2071
330
1F
100
AcDbEntity
  8
ﾀｰﾐﾅﾙｶﾊﾞｰ
100
AcDbLine
 10
246.5606136665718
 20
245.559592768153
 30
0.0
 11
246.5606136665717
 21
259.1595927681529
 31
0.0
  0
LINE
  5
2072
330
1F
100
AcDbEntity
  8
ﾀｰﾐﾅﾙｶﾊﾞｰ
100
AcDbLine
 10
226.5606136665716
 20
257.8595927681528
 30
0.0
 11
226.5606136665716
 21
259.3595927681529
 31
0.0
  0
LINE
  5
2073
330
1F
100
AcDbEntity
  8
ﾀｰﾐﾅﾙｶﾊﾞｰ
100
AcDbLine
 10
240.0606136665705
 20
259.3595927681529
 30
0.0
 11
226.5606136665716
 21
259.3595927681529
 31
0.0
  0
LINE
  5
2074
330
1F
100
AcDbEntity
  8
ﾀｰﾐﾅﾙｶﾊﾞｰ
100
AcDbLine
 10
240.060613666571
 20
245.3595927681529
 30
0.0
 11
246.5606136665718
 21
245.559592768153
 31
0.0
  0
LINE
  5
2075
330
1F
100
AcDbEntity
  8
ﾀｰﾐﾅﾙｶﾊﾞｰ
100
AcDbLine
 10
246.5606136665717
 20
259.1595927681529
 30
0.0
 11
240.0606136665705
 21
259.3595927681529
 31
0.0
  0
LINE
  5
2076
330
1F
100
AcDbEntity
  8
ﾀｰﾐﾅﾙｶﾊﾞｰ
100
AcDbLine
 10
235.2606136665717
 20
245.8595927681529
 30
0.0
 11
235.2606136665717
 21
257.3595927681529
 31
0.0
  0
LINE
  5
2077
330
1F
100
AcDbEntity
  8
ﾀｰﾐﾅﾙｶﾊﾞｰ
100
AcDbLine
 10
240.060613666571
 20
245.3595927681529
 30
0.0
 11
239.9606136665719
 21
245.3595927681531
 31
0.0
  0
LINE
  5
2078
330
1F
100
AcDbEntity
  8
ﾀｰﾐﾅﾙｶﾊﾞｰ
100
AcDbLine
 10
244.9606136665717
 20
257.8595927681529
 30
0.0
 11
226.5606136665716
 21
257.8595927681528
 31
0.0
  0
ARC
  5
2079
330
1F
100
AcDbEntity
  8
ﾀｰﾐﾅﾙｶﾊﾞｰ
100
AcDbCircle
 10
235.7606136665717
 20
245.8595927681529
 30
0.0
 40
0.5
100
AcDbArc
 50
180.0
 51
270.0
1001
GENIUS_GENODEF_13
1002
{
1000
HIER
1070
     0
1002
}
1002
{
1000
MANEDIT
1070
     0
1002
}
1002
{
1000
NOSEL
1070
     0
1002
}
1002
{
1000
BEHIND
1070
     0
1002
}
1002
{
1000
REACTOR
1002
}
1001
GENIUS_GENOBJ-N-FIL_13
1002
{
1000
OWNER
1000
GEN
1002
}
  0
ARC
  5
207A
330
1F
100
AcDbEntity
  8
ﾀｰﾐﾅﾙｶﾊﾞｰ
100
AcDbCircle
 10
235.7606136665717
 20
257.3595927681529
 30
0.0
 40
0.5
100
AcDbArc
 50
90.0
 51
180.0
1001
GENIUS_GENODEF_13
1002
{
1000
HIER
1070
     0
1002
}
1002
{
1000
MANEDIT
1070
     0
1002
}
1002
{
1000
NOSEL
1070
     0
1002
}
1002
{
1000
BEHIND
1070
     0
1002
}
1002
{
1000
REACTOR
1002
}
1001
GENIUS_GENOBJ-N-FIL_13
1002
{
1000
OWNER
1000
GEN
1002
}
  0
LINE
  5
207C
330
1F
100
AcDbEntity
  8
前面ﾊﾟﾈﾙ
100
AcDbLine
 10
271.2606136665707
 20
234.9095927681533
 30
0.0
 11
271.5606136665718
 21
234.9095927681533
 31
0.0
  0
LINE
  5
2080
330
1F
100
AcDbEntity
  8
前面ﾊﾟﾈﾙ
100
AcDbLine
 10
269.0606136665719
 20
216.9345927681531
 30
0.0
 11
266.5606136665719
 21
216.7595927681531
 31
0.0
  0
LINE
  5
2083
330
1F
100
AcDbEntity
  8
前面ﾊﾟﾈﾙ
100
AcDbLine
 10
269.0606136665718
 20
235.6095927681532
 30
0.0
 11
271.5606136665713
 21
235.6095927681533
 31
0.0
  0
LINE
  5
2085
330
1F
100
AcDbEntity
  8
ﾎﾞﾃﾞｨｰ
100
AcDbLine
 10
225.0606136665718
 20
245.109592768153
 30
0.0
 11
238.8677565237147
 21
245.1095927681531
 31
0.0
1001
GENIUS_GENODEF_13
1002
{
1000
HIER
1070
     0
1002
}
1002
{
1000
MANEDIT
1070
     0
1002
}
1002
{
1000
NOSEL
1070
     0
1002
}
1002
{
1000
BEHIND
1070
     0
1002
}
1002
{
1000
REACTOR
1002
}
1001
GENIUS_GENOBJ-N-CEN_13
1002
{
1000
OWNER
1000
GEN
1002
}
  0
LINE
  5
2086
330
1F
100
AcDbEntity
  8
ﾎﾞﾃﾞｨｰ
100
AcDbLine
 10
261.5606136665718
 20
237.109592768153
 30
0.0
 11
271.5606136665718
 21
237.1095927681531
 31
0.0
1001
GENIUS_GENODEF_13
1002
{
1000
HIER
1070
     0
1002
}
1002
{
1000
MANEDIT
1070
     0
1002
}
1002
{
1000
NOSEL
1070
     0
1002
}
1002
{
1000
BEHIND
1070
     0
1002
}
1002
{
1000
REACTOR
1002
}
1001
GENIUS_GENOBJ-N-CEN_13
1002
{
1000
OWNER
1000
GEN
1002
}
  0
LINE
  5
2088
330
1F
100
AcDbEntity
  8
ﾎﾞﾃﾞｨｰ
100
AcDbLine
 10
261.5606136665718
 20
237.109592768153
 30
0.0
 11
261.5606136665718
 21
245.1095927681531
 31
0.0
  0
LINE
  5
2089
330
1F
100
AcDbEntity
  8
ﾎﾞﾃﾞｨｰ
100
AcDbLine
 10
260.0606136665718
 20
241.7095927681531
 30
0.0
 11
261.5606136665718
 21
241.709592768153
 31
0.0
  0
LINE
  5
208A
330
1F
100
AcDbEntity
  8
ﾎﾞﾃﾞｨｰ
100
AcDbLine
 10
260.4606136665718
 20
235.6095927681531
 30
0.0
 11
271.5606136665718
 21
235.6095927681532
 31
0.0
  0
LINE
  5
208B
330
1F
100
AcDbEntity
  8
ﾎﾞﾃﾞｨｰ
100
AcDbLine
 10
225.0606136665718
 20
243.6095927681529
 30
0.0
 11
248.3606136665719
 21
243.6095927681529
 31
0.0
  0
LINE
  5
208C
330
1F
100
AcDbEntity
  8
ﾎﾞﾃﾞｨｰ
100
AcDbLine
 10
260.0606136665718
 20
243.609592768153
 30
0.0
 11
260.0606136665718
 21
237.5095927681531
 31
0.0
  0
LINE
  5
208D
330
1F
100
AcDbEntity
  8
ﾎﾞﾃﾞｨｰ
100
AcDbLine
 10
253.3606136665717
 20
243.609592768153
 30
0.0
 11
253.3606136665717
 21
242.8095927681531
 31
0.0
  0
LINE
  5
208E
330
1F
100
AcDbEntity
  8
ﾎﾞﾃﾞｨｰ
100
AcDbLine
 10
253.3606136665717
 20
243.609592768153
 30
0.0
 11
261.5606136665718
 21
243.609592768153
 31
0.0
  0
LINE
  5
208F
330
1F
100
AcDbEntity
  8
ﾎﾞﾃﾞｨｰ
100
AcDbLine
 10
267.6606136665719
 20
233.9095927681531
 30
0.0
 11
269.0606136665718
 21
233.9095927681531
 31
0.0
  0
LINE
  5
2090
330
1F
100
AcDbEntity
  8
ﾎﾞﾃﾞｨｰ
100
AcDbLine
 10
267.6606136665719
 20
233.9095927681531
 30
0.0
 11
267.6606136665719
 21
235.6095927681532
 31
0.0
  0
LINE
  5
2091
330
1F
100
AcDbEntity
  8
ﾎﾞﾃﾞｨｰ
100
AcDbLine
 10
269.0606136665718
 20
233.9095927681531
 30
0.0
 11
269.0606136665718
 21
235.6095927681532
 31
0.0
  0
LINE
  5
2092
330
1F
100
AcDbEntity
  8
ﾎﾞﾃﾞｨｰ
100
AcDbLine
 10
269.0606136665718
 20
216.9345927681531
 30
0.0
 11
269.0606136665718
 21
233.9095927681531
 31
0.0
  0
LINE
  5
2093
330
1F
100
AcDbEntity
  8
ﾎﾞﾃﾞｨｰ
100
AcDbLine
 10
267.6606136665719
 20
216.8365927681531
 30
0.0
 11
267.6606136665719
 21
231.6095927681532
 31
0.0
  0
LINE
  5
2094
330
1F
100
AcDbEntity
  8
ﾎﾞﾃﾞｨｰ
100
AcDbLine
 10
269.0606136665718
 20
217.6595927681531
 30
0.0
 11
267.6606136665719
 21
217.6595927681531
 31
0.0
  0
LINE
  5
2095
330
1F
100
AcDbEntity
  8
ﾎﾞﾃﾞｨｰ
100
AcDbLine
 10
262.1606136665718
 20
231.6095927681531
 30
0.0
 11
269.0606136665718
 21
231.6095927681532
 31
0.0
  0
LINE
  5
2096
330
1F
100
AcDbEntity
  8
ﾎﾞﾃﾞｨｰ
100
AcDbLine
 10
262.1606136665717
 20
234.6095927681531
 30
0.0
 11
262.1606136665718
 21
231.6095927681531
 31
0.0
  0
LINE
  5
2097
330
1F
100
AcDbEntity
  8
ﾎﾞﾃﾞｨｰ
100
AcDbLine
 10
262.1606136665717
 20
234.6095927681531
 30
0.0
 11
267.6606136665718
 21
234.6095927681532
 31
0.0
  0
LINE
  5
2098
330
1F
100
AcDbEntity
  8
ﾎﾞﾃﾞｨｰ
100
AcDbLine
 10
255.0606136665718
 20
242.6095927681531
 30
0.0
 11
255.0606136665718
 21
240.1095927681531
 31
0.0
  0
LINE
  5
2099
330
1F
100
AcDbEntity
  8
ﾎﾞﾃﾞｨｰ
100
AcDbLine
 10
255.0606136665718
 20
240.1095927681531
 30
0.0
 11
260.0606136665718
 21
239.9595927681531
 31
0.0
  0
LINE
  5
209A
330
1F
100
AcDbEntity
  8
ﾎﾞﾃﾞｨｰ
100
AcDbLine
 10
255.0606136665718
 20
242.6095927681531
 30
0.0
 11
260.0606136665718
 21
242.7595927681531
 31
0.0
  0
LINE
  5
209B
330
1F
100
AcDbEntity
  8
ﾎﾞﾃﾞｨｰ
100
AcDbLine
 10
239.8606136665713
 20
259.6595927681529
 30
0.0
 11
239.8606136665713
 21
259.3595927681529
 31
0.0
  0
LINE
  5
209C
330
1F
100
AcDbEntity
  8
ﾎﾞﾃﾞｨｰ
100
AcDbLine
 10
239.9606136665719
 20
245.1095927681531
 30
0.0
 11
239.9606136665719
 21
243.6095927681529
 31
0.0
  0
LINE
  5
209D
330
1F
100
AcDbEntity
  8
ﾎﾞﾃﾞｨｰ
100
AcDbLine
 10
225.0606136665718
 20
245.109592768153
 30
0.0
 11
225.0606136665718
 21
243.6095927681529
 31
0.0
  0
LINE
  5
209E
330
1F
100
AcDbEntity
  8
ﾎﾞﾃﾞｨｰ
100
AcDbLine
 10
226.5606136665716
 20
259.6595927681528
 30
0.0
 11
226.5606136665716
 21
257.759592768153
 31
0.0
  0
LINE
  5
209F
330
1F
100
AcDbEntity
  8
ﾎﾞﾃﾞｨｰ
100
AcDbLine
 10
258.9606136665718
 20
235.809592768153
 30
0.0
 11
260.4606136665718
 21
234.8095927681531
 31
0.0
  0
LINE
  5
20A0
330
1F
100
AcDbEntity
  8
ﾎﾞﾃﾞｨｰ
100
AcDbLine
 10
258.9606136665716
 20
237.5095927681531
 30
0.0
 11
260.0606136665718
 21
237.5095927681531
 31
0.0
  0
LINE
  5
20A1
330
1F
100
AcDbEntity
  8
ﾎﾞﾃﾞｨｰ
100
AcDbLine
 10
258.9606136665716
 20
237.5095927681531
 30
0.0
 11
258.9606136665718
 21
235.809592768153
 31
0.0
  0
LINE
  5
20A2
330
1F
100
AcDbEntity
  8
ﾎﾞﾃﾞｨｰ
100
AcDbLine
 10
260.4606136665718
 20
235.6095927681531
 30
0.0
 11
260.4606136665718
 21
234.8095927681531
 31
0.0
  0
LINE
  5
20A3
330
1F
100
AcDbEntity
  8
ﾎﾞﾃﾞｨｰ
100
AcDbLine
 10
253.3606136665717
 20
242.8095927681531
 30
0.0
 11
248.3606136665719
 21
243.6095927681529
 31
0.0
  0
LINE
  5
20C1
330
1F
100
AcDbEntity
  8
ﾍﾞｰｽ
100
AcDbLine
 10
213.5606136665719
 20
229.7095927681529
 30
0.0
 11
213.5606136665717
 21
259.409592768153
 31
0.0
  0
LINE
  5
20C2
330
1F
100
AcDbEntity
  8
ﾍﾞｰｽ
100
AcDbLine
 10
216.8606136665717
 20
247.309592768153
 30
0.0
 11
216.8606136665717
 21
253.9095927681529
 31
0.0
  0
LINE
  5
20C3
330
1F
100
AcDbEntity
  8
ﾍﾞｰｽ
100
AcDbLine
 10
220.5606136665718
 20
253.9095927681529
 30
0.0
 11
213.5606136665717
 21
253.9095927681529
 31
0.0
  0
LINE
  5
20C4
330
1F
100
AcDbEntity
  8
ﾍﾞｰｽ
100
AcDbLine
 10
220.5606136665718
 20
259.409592768153
 30
0.0
 11
213.5606136665717
 21
259.409592768153
 31
0.0
  0
LINE
  5
20C5
330
1F
100
AcDbEntity
  8
ﾍﾞｰｽ
100
AcDbLine
 10
220.5606136665718
 20
253.9095927681529
 30
0.0
 11
220.5606136665718
 21
259.409592768153
 31
0.0
  0
LINE
  5
20C6
330
1F
100
AcDbEntity
  8
ﾍﾞｰｽ
100
AcDbLine
 10
220.5606136665718
 20
247.309592768153
 30
0.0
 11
213.5606136665717
 21
247.309592768153
 31
0.0
  0
LINE
  5
20C8
330
1F
100
AcDbEntity
  8
ﾍﾞｰｽ
100
AcDbLine
 10
218.4606136665718
 20
232.409592768153
 30
0.0
 11
213.5606136665719
 21
232.409592768153
 31
0.0
  0
LINE
  5
20C9
330
1F
100
AcDbEntity
  8
ﾍﾞｰｽ
100
AcDbLine
 10
215.5606136665719
 20
229.7095927681529
 30
0.0
 11
217.5606136665719
 21
232.409592768153
 31
0.0
  0
LINE
  5
20CB
330
1F
100
AcDbEntity
  8
ﾍﾞｰｽ
100
AcDbLine
 10
215.5606136665719
 20
229.7095927681529
 30
0.0
 11
213.5606136665719
 21
229.7095927681529
 31
0.0
  0
HATCH
  5
20E9
330
1F
100
AcDbEntity
  8
AM_8
100
AcDbHatch
 10
0.0
 20
0.0
 30
0.0
210
0.0
220
0.0
230
1.0
  2
_U
 70
     0
 71
     0
 91
        1
 92
        1
 93
        4
 72
     1
 10
220.5606136665718
 20
257.7595927681529
 11
226.5606136665716
 21
257.759592768153
 72
     1
 10
226.5606136665716
 20
257.759592768153
 11
226.5606136665716
 21
259.6595927681528
 72
     1
 10
226.5606136665716
 20
259.6595927681528
 11
220.5606136665718
 21
259.6595927681528
 72
     1
 10
220.5606136665718
 20
259.6595927681528
 11
220.5606136665718
 21
257.7595927681529
 97
        0
 75
     0
 76
     0
 52
45.0
 41
5.0
 77
     0
 78
     1
 53
45.0
 43
-78.88401736464635
 44
-37.08134145568426
 45
-3.535533905932737
 46
3.535533905932737
 79
     0
 98
        1
 10
-18.96219723135851
 20
8.185208782724089
1001
GENIUS_GENOBJ-N-HTC_13
1002
{
1000
OWNER
1000
GEN
1002
}
1001
GENIUS_GENODEF_13
1002
{
1000
HIER
1070
     0
1002
}
1002
{
1000
MANEDIT
1070
     0
1002
}
1002
{
1000
NOSEL
1070
     0
1002
}
1002
{
1000
BEHIND
1070
     0
1002
}
1002
{
1000
OTHER
1070
     0
1002
}
1002
{
1000
REACTOR
1002
}
1001
GENIUS_GENHATCH_13
1002
{
1000
DATA
1040
45.0
1042
2.5
1000
_U
1070
     0
1011
223.5660647316444
1021
258.8357831698651
1031
0.0
1002
}
1002
{
1000
UCS
1010
0.0
1020
0.0
1030
0.0
1010
1.0
1020
0.0
1030
0.0
1010
0.0
1020
1.0
1030
0.0
1002
}
  0
HATCH
  5
20ED
330
1F
100
AcDbEntity
  8
AM_8
100
AcDbHatch
 10
0.0
 20
0.0
 30
0.0
210
0.0
220
0.0
230
1.0
  2
_U
 70
     0
 71
     0
 91
        1
 92
        1
 93
        8
 72
     1
 10
271.5606136665718
 20
234.9095927681533
 11
271.5606136665719
 21
235.6095927681533
 72
     1
 10
271.5606136665719
 20
235.6095927681533
 11
269.0606136665718
 21
235.6095927681532
 72
     1
 10
269.0606136665718
 20
235.6095927681532
 11
269.0606136665719
 21
193.609592768153
 72
     1
 10
269.0606136665719
 20
193.609592768153
 11
271.5606136665719
 21
193.6095927681527
 72
     1
 10
271.5606136665719
 20
193.6095927681527
 11
271.5606136665719
 21
194.3095927681528
 72
     1
 10
271.5606136665719
 20
194.3095927681528
 11
271.2606136665706
 21
194.3095927681528
 72
     1
 10
271.2606136665706
 20
194.3095927681528
 11
271.2606136665729
 21
234.9095927681533
 72
     1
 10
271.2606136665729
 20
234.9095927681533
 11
271.5606136665718
 21
234.9095927681533
 97
        0
 75
     0
 76
     0
 52
45.0
 41
5.0
 77
     0
 78
     1
 53
45.0
 43
-97.2550578024696
 44
484.3660744259506
 45
-3.535533905932737
 46
3.535533905932737
 79
     0
 98
        1
 10
6.037802768641427
 20
8.185208782726022
1001
GENIUS_GENODEF_13
1002
{
1000
HIER
1070
     0
1002
}
1002
{
1000
MANEDIT
1070
     0
1002
}
1002
{
1000
NOSEL
1070
     0
1002
}
1002
{
1000
BEHIND
1070
     0
1002
}
1002
{
1000
OTHER
1070
     0
1002
}
1002
{
1000
REACTOR
1002
}
1001
GENIUS_GENOBJ-N-HTC_13
1002
{
1000
OWNER
1000
GEN
1002
}
1001
GENIUS_GENHATCH_13
1002
{
1000
DATA
1040
45.0
1042
2.5
1000
_U
1070
     0
1011
270.3928386425599
1021
210.2846655531641
1031
0.0
1002
}
1002
{
1000
UCS
1010
0.0
1020
0.0
1030
0.0
1010
1.0
1020
0.0
1030
0.0
1010
0.0
1020
1.0
1030
0.0
1002
}
  0
LINE
  5
20EE
330
1F
100
AcDbEntity
  8
ﾎﾞﾃﾞｨｰ
100
AcDbLine
 10
560.8974328249152
 20
184.1095927681686
 30
0.0
 11
560.8974328249151
 21
169.5595927681686
 31
0.0
  0
LINE
  5
20EF
330
1F
100
AcDbEntity
  8
ﾎﾞﾃﾞｨｰ
100
AcDbLine
 10
586.0974328249138
 20
175.9595927681679
 30
0.0
 11
586.0974328249141
 21
181.4595927681679
 31
0.0
  0
LINE
  5
20F0
330
1F
100
AcDbEntity
  8
ﾎﾞﾃﾞｨｰ
100
AcDbLine
 10
586.0974328249138
 20
175.9595927681679
 30
0.0
 11
580.1974328249139
 21
175.7595927681682
 31
0.0
  0
LINE
  5
20F1
330
1F
100
AcDbEntity
  8
ﾎﾞﾃﾞｨｰ
100
AcDbLine
 10
586.0974328249141
 20
181.4595927681679
 30
0.0
 11
580.197432824914
 21
181.6595927681681
 31
0.0
  0
LINE
  5
20F2
330
1F
100
AcDbEntity
  8
ﾎﾞﾃﾞｨｰ
100
AcDbLine
 10
539.1974328249142
 20
192.1095927681691
 30
0.0
 11
529.1974328249142
 21
192.1095927681693
 31
0.0
1001
GENIUS_GENODEF_13
1002
{
1000
HIER
1070
     0
1002
}
1002
{
1000
MANEDIT
1070
     0
1002
}
1002
{
1000
NOSEL
1070
     0
1002
}
1002
{
1000
BEHIND
1070
     0
1002
}
1002
{
1000
REACTOR
1002
}
1001
GENIUS_GENOBJ-N-CEN_13
1002
{
1000
OWNER
1000
GEN
1002
}
  0
LINE
  5
20F3
330
1F
100
AcDbEntity
  8
ﾎﾞﾃﾞｨｰ
100
AcDbLine
 10
560.8974328249152
 20
184.1095927681686
 30
0.0
 11
539.197432824914
 21
184.1095927681691
 31
0.0
1001
GENIUS_GENODEF_13
1002
{
1000
HIER
1070
     0
1002
}
1002
{
1000
MANEDIT
1070
     0
1002
}
1002
{
1000
NOSEL
1070
     0
1002
}
1002
{
1000
BEHIND
1070
     0
1002
}
1002
{
1000
REACTOR
1002
}
1001
GENIUS_GENOBJ-N-CEN_13
1002
{
1000
OWNER
1000
GEN
1002
}
  0
LINE
  5
20F4
330
1F
100
AcDbEntity
  8
ﾎﾞﾃﾞｨｰ
100
AcDbLine
 10
539.197432824914
 20
184.1095927681691
 30
0.0
 11
539.1974328249142
 21
192.1095927681691
 31
0.0
  0
LINE
  5
20F5
330
1F
100
AcDbEntity
  8
ﾎﾞﾃﾞｨｰ
100
AcDbLine
 10
580.1974328249137
 20
169.5595927681682
 30
0.0
 11
560.8974328249151
 21
169.5595927681686
 31
0.0
  0
LINE
  5
20F6
330
1F
100
AcDbEntity
  8
ﾎﾞﾃﾞｨｰ
100
AcDbLine
 10
580.1974328249137
 20
169.5595927681682
 30
0.0
 11
580.1974328249139
 21
175.7595927681682
 31
0.0
  0
LINE
  5
20F7
330
1F
100
AcDbEntity
  8
ﾀｰﾐﾅﾙｶﾊﾞｰ
100
AcDbLine
 10
554.1974328249142
 20
183.6595927681688
 30
0.0
 11
554.1974328249138
 21
170.0595927681688
 31
0.0
  0
LINE
  5
20F8
330
1F
100
AcDbEntity
  8
ﾀｰﾐﾅﾙｶﾊﾞｰ
100
AcDbLine
 10
560.8974328249152
 20
183.8595927681686
 30
0.0
 11
554.1974328249142
 21
183.6595927681688
 31
0.0
  0
LINE
  5
20F9
330
1F
100
AcDbEntity
  8
ﾀｰﾐﾅﾙｶﾊﾞｰ
100
AcDbLine
 10
554.1974328249138
 20
170.0595927681688
 30
0.0
 11
560.697432824915
 21
169.8595927681687
 31
0.0
  0
LINE
  5
20FA
330
1F
100
AcDbEntity
  8
ﾀｰﾐﾅﾙｶﾊﾞｰ
100
AcDbLine
 10
560.8974328249151
 20
169.8595927681687
 30
0.0
 11
560.697432824915
 21
169.8595927681687
 31
0.0
  0
LINE
  5
20FB
330
1F
100
AcDbEntity
  8
ﾍﾞｰｽ
100
AcDbLine
 10
583.697432824914
 20
175.8782368359647
 30
0.0
 11
583.697432824914
 21
175.4095927681683
 31
0.0
  0
LINE
  5
234E
330
1F
100
AcDbEntity
  8
ﾎｯｸ
100
AcDbLine
 10
397.6290232457434
 20
169.5595927681357
 30
0.0
 11
397.6290232457434
 21
167.3095927681356
 31
0.0
  0
LINE
  5
234F
330
1F
100
AcDbEntity
  8
ﾎｯｸ
100
AcDbLine
 10
397.6290232457434
 20
167.3095927681356
 30
0.0
 11
400.3790232457434
 21
167.3095927681356
 31
0.0
  0
LINE
  5
2350
330
1F
100
AcDbEntity
  8
ﾎｯｸ
100
AcDbLine
 10
395.6290232457434
 20
169.5595927681357
 30
0.0
 11
395.6290232457434
 21
165.3095927681356
 31
0.0
  0
LINE
  5
2351
330
1F
100
AcDbEntity
  8
ﾎｯｸ
100
AcDbLine
 10
395.6290232457434
 20
165.3095927681356
 30
0.0
 11
400.3790232457434
 21
165.3095927681356
 31
0.0
  0
LINE
  5
2352
330
1F
100
AcDbEntity
  8
ﾎｯｸ
100
AcDbLine
 10
405.1290232457433
 20
165.3095927681356
 30
0.0
 11
400.3790232457434
 21
165.3095927681356
 31
0.0
  0
LINE
  5
2353
330
1F
100
AcDbEntity
  8
ﾎｯｸ
100
AcDbLine
 10
405.1290232457433
 20
169.5595927681357
 30
0.0
 11
405.1290232457433
 21
165.3095927681356
 31
0.0
  0
LINE
  5
2354
330
1F
100
AcDbEntity
  8
ﾎｯｸ
100
AcDbLine
 10
403.1290232457434
 20
167.3095927681356
 30
0.0
 11
400.3790232457434
 21
167.3095927681356
 31
0.0
  0
LINE
  5
2355
330
1F
100
AcDbEntity
  8
ﾎｯｸ
100
AcDbLine
 10
403.1290232457434
 20
169.5595927681357
 30
0.0
 11
403.1290232457434
 21
167.3095927681356
 31
0.0
  0
LINE
  5
2356
330
1F
100
AcDbEntity
  8
ﾎﾞﾃﾞｨｰ
100
AcDbLine
 10
431.8790232457432
 20
422.5845343447946
 30
0.0
 11
431.3790232457432
 21
407.7845343447943
 31
0.0
  0
LINE
  5
2357
330
1F
100
AcDbEntity
  8
ﾀｰﾐﾅﾙｶﾊﾞｰ
100
AcDbLine
 10
366.3290232457432
 20
171.0595927681358
 30
0.0
 11
434.4290232457433
 21
171.0595927681358
 31
0.0
  0
LINE
  5
2358
330
1F
100
AcDbEntity
  8
ﾀｰﾐﾅﾙｶﾊﾞｰ
100
AcDbLine
 10
366.3290232457432
 20
182.6595927681358
 30
0.0
 11
434.4290232457433
 21
182.6595927681357
 31
0.0
  0
LINE
  5
2359
330
1F
100
AcDbEntity
  8
ﾀｰﾐﾅﾙｶﾊﾞｰ
100
AcDbLine
 10
435.6290232457431
 20
183.8595927681357
 30
0.0
 11
365.1290232457434
 21
183.8595927681357
 31
0.0
  0
LINE
  5
235A
330
1F
100
AcDbEntity
  8
ﾀｰﾐﾅﾙｶﾊﾞｰ
100
AcDbLine
 10
365.1290232457434
 20
169.8595927681358
 30
0.0
 11
435.6290232457434
 21
169.8595927681357
 31
0.0
  0
LINE
  5
235B
330
1F
100
AcDbEntity
  8
ﾀｰﾐﾅﾙｶﾊﾞｰ
100
AcDbLine
 10
365.2790232457432
 20
170.0595927681358
 30
0.0
 11
435.4790232457433
 21
170.0595927681358
 31
0.0
  0
LINE
  5
235C
330
1F
100
AcDbEntity
  8
ﾀｰﾐﾅﾙｶﾊﾞｰ
100
AcDbLine
 10
435.4790232457433
 20
183.6595927681357
 30
0.0
 11
402.3790232457433
 21
183.6595927681358
 31
0.0
  0
LINE
  5
235D
330
1F
100
AcDbEntity
  8
ﾀｰﾐﾅﾙｶﾊﾞｰ
100
AcDbLine
 10
366.3290232457432
 20
182.6595927681358
 30
0.0
 11
366.3290232457432
 21
171.0595927681358
 31
0.0
  0
LINE
  5
235E
330
1F
100
AcDbEntity
  8
ﾀｰﾐﾅﾙｶﾊﾞｰ
100
AcDbLine
 10
365.1290232457434
 20
183.8595927681357
 30
0.0
 11
365.1290232457434
 21
169.8595927681358
 31
0.0
  0
LINE
  5
235F
330
1F
100
AcDbEntity
  8
ﾀｰﾐﾅﾙｶﾊﾞｰ
100
AcDbLine
 10
365.2790232457432
 20
183.6595927681358
 30
0.0
 11
365.2790232457432
 21
170.0595927681358
 31
0.0
  0
LINE
  5
2360
330
1F
100
AcDbEntity
  8
ﾀｰﾐﾅﾙｶﾊﾞｰ
100
AcDbLine
 10
402.3790232457433
 20
183.4095927681356
 30
0.0
 11
398.3790232457434
 21
183.4095927681356
 31
0.0
  0
LINE
  5
2361
330
1F
100
AcDbEntity
  8
ﾀｰﾐﾅﾙｶﾊﾞｰ
100
AcDbLine
 10
398.9290232457433
 20
183.8595927681357
 30
0.0
 11
398.9290232457433
 21
184.1095927681356
 31
0.0
  0
LINE
  5
2362
330
1F
100
AcDbEntity
  8
ﾀｰﾐﾅﾙｶﾊﾞｰ
100
AcDbLine
 10
398.3790232457434
 20
183.8595927681357
 30
0.0
 11
398.3790232457434
 21
183.4095927681356
 31
0.0
  0
LINE
  5
2363
330
1F
100
AcDbEntity
  8
ﾀｰﾐﾅﾙｶﾊﾞｰ
100
AcDbLine
 10
401.8290232457432
 20
183.8595927681357
 30
0.0
 11
401.8290232457432
 21
184.1095927681356
 31
0.0
  0
LINE
  5
2364
330
1F
100
AcDbEntity
  8
ﾀｰﾐﾅﾙｶﾊﾞｰ
100
AcDbLine
 10
402.3790232457433
 20
183.8595927681357
 30
0.0
 11
402.3790232457433
 21
183.4095927681356
 31
0.0
  0
LINE
  5
2365
330
1F
100
AcDbEntity
  8
ﾀｰﾐﾅﾙｶﾊﾞｰ
100
AcDbLine
 10
434.4290232457433
 20
182.6595927681357
 30
0.0
 11
434.4290232457433
 21
171.0595927681358
 31
0.0
  0
LINE
  5
2366
330
1F
100
AcDbEntity
  8
ﾀｰﾐﾅﾙｶﾊﾞｰ
100
AcDbLine
 10
435.6290232457434
 20
169.8595927681357
 30
0.0
 11
435.6290232457434
 21
183.8595927681357
 31
0.0
  0
LINE
  5
2367
330
1F
100
AcDbEntity
  8
ﾀｰﾐﾅﾙｶﾊﾞｰ
100
AcDbLine
 10
435.4790232457433
 20
170.0595927681358
 30
0.0
 11
435.4790232457433
 21
183.6595927681358
 31
0.0
  0
HATCH
  5
2368
330
1F
100
AcDbEntity
  8
AM_8
100
AcDbHatch
 10
0.0
 20
0.0
 30
0.0
210
0.0
220
0.0
230
1.0
  2
_U
 70
     0
 71
     0
 91
        1
 92
        1
 93
        4
 72
     1
 10
433.9790232457434
 20
378.6845343447946
 11
400.3790232457434
 21
378.6845343447945
 72
     1
 10
400.3790232457435
 20
378.6845343447944
 11
400.3790232457435
 21
376.1845343447944
 72
     1
 10
400.3790232457435
 20
376.1845343447944
 11
433.9790232457436
 21
376.1845343447945
 72
     1
 10
433.9790232457434
 20
376.1845343447946
 11
433.9790232457434
 21
378.6845343447946
 97
        0
 75
     0
 76
     0
 52
-45.00000000000001
 41
2.5
 77
     0
 78
     1
 53
315.0
 43
167.395035725934
 44
556.9786736542619
 45
1.767766952966369
 46
1.767766952966368
 79
     0
 98
        1
 10
167.395035725934
 20
556.9786736542619
1001
GENIUS_GENOBJ-N-HTC_13
1002
{
1000
OWNER
1000
GEN
1002
}
1001
GENIUS_GENODEF_13
1002
{
1000
HIER
1070
     0
1002
}
1002
{
1000
MANEDIT
1070
     0
1002
}
1002
{
1000
NOSEL
1070
     0
1002
}
1002
{
1000
BEHIND
1070
     0
1002
}
1002
{
1000
OTHER
1070
     0
1002
}
1002
{
1000
REACTOR
1002
}
1001
GENIUS_GENHATCH_13
1002
{
1000
DATA
1040
45.0
1042
2.5
1000
_U
1070
     0
1011
430.1141959057361
1021
377.2100108950172
1031
0.0
1002
}
1002
{
1000
UCS
1010
0.0
1020
0.0
1030
0.0
1010
1.0
1020
0.0
1030
0.0
1010
0.0
1020
1.0
1030
0.0
1002
}
  0
LINE
  5
2369
330
1F
100
AcDbEntity
  8
ﾀｰﾐﾅﾙｶﾊﾞｰ
100
AcDbLine
 10
368.6790232457432
 20
421.184534344794
 30
0.0
 11
368.6790232457619
 21
407.784534344794
 31
0.0
  0
LINE
  5
236A
330
1F
100
AcDbEntity
  8
ﾀｰﾐﾅﾙｶﾊﾞｰ
100
AcDbLine
 10
400.3790232457432
 20
421.1845343447942
 30
0.0
 11
368.6790232457432
 21
421.184534344794
 31
0.0
  0
LINE
  5
236B
330
1F
100
AcDbEntity
  8
ﾀｰﾐﾅﾙｶﾊﾞｰ
100
AcDbLine
 10
368.6790232457432
 20
421.1845343447944
 30
0.0
 11
400.3790232457432
 21
421.1845343447945
 31
0.0
  0
LINE
  5
236C
330
1F
100
AcDbEntity
  8
ﾀｰﾐﾅﾙｶﾊﾞｰ
100
AcDbLine
 10
368.6790232457432
 20
407.784534344794
 30
0.0
 11
368.6790232457432
 21
421.1845343447944
 31
0.0
  0
HATCH
  5
236D
330
1F
100
AcDbEntity
  8
AM_8
100
AcDbHatch
 10
0.0
 20
0.0
 30
0.0
210
0.0
220
0.0
230
1.0
  2
_U
 70
     0
 71
     0
 91
        1
 92
        1
 93
        4
 72
     1
 10
435.8790232457435
 20
376.1845343447946
 11
435.8790232457432
 21
427.1845343447946
 72
     1
 10
435.879023245743
 20
427.1845343447946
 11
434.379023245743
 21
427.1845343447946
 72
     1
 10
434.379023245743
 20
427.1845343447946
 11
434.3790232457433
 21
376.1845343447945
 72
     1
 10
434.3790232457434
 20
376.1845343447946
 11
435.8790232457435
 21
376.1845343447946
 97
        0
 75
     0
 76
     0
 52
-134.9999999999997
 41
2.5
 77
     0
 78
     1
 53
225.0000000000002
 43
728.2168846953071
 44
527.4742308687393
 45
1.767766952966375
 46
-1.767766952966361
 79
     0
 98
        1
 10
728.2168846953071
 20
527.4742308687393
1001
GENIUS_GENOBJ-N-HTC_13
1002
{
1000
OWNER
1000
GEN
1002
}
1001
GENIUS_GENODEF_13
1002
{
1000
HIER
1070
     0
1002
}
1002
{
1000
MANEDIT
1070
     0
1002
}
1002
{
1000
NOSEL
1070
     0
1002
}
1002
{
1000
BEHIND
1070
     0
1002
}
1002
{
1000
OTHER
1070
     0
1002
}
1002
{
1000
REACTOR
1002
}
1001
GENIUS_GENHATCH_13
1002
{
1000
DATA
1040
45.0
1042
2.5
1000
_U
1070
     0
1011
434.9139911532869
1021
382.19006085655
1031
0.0
1002
}
1002
{
1000
UCS
1010
0.0
1020
0.0
1030
0.0
1010
1.0
1020
0.0
1030
0.0
1010
0.0
1020
1.0
1030
0.0
1002
}
  0
LINE
  5
236E
330
1F
100
AcDbEntity
  8
ﾎﾞﾃﾞｨｰ
100
AcDbLine
 10
431.831725948446
 20
421.1845343447944
 30
0.0
 11
400.3790232457432
 21
421.1845343447942
 31
0.0
  0
LINE
  5
236F
330
1F
100
AcDbEntity
  8
ﾎﾞﾃﾞｨｰ
100
AcDbLine
 10
400.3790232457435
 20
407.7845343447942
 30
0.0
 11
431.3790232457432
 21
407.7845343447943
 31
0.0
  0
LINE
  5
2370
330
1F
100
AcDbEntity
  8
前面ﾊﾟﾈﾙ
100
AcDbLine
 10
433.9790232457434
 20
378.6845343447946
 30
0.0
 11
400.3790232457435
 21
378.6845343447944
 31
0.0
  0
LINE
  5
2371
330
1F
100
AcDbEntity
  8
前面ﾊﾟﾈﾙ
100
AcDbLine
 10
433.9790232457434
 20
376.1845343447946
 30
0.0
 11
433.9790232457434
 21
378.6845343447946
 31
0.0
  0
LINE
  5
2372
330
1F
100
AcDbEntity
  8
前面ﾊﾟﾈﾙ
100
AcDbLine
 10
400.3790232457435
 20
376.1845343447944
 30
0.0
 11
433.9790232457434
 21
376.1845343447946
 31
0.0
  0
LINE
  5
2373
330
1F
100
AcDbEntity
  8
ﾎﾞﾃﾞｨｰ
100
AcDbLine
 10
432.7790232457433
 20
380.1845343447946
 30
0.0
 11
434.3790232457434
 21
380.1845343447946
 31
0.0
  0
LINE
  5
2374
330
1F
100
AcDbEntity
  8
ﾎﾞﾃﾞｨｰ
100
AcDbLine
 10
431.3790232457432
 20
407.7845343447942
 30
0.0
 11
400.3790232457435
 21
407.7845343447942
 31
0.0
  0
LINE
  5
2375
330
1F
100
AcDbEntity
  8
ﾎﾞﾃﾞｨｰ
100
AcDbLine
 10
433.3290232457433
 20
392.6845343447944
 30
0.0
 11
433.4790232457434
 21
387.6845343447944
 31
0.0
  0
LINE
  5
2377
330
1F
100
AcDbEntity
  8
ﾎﾞﾃﾞｨｰ
100
AcDbLine
 10
430.8290232457433
 20
392.6845343447944
 30
0.0
 11
430.6790232457434
 21
387.6845343447944
 31
0.0
  0
LINE
  5
2378
330
1F
100
AcDbEntity
  8
ﾎﾞﾃﾞｨｰ
100
AcDbLine
 10
433.3290232457433
 20
392.6845343447944
 30
0.0
 11
430.8290232457433
 21
392.6845343447944
 31
0.0
  0
LINE
  5
2379
330
1F
100
AcDbEntity
  8
ﾎﾞﾃﾞｨｰ
100
AcDbLine
 10
403.3790232457435
 20
387.6845343447941
 30
0.0
 11
434.3790232457433
 21
387.6845343447944
 31
0.0
  0
LINE
  5
237A
330
1F
100
AcDbEntity
  8
ﾎﾞﾃﾞｨｰ
100
AcDbLine
 10
402.1290232457435
 20
399.3845343447942
 30
0.0
 11
400.3790232457435
 21
399.3845343447942
 31
0.0
  0
LINE
  5
237B
330
1F
100
AcDbEntity
  8
ﾎﾞﾃﾞｨｰ
100
AcDbLine
 10
402.3790232457434
 20
394.3845343447942
 30
0.0
 11
402.1290232457435
 21
399.3845343447942
 31
0.0
  0
LINE
  5
237C
330
1F
100
AcDbEntity
  8
ﾎﾞﾃﾞｨｰ
100
AcDbLine
 10
400.3790232457435
 20
394.3845343447942
 30
0.0
 11
402.3790232457434
 21
394.3845343447942
 31
0.0
  0
LINE
  5
237D
330
1F
100
AcDbEntity
  8
ﾎﾞﾃﾞｨｰ
100
AcDbLine
 10
403.3790232457435
 20
388.7845343447943
 30
0.0
 11
400.3790232457435
 21
388.7845343447943
 31
0.0
  0
LINE
  5
237E
330
1F
100
AcDbEntity
  8
ﾎﾞﾃﾞｨｰ
100
AcDbLine
 10
403.3790232457435
 20
387.2845343447944
 30
0.0
 11
403.3790232457435
 21
388.7845343447943
 31
0.0
  0
LINE
  5
237F
330
1F
100
AcDbEntity
  8
ﾎﾞﾃﾞｨｰ
100
AcDbLine
 10
400.3790232457435
 20
387.2845343447944
 30
0.0
 11
403.3790232457435
 21
387.2845343447944
 31
0.0
  0
LINE
  5
2380
330
1F
100
AcDbEntity
  8
ﾎﾞﾃﾞｨｰ
100
AcDbLine
 10
430.5790232457432
 20
385.5845343447945
 30
0.0
 11
430.5790232457432
 21
378.6845343447946
 31
0.0
  0
LINE
  5
2381
330
1F
100
AcDbEntity
  8
ﾎﾞﾃﾞｨｰ
100
AcDbLine
 10
433.5790232457433
 20
385.5845343447945
 30
0.0
 11
430.5790232457432
 21
385.5845343447945
 31
0.0
  0
LINE
  5
2382
330
1F
100
AcDbEntity
  8
ﾎﾞﾃﾞｨｰ
100
AcDbLine
 10
433.5790232457433
 20
380.1845343447946
 30
0.0
 11
433.5790232457433
 21
385.5845343447945
 31
0.0
  0
LINE
  5
2383
330
1F
100
AcDbEntity
  8
ﾎﾞﾃﾞｨｰ
100
AcDbLine
 10
432.7790232457435
 20
378.6845343447946
 30
0.0
 11
432.7790232457435
 21
380.1845343447946
 31
0.0
  0
LINE
  5
2384
330
1F
100
AcDbEntity
  8
ﾎﾞﾃﾞｨｰ
100
AcDbLine
 10
403.3790232457435
 20
380.1845343447944
 30
0.0
 11
430.5790232457435
 21
380.1845343447946
 31
0.0
  0
LINE
  5
2385
330
1F
100
AcDbEntity
  8
ﾎﾞﾃﾞｨｰ
100
AcDbLine
 10
403.3790232457435
 20
378.6845343447944
 30
0.0
 11
403.3790232457435
 21
380.1845343447944
 31
0.0
  0
LINE
  5
2386
330
1F
100
AcDbEntity
  8
ﾎﾞﾃﾞｨｰ
100
AcDbLine
 10
434.3790232457434
 20
378.6845343447946
 30
0.0
 11
403.3790232457435
 21
378.6845343447944
 31
0.0
  0
LINE
  5
2387
330
1F
100
AcDbEntity
  8
ﾎﾞﾃﾞｨｰ
100
AcDbLine
 10
435.879023245743
 20
427.1845343447946
 30
0.0
 11
434.3790232457433
 21
427.1845343447946
 31
0.0
  0
LINE
  5
2388
330
1F
100
AcDbEntity
  8
ﾎﾞﾃﾞｨｰ
100
AcDbLine
 10
435.879023245743
 20
427.1845343447946
 30
0.0
 11
434.3790232457433
 21
427.1845343447946
 31
0.0
  0
LINE
  5
2389
330
1F
100
AcDbEntity
  8
ﾀｰﾐﾅﾙｶﾊﾞｰ
100
AcDbLine
 10
368.6790232457432
 20
421.1845343447944
 30
0.0
 11
400.3790232457432
 21
421.1845343447945
 31
0.0
  0
LINE
  5
238A
330
1F
100
AcDbEntity
  8
ﾀｰﾐﾅﾙｶﾊﾞｰ
100
AcDbLine
 10
368.6790232457434
 20
407.784534344794
 30
0.0
 11
368.6790232457432
 21
421.1845343447944
 31
0.0
  0
LINE
  5
238D
330
1F
100
AcDbEntity
  8
ﾎﾞﾃﾞｨｰ
100
AcDbLine
 10
434.379023245743
 20
422.5845343447946
 30
0.0
 11
431.8790232457432
 21
422.5845343447946
 31
0.0
  0
LINE
  5
238E
330
1F
100
AcDbEntity
  8
ﾎﾞﾃﾞｨｰ
100
AcDbLine
 10
368.6790232457432
 20
421.1845343447944
 30
0.0
 11
368.6790232457434
 21
407.784534344794
 31
0.0
  0
LINE
  5
238F
330
1F
100
AcDbEntity
  8
ﾎﾞﾃﾞｨｰ
100
AcDbLine
 10
400.3790232457432
 20
421.1845343447945
 30
0.0
 11
368.6790232457432
 21
421.1845343447944
 31
0.0
  0
LINE
  5
2390
330
1F
100
AcDbEntity
  8
ﾎﾞﾃﾞｨｰ
100
AcDbLine
 10
435.879023245743
 20
427.1845343447946
 30
0.0
 11
435.8790232457435
 21
376.1845343447946
 31
0.0
  0
LINE
  5
2391
330
1F
100
AcDbEntity
  8
ﾎﾞﾃﾞｨｰ
100
AcDbLine
 10
435.8790232457435
 20
376.1845343447946
 30
0.0
 11
364.8790232457433
 21
376.1845343447943
 31
0.0
  0
LINE
  5
2392
330
1F
100
AcDbEntity
  8
ﾎﾞﾃﾞｨｰ
100
AcDbLine
 10
364.8790232457433
 20
376.1845343447943
 30
0.0
 11
364.8790232457431
 21
427.1845343447943
 31
0.0
  0
LINE
  5
2393
330
1F
100
AcDbEntity
  8
ﾎﾞﾃﾞｨｰ
100
AcDbLine
 10
364.8790232457431
 20
427.1845343447943
 30
0.0
 11
400.3790232457432
 21
427.1845343447944
 31
0.0
  0
LINE
  5
2394
330
1F
100
AcDbEntity
  8
ﾎﾞﾃﾞｨｰ
100
AcDbLine
 10
400.3790232457435
 20
386.1845343447945
 30
0.0
 11
364.8790232457433
 21
386.1845343447943
 31
0.0
  0
LINE
  5
2395
330
1F
100
AcDbEntity
  8
ﾍﾞｰｽ
100
AcDbLine
 10
435.879023245743
 20
427.1845343447946
 30
0.0
 11
435.879023245743
 21
434.1845343447948
 31
0.0
  0
LINE
  5
2396
330
1F
100
AcDbEntity
  8
ﾍﾞｰｽ
100
AcDbLine
 10
435.879023245743
 20
434.1845343447948
 30
0.0
 11
364.8790232457431
 21
434.1845343447944
 31
0.0
  0
LINE
  5
2397
330
1F
100
AcDbEntity
  8
ﾍﾞｰｽ
100
AcDbLine
 10
364.8790232457431
 20
434.1845343447944
 30
0.0
 11
364.8790232457431
 21
427.1845343447943
 31
0.0
  0
LINE
  5
2398
330
1F
100
AcDbEntity
  8
ﾍﾞｰｽ
100
AcDbLine
 10
364.8790232457431
 20
427.1845343447943
 30
0.0
 11
435.879023245743
 21
427.1845343447946
 31
0.0
  0
LINE
  5
2399
330
1F
100
AcDbEntity
  8
AM_7
100
AcDbLine
 10
400.3790232457432
 20
437.2945343447945
 30
0.0
 11
400.3790232457435
 21
371.0745343447945
 31
0.0
1001
GENIUS_GENODEF_13
1002
{
1000
HIER
1070
     0
1002
}
1002
{
1000
MANEDIT
1070
     0
1002
}
1002
{
1000
NOSEL
1070
     0
1002
}
1002
{
1000
BEHIND
1070
     0
1002
}
1002
{
1000
OTHER
1070
     0
1002
}
1002
{
1000
REACTOR
1002
}
1001
GENIUS_GENOBJ-N-CEN_13
1002
{
1000
OWNER
1000
GEN
1002
}
  0
LINE
  5
239A
330
1F
100
AcDbEntity
  8
ﾎﾞﾃﾞｨｰ
100
AcDbLine
 10
434.3790232457434
 20
376.1845343447946
 30
0.0
 11
434.379023245743
 21
427.1845343447946
 31
0.0
  0
LINE
  5
239B
330
1F
100
AcDbEntity
  8
ﾍﾞｰｽ
100
AcDbLine
 10
400.3790232457432
 20
424.1845343447945
 30
0.0
 11
434.379023245743
 21
424.1845343447946
 31
0.0
  0
LINE
  5
239C
330
1F
100
AcDbEntity
  8
ﾍﾞｰｽ
100
AcDbLine
 10
434.379023245743
 20
424.1845343447946
 30
0.0
 11
434.379023245743
 21
427.1845343447946
 31
0.0
  0
LINE
  5
239F
330
1F
100
AcDbEntity
  8
ﾀｰﾐﾅﾙｶﾊﾞｰ
100
AcDbLine
 10
435.4790232457433
 20
259.1595927681356
 30
0.0
 11
435.4790232457433
 21
245.5595927681356
 31
0.0
  0
LINE
  5
23A0
330
1F
100
AcDbEntity
  8
ﾀｰﾐﾅﾙｶﾊﾞｰ
100
AcDbLine
 10
435.6290232457434
 20
259.3595927681356
 30
0.0
 11
435.6290232457434
 21
245.3595927681356
 31
0.0
  0
LINE
  5
23A1
330
1F
100
AcDbEntity
  8
ﾀｰﾐﾅﾙｶﾊﾞｰ
100
AcDbLine
 10
434.4290232457433
 20
246.5595927681357
 30
0.0
 11
434.4290232457433
 21
258.1595927681355
 31
0.0
  0
LINE
  5
23A2
330
1F
100
AcDbEntity
  8
ﾀｰﾐﾅﾙｶﾊﾞｰ
100
AcDbLine
 10
402.3790232457433
 20
245.5595927681356
 30
0.0
 11
402.3790232457433
 21
246.1095927681357
 31
0.0
  0
LINE
  5
23A3
330
1F
100
AcDbEntity
  8
ﾀｰﾐﾅﾙｶﾊﾞｰ
100
AcDbLine
 10
401.8290232457432
 20
245.5595927681356
 30
0.0
 11
401.8290232457432
 21
245.3595927681356
 31
0.0
  0
LINE
  5
23A4
330
1F
100
AcDbEntity
  8
ﾀｰﾐﾅﾙｶﾊﾞｰ
100
AcDbLine
 10
398.3790232457434
 20
245.5595927681356
 30
0.0
 11
398.3790232457434
 21
246.1095927681357
 31
0.0
  0
LINE
  5
23A5
330
1F
100
AcDbEntity
  8
ﾀｰﾐﾅﾙｶﾊﾞｰ
100
AcDbLine
 10
398.9290232457433
 20
245.5595927681356
 30
0.0
 11
398.9290232457433
 21
245.3595927681356
 31
0.0
  0
LINE
  5
23A6
330
1F
100
AcDbEntity
  8
ﾀｰﾐﾅﾙｶﾊﾞｰ
100
AcDbLine
 10
402.3790232457433
 20
246.1095927681357
 30
0.0
 11
398.3790232457434
 21
246.1095927681357
 31
0.0
  0
LINE
  5
23A7
330
1F
100
AcDbEntity
  8
ﾀｰﾐﾅﾙｶﾊﾞｰ
100
AcDbLine
 10
365.2790232457432
 20
245.5595927681356
 30
0.0
 11
365.2790232457432
 21
259.1595927681356
 31
0.0
  0
LINE
  5
23A8
330
1F
100
AcDbEntity
  8
ﾀｰﾐﾅﾙｶﾊﾞｰ
100
AcDbLine
 10
365.1290232457434
 20
245.3595927681356
 30
0.0
 11
365.1290232457434
 21
259.3595927681356
 31
0.0
  0
LINE
  5
23A9
330
1F
100
AcDbEntity
  8
ﾀｰﾐﾅﾙｶﾊﾞｰ
100
AcDbLine
 10
366.3290232457432
 20
246.5595927681356
 30
0.0
 11
366.3290232457432
 21
258.1595927681355
 31
0.0
  0
LINE
  5
23AA
330
1F
100
AcDbEntity
  8
ﾀｰﾐﾅﾙｶﾊﾞｰ
100
AcDbLine
 10
435.4790232457433
 20
245.5595927681356
 30
0.0
 11
365.2790232457432
 21
245.5595927681355
 31
0.0
  0
LINE
  5
23AB
330
1F
100
AcDbEntity
  8
ﾀｰﾐﾅﾙｶﾊﾞｰ
100
AcDbLine
 10
365.2790232457432
 20
259.1595927681356
 30
0.0
 11
435.4790232457433
 21
259.1595927681356
 31
0.0
  0
LINE
  5
23AC
330
1F
100
AcDbEntity
  8
ﾀｰﾐﾅﾙｶﾊﾞｰ
100
AcDbLine
 10
365.1290232457434
 20
259.3595927681356
 30
0.0
 11
435.6290232457434
 21
259.3595927681356
 31
0.0
  0
LINE
  5
23AD
330
1F
100
AcDbEntity
  8
ﾀｰﾐﾅﾙｶﾊﾞｰ
100
AcDbLine
 10
435.6290232457431
 20
245.3595927681356
 30
0.0
 11
365.1290232457434
 21
245.3595927681356
 31
0.0
  0
LINE
  5
23AE
330
1F
100
AcDbEntity
  8
ﾀｰﾐﾅﾙｶﾊﾞｰ
100
AcDbLine
 10
366.3290232457432
 20
246.5595927681355
 30
0.0
 11
434.4290232457433
 21
246.5595927681357
 31
0.0
  0
LINE
  5
23AF
330
1F
100
AcDbEntity
  8
ﾀｰﾐﾅﾙｶﾊﾞｰ
100
AcDbLine
 10
366.3290232457432
 20
258.1595927681355
 30
0.0
 11
434.4290232457433
 21
258.1595927681356
 31
0.0
  0
LINE
  5
23B0
330
1F
100
AcDbEntity
  8
ﾎﾞﾃﾞｨｰ
100
AcDbLine
 10
365.1790232457433
 20
237.1095927681356
 30
0.0
 11
435.5790232457434
 21
237.1095927681355
 31
0.0
  0
LINE
  5
23B1
330
1F
100
AcDbEntity
  8
ﾎﾞﾃﾞｨｰ
100
AcDbLine
 10
366.3790232457434
 20
235.6095927681356
 30
0.0
 11
434.3790232457434
 21
235.6095927681356
 31
0.0
  0
LINE
  5
23B2
330
1F
100
AcDbEntity
  8
ﾎﾞﾃﾞｨｰ
100
AcDbLine
 10
364.8790232457434
 20
245.1095927681357
 30
0.0
 11
435.8790232457433
 21
245.1095927681357
 31
0.0
  0
LINE
  5
23B7
330
1F
100
AcDbEntity
  8
ﾎﾞﾃﾞｨｰ
100
AcDbLine
 10
364.8790232457431
 20
259.6595927681355
 30
0.0
 11
435.8790232457433
 21
259.6595927681355
 31
0.0
  0
ARC
  5
23B8
330
1F
100
AcDbEntity
  8
ﾎﾞﾃﾞｨｰ
100
AcDbCircle
 10
365.1790232457436
 20
236.8095927681356
 30
0.0
 40
0.3
100
AcDbArc
 50
90.0
 51
180.0
  0
ARC
  5
23B9
330
1F
100
AcDbEntity
  8
ﾎﾞﾃﾞｨｰ
100
AcDbCircle
 10
435.5790232457434
 20
236.8095927681355
 30
0.0
 40
0.3
100
AcDbArc
 50
0.0
 51
90.0
  0
LINE
  5
23BA
330
1F
100
AcDbEntity
  8
ﾎﾞﾃﾞｨｰ
100
AcDbLine
 10
433.9790232457432
 20
217.6095927681356
 30
0.0
 11
434.3790232457434
 21
217.6095927681356
 31
0.0
  0
LINE
  5
23BB
330
1F
100
AcDbEntity
  8
ﾎﾞﾃﾞｨｰ
100
AcDbLine
 10
366.7790232457432
 20
217.6095927681356
 30
0.0
 11
366.3790232457434
 21
217.6095927681356
 31
0.0
  0
ARC
  5
23BC
330
1F
100
AcDbEntity
  8
前面ﾊﾟﾈﾙ
100
AcDbCircle
 10
368.7790232457432
 20
233.6095927681355
 30
0.0
 40
1.0
100
AcDbArc
 50
90.0
 51
180.0
1001
GENIUS_GENODEF_13
1002
{
1000
HIER
1070
     0
1002
}
1002
{
1000
MANEDIT
1070
     0
1002
}
1002
{
1000
NOSEL
1070
     0
1002
}
1002
{
1000
BEHIND
1070
     0
1002
}
1002
{
1000
REACTOR
1002
}
1001
GENIUS_GENOBJ-N-FIL_13
1002
{
1000
OWNER
1000
GEN
1002
}
  0
ARC
  5
23BD
330
1F
100
AcDbEntity
  8
前面ﾊﾟﾈﾙ
100
AcDbCircle
 10
431.9790232457433
 20
233.6095927681355
 30
0.0
 40
1.0
100
AcDbArc
 50
0.0
 51
90.0
1001
GENIUS_GENODEF_13
1002
{
1000
HIER
1070
     0
1002
}
1002
{
1000
MANEDIT
1070
     0
1002
}
1002
{
1000
NOSEL
1070
     0
1002
}
1002
{
1000
BEHIND
1070
     0
1002
}
1002
{
1000
REACTOR
1002
}
1001
GENIUS_GENOBJ-N-FIL_13
1002
{
1000
OWNER
1000
GEN
1002
}
  0
LINE
  5
23BE
330
1F
100
AcDbEntity
  8
前面ﾊﾟﾈﾙ
100
AcDbLine
 10
431.9790232457433
 20
234.6095927681355
 30
0.0
 11
368.7790232457432
 21
234.6095927681355
 31
0.0
  0
LINE
  5
23C1
330
1F
100
AcDbEntity
  8
前面ﾊﾟﾈﾙ
100
AcDbLine
 10
367.2790232457432
 20
217.1095927681356
 30
0.0
 11
366.7790232457432
 21
217.1095927681356
 31
0.0
  0
LINE
  5
23C2
330
1F
100
AcDbEntity
  8
前面ﾊﾟﾈﾙ
100
AcDbLine
 10
366.7790232457432
 20
216.864138222681
 30
0.0
 11
367.2790232457432
 21
216.864138222681
 31
0.0
  0
LINE
  5
23C3
330
1F
100
AcDbEntity
  8
前面ﾊﾟﾈﾙ
100
AcDbLine
 10
367.2790232457432
 20
217.1095927681356
 30
0.0
 11
367.2790232457432
 21
214.6095927681356
 31
0.0
  0
LINE
  5
23C4
330
1F
100
AcDbEntity
  8
前面ﾊﾟﾈﾙ
100
AcDbLine
 10
366.7790232457432
 20
216.864138222681
 30
0.0
 11
366.7790232457432
 21
214.6095927681356
 31
0.0
  0
LINE
  5
23C5
330
1F
100
AcDbEntity
  8
前面ﾊﾟﾈﾙ
100
AcDbLine
 10
433.4790232457432
 20
217.1095927681356
 30
0.0
 11
433.9790232457432
 21
217.1095927681356
 31
0.0
  0
LINE
  5
23C6
330
1F
100
AcDbEntity
  8
前面ﾊﾟﾈﾙ
100
AcDbLine
 10
433.9790232457432
 20
216.8595927681356
 30
0.0
 11
433.4790232457432
 21
216.8595927681356
 31
0.0
  0
LINE
  5
23C7
330
1F
100
AcDbEntity
  8
前面ﾊﾟﾈﾙ
100
AcDbLine
 10
433.4790232457432
 20
217.1095927681356
 30
0.0
 11
433.4790232457432
 21
214.6095927681356
 31
0.0
  0
LINE
  5
23C8
330
1F
100
AcDbEntity
  8
前面ﾊﾟﾈﾙ
100
AcDbLine
 10
433.9790232457432
 20
216.8595927681356
 30
0.0
 11
433.9790232457432
 21
214.6095927681356
 31
0.0
  0
LINE
  5
23C9
330
1F
100
AcDbEntity
  8
前面ﾊﾟﾈﾙ
100
AcDbLine
 10
433.9790232457432
 20
235.6095927681356
 30
0.0
 11
366.7790232457432
 21
235.6095927681356
 31
0.0
  0
LINE
  5
23CA
330
1F
100
AcDbEntity
  8
前面ﾊﾟﾈﾙ
100
AcDbLine
 10
433.9790232457432
 20
235.6095927681356
 30
0.0
 11
433.9790232457432
 21
217.1095927681356
 31
0.0
  0
LINE
  5
23CB
330
1F
100
AcDbEntity
  8
前面ﾊﾟﾈﾙ
100
AcDbLine
 10
366.7790232457432
 20
235.6095927681356
 30
0.0
 11
366.7790232457432
 21
217.1095927681356
 31
0.0
  0
LINE
  5
23CC
330
1F
100
AcDbEntity
  8
ﾎﾞﾃﾞｨｰ
100
AcDbLine
 10
397.3790232457434
 20
243.6095927681356
 30
0.0
 11
403.3790232457433
 21
243.6095927681356
 31
0.0
  0
LINE
  5
23CD
330
1F
100
AcDbEntity
  8
ﾎﾞﾃﾞｨｰ
100
AcDbLine
 10
397.3790232457434
 20
241.7095927681355
 30
0.0
 11
397.3790232457434
 21
243.6095927681356
 31
0.0
  0
LINE
  5
23CE
330
1F
100
AcDbEntity
  8
ﾎﾞﾃﾞｨｰ
100
AcDbLine
 10
403.3790232457433
 20
241.7095927681355
 30
0.0
 11
397.3790232457434
 21
241.7095927681355
 31
0.0
  0
LINE
  5
23CF
330
1F
100
AcDbEntity
  8
ﾎﾞﾃﾞｨｰ
100
AcDbLine
 10
403.3790232457433
 20
243.6095927681356
 30
0.0
 11
403.3790232457433
 21
241.7095927681355
 31
0.0
  0
LINE
  5
23D0
330
1F
100
AcDbEntity
  8
ﾎﾞﾃﾞｨｰ
100
AcDbLine
 10
403.3790232457433
 20
185.6095927681357
 30
0.0
 11
403.3790232457433
 21
187.5095927681357
 31
0.0
  0
LINE
  5
23D1
330
1F
100
AcDbEntity
  8
ﾎﾞﾃﾞｨｰ
100
AcDbLine
 10
403.3790232457433
 20
187.5095927681357
 30
0.0
 11
397.3790232457434
 21
187.5095927681357
 31
0.0
  0
LINE
  5
23D2
330
1F
100
AcDbEntity
  8
ﾎﾞﾃﾞｨｰ
100
AcDbLine
 10
397.3790232457434
 20
187.5095927681357
 30
0.0
 11
397.3790232457434
 21
185.6095927681357
 31
0.0
  0
LINE
  5
23D3
330
1F
100
AcDbEntity
  8
ﾎﾞﾃﾞｨｰ
100
AcDbLine
 10
397.3790232457434
 20
185.6095927681357
 30
0.0
 11
403.3790232457433
 21
185.6095927681357
 31
0.0
  0
LINE
  5
23D4
330
1F
100
AcDbEntity
  8
前面ﾊﾟﾈﾙ
100
AcDbLine
 10
366.7790232457432
 20
193.6095927681357
 30
0.0
 11
366.7790232457432
 21
212.1095927681356
 31
0.0
  0
LINE
  5
23D5
330
1F
100
AcDbEntity
  8
前面ﾊﾟﾈﾙ
100
AcDbLine
 10
433.9790232457432
 20
193.6095927681357
 30
0.0
 11
433.9790232457432
 21
212.1095927681356
 31
0.0
  0
LINE
  5
23D6
330
1F
100
AcDbEntity
  8
前面ﾊﾟﾈﾙ
100
AcDbLine
 10
433.9790232457432
 20
193.6095927681357
 30
0.0
 11
366.7790232457432
 21
193.6095927681357
 31
0.0
  0
LINE
  5
23D7
330
1F
100
AcDbEntity
  8
前面ﾊﾟﾈﾙ
100
AcDbLine
 10
433.9790232457432
 20
212.3595927681357
 30
0.0
 11
433.9790232457432
 21
214.6095927681356
 31
0.0
  0
LINE
  5
23D8
330
1F
100
AcDbEntity
  8
前面ﾊﾟﾈﾙ
100
AcDbLine
 10
433.4790232457432
 20
212.1095927681356
 30
0.0
 11
433.4790232457432
 21
214.6095927681356
 31
0.0
  0
LINE
  5
23D9
330
1F
100
AcDbEntity
  8
前面ﾊﾟﾈﾙ
100
AcDbLine
 10
433.9790232457432
 20
212.3595927681357
 30
0.0
 11
433.4790232457432
 21
212.3595927681357
 31
0.0
  0
LINE
  5
23DA
330
1F
100
AcDbEntity
  8
前面ﾊﾟﾈﾙ
100
AcDbLine
 10
433.4790232457432
 20
212.1095927681356
 30
0.0
 11
433.9790232457432
 21
212.1095927681356
 31
0.0
  0
LINE
  5
23DB
330
1F
100
AcDbEntity
  8
前面ﾊﾟﾈﾙ
100
AcDbLine
 10
366.7790232457432
 20
212.3550473135903
 30
0.0
 11
366.7790232457432
 21
214.6095927681356
 31
0.0
  0
LINE
  5
23DC
330
1F
100
AcDbEntity
  8
前面ﾊﾟﾈﾙ
100
AcDbLine
 10
367.2790232457432
 20
212.1095927681356
 30
0.0
 11
367.2790232457432
 21
214.6095927681356
 31
0.0
  0
LINE
  5
23DD
330
1F
100
AcDbEntity
  8
前面ﾊﾟﾈﾙ
100
AcDbLine
 10
366.7790232457432
 20
212.3550473135903
 30
0.0
 11
367.2790232457432
 21
212.3550473135903
 31
0.0
  0
LINE
  5
23DE
330
1F
100
AcDbEntity
  8
前面ﾊﾟﾈﾙ
100
AcDbLine
 10
367.2790232457432
 20
212.1095927681356
 30
0.0
 11
366.7790232457432
 21
212.1095927681356
 31
0.0
  0
LINE
  5
23DF
330
1F
100
AcDbEntity
  8
前面ﾊﾟﾈﾙ
100
AcDbLine
 10
367.7790232457433
 20
195.6095927681357
 30
0.0
 11
367.7790232457433
 21
233.6095927681355
 31
0.0
  0
LINE
  5
23E0
330
1F
100
AcDbEntity
  8
前面ﾊﾟﾈﾙ
100
AcDbLine
 10
432.9790232457432
 20
195.6095927681357
 30
0.0
 11
432.9790232457432
 21
233.6095927681355
 31
0.0
  0
LINE
  5
23E1
330
1F
100
AcDbEntity
  8
前面ﾊﾟﾈﾙ
100
AcDbLine
 10
431.9790232457433
 20
194.6095927681357
 30
0.0
 11
368.7790232457432
 21
194.6095927681357
 31
0.0
  0
ARC
  5
23E2
330
1F
100
AcDbEntity
  8
前面ﾊﾟﾈﾙ
100
AcDbCircle
 10
431.9790232457433
 20
195.6095927681357
 30
0.0
 40
1.0
100
AcDbArc
 50
270.0
 51
0.0
1001
GENIUS_GENODEF_13
1002
{
1000
HIER
1070
     0
1002
}
1002
{
1000
MANEDIT
1070
     0
1002
}
1002
{
1000
NOSEL
1070
     0
1002
}
1002
{
1000
BEHIND
1070
     0
1002
}
1002
{
1000
REACTOR
1002
}
1001
GENIUS_GENOBJ-N-FIL_13
1002
{
1000
OWNER
1000
GEN
1002
}
  0
ARC
  5
23E3
330
1F
100
AcDbEntity
  8
前面ﾊﾟﾈﾙ
100
AcDbCircle
 10
368.7790232457432
 20
195.6095927681357
 30
0.0
 40
1.0
100
AcDbArc
 50
180.0
 51
270.0
1001
GENIUS_GENODEF_13
1002
{
1000
HIER
1070
     0
1002
}
1002
{
1000
MANEDIT
1070
     0
1002
}
1002
{
1000
NOSEL
1070
     0
1002
}
1002
{
1000
BEHIND
1070
     0
1002
}
1002
{
1000
REACTOR
1002
}
1001
GENIUS_GENOBJ-N-FIL_13
1002
{
1000
OWNER
1000
GEN
1002
}
  0
LINE
  5
23E4
330
1F
100
AcDbEntity
  8
ﾎﾞﾃﾞｨｰ
100
AcDbLine
 10
366.7790232457432
 20
211.6095927681357
 30
0.0
 11
366.3790232457434
 21
211.6095927681357
 31
0.0
  0
LINE
  5
23E5
330
1F
100
AcDbEntity
  8
ﾎﾞﾃﾞｨｰ
100
AcDbLine
 10
433.9790232457432
 20
211.6095927681357
 30
0.0
 11
434.3790232457434
 21
211.6095927681357
 31
0.0
  0
ARC
  5
23E6
330
1F
100
AcDbEntity
  8
ﾎﾞﾃﾞｨｰ
100
AcDbCircle
 10
435.5790232457434
 20
192.4095927681358
 30
0.0
 40
0.3
100
AcDbArc
 50
270.0
 51
0.0
  0
ARC
  5
23E7
330
1F
100
AcDbEntity
  8
ﾎﾞﾃﾞｨｰ
100
AcDbCircle
 10
365.1790232457436
 20
192.4095927681357
 30
0.0
 40
0.3
100
AcDbArc
 50
180.0
 51
270.0
  0
LINE
  5
23E8
330
1F
100
AcDbEntity
  8
ﾎﾞﾃﾞｨｰ
100
AcDbLine
 10
364.8790232457431
 20
169.5595927681357
 30
0.0
 11
435.8790232457433
 21
169.5595927681358
 31
0.0
  0
LINE
  5
23E9
330
1F
100
AcDbEntity
  8
ﾎﾞﾃﾞｨｰ
100
AcDbLine
 10
434.3790232457434
 20
193.6095927681356
 30
0.0
 11
434.3790232457434
 21
235.6095927681356
 31
0.0
  0
LINE
  5
23EA
330
1F
100
AcDbEntity
  8
ﾎﾞﾃﾞｨｰ
100
AcDbLine
 10
435.8790232457433
 20
169.5595927681358
 30
0.0
 11
435.8790232457433
 21
259.6595927681355
 31
0.0
  0
LINE
  5
23EB
330
1F
100
AcDbEntity
  8
ﾎﾞﾃﾞｨｰ
100
AcDbLine
 10
366.3790232457434
 20
235.6095927681356
 30
0.0
 11
366.3790232457434
 21
193.6095927681356
 31
0.0
  0
LINE
  5
23EC
330
1F
100
AcDbEntity
  8
ﾎﾞﾃﾞｨｰ
100
AcDbLine
 10
364.8790232457436
 20
259.6595927681355
 30
0.0
 11
364.8790232457431
 21
169.5595927681357
 31
0.0
  0
LINE
  5
23ED
330
1F
100
AcDbEntity
  8
ﾎﾞﾃﾞｨｰ
100
AcDbLine
 10
364.8790232457434
 20
184.1095927681356
 30
0.0
 11
435.8790232457433
 21
184.1095927681356
 31
0.0
  0
LINE
  5
23EE
330
1F
100
AcDbEntity
  8
ﾎﾞﾃﾞｨｰ
100
AcDbLine
 10
366.3790232457434
 20
193.6095927681356
 30
0.0
 11
434.3790232457434
 21
193.6095927681356
 31
0.0
  0
LINE
  5
23EF
330
1F
100
AcDbEntity
  8
ﾎﾞﾃﾞｨｰ
100
AcDbLine
 10
365.1790232457433
 20
192.1095927681356
 30
0.0
 11
435.5790232457434
 21
192.1095927681357
 31
0.0
  0
LINE
  5
23F0
330
1F
100
AcDbEntity
  8
ﾀｰﾐﾅﾙｶﾊﾞｰ
100
AcDbLine
 10
398.3790232457434
 20
183.6595927681358
 30
0.0
 11
365.2790232457432
 21
183.6595927681358
 31
0.0
  0
LINE
  5
2465
330
1F
100
AcDbEntity
  8
ﾀｰﾐﾅﾙｶﾊﾞｰ
100
AcDbLine
 10
368.7290232457432
 20
407.784534344794
 30
0.0
 11
365.1290232457433
 21
407.784534344794
 31
0.0
  0
LINE
  5
2466
330
1F
100
AcDbEntity
  8
ﾀｰﾐﾅﾙｶﾊﾞｰ
100
AcDbLine
 10
368.7290232457432
 20
421.0845343447935
 30
0.0
 11
368.7290232457432
 21
407.784534344794
 31
0.0
  0
LINE
  5
2467
330
1F
100
AcDbEntity
  8
ﾀｰﾐﾅﾙｶﾊﾞｰ
100
AcDbLine
 10
400.3790232457433
 20
421.0845343447934
 30
0.0
 11
368.7290232457432
 21
421.0845343447935
 31
0.0
  0
LINE
  5
2469
330
1F
100
AcDbEntity
  8
ﾀｰﾐﾅﾙｶﾊﾞｰ
100
AcDbLine
 10
365.1290232457433
 20
407.784534344794
 30
0.0
 11
365.2790232457432
 21
401.0845343447935
 31
0.0
  0
LINE
  5
246C
330
1F
100
AcDbEntity
  8
ﾀｰﾐﾅﾙｶﾊﾞｰ
100
AcDbLine
 10
400.3790232457434
 20
401.0845343447935
 30
0.0
 11
365.2790232457432
 21
401.0845343447935
 31
0.0
  0
LINE
  5
24AA
330
1F
100
AcDbEntity
  8
ﾎﾞﾃﾞｨｰ
100
AcDbLine
 10
368.6790232457432
 20
407.784534344794
 30
0.0
 11
364.8790232457431
 21
407.784534344794
 31
0.0
  0
VIEWPORT
  5
178
102
{ACAD_XDICTIONARY
360
26E0
102
}
330
1B
100
AcDbEntity
 67
     1
  8
0
100
AcDbViewport
 10
133.3499908447266
 20
123.6089706563676
 30
0.0
 40
370.2266912936524
 41
272.4401407679965
 68
     1
 69
     1
 12
133.3499908447266
 22
123.6089706563676
 13
0.0
 23
0.0
 14
10.0
 24
10.0
 15
10.0
 25
10.0
 16
0.0
 26
0.0
 36
1.0
 17
0.0
 27
0.0
 37
0.0
 42
50.0
 43
0.0
 44
0.0
 45
272.4401407679965
 50
0.0
 51
0.0
 72
   100
 90
    32800
  1

281
     0
 71
     1
 74
     0
110
0.0
120
0.0
130
0.0
111
1.0
121
0.0
131
0.0
112
0.0
122
1.0
132
0.0
 79
     0
146
0.0
  0
ENDSEC
  0
SECTION
  2
OBJECTS
  0
DICTIONARY
  5
C
330
0
100
AcDbDictionary
281
     1
  3
ACAD_CIP_PREVIOUS_PRODUCT_INFO
350
2501
  3
ACAD_COLOR
350
BE
  3
ACAD_GROUP
350
D
  3
ACAD_LAYOUT
350
1A
  3
ACAD_MATERIAL
350
BD
  3
ACAD_MLEADERSTYLE
350
24F3
  3
ACAD_MLINESTYLE
350
17
  3
ACAD_PLOTSETTINGS
350
19
  3
ACAD_PLOTSTYLENAME
350
E
  3
ACAD_SCALELIST
350
24E1
  3
ACAD_TABLESTYLE
350
931
  3
ACAD_VISUALSTYLE
350
24C8
  3
ACDB_RECOMPOSE_DATA
350
26D8
  3
AcDbVariableDictionary
350
94
  3
AcmDictionary
350
5B
  3
AMG
350
41
  3
AMGSNAPSETTINGS
350
1E5
  3
DWGPROPS
350
26D9
  0
DICTIONARY
  5
2EE
330
2
100
AcDbDictionary
280
     1
281
     1
  3
ACAD_LAYERFILTERS
360
2233
  3
ACAD_LAYERSTATES
360
4DB
  3
ACLYDICTIONARY
360
2232
  3
AMLAYER_GROUPCOLORS
360
2EF
  0
DICTIONARY
  5
26B4
330
10
100
AcDbDictionary
280
     1
281
     1
  3
ADSK_XREC_LAYER_RECONCILED
360
26B5
  0
DICTIONARY
  5
26B6
330
2F0
100
AcDbDictionary
280
     1
281
     1
  3
ADSK_XREC_LAYER_RECONCILED
360
26B7
  0
DICTIONARY
  5
26B8
330
2F1
100
AcDbDictionary
280
     1
281
     1
  3
ADSK_XREC_LAYER_RECONCILED
360
26B9
  0
DICTIONARY
  5
26BA
330
33C
100
AcDbDictionary
280
     1
281
     1
  3
ADSK_XREC_LAYER_RECONCILED
360
26BB
  0
DICTIONARY
  5
26BC
330
33D
100
AcDbDictionary
280
     1
281
     1
  3
ADSK_XREC_LAYER_RECONCILED
360
26BD
  0
DICTIONARY
  5
26BE
330
45E
100
AcDbDictionary
280
     1
281
     1
  3
ADSK_XREC_LAYER_RECONCILED
360
26BF
  0
DICTIONARY
  5
26C0
330
45F
100
AcDbDictionary
280
     1
281
     1
  3
ADSK_XREC_LAYER_RECONCILED
360
26C1
  0
DICTIONARY
  5
26C2
330
4D5
100
AcDbDictionary
280
     1
281
     1
  3
ADSK_XREC_LAYER_RECONCILED
360
26C3
  0
DICTIONARY
  5
26C4
330
1751
100
AcDbDictionary
280
     1
281
     1
  3
ADSK_XREC_LAYER_RECONCILED
360
26C5
  0
DICTIONARY
  5
26C6
330
1752
100
AcDbDictionary
280
     1
281
     1
  3
ADSK_XREC_LAYER_RECONCILED
360
26C7
  0
DICTIONARY
  5
26C8
330
1753
100
AcDbDictionary
280
     1
281
     1
  3
ADSK_XREC_LAYER_RECONCILED
360
26C9
  0
DICTIONARY
  5
26CA
330
1754
100
AcDbDictionary
280
     1
281
     1
  3
ADSK_XREC_LAYER_RECONCILED
360
26CB
  0
DICTIONARY
  5
26CC
330
1755
100
AcDbDictionary
280
     1
281
     1
  3
ADSK_XREC_LAYER_RECONCILED
360
26CD
  0
DICTIONARY
  5
26CE
330
2289
100
AcDbDictionary
280
     1
281
     1
  3
ADSK_XREC_LAYER_RECONCILED
360
26CF
  0
DICTIONARY
  5
8F
330
1F
100
AcDbDictionary
280
     1
281
     1
  3
ACAD_SORTENTS
360
1F1F
  0
DICTIONARY
  5
330
330
327
100
AcDbDictionary
280
     1
281
     1
  0
DICTIONARY
  5
395
330
340
100
AcDbDictionary
280
     1
281
     1
  0
DICTIONARY
  5
1AE6
330
1ADE
100
AcDbDictionary
280
     1
281
     1
  0
DICTIONARY
  5
1B45
330
1AEC
100
AcDbDictionary
280
     1
281
     1
  0
DICTIONARY
  5
26E2
330
17C
100
AcDbDictionary
280
     1
281
     1
  3
ACAD_XREC_ROUNDTRIP
360
26E3
  0
DICTIONARY
  5
18E0
330
18DF
100
AcDbDictionary
280
     1
281
     1
  3
ACAD_DIMASSOC
360
18E1
  0
DICTIONARY
  5
1A60
330
1A5F
100
AcDbDictionary
280
     1
281
     1
  3
ACAD_DIMASSOC
360
1A61
  0
DICTIONARY
  5
26E0
330
178
100
AcDbDictionary
280
     1
281
     1
  3
ACAD_XREC_ROUNDTRIP
360
26E1
  0
XRECORD
  5
2501
102
{ACAD_REACTORS
330
C
102
}
330
C
100
AcDbXrecord
280
     1
300
AMECH_PP
300
2012
300
PDSP_F_S
  0
DICTIONARY
  5
BE
102
{ACAD_REACTORS
330
C
102
}
330
C
100
AcDbDictionary
281
     1
  0
DICTIONARY
  5
D
102
{ACAD_REACTORS
330
C
102
}
330
C
100
AcDbDictionary
281
     1
  0
DICTIONARY
  5
1A
102
{ACAD_REACTORS
330
C
102
}
330
C
100
AcDbDictionary
281
     1
  3
Model
350
22
  3
レイアウト1
350
1E
  3
レイアウト2
350
26
  0
DICTIONARY
  5
BD
102
{ACAD_REACTORS
330
C
102
}
330
C
100
AcDbDictionary
281
     1
  3
ByBlock
350
24B8
  3
ByLayer
350
24B0
  3
Global
350
24C0
  0
DICTIONARY
  5
24F3
102
{ACAD_REACTORS
330
C
102
}
330
C
100
AcDbDictionary
281
     1
  3
Standard
350
24F4
  0
DICTIONARY
  5
17
102
{ACAD_REACTORS
330
C
102
}
330
C
100
AcDbDictionary
281
     1
  3
Standard
350
18
  0
DICTIONARY
  5
19
102
{ACAD_REACTORS
330
C
102
}
330
C
100
AcDbDictionary
281
     1
  0
ACDBDICTIONARYWDFLT
  5
E
102
{ACAD_REACTORS
330
C
102
}
330
C
100
AcDbDictionary
281
     1
  3
Normal
350
F
100
AcDbDictionaryWithDefault
340
F
  0
DICTIONARY
  5
24E1
102
{ACAD_REACTORS
330
C
102
}
330
C
100
AcDbDictionary
281
     1
  3
A0
350
24E2
  3
A1
350
24E3
  3
A2
350
24E4
  3
A3
350
24E5
  3
A4
350
24E6
  3
A5
350
24E7
  3
A6
350
24E8
  3
A7
350
24E9
  3
A8
350
24EA
  3
A9
350
24EB
  3
B0
350
24EC
  3
B1
350
24ED
  3
B2
350
24EE
  3
B3
350
24EF
  3
B4
350
24F0
  3
B5
350
24F1
  3
B6
350
24F2
  0
DICTIONARY
  5
931
102
{ACAD_REACTORS
330
C
102
}
330
C
100
AcDbDictionary
281
     1
  3
Standard
350
932
  0
DICTIONARY
  5
24C8
102
{ACAD_REACTORS
330
C
102
}
330
C
100
AcDbDictionary
281
     1
  3
2dWireframe
350
24CE
  3
Basic
350
24CD
  3
Brighten
350
24D4
  3
ColorChange
350
24D8
  3
Conceptual
350
24D1
  3
Dim
350
24D3
  3
EdgeColorOff
350
24E0
  3
Facepattern
350
24D7
  3
Flat
350
24C9
  3
FlatWithEdges
350
24CA
  3
Gouraud
350
24CB
  3
GouraudWithEdges
350
24CC
  3
Hidden
350
24D0
  3
JitterOff
350
24DE
  3
Linepattern
350
24D6
  3
OverhangOff
350
24DF
  3
Realistic
350
24D2
  3
Shaded
350
24DD
  3
Shaded with edges
350
24DC
  3
Shades of Gray
350
24D9
  3
Sketchy
350
24DA
  3
Thicken
350
24D5
  3
Wireframe
350
24CF
  3
X-Ray
350
24DB
  0
XRECORD
  5
26D8
102
{ACAD_REACTORS
330
C
102
}
330
C
100
AcDbXrecord
280
     1
 90
        1
330
932
  0
DICTIONARY
  5
94
102
{ACAD_REACTORS
330
C
102
}
330
C
100
AcDbDictionary
281
     1
  3
CANNOSCALE
350
26D1
  3
CMLEADERSTYLE
350
26D0
  3
CTABLESTYLE
350
9AD
  3
DIMASSOC
350
96
  3
INDEXCTL
350
95
  3
SORTENTS
350
26D2
  3
XCLIPFRAME
350
26D3
  0
DICTIONARY
  5
5B
102
{ACAD_REACTORS
330
C
102
}
330
C
100
AcDbDictionary
281
     1
  3
AcmBOM
350
1E2
  3
AcmStdDictionary
350
61
  3
AMDTSECTSYM_ARROWCOLOR
350
94D
  0
DICTIONARY
  5
41
102
{ACAD_REACTORS
330
C
102
}
330
C
100
AcDbDictionary
281
     1
  0
DICTIONARY
  5
1E5
102
{ACAD_REACTORS
330
C
102
}
330
C
100
AcDbDictionary
281
     1
  0
XRECORD
  5
26D9
102
{ACAD_REACTORS
330
C
102
}
330
C
100
AcDbXrecord
280
     1
  1
DWGPROPS COOKIE
  2

  3

  4

  6

  7

  8
TAKACHI
  9

300
AmdtFileType=84
301
=
302
=
303
=
304
=
305
=
306
=
307
=
308
=
309
=
 40
0.1049459490740741
 41
2453825.766918936
 42
2456939.579896759
  1

 90
        1
  0
DICTIONARY
  5
2233
102
{ACAD_REACTORS
330
2EE
102
}
330
2EE
100
AcDbDictionary
281
     1
  0
DICTIONARY
  5
4DB
102
{ACAD_REACTORS
330
2EE
102
}
330
2EE
100
AcDbDictionary
281
     1
  0
DICTIONARY
  5
2232
102
{ACAD_REACTORS
330
2EE
102
}
330
2EE
100
AcDbDictionary
281
     1
1001
ACAD
1000
<All
  0
DICTIONARY
  5
2EF
102
{ACAD_REACTORS
330
2EE
102
}
330
2EE
100
AcDbDictionary
280
     1
281
     1
  0
XRECORD
  5
26B5
102
{ACAD_REACTORS
330
26B4
102
}
330
26B4
100
AcDbXrecord
280
     1
290
     1
  0
XRECORD
  5
26B7
102
{ACAD_REACTORS
330
26B6
102
}
330
26B6
100
AcDbXrecord
280
     1
290
     1
  0
XRECORD
  5
26B9
102
{ACAD_REACTORS
330
26B8
102
}
330
26B8
100
AcDbXrecord
280
     1
290
     1
  0
XRECORD
  5
26BB
102
{ACAD_REACTORS
330
26BA
102
}
330
26BA
100
AcDbXrecord
280
     1
290
     1
  0
XRECORD
  5
26BD
102
{ACAD_REACTORS
330
26BC
102
}
330
26BC
100
AcDbXrecord
280
     1
290
     1
  0
XRECORD
  5
26BF
102
{ACAD_REACTORS
330
26BE
102
}
330
26BE
100
AcDbXrecord
280
     1
290
     1
  0
XRECORD
  5
26C1
102
{ACAD_REACTORS
330
26C0
102
}
330
26C0
100
AcDbXrecord
280
     1
290
     1
  0
XRECORD
  5
26C3
102
{ACAD_REACTORS
330
26C2
102
}
330
26C2
100
AcDbXrecord
280
     1
290
     1
  0
XRECORD
  5
26C5
102
{ACAD_REACTORS
330
26C4
102
}
330
26C4
100
AcDbXrecord
280
     1
290
     1
  0
XRECORD
  5
26C7
102
{ACAD_REACTORS
330
26C6
102
}
330
26C6
100
AcDbXrecord
280
     1
290
     1
  0
XRECORD
  5
26C9
102
{ACAD_REACTORS
330
26C8
102
}
330
26C8
100
AcDbXrecord
280
     1
290
     1
  0
XRECORD
  5
26CB
102
{ACAD_REACTORS
330
26CA
102
}
330
26CA
100
AcDbXrecord
280
     1
290
     1
  0
XRECORD
  5
26CD
102
{ACAD_REACTORS
330
26CC
102
}
330
26CC
100
AcDbXrecord
280
     1
290
     1
  0
XRECORD
  5
26CF
102
{ACAD_REACTORS
330
26CE
102
}
330
26CE
100
AcDbXrecord
280
     1
290
     1
  0
SORTENTSTABLE
  5
1F1F
102
{ACAD_REACTORS
330
8F
102
}
330
8F
100
AcDbSortentsTable
330
1F
331
1A0F
  5
1A0F
331
79F
  5
79F
331
1A0B
  5
1A0B
331
19CC
  5
19CC
331
1FB5
  5
1FB6
331
1A03
  5
1A03
331
1FB1
  5
1FB2
331
20FB
  5
1F89
331
20F7
  5
20F8
331
208C
  5
208D
331
2088
  5
2089
331
20F3
  5
20F4
331
19FF
  5
19FF
331
19C4
  5
19C4
331
85E
  5
85E
331
1F1E
  5
1F1C
331
20EF
  5
20F0
331
1A32
  5
1A32
331
1F89
  5
1F8A
331
2080
  5
2083
331
1F85
  5
1F85
331
207C
  5
2080
331
1F81
  5
1F81
331
2078
  5
2079
331
20CB
  5
20E9
331
856
  5
856
331
1A2E
  5
1A2E
331
19EB
  5
19EB
331
1A26
  5
1A26
331
19E7
  5
19E7
331
84A
  5
84A
331
1A22
  5
1A22
331
1F7D
  5
1F7D
331
2074
  5
2075
331
19E3
  5
19E3
331
2070
  5
2071
331
20C3
  5
20C4
331
1F75
  5
1F75
331
206C
  5
206D
331
2068
  5
2069
331
20A3
  5
20C1
331
1A1E
  5
1A1E
331
19DF
  5
19DF
331
842
  5
842
331
1A1A
  5
1A1A
331
19DB
  5
19DB
331
1A16
  5
1A16
331
209F
  5
20A0
331
2064
  5
2065
331
19D3
  5
19D3
331
1F61
  5
1F61
331
209B
  5
209C
331
2097
  5
2098
331
1FB8
  5
1FB9
331
2093
  5
2094
331
1A0E
  5
1A0E
331
1A0A
  5
1A0A
331
19CB
  5
19CB
331
1FB4
  5
1FB5
331
1A02
  5
1A02
331
208F
  5
2090
331
1FB0
  5
1FB1
331
20FA
  5
20FB
331
20F6
  5
20F7
331
208B
  5
208C
331
1F90
  5
1FB0
331
20F2
  5
20F3
331
19C7
  5
19C7
331
859
  5
859
331
20EE
  5
20EF
331
1F8C
  5
1F8D
331
2083
  5
2085
331
1A31
  5
1A31
331
1F88
  5
1F88
331
1F80
  5
1F80
331
18DF
  5
18DF
331
1A2D
  5
1A2D
331
851
  5
851
331
1A25
  5
1A25
331
2077
  5
2078
331
19E6
  5
19E6
331
1A21
  5
1A21
331
20C6
  5
20C8
331
1F7C
  5
1F7C
331
2073
  5
2074
331
19E2
  5
19E2
331
1F78
  5
1F78
331
206F
  5
2070
331
20C2
  5
20C3
331
206B
  5
206C
331
1F70
  5
1F70
331
20A2
  5
20A3
331
1A1D
  5
1A1D
331
19DE
  5
19DE
331
1A19
  5
1A19
331
19DA
  5
19DA
331
1A15
  5
1A15
331
2067
  5
2068
331
19D6
  5
19D6
331
209E
  5
209F
331
2063
  5
2064
331
19D2
  5
19D2
331
1F60
  5
1F60
331
209A
  5
209B
331
2096
  5
2097
331
1FBB
  5
1FBC
331
1F58
  5
1F58
331
2092
  5
2093
331
1A0D
  5
1A0D
331
7A1
  5
7A1
331
19CE
  5
19CE
331
1A09
  5
1A09
331
1FB7
  5
1FB8
331
1A05
  5
1A05
331
1FB3
  5
1FB4
331
1A01
  5
1A01
331
208E
  5
208F
331
20F9
  5
20FA
331
20F5
  5
20F6
331
208A
  5
208B
331
20F1
  5
20F2
331
19C6
  5
19C6
331
19FD
  5
19FD
331
19C2
  5
19C2
331
1F8F
  5
1F90
331
2086
  5
2088
331
18E2
  5
18E2
331
1A30
  5
1A30
331
20ED
  5
20EE
331
19F1
  5
19F1
331
20E9
  5
20EC
331
1EE8
  5
1EE8
331
1F83
  5
1F83
331
207A
  5
207C
331
20C9
  5
20CA
331
854
  5
854
331
19ED
  5
19ED
331
1A2C
  5
1A2C
331
1A24
  5
1A24
331
1F7F
  5
1F7F
331
2076
  5
2077
331
19E5
  5
19E5
331
1A20
  5
1A20
331
19E1
  5
19E1
331
20C5
  5
20C6
331
1F7B
  5
1F7B
331
2072
  5
2073
331
1F77
  5
1F77
331
206E
  5
206F
331
20C1
  5
20C2
331
1F73
  5
1F73
331
206A
  5
206B
331
20A1
  5
20A2
331
1A1C
  5
1A1C
331
19DD
  5
19DD
331
1A18
  5
1A18
331
1A14
  5
1A14
331
2066
  5
2067
331
19D5
  5
19D5
331
1A10
  5
1A10
331
19D1
  5
19D1
331
209D
  5
209E
331
2062
  5
2063
331
2099
  5
209A
331
2095
  5
2096
331
1FBA
  5
1FBB
331
2091
  5
2092
331
1A0C
  5
1A0C
331
1A08
  5
1A08
331
19CD
  5
19CD
331
1FB6
  5
1FB7
331
1A00
  5
1A00
331
1F27
  5
1F26
331
1FB2
  5
1FB3
331
208D
  5
208E
331
20F8
  5
20F9
331
1F23
  5
1F22
331
20F4
  5
20F5
331
2089
  5
208A
331
20F0
  5
20F1
331
1A5F
  5
1A5F
331
19C5
  5
19C5
331
85B
  5
85B
331
19F8
  5
19F8
331
2085
  5
2086
331
1F8E
  5
1F8F
331
1A33
  5
1A33
331
1F8A
  5
1F8C
331
19F0
  5
19F0
331
1F86
  5
1F86
331
1F82
  5
1F82
331
2079
  5
207A
331
20C8
  5
20C9
331
1A2F
  5
1A2F
331
84F
  5
84F
331
19E8
  5
19E8
331
1A27
  5
1A27
331
1A23
  5
1A23
331
2075
  5
2076
331
1F7E
  5
1F7E
331
19E4
  5
19E4
331
1F7A
  5
1F7A
331
2071
  5
2072
331
19E0
  5
19E0
331
20C4
  5
20C5
331
206D
  5
206E
331
1F72
  5
1F72
331
2069
  5
206A
331
20A0
  5
20A1
331
847
  5
847
331
1A1F
  5
1A1F
331
1A1B
  5
1A1B
331
19DC
  5
19DC
331
1A17
  5
1A17
331
1A13
  5
1A13
331
2065
  5
2066
331
19D4
  5
19D4
331
1F62
  5
1F62
331
2061
  5
2062
331
19D0
  5
19D0
331
209C
  5
209D
331
2098
  5
2099
331
1FB9
  5
1FBA
331
2094
  5
2095
331
2090
  5
2091
  0
XRECORD
  5
26E3
102
{ACAD_REACTORS
330
26E2
102
}
330
26E2
100
AcDbXrecord
280
     1
102
SHADEPLOT
 70
     0
  0
DIMASSOC
  5
18E1
102
{ACAD_REACTORS
330
18E0
102
}
330
18E0
100
AcDbDimAssoc
330
18DF
 90
        2
 70
     0
 71
     0
  1
AcDbOsnapPointRef
 72
    13
331
19E7
 73
     0
 91
        0
 40
0.0
 10
0.0
 20
0.0
 30
2.000000000000000E+50
 75
     0
  0
DIMASSOC
  5
1A61
102
{ACAD_REACTORS
330
1A60
102
}
330
1A60
100
AcDbDimAssoc
330
1A5F
 90
        1
 70
     0
 71
     0
  1
AcDbOsnapPointRef
 72
    13
331
1A05
 73
     0
 91
        0
 40
0.0
 10
0.0
 20
0.0
 30
2.000000000000000E+50
 75
     0
  0
XRECORD
  5
26E1
102
{ACAD_REACTORS
330
26E0
102
}
330
26E0
100
AcDbXrecord
280
     1
102
SHADEPLOT
 70
     0
  0
LAYOUT
  5
22
102
{ACAD_XDICTIONARY
360
26DC
102
}
102
{ACAD_REACTORS
330
1A
102
}
330
1A
100
AcDbPlotSettings
  1

  2

  4

  6

 40
0.0
 41
0.0
 42
0.0
 43
0.0
 44
0.0
 45
0.0
 46
0.0
 47
0.0
 48
0.0
 49
0.0
140
0.0
141
0.0
142
1.0
143
1.0
 70
  1712
 72
     0
 73
     0
 74
     0
  7

 75
     0
147
1.0
148
0.0
149
0.0
100
AcDbLayout
  1
Model
 70
     1
 71
     0
 10
0.0
 20
0.0
 11
12.0
 21
9.0
 12
0.0
 22
0.0
 32
0.0
 14
0.0
 24
0.0
 34
0.0
 15
0.0
 25
0.0
 35
0.0
146
0.0
 13
0.0
 23
0.0
 33
0.0
 16
1.0
 26
0.0
 36
0.0
 17
0.0
 27
1.0
 37
0.0
 76
     0
330
1F
331
24AE
  0
LAYOUT
  5
1E
102
{ACAD_XDICTIONARY
360
26DA
102
}
102
{ACAD_REACTORS
330
1A
102
}
330
1A
100
AcDbPlotSettings
  1

  2
none_device
  4
Letter_(8.50_x_11.00_Inches)
  6

 40
6.349999904632568
 41
6.349999904632568
 42
6.350006103515625
 43
6.350006103515625
 44
215.8999938964844
 45
279.3999938964844
 46
0.0
 47
0.0
 48
0.0
 49
0.0
140
0.0
141
0.0
142
1.0
143
1.0
 70
   688
 72
     1
 73
     1
 74
     5
  7

 75
    16
147
1.0
148
0.0
149
0.0
100
AcDbLayout
  1
レイアウト1
 70
     1
 71
     1
 10
-6.350006103515625
 20
-6.349999904632568
 11
273.0499877929688
 21
209.5499939918518
 12
0.0
 22
0.0
 32
0.0
 14
1.000000000000000E+20
 24
1.000000000000000E+20
 34
1.000000000000000E+20
 15
-1.000000000000000E+20
 25
-1.000000000000000E+20
 35
-1.000000000000000E+20
146
0.0
 13
0.0
 23
0.0
 33
0.0
 16
1.0
 26
0.0
 36
0.0
 17
0.0
 27
1.0
 37
0.0
 76
     0
330
1B
331
178
  0
LAYOUT
  5
26
102
{ACAD_XDICTIONARY
360
26DE
102
}
102
{ACAD_REACTORS
330
1A
102
}
330
1A
100
AcDbPlotSettings
  1

  2
none_device
  4
Letter_(8.50_x_11.00_Inches)
  6

 40
6.349999904632568
 41
6.349999904632568
 42
6.350006103515625
 43
6.350006103515625
 44
215.8999938964844
 45
279.3999938964844
 46
0.0
 47
0.0
 48
0.0
 49
0.0
140
0.0
141
0.0
142
1.0
143
1.0
 70
   688
 72
     1
 73
     1
 74
     5
  7

 75
    16
147
1.0
148
0.0
149
0.0
100
AcDbLayout
  1
レイアウト2
 70
     1
 71
     2
 10
-6.350006103515625
 20
-6.349999904632568
 11
273.0499877929688
 21
209.5499939918518
 12
0.0
 22
0.0
 32
0.0
 14
1.000000000000000E+20
 24
1.000000000000000E+20
 34
1.000000000000000E+20
 15
-1.000000000000000E+20
 25
-1.000000000000000E+20
 35
-1.000000000000000E+20
146
0.0
 13
0.0
 23
0.0
 33
0.0
 16
1.0
 26
0.0
 36
0.0
 17
0.0
 27
1.0
 37
0.0
 76
     0
330
23
331
17C
  0
MATERIAL
  5
24B8
102
{ACAD_XDICTIONARY
360
24B9
102
}
102
{ACAD_REACTORS
330
BD
102
}
330
BD
100
AcDbMaterial
  1
ByBlock
 72
     0
 43
0.0008202099737533
 43
0.0
 43
0.0
 43
0.0
 43
0.0
 43
0.0008202099737533
 43
0.0
 43
0.0
 43
0.0
 43
0.0
 43
1.0
 43
0.0
 43
0.0
 43
0.0
 43
0.0
 43
1.0
 77
     0
 47
0.0008202099737533
 47
0.0
 47
0.0
 47
0.0
 47
0.0
 47
0.0008202099737533
 47
0.0
 47
0.0
 47
0.0
 47
0.0
 47
1.0
 47
0.0
 47
0.0
 47
0.0
 47
0.0
 47
1.0
171
     0
 49
0.0008202099737533
 49
0.0
 49
0.0
 49
0.0
 49
0.0
 49
0.0008202099737533
 49
0.0
 49
0.0
 49
0.0
 49
0.0
 49
1.0
 49
0.0
 49
0.0
 49
0.0
 49
0.0
 49
1.0
175
     0
142
0.0008202099737533
142
0.0
142
0.0
142
0.0
142
0.0
142
0.0008202099737533
142
0.0
142
0.0
142
0.0
142
0.0
142
1.0
142
0.0
142
0.0
142
0.0
142
0.0
142
1.0
179
     0
144
0.0008202099737533
144
0.0
144
0.0
144
0.0
144
0.0
144
0.0008202099737533
144
0.0
144
0.0
144
0.0
144
0.0
144
1.0
144
0.0
144
0.0
144
0.0
144
0.0
144
1.0
147
0.0008202099737533
147
0.0
147
0.0
147
0.0
147
0.0
147
0.0008202099737533
147
0.0
147
0.0
147
0.0
147
0.0
147
1.0
147
0.0
147
0.0
147
0.0
147
0.0
147
1.0
  0
MATERIAL
  5
24B0
102
{ACAD_XDICTIONARY
360
24B1
102
}
102
{ACAD_REACTORS
330
BD
102
}
330
BD
100
AcDbMaterial
  1
ByLayer
 72
     0
 43
0.0008202099737533
 43
0.0
 43
0.0
 43
0.0
 43
0.0
 43
0.0008202099737533
 43
0.0
 43
0.0
 43
0.0
 43
0.0
 43
1.0
 43
0.0
 43
0.0
 43
0.0
 43
0.0
 43
1.0
 77
     0
 47
0.0008202099737533
 47
0.0
 47
0.0
 47
0.0
 47
0.0
 47
0.0008202099737533
 47
0.0
 47
0.0
 47
0.0
 47
0.0
 47
1.0
 47
0.0
 47
0.0
 47
0.0
 47
0.0
 47
1.0
171
     0
 49
0.0008202099737533
 49
0.0
 49
0.0
 49
0.0
 49
0.0
 49
0.0008202099737533
 49
0.0
 49
0.0
 49
0.0
 49
0.0
 49
1.0
 49
0.0
 49
0.0
 49
0.0
 49
0.0
 49
1.0
175
     0
142
0.0008202099737533
142
0.0
142
0.0
142
0.0
142
0.0
142
0.0008202099737533
142
0.0
142
0.0
142
0.0
142
0.0
142
1.0
142
0.0
142
0.0
142
0.0
142
0.0
142
1.0
179
     0
144
0.0008202099737533
144
0.0
144
0.0
144
0.0
144
0.0
144
0.0008202099737533
144
0.0
144
0.0
144
0.0
144
0.0
144
1.0
144
0.0
144
0.0
144
0.0
144
0.0
144
1.0
147
0.0008202099737533
147
0.0
147
0.0
147
0.0
147
0.0
147
0.0008202099737533
147
0.0
147
0.0
147
0.0
147
0.0
147
1.0
147
0.0
147
0.0
147
0.0
147
0.0
147
1.0
  0
MATERIAL
  5
24C0
102
{ACAD_XDICTIONARY
360
24C1
102
}
102
{ACAD_REACTORS
330
BD
102
}
330
BD
100
AcDbMaterial
  1
Global
 72
     0
 43
0.0008202099737533
 43
0.0
 43
0.0
 43
0.0
 43
0.0
 43
0.0008202099737533
 43
0.0
 43
0.0
 43
0.0
 43
0.0
 43
1.0
 43
0.0
 43
0.0
 43
0.0
 43
0.0
 43
1.0
 77
     0
 47
0.0008202099737533
 47
0.0
 47
0.0
 47
0.0
 47
0.0
 47
0.0008202099737533
 47
0.0
 47
0.0
 47
0.0
 47
0.0
 47
1.0
 47
0.0
 47
0.0
 47
0.0
 47
0.0
 47
1.0
171
     0
 49
0.0008202099737533
 49
0.0
 49
0.0
 49
0.0
 49
0.0
 49
0.0008202099737533
 49
0.0
 49
0.0
 49
0.0
 49
0.0
 49
1.0
 49
0.0
 49
0.0
 49
0.0
 49
0.0
 49
1.0
175
     0
142
0.0008202099737533
142
0.0
142
0.0
142
0.0
142
0.0
142
0.0008202099737533
142
0.0
142
0.0
142
0.0
142
0.0
142
1.0
142
0.0
142
0.0
142
0.0
142
0.0
142
1.0
179
     0
144
0.0008202099737533
144
0.0
144
0.0
144
0.0
144
0.0
144
0.0008202099737533
144
0.0
144
0.0
144
0.0
144
0.0
144
1.0
144
0.0
144
0.0
144
0.0
144
0.0
144
1.0
147
0.0008202099737533
147
0.0
147
0.0
147
0.0
147
0.0
147
0.0008202099737533
147
0.0
147
0.0
147
0.0
147
0.0
147
1.0
147
0.0
147
0.0
147
0.0
147
0.0
147
1.0
  0
MLEADERSTYLE
  5
24F4
102
{ACAD_XDICTIONARY
360
26D6
102
}
102
{ACAD_REACTORS
330
24F3
102
}
330
24F3
100
AcDbMLeaderStyle
170
     2
171
     1
172
     0
 90
        2
 40
0.0
 41
0.0
173
     1
 91
-1056964608
340
14
 92
       -2
290
     1
 42
2.0
291
     1
 43
0.36
  3
Standard
 44
4.0
300

342
11
174
     1
178
     6
175
     1
176
     0
 93
-1056964608
 45
4.0
292
     0
297
     0
 46
4.0
 94
-1056964608
 47
1.0
 49
1.0
140
1.0
293
     1
141
0.0
294
     1
177
     0
142
1.0
295
     0
296
     0
143
0.125
1001
ACAD_MLEADERVER
1070
     2
  0
MLINESTYLE
  5
18
102
{ACAD_REACTORS
330
17
102
}
330
17
100
AcDbMlineStyle
  2
STANDARD
 70
     0
  3

 62
   256
 51
90.0
 52
90.0
 71
     2
 49
0.5
 62
   256
  6
BYLAYER
 49
-0.5
 62
   256
  6
BYLAYER
  0
ACDBPLACEHOLDER
  5
F
102
{ACAD_REACTORS
330
E
102
}
330
E
  0
SCALE
  5
24E2
102
{ACAD_REACTORS
330
24E1
102
}
330
24E1
100
AcDbScale
 70
     0
300
1:1
140
1.0
141
1.0
290
     1
  0
SCALE
  5
24E3
102
{ACAD_REACTORS
330
24E1
102
}
330
24E1
100
AcDbScale
 70
     0
300
1:2
140
1.0
141
2.0
290
     0
  0
SCALE
  5
24E4
102
{ACAD_REACTORS
330
24E1
102
}
330
24E1
100
AcDbScale
 70
     0
300
1:4
140
1.0
141
4.0
290
     0
  0
SCALE
  5
24E5
102
{ACAD_REACTORS
330
24E1
102
}
330
24E1
100
AcDbScale
 70
     0
300
1:5
140
1.0
141
5.0
290
     0
  0
SCALE
  5
24E6
102
{ACAD_REACTORS
330
24E1
102
}
330
24E1
100
AcDbScale
 70
     0
300
1:8
140
1.0
141
8.0
290
     0
  0
SCALE
  5
24E7
102
{ACAD_REACTORS
330
24E1
102
}
330
24E1
100
AcDbScale
 70
     0
300
1:10
140
1.0
141
10.0
290
     0
  0
SCALE
  5
24E8
102
{ACAD_REACTORS
330
24E1
102
}
330
24E1
100
AcDbScale
 70
     0
300
1:16
140
1.0
141
16.0
290
     0
  0
SCALE
  5
24E9
102
{ACAD_REACTORS
330
24E1
102
}
330
24E1
100
AcDbScale
 70
     0
300
1:20
140
1.0
141
20.0
290
     0
  0
SCALE
  5
24EA
102
{ACAD_REACTORS
330
24E1
102
}
330
24E1
100
AcDbScale
 70
     0
300
1:30
140
1.0
141
30.0
290
     0
  0
SCALE
  5
24EB
102
{ACAD_REACTORS
330
24E1
102
}
330
24E1
100
AcDbScale
 70
     0
300
1:40
140
1.0
141
40.0
290
     0
  0
SCALE
  5
24EC
102
{ACAD_REACTORS
330
24E1
102
}
330
24E1
100
AcDbScale
 70
     0
300
1:50
140
1.0
141
50.0
290
     0
  0
SCALE
  5
24ED
102
{ACAD_REACTORS
330
24E1
102
}
330
24E1
100
AcDbScale
 70
     0
300
1:100
140
1.0
141
100.0
290
     0
  0
SCALE
  5
24EE
102
{ACAD_REACTORS
330
24E1
102
}
330
24E1
100
AcDbScale
 70
     0
300
2:1
140
2.0
141
1.0
290
     0
  0
SCALE
  5
24EF
102
{ACAD_REACTORS
330
24E1
102
}
330
24E1
100
AcDbScale
 70
     0
300
4:1
140
4.0
141
1.0
290
     0
  0
SCALE
  5
24F0
102
{ACAD_REACTORS
330
24E1
102
}
330
24E1
100
AcDbScale
 70
     0
300
8:1
140
8.0
141
1.0
290
     0
  0
SCALE
  5
24F1
102
{ACAD_REACTORS
330
24E1
102
}
330
24E1
100
AcDbScale
 70
     0
300
10:1
140
10.0
141
1.0
290
     0
  0
SCALE
  5
24F2
102
{ACAD_REACTORS
330
24E1
102
}
330
24E1
100
AcDbScale
 70
     0
300
100:1
140
100.0
141
1.0
290
     0
  0
TABLESTYLE
  5
932
102
{ACAD_XDICTIONARY
360
26D4
102
}
102
{ACAD_REACTORS
330
931
102
}
330
931
100
AcDbTableStyle
  3
Standard
 70
     0
 71
     0
 40
1.5
 41
1.5
280
     0
281
     0
  7
STANDARD
140
4.5
170
     2
 62
     0
 63
     7
283
     0
274
    -2
284
     1
 64
     0
275
    -2
285
     1
 65
     0
276
    -2
286
     1
 66
     0
277
    -2
287
     1
 67
     0
278
    -2
288
     1
 68
     0
279
    -2
289
     1
 69
     0
  7
STANDARD
140
6.0
170
     5
 62
     0
 63
     7
283
     0
274
    -2
284
     1
 64
     0
275
    -2
285
     1
 65
     0
276
    -2
286
     1
 66
     0
277
    -2
287
     1
 67
     0
278
    -2
288
     1
 68
     0
279
    -2
289
     1
 69
     0
  7
STANDARD
140
4.5
170
     5
 62
     0
 63
     7
283
     0
274
    -2
284
     1
 64
     0
275
    -2
285
     1
 65
     0
276
    -2
286
     1
 66
     0
277
    -2
287
     1
 67
     0
278
    -2
288
     1
 68
     0
279
    -2
289
     1
 69
     0
  0
VISUALSTYLE
  5
24CE
102
{ACAD_XDICTIONARY
360
26F2
102
}
102
{ACAD_REACTORS
330
24C8
102
}
330
24C8
100
AcDbVisualStyle
  2
2dWireframe
 70
     4
 71
     0
 72
     2
 73
     0
 90
        0
 40
-0.6
 41
-30.0
 62
     5
 63
     7
 74
     1
 91
        4
 64
     7
 65
   257
 75
     1
175
     1
 42
1.0
 92
        0
 66
   257
 43
1.0
 76
     1
 77
     6
 78
     2
 67
     7
 79
     5
170
     0
171
     0
290
     0
174
     0
 93
        1
 44
0.0
173
     0
291
     0
 45
0.0
1001
ACAD
1000
AcDbSavedByObjectVersion
1070
     0
  0
VISUALSTYLE
  5
24CD
102
{ACAD_XDICTIONARY
360
26F0
102
}
102
{ACAD_REACTORS
330
24C8
102
}
330
24C8
100
AcDbVisualStyle
  2
Basic
 70
     7
 71
     1
 72
     0
 73
     1
 90
        0
 40
-0.6
 41
-30.0
 62
     5
 63
     7
 74
     0
 91
        4
 64
     7
 65
   257
 75
     1
175
     1
 42
1.0
 92
        8
 66
     7
 43
1.0
 76
     1
 77
     6
 78
     2
 67
     7
 79
     5
170
     0
171
     0
290
     0
174
     0
 93
        1
 44
0.0
173
     0
291
     1
 45
0.0
1001
ACAD
1000
AcDbSavedByObjectVersion
1070
     0
  0
VISUALSTYLE
  5
24D4
102
{ACAD_XDICTIONARY
360
26FE
102
}
102
{ACAD_REACTORS
330
24C8
102
}
330
24C8
100
AcDbVisualStyle
  2
Brighten
 70
    12
 71
     2
 72
     2
 73
     0
 90
        0
 40
-0.6
 41
-30.0
 62
     5
 63
     7
 74
     1
 91
        4
 64
     7
 65
   257
 75
     1
175
     1
 42
1.0
 92
        8
 66
     7
 43
1.0
 76
     1
 77
     6
 78
     2
 67
     7
 79
     5
170
     0
171
     0
290
     0
174
     0
 93
        1
 44
50.0
173
     0
291
     1
 45
0.0
1001
ACAD
1000
AcDbSavedByObjectVersion
1070
     0
  0
VISUALSTYLE
  5
24D8
102
{ACAD_XDICTIONARY
360
2706
102
}
102
{ACAD_REACTORS
330
24C8
102
}
330
24C8
100
AcDbVisualStyle
  2
ColorChange
 70
    16
 71
     2
 72
     2
 73
     3
 90
        0
 40
-0.6
 41
-30.0
 62
     5
 63
     8
 74
     1
 91
        4
 64
     7
 65
   257
 75
     1
175
     1
 42
1.0
 92
        8
 66
     8
 43
1.0
 76
     1
 77
     6
 78
     2
 67
     7
 79
     5
170
     0
171
     0
290
     0
174
     0
 93
        1
 44
0.0
173
     0
291
     1
 45
0.0
1001
ACAD
1000
AcDbSavedByObjectVersion
1070
     0
  0
VISUALSTYLE
  5
24D1
102
{ACAD_XDICTIONARY
360
26F8
102
}
102
{ACAD_REACTORS
330
24C8
102
}
330
24C8
100
AcDbVisualStyle
  2
Conceptual
 70
     9
 71
     3
 72
     2
 73
     0
 90
        0
 40
-0.6
 41
-30.0
 62
     5
 63
     7
 74
     2
 91
        2
 64
     7
 65
   257
 75
     1
175
     1
 42
179.0
 92
        8
 66
     7
 43
1.0
 76
     1
 77
     6
 78
     2
 67
     7
 79
     3
170
     0
171
     0
290
     0
174
     0
 93
        1
 44
0.0
173
     0
291
     0
 45
0.0
1001
ACAD
1000
AcDbSavedByObjectVersion
1070
     0
  0
VISUALSTYLE
  5
24D3
102
{ACAD_XDICTIONARY
360
26FC
102
}
102
{ACAD_REACTORS
330
24C8
102
}
330
24C8
100
AcDbVisualStyle
  2
Dim
 70
    11
 71
     2
 72
     2
 73
     0
 90
        0
 40
-0.6
 41
-30.0
 62
     5
 63
     7
 74
     1
 91
        4
 64
     7
 65
   257
 75
     1
175
     1
 42
1.0
 92
        8
 66
     7
 43
1.0
 76
     1
 77
     6
 78
     2
 67
     7
 79
     5
170
     0
171
     0
290
     0
174
     0
 93
        1
 44
-50.0
173
     0
291
     1
 45
0.0
1001
ACAD
1000
AcDbSavedByObjectVersion
1070
     0
  0
VISUALSTYLE
  5
24E0
102
{ACAD_XDICTIONARY
360
2716
102
}
102
{ACAD_REACTORS
330
24C8
102
}
330
24C8
100
AcDbVisualStyle
  2
EdgeColorOff
 70
    22
 71
     2
 72
     2
 73
     0
 90
        0
 40
-0.6
 41
-30.0
 62
     5
 63
     7
 74
     1
 91
        4
 64
     7
 65
   257
 75
     1
175
     1
 42
1.0
 92
        8
 66
     7
 43
1.0
 76
     1
 77
     6
 78
     2
 67
     7
 79
     5
170
     0
171
     0
290
     0
174
     0
 93
        1
 44
0.0
173
     0
291
     1
 45
0.0
1001
ACAD
1000
AcDbSavedByObjectVersion
1070
     0
  0
VISUALSTYLE
  5
24D7
102
{ACAD_XDICTIONARY
360
2704
102
}
102
{ACAD_REACTORS
330
24C8
102
}
330
24C8
100
AcDbVisualStyle
  2
Facepattern
 70
    15
 71
     2
 72
     2
 73
     0
 90
        0
 40
-0.6
 41
-30.0
 62
     5
 63
     7
 74
     1
 91
        4
 64
     7
 65
   257
 75
     1
175
     1
 42
1.0
 92
        8
 66
     7
 43
1.0
 76
     1
 77
     6
 78
     2
 67
     7
 79
     5
170
     0
171
     0
290
     0
174
     0
 93
        1
 44
0.0
173
     0
291
     1
 45
0.0
1001
ACAD
1000
AcDbSavedByObjectVersion
1070
     0
  0
VISUALSTYLE
  5
24C9
102
{ACAD_XDICTIONARY
360
26E8
102
}
102
{ACAD_REACTORS
330
24C8
102
}
330
24C8
100
AcDbVisualStyle
  2
Flat
 70
     0
 71
     2
 72
     1
 73
     1
 90
        2
 40
-0.6
 41
30.0
 62
     5
 63
     7
 74
     0
 91
        0
 64
     7
 65
   257
 75
     1
175
     1
 42
1.0
 92
        8
 66
     7
 43
1.0
 76
     1
 77
     6
 78
     2
 67
     7
 79
     5
170
     0
171
     0
290
     0
174
     0
 93
       13
 44
0.0
173
     0
291
     1
 45
0.0
1001
ACAD
1000
AcDbSavedByObjectVersion
1070
     0
  0
VISUALSTYLE
  5
24CA
102
{ACAD_XDICTIONARY
360
26EA
102
}
102
{ACAD_REACTORS
330
24C8
102
}
330
24C8
100
AcDbVisualStyle
  2
FlatWithEdges
 70
     1
 71
     2
 72
     1
 73
     1
 90
        2
 40
-0.6
 41
30.0
 62
     5
 63
     7
 74
     1
 91
        0
 64
     7
 65
   257
 75
     1
175
     1
 42
1.0
 92
        0
 66
   257
 43
1.0
 76
     1
 77
     6
 78
     2
 67
     7
 79
     5
170
     0
171
     0
290
     0
174
     0
 93
       13
 44
0.0
173
     0
291
     1
 45
0.0
1001
ACAD
1000
AcDbSavedByObjectVersion
1070
     0
  0
VISUALSTYLE
  5
24CB
102
{ACAD_XDICTIONARY
360
26EC
102
}
102
{ACAD_REACTORS
330
24C8
102
}
330
24C8
100
AcDbVisualStyle
  2
Gouraud
 70
     2
 71
     2
 72
     2
 73
     1
 90
        2
 40
-0.6
 41
30.0
 62
     5
 63
     7
 74
     0
 91
        0
 64
     7
 65
   257
 75
     1
175
     1
 42
1.0
 92
        0
 66
     7
 43
1.0
 76
     1
 77
     6
 78
     2
 67
     7
 79
     5
170
     0
171
     0
290
     0
174
     0
 93
       13
 44
0.0
173
     0
291
     1
 45
0.0
1001
ACAD
1000
AcDbSavedByObjectVersion
1070
     0
  0
VISUALSTYLE
  5
24CC
102
{ACAD_XDICTIONARY
360
26EE
102
}
102
{ACAD_REACTORS
330
24C8
102
}
330
24C8
100
AcDbVisualStyle
  2
GouraudWithEdges
 70
     3
 71
     2
 72
     2
 73
     1
 90
        2
 40
-0.6
 41
30.0
 62
     5
 63
     7
 74
     1
 91
        0
 64
     7
 65
   257
 75
     1
175
     1
 42
1.0
 92
        0
 66
   257
 43
1.0
 76
     1
 77
     6
 78
     2
 67
     7
 79
     5
170
     0
171
     0
290
     0
174
     0
 93
       13
 44
0.0
173
     0
291
     1
 45
0.0
1001
ACAD
1000
AcDbSavedByObjectVersion
1070
     0
  0
VISUALSTYLE
  5
24D0
102
{ACAD_XDICTIONARY
360
26F6
102
}
102
{ACAD_REACTORS
330
24C8
102
}
330
24C8
100
AcDbVisualStyle
  2
Hidden
 70
     6
 71
     1
 72
     2
 73
     2
 90
        0
 40
-0.6
 41
-30.0
 62
     5
 63
     7
 74
     2
 91
        2
 64
     7
 65
   257
 75
     2
175
     1
 42
40.0
 92
        0
 66
   257
 43
1.0
 76
     1
 77
     6
 78
     2
 67
     7
 79
     3
170
     0
171
     0
290
     0
174
     0
 93
        1
 44
0.0
173
     0
291
     0
 45
0.0
1001
ACAD
1000
AcDbSavedByObjectVersion
1070
     0
  0
VISUALSTYLE
  5
24DE
102
{ACAD_XDICTIONARY
360
2712
102
}
102
{ACAD_REACTORS
330
24C8
102
}
330
24C8
100
AcDbVisualStyle
  2
JitterOff
 70
    20
 71
     2
 72
     2
 73
     0
 90
        0
 40
-0.6
 41
-30.0
 62
     5
 63
     7
 74
     1
 91
        4
 64
     7
 65
   257
 75
     1
175
     1
 42
1.0
 92
       10
 66
     7
 43
1.0
 76
     1
 77
     6
 78
     2
 67
     7
 79
     5
170
     0
171
     0
290
     0
174
     0
 93
        1
 44
0.0
173
     0
291
     1
 45
0.0
1001
ACAD
1000
AcDbSavedByObjectVersion
1070
     0
  0
VISUALSTYLE
  5
24D6
102
{ACAD_XDICTIONARY
360
2702
102
}
102
{ACAD_REACTORS
330
24C8
102
}
330
24C8
100
AcDbVisualStyle
  2
Linepattern
 70
    14
 71
     2
 72
     2
 73
     0
 90
        0
 40
-0.6
 41
-30.0
 62
     5
 63
     7
 74
     1
 91
        4
 64
     7
 65
   257
 75
     7
175
     7
 42
1.0
 92
        8
 66
     7
 43
1.0
 76
     1
 77
     6
 78
     2
 67
     7
 79
     5
170
     0
171
     0
290
     0
174
     0
 93
        1
 44
0.0
173
     0
291
     1
 45
0.0
1001
ACAD
1000
AcDbSavedByObjectVersion
1070
     0
  0
VISUALSTYLE
  5
24DF
102
{ACAD_XDICTIONARY
360
2714
102
}
102
{ACAD_REACTORS
330
24C8
102
}
330
24C8
100
AcDbVisualStyle
  2
OverhangOff
 70
    21
 71
     2
 72
     2
 73
     0
 90
        0
 40
-0.6
 41
-30.0
 62
     5
 63
     7
 74
     1
 91
        4
 64
     7
 65
   257
 75
     1
175
     1
 42
1.0
 92
        9
 66
     7
 43
1.0
 76
     1
 77
     6
 78
     2
 67
     7
 79
     5
170
     0
171
     0
290
     0
174
     0
 93
        1
 44
0.0
173
     0
291
     1
 45
0.0
1001
ACAD
1000
AcDbSavedByObjectVersion
1070
     0
  0
VISUALSTYLE
  5
24D2
102
{ACAD_XDICTIONARY
360
26FA
102
}
102
{ACAD_REACTORS
330
24C8
102
}
330
24C8
100
AcDbVisualStyle
  2
Realistic
 70
     8
 71
     2
 72
     3
 73
     0
 90
        2
 40
-0.6
 41
30.0
 62
     5
 63
     7
 74
     0
 91
        0
 64
     7
 65
   257
 75
     1
175
     1
 42
1.0
 92
        8
 66
   257
 43
1.0
 76
     1
 77
     6
 78
     2
 67
     7
 79
     3
170
     0
171
     0
290
     0
174
     0
 93
       13
 44
0.0
173
     0
291
     0
 45
0.0
1001
ACAD
1000
AcDbSavedByObjectVersion
1070
     0
  0
VISUALSTYLE
  5
24DD
102
{ACAD_XDICTIONARY
360
2710
102
}
102
{ACAD_REACTORS
330
24C8
102
}
330
24C8
100
AcDbVisualStyle
  2
Shaded
 70
    27
 71
     2
 72
     2
 73
     1
 90
        2
 40
-0.6
 41
30.0
 62
     5
 63
     7
 74
     0
 91
        4
 64
     7
 65
   257
 75
     1
175
     1
 42
1.0
 92
        8
 66
   257
 43
1.0
 76
     1
 77
     6
 78
     2
 67
     8
 79
     3
170
     0
171
     0
290
     0
174
     0
 93
        5
 44
0.0
173
     0
291
     0
 45
0.0
1001
ACAD
1000
AcDbSavedByObjectVersion
1070
     0
  0
VISUALSTYLE
  5
24DC
102
{ACAD_XDICTIONARY
360
270E
102
}
102
{ACAD_REACTORS
330
24C8
102
}
330
24C8
100
AcDbVisualStyle
  2
Shaded with edges
 70
    26
 71
     2
 72
     2
 73
     1
 90
        2
 40
-0.6
 41
30.0
 62
     5
 63
     7
 74
     1
 91
       10
 64
     7
 65
   257
 75
     2
175
     1
 42
1.0
 92
        8
 66
   257
 43
1.0
 76
     1
 77
     6
 78
     2
 67
     7
 79
     3
170
     0
171
     0
290
     0
174
     0
 93
        5
 44
0.0
173
     0
291
     0
 45
0.0
1001
ACAD
1000
AcDbSavedByObjectVersion
1070
     0
  0
VISUALSTYLE
  5
24D9
102
{ACAD_XDICTIONARY
360
2708
102
}
102
{ACAD_REACTORS
330
24C8
102
}
330
24C8
100
AcDbVisualStyle
  2
Shades of Gray
 70
    23
 71
     2
 72
     2
 73
     3
 90
        0
 40
-0.6
 41
-30.0
 62
     5
 63
     7
 74
     2
 91
        2
 64
     7
 65
     7
 75
     1
175
     1
 42
40.0
 92
        8
 66
     7
 43
1.0
 76
     1
 77
     6
 78
     2
 67
     7
 79
     3
170
     0
171
     0
290
     0
174
     0
 93
        1
 44
0.0
173
     0
291
     0
 45
0.0
1001
ACAD
1000
AcDbSavedByObjectVersion
1070
     0
  0
VISUALSTYLE
  5
24DA
102
{ACAD_XDICTIONARY
360
270A
102
}
102
{ACAD_REACTORS
330
24C8
102
}
330
24C8
100
AcDbVisualStyle
  2
Sketchy
 70
    24
 71
     1
 72
     2
 73
     2
 90
        0
 40
-0.6
 41
-30.0
 62
     5
 63
     7
 74
     2
 91
        2
 64
     7
 65
     7
 75
     1
175
     1
 42
40.0
 92
       11
 66
     7
 43
1.0
 76
     1
 77
     6
 78
     2
 67
     7
 79
     6
170
     0
171
     0
290
     0
174
     0
 93
        1
 44
0.0
173
     0
291
     0
 45
0.0
1001
ACAD
1000
AcDbSavedByObjectVersion
1070
     0
  0
VISUALSTYLE
  5
24D5
102
{ACAD_XDICTIONARY
360
2700
102
}
102
{ACAD_REACTORS
330
24C8
102
}
330
24C8
100
AcDbVisualStyle
  2
Thicken
 70
    13
 71
     2
 72
     2
 73
     0
 90
        0
 40
-0.6
 41
-30.0
 62
     5
 63
     7
 74
     1
 91
        4
 64
     7
 65
   257
 75
     1
175
     1
 42
1.0
 92
       12
 66
     7
 43
1.0
 76
     1
 77
     6
 78
     2
 67
     7
 79
     5
170
     0
171
     0
290
     0
174
     0
 93
        1
 44
0.0
173
     0
291
     1
 45
0.0
1001
ACAD
1000
AcDbSavedByObjectVersion
1070
     0
  0
VISUALSTYLE
  5
24CF
102
{ACAD_XDICTIONARY
360
26F4
102
}
102
{ACAD_REACTORS
330
24C8
102
}
330
24C8
100
AcDbVisualStyle
  2
Wireframe
 70
     5
 71
     0
 72
     2
 73
     0
 90
        0
 40
-0.6
 41
-30.0
 62
     5
 63
     7
 74
     1
 91
        4
 64
     7
 65
   257
 75
     1
175
     1
 42
1.0
 92
        0
 66
   257
 43
1.0
 76
     1
 77
     6
 78
     2
 67
     7
 79
     3
170
     0
171
     0
290
     0
174
     0
 93
        1
 44
0.0
173
     0
291
     0
 45
0.0
1001
ACAD
1000
AcDbSavedByObjectVersion
1070
     0
  0
VISUALSTYLE
  5
24DB
102
{ACAD_XDICTIONARY
360
270C
102
}
102
{ACAD_REACTORS
330
24C8
102
}
330
24C8
100
AcDbVisualStyle
  2
X-Ray
 70
    25
 71
     2
 72
     2
 73
     1
 90
        1
 40
0.5
 41
-30.0
 62
     5
 63
     7
 74
     1
 91
        0
 64
     7
 65
   257
 75
     1
175
     1
 42
1.0
 92
        8
 66
     7
 43
1.0
 76
     1
 77
     6
 78
     2
 67
     7
 79
     3
170
     0
171
     0
290
     0
174
     0
 93
       13
 44
0.0
173
     0
291
     0
 45
0.0
1001
ACAD
1000
AcDbSavedByObjectVersion
1070
     0
  0
DICTIONARYVAR
  5
26D1
102
{ACAD_REACTORS
330
94
102
}
330
94
100
DictionaryVariables
280
     0
  1
1:1
  0
DICTIONARYVAR
  5
26D0
102
{ACAD_REACTORS
330
94
102
}
330
94
100
DictionaryVariables
280
     0
  1
STANDARD
  0
DICTIONARYVAR
  5
9AD
102
{ACAD_REACTORS
330
94
102
}
330
94
100
DictionaryVariables
280
     0
  1
STANDARD
  0
DICTIONARYVAR
  5
96
102
{ACAD_REACTORS
330
94
102
}
330
94
100
DictionaryVariables
280
     0
  1
2
  0
DICTIONARYVAR
  5
95
102
{ACAD_REACTORS
330
94
102
}
330
94
100
DictionaryVariables
280
     0
  1
0
  0
DICTIONARYVAR
  5
26D2
102
{ACAD_REACTORS
330
94
102
}
330
94
100
DictionaryVariables
280
     0
  1
127
  0
DICTIONARYVAR
  5
26D3
102
{ACAD_REACTORS
330
94
102
}
330
94
100
DictionaryVariables
280
     0
  1
0
  0
DICTIONARY
  5
1E2
102
{ACAD_REACTORS
330
5B
102
}
330
5B
100
AcDbDictionary
281
     1
  0
DICTIONARY
  5
61
102
{ACAD_REACTORS
330
5B
102
}
330
5B
100
AcDbDictionary
281
     1
  0
XRECORD
  5
94D
102
{ACAD_REACTORS
330
5B
102
}
330
5B
100
AcDbXrecord
280
     1
 90
-1023410169
  0
DICTIONARY
  5
26DC
330
22
100
AcDbDictionary
280
     1
281
     1
  3
ACAD_XREC_ROUNDTRIP
360
26DD
  0
DICTIONARY
  5
26DA
330
1E
100
AcDbDictionary
280
     1
281
     1
  3
ACAD_XREC_ROUNDTRIP
360
26DB
  0
DICTIONARY
  5
26DE
330
26
100
AcDbDictionary
280
     1
281
     1
  3
ACAD_XREC_ROUNDTRIP
360
26DF
  0
DICTIONARY
  5
24B9
330
24B8
100
AcDbDictionary
280
     1
281
     1
  3
ACAD_XREC_ROUNDTRIP
360
26E6
  3
BUMPTILE
360
24BB
  3
DIFFUSETILE
360
24BA
  3
OPACITYTILE
360
24BE
  3
REFLECTIONTILE
360
24BD
  3
REFRACTIONTILE
360
24BF
  3
SPECULARTILE
360
24BC
  0
DICTIONARY
  5
24B1
330
24B0
100
AcDbDictionary
280
     1
281
     1
  3
ACAD_XREC_ROUNDTRIP
360
26E5
  3
BUMPTILE
360
24B3
  3
DIFFUSETILE
360
24B2
  3
OPACITYTILE
360
24B6
  3
REFLECTIONTILE
360
24B5
  3
REFRACTIONTILE
360
24B7
  3
SPECULARTILE
360
24B4
  0
DICTIONARY
  5
24C1
330
24C0
100
AcDbDictionary
280
     1
281
     1
  3
ACAD_XREC_ROUNDTRIP
360
26E7
  3
BUMPTILE
360
24C3
  3
DIFFUSETILE
360
24C2
  3
OPACITYTILE
360
24C6
  3
REFLECTIONTILE
360
24C5
  3
REFRACTIONTILE
360
24C7
  3
SPECULARTILE
360
24C4
  0
DICTIONARY
  5
26D6
330
24F4
100
AcDbDictionary
280
     1
281
     1
  3
ACAD_XREC_ROUNDTRIP
360
26D7
  0
DICTIONARY
  5
26D4
330
932
100
AcDbDictionary
280
     1
281
     1
  3
ACAD_ROUNDTRIP_2008_TABLESTYLE_CELLSTYLEMAP
360
26D5
  3
ACAD_XREC_ROUNDTRIP
360
26E4
  0
DICTIONARY
  5
26F2
330
24CE
100
AcDbDictionary
280
     1
281
     1
  3
ACAD_XREC_ROUNDTRIP
360
26F3
  0
DICTIONARY
  5
26F0
330
24CD
100
AcDbDictionary
280
     1
281
     1
  3
ACAD_XREC_ROUNDTRIP
360
26F1
  0
DICTIONARY
  5
26FE
330
24D4
100
AcDbDictionary
280
     1
281
     1
  3
ACAD_XREC_ROUNDTRIP
360
26FF
  0
DICTIONARY
  5
2706
330
24D8
100
AcDbDictionary
280
     1
281
     1
  3
ACAD_XREC_ROUNDTRIP
360
2707
  0
DICTIONARY
  5
26F8
330
24D1
100
AcDbDictionary
280
     1
281
     1
  3
ACAD_XREC_ROUNDTRIP
360
26F9
  0
DICTIONARY
  5
26FC
330
24D3
100
AcDbDictionary
280
     1
281
     1
  3
ACAD_XREC_ROUNDTRIP
360
26FD
  0
DICTIONARY
  5
2716
330
24E0
100
AcDbDictionary
280
     1
281
     1
  3
ACAD_XREC_ROUNDTRIP
360
2717
  0
DICTIONARY
  5
2704
330
24D7
100
AcDbDictionary
280
     1
281
     1
  3
ACAD_XREC_ROUNDTRIP
360
2705
  0
DICTIONARY
  5
26E8
330
24C9
100
AcDbDictionary
280
     1
281
     1
  3
ACAD_XREC_ROUNDTRIP
360
26E9
  0
DICTIONARY
  5
26EA
330
24CA
100
AcDbDictionary
280
     1
281
     1
  3
ACAD_XREC_ROUNDTRIP
360
26EB
  0
DICTIONARY
  5
26EC
330
24CB
100
AcDbDictionary
280
     1
281
     1
  3
ACAD_XREC_ROUNDTRIP
360
26ED
  0
DICTIONARY
  5
26EE
330
24CC
100
AcDbDictionary
280
     1
281
     1
  3
ACAD_XREC_ROUNDTRIP
360
26EF
  0
DICTIONARY
  5
26F6
330
24D0
100
AcDbDictionary
280
     1
281
     1
  3
ACAD_XREC_ROUNDTRIP
360
26F7
  0
DICTIONARY
  5
2712
330
24DE
100
AcDbDictionary
280
     1
281
     1
  3
ACAD_XREC_ROUNDTRIP
360
2713
  0
DICTIONARY
  5
2702
330
24D6
100
AcDbDictionary
280
     1
281
     1
  3
ACAD_XREC_ROUNDTRIP
360
2703
  0
DICTIONARY
  5
2714
330
24DF
100
AcDbDictionary
280
     1
281
     1
  3
ACAD_XREC_ROUNDTRIP
360
2715
  0
DICTIONARY
  5
26FA
330
24D2
100
AcDbDictionary
280
     1
281
     1
  3
ACAD_XREC_ROUNDTRIP
360
26FB
  0
DICTIONARY
  5
2710
330
24DD
100
AcDbDictionary
280
     1
281
     1
  3
ACAD_XREC_ROUNDTRIP
360
2711
  0
DICTIONARY
  5
270E
330
24DC
100
AcDbDictionary
280
     1
281
     1
  3
ACAD_XREC_ROUNDTRIP
360
270F
  0
DICTIONARY
  5
2708
330
24D9
100
AcDbDictionary
280
     1
281
     1
  3
ACAD_XREC_ROUNDTRIP
360
2709
  0
DICTIONARY
  5
270A
330
24DA
100
AcDbDictionary
280
     1
281
     1
  3
ACAD_XREC_ROUNDTRIP
360
270B
  0
DICTIONARY
  5
2700
330
24D5
100
AcDbDictionary
280
     1
281
     1
  3
ACAD_XREC_ROUNDTRIP
360
2701
  0
DICTIONARY
  5
26F4
330
24CF
100
AcDbDictionary
280
     1
281
     1
  3
ACAD_XREC_ROUNDTRIP
360
26F5
  0
DICTIONARY
  5
270C
330
24DB
100
AcDbDictionary
280
     1
281
     1
  3
ACAD_XREC_ROUNDTRIP
360
270D
  0
XRECORD
  5
26DD
102
{ACAD_REACTORS
330
26DC
102
}
330
26DC
100
AcDbXrecord
280
     1
102
SHADEPLOT
 70
     0
102
SHADEPLOTRESLEVEL
 70
     2
102
SHADEPLOTCUSTOMDPI
 70
   300
  0
XRECORD
  5
26DB
102
{ACAD_REACTORS
330
26DA
102
}
330
26DA
100
AcDbXrecord
280
     1
102
SHADEPLOT
 70
     1
102
SHADEPLOTRESLEVEL
 70
     2
102
SHADEPLOTCUSTOMDPI
 70
   300
  0
XRECORD
  5
26DF
102
{ACAD_REACTORS
330
26DE
102
}
330
26DE
100
AcDbXrecord
280
     1
102
SHADEPLOT
 70
     1
102
SHADEPLOTRESLEVEL
 70
     2
102
SHADEPLOTCUSTOMDPI
 70
   300
  0
XRECORD
  5
26E6
102
{ACAD_REACTORS
330
24B9
102
}
330
24B9
100
AcDbXrecord
280
     1
102
MATERIAL
148
0.0
149
0.0
149
0.0
 93
        0
 94
      127
282
     0
 72
     0
 77
     0
171
     0
175
     0
179
     0
273
     0
  0
XRECORD
  5
24BB
102
{ACAD_REACTORS
330
24B9
102
}
330
24B9
100
AcDbXrecord
280
     1
270
     1
271
     1
  0
XRECORD
  5
24BA
102
{ACAD_REACTORS
330
24B9
102
}
330
24B9
100
AcDbXrecord
280
     1
270
     1
271
     1
  0
XRECORD
  5
24BE
102
{ACAD_REACTORS
330
24B9
102
}
330
24B9
100
AcDbXrecord
280
     1
270
     1
271
     1
  0
XRECORD
  5
24BD
102
{ACAD_REACTORS
330
24B9
102
}
330
24B9
100
AcDbXrecord
280
     1
270
     1
271
     1
  0
XRECORD
  5
24BF
102
{ACAD_REACTORS
330
24B9
102
}
330
24B9
100
AcDbXrecord
280
     1
270
     1
271
     1
  0
XRECORD
  5
24BC
102
{ACAD_REACTORS
330
24B9
102
}
330
24B9
100
AcDbXrecord
280
     1
270
     1
271
     1
  0
XRECORD
  5
26E5
102
{ACAD_REACTORS
330
24B1
102
}
330
24B1
100
AcDbXrecord
280
     1
102
MATERIAL
148
0.0
149
0.0
149
0.0
 93
        0
 94
      127
282
     0
 72
     0
 77
     0
171
     0
175
     0
179
     0
273
     0
  0
XRECORD
  5
24B3
102
{ACAD_REACTORS
330
24B1
102
}
330
24B1
100
AcDbXrecord
280
     1
270
     1
271
     1
  0
XRECORD
  5
24B2
102
{ACAD_REACTORS
330
24B1
102
}
330
24B1
100
AcDbXrecord
280
     1
270
     1
271
     1
  0
XRECORD
  5
24B6
102
{ACAD_REACTORS
330
24B1
102
}
330
24B1
100
AcDbXrecord
280
     1
270
     1
271
     1
  0
XRECORD
  5
24B5
102
{ACAD_REACTORS
330
24B1
102
}
330
24B1
100
AcDbXrecord
280
     1
270
     1
271
     1
  0
XRECORD
  5
24B7
102
{ACAD_REACTORS
330
24B1
102
}
330
24B1
100
AcDbXrecord
280
     1
270
     1
271
     1
  0
XRECORD
  5
24B4
102
{ACAD_REACTORS
330
24B1
102
}
330
24B1
100
AcDbXrecord
280
     1
270
     1
271
     1
  0
XRECORD
  5
26E7
102
{ACAD_REACTORS
330
24C1
102
}
330
24C1
100
AcDbXrecord
280
     1
102
MATERIAL
148
0.0
149
0.0
149
0.0
 93
        0
 94
      127
282
     0
 72
     0
 77
     0
171
     0
175
     0
179
     0
273
     0
  0
XRECORD
  5
24C3
102
{ACAD_REACTORS
330
24C1
102
}
330
24C1
100
AcDbXrecord
280
     1
270
     1
271
     1
  0
XRECORD
  5
24C2
102
{ACAD_REACTORS
330
24C1
102
}
330
24C1
100
AcDbXrecord
280
     1
270
     1
271
     1
  0
XRECORD
  5
24C6
102
{ACAD_REACTORS
330
24C1
102
}
330
24C1
100
AcDbXrecord
280
     1
270
     1
271
     1
  0
XRECORD
  5
24C5
102
{ACAD_REACTORS
330
24C1
102
}
330
24C1
100
AcDbXrecord
280
     1
270
     1
271
     1
  0
XRECORD
  5
24C7
102
{ACAD_REACTORS
330
24C1
102
}
330
24C1
100
AcDbXrecord
280
     1
270
     1
271
     1
  0
XRECORD
  5
24C4
102
{ACAD_REACTORS
330
24C1
102
}
330
24C1
100
AcDbXrecord
280
     1
270
     1
271
     1
  0
XRECORD
  5
26D7
102
{ACAD_REACTORS
330
26D6
102
}
330
26D6
100
AcDbXrecord
280
     1
102
ACAD_ROUNDTRIP_2012_MLEADER_STYLE
298
     1
  0
CELLSTYLEMAP
  5
26D5
102
{ACAD_REACTORS
330
26D4
102
}
330
26D4
100
AcDbCellStyleMap
 90
        3
300
CELLSTYLE
  1
TABLEFORMAT_BEGIN
 90
        5
170
     1
 91
        0
 92
    32768
 62
   257
 93
        1
300
CONTENTFORMAT
  1
CONTENTFORMAT_BEGIN
 90
        0
 91
        0
 92
        4
 93
        0
300

 40
0.0
140
1.0
 94
        5
 62
     0
340
11
144
6.0
309
CONTENTFORMAT_END
171
     1
301
MARGIN
  1
CELLMARGIN_BEGIN
 40
1.5
 40
1.5
 40
1.5
 40
1.5
 40
0.18
 40
0.18
309
CELLMARGIN_END
 94
        6
 95
        1
302
GRIDFORMAT
  1
GRIDFORMAT_BEGIN
 90
        0
 91
        1
 62
     0
 92
       -2
340
0
 93
        0
 40
0.045
309
GRIDFORMAT_END
 95
        2
302
GRIDFORMAT
  1
GRIDFORMAT_BEGIN
 90
        0
 91
        1
 62
     0
 92
       -2
340
0
 93
        0
 40
0.045
309
GRIDFORMAT_END
 95
        4
302
GRIDFORMAT
  1
GRIDFORMAT_BEGIN
 90
        0
 91
        1
 62
     0
 92
       -2
340
0
 93
        0
 40
0.045
309
GRIDFORMAT_END
 95
        8
302
GRIDFORMAT
  1
GRIDFORMAT_BEGIN
 90
        0
 91
        1
 62
     0
 92
       -2
340
0
 93
        0
 40
0.045
309
GRIDFORMAT_END
 95
       16
302
GRIDFORMAT
  1
GRIDFORMAT_BEGIN
 90
        0
 91
        1
 62
     0
 92
       -2
340
0
 93
        0
 40
0.045
309
GRIDFORMAT_END
 95
       32
302
GRIDFORMAT
  1
GRIDFORMAT_BEGIN
 90
        0
 91
        1
 62
     0
 92
       -2
340
0
 93
        0
 40
0.045
309
GRIDFORMAT_END
309
TABLEFORMAT_END
  1
CELLSTYLE_BEGIN
 90
        1
 91
        1
300
_TITLE
309
CELLSTYLE_END
300
CELLSTYLE
  1
TABLEFORMAT_BEGIN
 90
        5
170
     1
 91
        0
 92
        0
 62
   257
 93
        1
300
CONTENTFORMAT
  1
CONTENTFORMAT_BEGIN
 90
        0
 91
        0
 92
        4
 93
        0
300

 40
0.0
140
1.0
 94
        5
 62
     0
340
11
144
4.5
309
CONTENTFORMAT_END
171
     1
301
MARGIN
  1
CELLMARGIN_BEGIN
 40
1.5
 40
1.5
 40
1.5
 40
1.5
 40
0.18
 40
0.18
309
CELLMARGIN_END
 94
        6
 95
        1
302
GRIDFORMAT
  1
GRIDFORMAT_BEGIN
 90
        0
 91
        1
 62
     0
 92
       -2
340
0
 93
        0
 40
0.045
309
GRIDFORMAT_END
 95
        2
302
GRIDFORMAT
  1
GRIDFORMAT_BEGIN
 90
        0
 91
        1
 62
     0
 92
       -2
340
0
 93
        0
 40
0.045
309
GRIDFORMAT_END
 95
        4
302
GRIDFORMAT
  1
GRIDFORMAT_BEGIN
 90
        0
 91
        1
 62
     0
 92
       -2
340
0
 93
        0
 40
0.045
309
GRIDFORMAT_END
 95
        8
302
GRIDFORMAT
  1
GRIDFORMAT_BEGIN
 90
        0
 91
        1
 62
     0
 92
       -2
340
0
 93
        0
 40
0.045
309
GRIDFORMAT_END
 95
       16
302
GRIDFORMAT
  1
GRIDFORMAT_BEGIN
 90
        0
 91
        1
 62
     0
 92
       -2
340
0
 93
        0
 40
0.045
309
GRIDFORMAT_END
 95
       32
302
GRIDFORMAT
  1
GRIDFORMAT_BEGIN
 90
        0
 91
        1
 62
     0
 92
       -2
340
0
 93
        0
 40
0.045
309
GRIDFORMAT_END
309
TABLEFORMAT_END
  1
CELLSTYLE_BEGIN
 90
        2
 91
        1
300
_HEADER
309
CELLSTYLE_END
300
CELLSTYLE
  1
TABLEFORMAT_BEGIN
 90
        5
170
     1
 91
        0
 92
        0
 62
   257
 93
        1
300
CONTENTFORMAT
  1
CONTENTFORMAT_BEGIN
 90
        0
 91
        0
 92
        4
 93
        0
300

 40
0.0
140
1.0
 94
        2
 62
     0
340
11
144
4.5
309
CONTENTFORMAT_END
171
     1
301
MARGIN
  1
CELLMARGIN_BEGIN
 40
1.5
 40
1.5
 40
1.5
 40
1.5
 40
0.18
 40
0.18
309
CELLMARGIN_END
 94
        6
 95
        1
302
GRIDFORMAT
  1
GRIDFORMAT_BEGIN
 90
        0
 91
        1
 62
     0
 92
       -2
340
0
 93
        0
 40
0.045
309
GRIDFORMAT_END
 95
        2
302
GRIDFORMAT
  1
GRIDFORMAT_BEGIN
 90
        0
 91
        1
 62
     0
 92
       -2
340
0
 93
        0
 40
0.045
309
GRIDFORMAT_END
 95
        4
302
GRIDFORMAT
  1
GRIDFORMAT_BEGIN
 90
        0
 91
        1
 62
     0
 92
       -2
340
0
 93
        0
 40
0.045
309
GRIDFORMAT_END
 95
        8
302
GRIDFORMAT
  1
GRIDFORMAT_BEGIN
 90
        0
 91
        1
 62
     0
 92
       -2
340
0
 93
        0
 40
0.045
309
GRIDFORMAT_END
 95
       16
302
GRIDFORMAT
  1
GRIDFORMAT_BEGIN
 90
        0
 91
        1
 62
     0
 92
       -2
340
0
 93
        0
 40
0.045
309
GRIDFORMAT_END
 95
       32
302
GRIDFORMAT
  1
GRIDFORMAT_BEGIN
 90
        0
 91
        1
 62
     0
 92
       -2
340
0
 93
        0
 40
0.045
309
GRIDFORMAT_END
309
TABLEFORMAT_END
  1
CELLSTYLE_BEGIN
 90
        3
 91
        2
300
_DATA
309
CELLSTYLE_END
  0
XRECORD
  5
26E4
102
{ACAD_REACTORS
330
26D4
102
}
330
26D4
100
AcDbXrecord
280
     1
102
ACAD_ROUNDTRIP_PRE2007_TABLESTYLE
 90
        4
 91
        0
  1

 92
        4
 93
        0
  2

 94
        4
 95
        0
  3

  0
XRECORD
  5
26F3
102
{ACAD_REACTORS
330
26F2
102
}
330
26F2
100
AcDbXrecord
280
     1
102
RTVSPropertyOp0
 70
     1
102
RTVSPropertyOp1
 70
     1
102
RTVSPropertyOp2
 70
     1
102
RTVSPropertyOp3
 70
     1
102
RTVSPropertyOp4
 70
     1
102
RTVSPropertyOp5
 70
     1
102
RTVSPropertyOp6
 70
     1
102
RTVSPropertyOp7
 70
     1
102
RTVSPropertyOp8
 70
     1
102
RTVSPropertyOp9
 70
     1
102
RTVSPropertyOp10
 70
     1
102
RTVSPropertyOp11
 70
     1
102
RTVSPropertyOp12
 70
     1
102
RTVSPropertyOp13
 70
     1
102
RTVSPropertyOp14
 70
     1
102
RTVSPropertyOp15
 70
     1
102
RTVSPropertyOp16
 70
     1
102
RTVSPropertyOp17
 70
     1
102
RTVSPropertyOp18
 70
     1
102
RTVSPropertyOp19
 70
     1
102
RTVSPropertyOp20
 70
     1
102
RTVSPropertyOp21
 70
     1
102
RTVSPropertyOp22
 70
     1
102
RTVSPropertyOp23
 70
     1
102
RTVSPropertyOp24
 70
     1
102
RTVSPropertyOp25
 70
     1
102
RTVSPropertyOp26
 70
     1
102
RTVSPropertyOp27
 70
     1
102
RTVSPropertyOp28
 70
     1
102
RTVSPropertyOp29
 70
     1
102
RTVSPropertyOp30
 70
     1
102
RTVSPropertyOp31
 70
     1
102
RTVSPropertyOp32
 70
     1
  0
XRECORD
  5
26F1
102
{ACAD_REACTORS
330
26F0
102
}
330
26F0
100
AcDbXrecord
280
     1
102
RTVSPropertyOp0
 70
     1
102
RTVSPropertyOp1
 70
     1
102
RTVSPropertyOp2
 70
     1
102
RTVSPropertyOp3
 70
     1
102
RTVSPropertyOp4
 70
     1
102
RTVSPropertyOp5
 70
     1
102
RTVSPropertyOp6
 70
     1
102
RTVSPropertyOp7
 70
     1
102
RTVSPropertyOp8
 70
     1
102
RTVSPropertyOp9
 70
     1
102
RTVSPropertyOp10
 70
     1
102
RTVSPropertyOp11
 70
     1
102
RTVSPropertyOp12
 70
     1
102
RTVSPropertyOp13
 70
     1
102
RTVSPropertyOp14
 70
     1
102
RTVSPropertyOp15
 70
     1
102
RTVSPropertyOp16
 70
     1
102
RTVSPropertyOp17
 70
     1
102
RTVSPropertyOp18
 70
     1
102
RTVSPropertyOp19
 70
     1
102
RTVSPropertyOp20
 70
     1
102
RTVSPropertyOp21
 70
     1
102
RTVSPropertyOp22
 70
     1
102
RTVSPropertyOp23
 70
     1
102
RTVSPropertyOp24
 70
     1
102
RTVSPropertyOp25
 70
     1
102
RTVSPropertyOp26
 70
     1
102
RTVSPropertyOp27
 70
     1
102
RTVSPropertyOp28
 70
     1
102
RTVSPropertyOp29
 70
     1
102
RTVSPropertyOp30
 70
     1
102
RTVSPropertyOp31
 70
     1
102
RTVSPropertyOp32
 70
     1
  0
XRECORD
  5
26FF
102
{ACAD_REACTORS
330
26FE
102
}
330
26FE
100
AcDbXrecord
280
     1
102
RTVSPropertyOp0
 70
     1
102
RTVSPropertyOp1
 70
     1
102
RTVSPropertyOp2
 70
     1
102
RTVSPropertyOp3
 70
     1
102
RTVSPropertyOp4
 70
     1
102
RTVSPropertyOp5
 70
     1
102
RTVSPropertyOp6
 70
     1
102
RTVSPropertyOp7
 70
     1
102
RTVSPropertyOp8
 70
     1
102
RTVSPropertyOp9
 70
     1
102
RTVSPropertyOp10
 70
     1
102
RTVSPropertyOp11
 70
     1
102
RTVSPropertyOp12
 70
     1
102
RTVSPropertyOp13
 70
     1
102
RTVSPropertyOp14
 70
     1
102
RTVSPropertyOp15
 70
     1
102
RTVSPropertyOp16
 70
     1
102
RTVSPropertyOp17
 70
     1
102
RTVSPropertyOp18
 70
     1
102
RTVSPropertyOp19
 70
     1
102
RTVSPropertyOp20
 70
     1
102
RTVSPropertyOp21
 70
     1
102
RTVSPropertyOp22
 70
     1
102
RTVSPropertyOp23
 70
     1
102
RTVSPropertyOp24
 70
     1
102
RTVSPropertyOp25
 70
     1
102
RTVSPropertyOp26
 70
     1
102
RTVSPropertyOp27
 70
     1
102
RTVSPropertyOp28
 70
     1
102
RTVSPropertyOp29
 70
     1
102
RTVSPropertyOp30
 70
     1
102
RTVSPropertyOp31
 70
     1
102
RTVSPropertyOp32
 70
     1
  0
XRECORD
  5
2707
102
{ACAD_REACTORS
330
2706
102
}
330
2706
100
AcDbXrecord
280
     1
102
RTVSPropertyOp0
 70
     1
102
RTVSPropertyOp1
 70
     1
102
RTVSPropertyOp2
 70
     1
102
RTVSPropertyOp3
 70
     1
102
RTVSPropertyOp4
 70
     1
102
RTVSPropertyOp5
 70
     1
102
RTVSPropertyOp6
 70
     1
102
RTVSPropertyOp7
 70
     1
102
RTVSPropertyOp8
 70
     1
102
RTVSPropertyOp9
 70
     1
102
RTVSPropertyOp10
 70
     1
102
RTVSPropertyOp11
 70
     1
102
RTVSPropertyOp12
 70
     1
102
RTVSPropertyOp13
 70
     1
102
RTVSPropertyOp14
 70
     1
102
RTVSPropertyOp15
 70
     1
102
RTVSPropertyOp16
 70
     1
102
RTVSPropertyOp17
 70
     1
102
RTVSPropertyOp18
 70
     1
102
RTVSPropertyOp19
 70
     1
102
RTVSPropertyOp20
 70
     1
102
RTVSPropertyOp21
 70
     1
102
RTVSPropertyOp22
 70
     1
102
RTVSPropertyOp23
 70
     1
102
RTVSPropertyOp24
 70
     1
102
RTVSPropertyOp25
 70
     1
102
RTVSPropertyOp26
 70
     1
102
RTVSPropertyOp27
 70
     1
102
RTVSPropertyOp28
 70
     1
102
RTVSPropertyOp29
 70
     1
102
RTVSPropertyOp30
 70
     1
102
RTVSPropertyOp31
 70
     1
102
RTVSPropertyOp32
 70
     1
  0
XRECORD
  5
26F9
102
{ACAD_REACTORS
330
26F8
102
}
330
26F8
100
AcDbXrecord
280
     1
102
RTVSPropertyOp0
 70
     1
102
RTVSPropertyOp1
 70
     1
102
RTVSPropertyOp2
 70
     1
102
RTVSPropertyOp3
 70
     1
102
RTVSPropertyOp4
 70
     1
102
RTVSPropertyOp5
 70
     1
102
RTVSPropertyOp6
 70
     1
102
RTVSPropertyOp7
 70
     1
102
RTVSPropertyOp8
 70
     1
102
RTVSPropertyOp9
 70
     1
102
RTVSPropertyOp10
 70
     1
102
RTVSPropertyOp11
 70
     1
102
RTVSPropertyOp12
 70
     1
102
RTVSPropertyOp13
 70
     1
102
RTVSPropertyOp14
 70
     1
102
RTVSPropertyOp15
 70
     1
102
RTVSPropertyOp16
 70
     1
102
RTVSPropertyOp17
 70
     1
102
RTVSPropertyOp18
 70
     1
102
RTVSPropertyOp19
 70
     1
102
RTVSPropertyOp20
 70
     1
102
RTVSPropertyOp21
 70
     1
102
RTVSPropertyOp22
 70
     1
102
RTVSPropertyOp23
 70
     1
102
RTVSPropertyOp24
 70
     1
102
RTVSPropertyOp25
 70
     1
102
RTVSPropertyOp26
 70
     1
102
RTVSPropertyOp27
 70
     1
102
RTVSPropertyOp28
 70
     1
102
RTVSPropertyOp29
 70
     1
102
RTVSPropertyOp30
 70
     1
102
RTVSPropertyOp31
 70
     1
102
RTVSPropertyOp32
 70
     1
  0
XRECORD
  5
26FD
102
{ACAD_REACTORS
330
26FC
102
}
330
26FC
100
AcDbXrecord
280
     1
102
RTVSPropertyOp0
 70
     1
102
RTVSPropertyOp1
 70
     1
102
RTVSPropertyOp2
 70
     1
102
RTVSPropertyOp3
 70
     1
102
RTVSPropertyOp4
 70
     1
102
RTVSPropertyOp5
 70
     1
102
RTVSPropertyOp6
 70
     1
102
RTVSPropertyOp7
 70
     1
102
RTVSPropertyOp8
 70
     1
102
RTVSPropertyOp9
 70
     1
102
RTVSPropertyOp10
 70
     1
102
RTVSPropertyOp11
 70
     1
102
RTVSPropertyOp12
 70
     1
102
RTVSPropertyOp13
 70
     1
102
RTVSPropertyOp14
 70
     1
102
RTVSPropertyOp15
 70
     1
102
RTVSPropertyOp16
 70
     1
102
RTVSPropertyOp17
 70
     1
102
RTVSPropertyOp18
 70
     1
102
RTVSPropertyOp19
 70
     1
102
RTVSPropertyOp20
 70
     1
102
RTVSPropertyOp21
 70
     1
102
RTVSPropertyOp22
 70
     1
102
RTVSPropertyOp23
 70
     1
102
RTVSPropertyOp24
 70
     1
102
RTVSPropertyOp25
 70
     1
102
RTVSPropertyOp26
 70
     1
102
RTVSPropertyOp27
 70
     1
102
RTVSPropertyOp28
 70
     1
102
RTVSPropertyOp29
 70
     1
102
RTVSPropertyOp30
 70
     1
102
RTVSPropertyOp31
 70
     1
102
RTVSPropertyOp32
 70
     1
  0
XRECORD
  5
2717
102
{ACAD_REACTORS
330
2716
102
}
330
2716
100
AcDbXrecord
280
     1
102
RTVSPropertyOp0
 70
     0
102
RTVSPropertyOp1
 70
     0
102
RTVSPropertyOp2
 70
     0
102
RTVSPropertyOp3
 70
     0
102
RTVSPropertyOp4
 70
     0
102
RTVSPropertyOp5
 70
     0
102
RTVSPropertyOp6
 70
     0
102
RTVSPropertyOp7
 70
     0
102
RTVSPropertyOp8
 70
     0
102
RTVSPropertyOp9
 70
     0
102
RTVSPropertyOp10
 70
     0
102
RTVSPropertyOp11
 70
     0
102
RTVSPropertyOp12
 70
     0
102
RTVSPropertyOp13
 70
     0
102
RTVSPropertyOp14
 70
     2
102
RTVSPropertyOp15
 70
     0
102
RTVSPropertyOp16
 70
     0
102
RTVSPropertyOp17
 70
     0
102
RTVSPropertyOp18
 70
     0
102
RTVSPropertyOp19
 70
     0
102
RTVSPropertyOp20
 70
     0
102
RTVSPropertyOp21
 70
     0
102
RTVSPropertyOp22
 70
     0
102
RTVSPropertyOp23
 70
     0
102
RTVSPropertyOp24
 70
     0
102
RTVSPropertyOp25
 70
     0
102
RTVSPropertyOp26
 70
     0
102
RTVSPropertyOp27
 70
     0
102
RTVSPropertyOp28
 70
     0
102
RTVSPropertyOp29
 70
     0
102
RTVSPropertyOp30
 70
     0
102
RTVSPropertyOp31
 70
     0
102
RTVSPropertyOp32
 70
     0
  0
XRECORD
  5
2705
102
{ACAD_REACTORS
330
2704
102
}
330
2704
100
AcDbXrecord
280
     1
102
RTVSPropertyOp0
 70
     1
102
RTVSPropertyOp1
 70
     1
102
RTVSPropertyOp2
 70
     1
102
RTVSPropertyOp3
 70
     1
102
RTVSPropertyOp4
 70
     1
102
RTVSPropertyOp5
 70
     1
102
RTVSPropertyOp6
 70
     1
102
RTVSPropertyOp7
 70
     1
102
RTVSPropertyOp8
 70
     1
102
RTVSPropertyOp9
 70
     1
102
RTVSPropertyOp10
 70
     1
102
RTVSPropertyOp11
 70
     1
102
RTVSPropertyOp12
 70
     1
102
RTVSPropertyOp13
 70
     1
102
RTVSPropertyOp14
 70
     1
102
RTVSPropertyOp15
 70
     1
102
RTVSPropertyOp16
 70
     1
102
RTVSPropertyOp17
 70
     1
102
RTVSPropertyOp18
 70
     1
102
RTVSPropertyOp19
 70
     1
102
RTVSPropertyOp20
 70
     1
102
RTVSPropertyOp21
 70
     1
102
RTVSPropertyOp22
 70
     1
102
RTVSPropertyOp23
 70
     1
102
RTVSPropertyOp24
 70
     1
102
RTVSPropertyOp25
 70
     1
102
RTVSPropertyOp26
 70
     1
102
RTVSPropertyOp27
 70
     1
102
RTVSPropertyOp28
 70
     1
102
RTVSPropertyOp29
 70
     1
102
RTVSPropertyOp30
 70
     1
102
RTVSPropertyOp31
 70
     1
102
RTVSPropertyOp32
 70
     1
  0
XRECORD
  5
26E9
102
{ACAD_REACTORS
330
26E8
102
}
330
26E8
100
AcDbXrecord
280
     1
102
RTVSPropertyOp0
 70
     1
102
RTVSPropertyOp1
 70
     1
102
RTVSPropertyOp2
 70
     1
102
RTVSPropertyOp3
 70
     1
102
RTVSPropertyOp4
 70
     1
102
RTVSPropertyOp5
 70
     1
102
RTVSPropertyOp6
 70
     1
102
RTVSPropertyOp7
 70
     1
102
RTVSPropertyOp8
 70
     1
102
RTVSPropertyOp9
 70
     1
102
RTVSPropertyOp10
 70
     1
102
RTVSPropertyOp11
 70
     1
102
RTVSPropertyOp12
 70
     1
102
RTVSPropertyOp13
 70
     1
102
RTVSPropertyOp14
 70
     1
102
RTVSPropertyOp15
 70
     1
102
RTVSPropertyOp16
 70
     1
102
RTVSPropertyOp17
 70
     1
102
RTVSPropertyOp18
 70
     1
102
RTVSPropertyOp19
 70
     1
102
RTVSPropertyOp20
 70
     1
102
RTVSPropertyOp21
 70
     1
102
RTVSPropertyOp22
 70
     1
102
RTVSPropertyOp23
 70
     1
102
RTVSPropertyOp24
 70
     1
102
RTVSPropertyOp25
 70
     1
102
RTVSPropertyOp26
 70
     1
102
RTVSPropertyOp27
 70
     1
102
RTVSPropertyOp28
 70
     1
102
RTVSPropertyOp29
 70
     1
102
RTVSPropertyOp30
 70
     1
102
RTVSPropertyOp31
 70
     1
102
RTVSPropertyOp32
 70
     1
  0
XRECORD
  5
26EB
102
{ACAD_REACTORS
330
26EA
102
}
330
26EA
100
AcDbXrecord
280
     1
102
RTVSPropertyOp0
 70
     1
102
RTVSPropertyOp1
 70
     1
102
RTVSPropertyOp2
 70
     1
102
RTVSPropertyOp3
 70
     1
102
RTVSPropertyOp4
 70
     1
102
RTVSPropertyOp5
 70
     1
102
RTVSPropertyOp6
 70
     1
102
RTVSPropertyOp7
 70
     1
102
RTVSPropertyOp8
 70
     1
102
RTVSPropertyOp9
 70
     1
102
RTVSPropertyOp10
 70
     1
102
RTVSPropertyOp11
 70
     1
102
RTVSPropertyOp12
 70
     1
102
RTVSPropertyOp13
 70
     1
102
RTVSPropertyOp14
 70
     1
102
RTVSPropertyOp15
 70
     1
102
RTVSPropertyOp16
 70
     1
102
RTVSPropertyOp17
 70
     1
102
RTVSPropertyOp18
 70
     1
102
RTVSPropertyOp19
 70
     1
102
RTVSPropertyOp20
 70
     1
102
RTVSPropertyOp21
 70
     1
102
RTVSPropertyOp22
 70
     1
102
RTVSPropertyOp23
 70
     1
102
RTVSPropertyOp24
 70
     1
102
RTVSPropertyOp25
 70
     1
102
RTVSPropertyOp26
 70
     1
102
RTVSPropertyOp27
 70
     1
102
RTVSPropertyOp28
 70
     1
102
RTVSPropertyOp29
 70
     1
102
RTVSPropertyOp30
 70
     1
102
RTVSPropertyOp31
 70
     1
102
RTVSPropertyOp32
 70
     1
  0
XRECORD
  5
26ED
102
{ACAD_REACTORS
330
26EC
102
}
330
26EC
100
AcDbXrecord
280
     1
102
RTVSPropertyOp0
 70
     1
102
RTVSPropertyOp1
 70
     1
102
RTVSPropertyOp2
 70
     1
102
RTVSPropertyOp3
 70
     1
102
RTVSPropertyOp4
 70
     1
102
RTVSPropertyOp5
 70
     1
102
RTVSPropertyOp6
 70
     1
102
RTVSPropertyOp7
 70
     1
102
RTVSPropertyOp8
 70
     1
102
RTVSPropertyOp9
 70
     1
102
RTVSPropertyOp10
 70
     1
102
RTVSPropertyOp11
 70
     1
102
RTVSPropertyOp12
 70
     1
102
RTVSPropertyOp13
 70
     1
102
RTVSPropertyOp14
 70
     1
102
RTVSPropertyOp15
 70
     1
102
RTVSPropertyOp16
 70
     1
102
RTVSPropertyOp17
 70
     1
102
RTVSPropertyOp18
 70
     1
102
RTVSPropertyOp19
 70
     1
102
RTVSPropertyOp20
 70
     1
102
RTVSPropertyOp21
 70
     1
102
RTVSPropertyOp22
 70
     1
102
RTVSPropertyOp23
 70
     1
102
RTVSPropertyOp24
 70
     1
102
RTVSPropertyOp25
 70
     1
102
RTVSPropertyOp26
 70
     1
102
RTVSPropertyOp27
 70
     1
102
RTVSPropertyOp28
 70
     1
102
RTVSPropertyOp29
 70
     1
102
RTVSPropertyOp30
 70
     1
102
RTVSPropertyOp31
 70
     1
102
RTVSPropertyOp32
 70
     1
  0
XRECORD
  5
26EF
102
{ACAD_REACTORS
330
26EE
102
}
330
26EE
100
AcDbXrecord
280
     1
102
RTVSPropertyOp0
 70
     1
102
RTVSPropertyOp1
 70
     1
102
RTVSPropertyOp2
 70
     1
102
RTVSPropertyOp3
 70
     1
102
RTVSPropertyOp4
 70
     1
102
RTVSPropertyOp5
 70
     1
102
RTVSPropertyOp6
 70
     1
102
RTVSPropertyOp7
 70
     1
102
RTVSPropertyOp8
 70
     1
102
RTVSPropertyOp9
 70
     1
102
RTVSPropertyOp10
 70
     1
102
RTVSPropertyOp11
 70
     1
102
RTVSPropertyOp12
 70
     1
102
RTVSPropertyOp13
 70
     1
102
RTVSPropertyOp14
 70
     1
102
RTVSPropertyOp15
 70
     1
102
RTVSPropertyOp16
 70
     1
102
RTVSPropertyOp17
 70
     1
102
RTVSPropertyOp18
 70
     1
102
RTVSPropertyOp19
 70
     1
102
RTVSPropertyOp20
 70
     1
102
RTVSPropertyOp21
 70
     1
102
RTVSPropertyOp22
 70
     1
102
RTVSPropertyOp23
 70
     1
102
RTVSPropertyOp24
 70
     1
102
RTVSPropertyOp25
 70
     1
102
RTVSPropertyOp26
 70
     1
102
RTVSPropertyOp27
 70
     1
102
RTVSPropertyOp28
 70
     1
102
RTVSPropertyOp29
 70
     1
102
RTVSPropertyOp30
 70
     1
102
RTVSPropertyOp31
 70
     1
102
RTVSPropertyOp32
 70
     1
  0
XRECORD
  5
26F7
102
{ACAD_REACTORS
330
26F6
102
}
330
26F6
100
AcDbXrecord
280
     1
102
RTVSPropertyOp0
 70
     1
102
RTVSPropertyOp1
 70
     1
102
RTVSPropertyOp2
 70
     1
102
RTVSPropertyOp3
 70
     1
102
RTVSPropertyOp4
 70
     1
102
RTVSPropertyOp5
 70
     1
102
RTVSPropertyOp6
 70
     1
102
RTVSPropertyOp7
 70
     1
102
RTVSPropertyOp8
 70
     1
102
RTVSPropertyOp9
 70
     1
102
RTVSPropertyOp10
 70
     1
102
RTVSPropertyOp11
 70
     1
102
RTVSPropertyOp12
 70
     1
102
RTVSPropertyOp13
 70
     1
102
RTVSPropertyOp14
 70
     1
102
RTVSPropertyOp15
 70
     1
102
RTVSPropertyOp16
 70
     1
102
RTVSPropertyOp17
 70
     1
102
RTVSPropertyOp18
 70
     1
102
RTVSPropertyOp19
 70
     1
102
RTVSPropertyOp20
 70
     1
102
RTVSPropertyOp21
 70
     1
102
RTVSPropertyOp22
 70
     1
102
RTVSPropertyOp23
 70
     1
102
RTVSPropertyOp24
 70
     1
102
RTVSPropertyOp25
 70
     1
102
RTVSPropertyOp26
 70
     1
102
RTVSPropertyOp27
 70
     1
102
RTVSPropertyOp28
 70
     1
102
RTVSPropertyOp29
 70
     1
102
RTVSPropertyOp30
 70
     1
102
RTVSPropertyOp31
 70
     1
102
RTVSPropertyOp32
 70
     1
  0
XRECORD
  5
2713
102
{ACAD_REACTORS
330
2712
102
}
330
2712
100
AcDbXrecord
280
     1
102
RTVSPropertyOp0
 70
     0
102
RTVSPropertyOp1
 70
     0
102
RTVSPropertyOp2
 70
     0
102
RTVSPropertyOp3
 70
     0
102
RTVSPropertyOp4
 70
     0
102
RTVSPropertyOp5
 70
     0
102
RTVSPropertyOp6
 70
     0
102
RTVSPropertyOp7
 70
     0
102
RTVSPropertyOp8
 70
     0
102
RTVSPropertyOp9
 70
     0
102
RTVSPropertyOp10
 70
     0
102
RTVSPropertyOp11
 70
     0
102
RTVSPropertyOp12
 70
     0
102
RTVSPropertyOp13
 70
     0
102
RTVSPropertyOp14
 70
     2
102
RTVSPropertyOp15
 70
     0
102
RTVSPropertyOp16
 70
     0
102
RTVSPropertyOp17
 70
     0
102
RTVSPropertyOp18
 70
     0
102
RTVSPropertyOp19
 70
     0
102
RTVSPropertyOp20
 70
     0
102
RTVSPropertyOp21
 70
     0
102
RTVSPropertyOp22
 70
     0
102
RTVSPropertyOp23
 70
     0
102
RTVSPropertyOp24
 70
     0
102
RTVSPropertyOp25
 70
     0
102
RTVSPropertyOp26
 70
     0
102
RTVSPropertyOp27
 70
     0
102
RTVSPropertyOp28
 70
     0
102
RTVSPropertyOp29
 70
     0
102
RTVSPropertyOp30
 70
     0
102
RTVSPropertyOp31
 70
     0
102
RTVSPropertyOp32
 70
     0
  0
XRECORD
  5
2703
102
{ACAD_REACTORS
330
2702
102
}
330
2702
100
AcDbXrecord
280
     1
102
RTVSPropertyOp0
 70
     1
102
RTVSPropertyOp1
 70
     1
102
RTVSPropertyOp2
 70
     1
102
RTVSPropertyOp3
 70
     1
102
RTVSPropertyOp4
 70
     1
102
RTVSPropertyOp5
 70
     1
102
RTVSPropertyOp6
 70
     1
102
RTVSPropertyOp7
 70
     1
102
RTVSPropertyOp8
 70
     1
102
RTVSPropertyOp9
 70
     1
102
RTVSPropertyOp10
 70
     1
102
RTVSPropertyOp11
 70
     1
102
RTVSPropertyOp12
 70
     1
102
RTVSPropertyOp13
 70
     1
102
RTVSPropertyOp14
 70
     1
102
RTVSPropertyOp15
 70
     1
102
RTVSPropertyOp16
 70
     1
102
RTVSPropertyOp17
 70
     1
102
RTVSPropertyOp18
 70
     1
102
RTVSPropertyOp19
 70
     1
102
RTVSPropertyOp20
 70
     1
102
RTVSPropertyOp21
 70
     1
102
RTVSPropertyOp22
 70
     1
102
RTVSPropertyOp23
 70
     1
102
RTVSPropertyOp24
 70
     1
102
RTVSPropertyOp25
 70
     1
102
RTVSPropertyOp26
 70
     1
102
RTVSPropertyOp27
 70
     1
102
RTVSPropertyOp28
 70
     1
102
RTVSPropertyOp29
 70
     1
102
RTVSPropertyOp30
 70
     1
102
RTVSPropertyOp31
 70
     1
102
RTVSPropertyOp32
 70
     1
  0
XRECORD
  5
2715
102
{ACAD_REACTORS
330
2714
102
}
330
2714
100
AcDbXrecord
280
     1
102
RTVSPropertyOp0
 70
     0
102
RTVSPropertyOp1
 70
     0
102
RTVSPropertyOp2
 70
     0
102
RTVSPropertyOp3
 70
     0
102
RTVSPropertyOp4
 70
     0
102
RTVSPropertyOp5
 70
     0
102
RTVSPropertyOp6
 70
     0
102
RTVSPropertyOp7
 70
     0
102
RTVSPropertyOp8
 70
     0
102
RTVSPropertyOp9
 70
     0
102
RTVSPropertyOp10
 70
     0
102
RTVSPropertyOp11
 70
     0
102
RTVSPropertyOp12
 70
     0
102
RTVSPropertyOp13
 70
     0
102
RTVSPropertyOp14
 70
     2
102
RTVSPropertyOp15
 70
     0
102
RTVSPropertyOp16
 70
     0
102
RTVSPropertyOp17
 70
     0
102
RTVSPropertyOp18
 70
     0
102
RTVSPropertyOp19
 70
     0
102
RTVSPropertyOp20
 70
     0
102
RTVSPropertyOp21
 70
     0
102
RTVSPropertyOp22
 70
     0
102
RTVSPropertyOp23
 70
     0
102
RTVSPropertyOp24
 70
     0
102
RTVSPropertyOp25
 70
     0
102
RTVSPropertyOp26
 70
     0
102
RTVSPropertyOp27
 70
     0
102
RTVSPropertyOp28
 70
     0
102
RTVSPropertyOp29
 70
     0
102
RTVSPropertyOp30
 70
     0
102
RTVSPropertyOp31
 70
     0
102
RTVSPropertyOp32
 70
     0
  0
XRECORD
  5
26FB
102
{ACAD_REACTORS
330
26FA
102
}
330
26FA
100
AcDbXrecord
280
     1
102
RTVSPropertyOp0
 70
     1
102
RTVSPropertyOp1
 70
     1
102
RTVSPropertyOp2
 70
     1
102
RTVSPropertyOp3
 70
     1
102
RTVSPropertyOp4
 70
     1
102
RTVSPropertyOp5
 70
     1
102
RTVSPropertyOp6
 70
     1
102
RTVSPropertyOp7
 70
     1
102
RTVSPropertyOp8
 70
     1
102
RTVSPropertyOp9
 70
     1
102
RTVSPropertyOp10
 70
     1
102
RTVSPropertyOp11
 70
     1
102
RTVSPropertyOp12
 70
     1
102
RTVSPropertyOp13
 70
     1
102
RTVSPropertyOp14
 70
     1
102
RTVSPropertyOp15
 70
     1
102
RTVSPropertyOp16
 70
     1
102
RTVSPropertyOp17
 70
     1
102
RTVSPropertyOp18
 70
     1
102
RTVSPropertyOp19
 70
     1
102
RTVSPropertyOp20
 70
     1
102
RTVSPropertyOp21
 70
     1
102
RTVSPropertyOp22
 70
     1
102
RTVSPropertyOp23
 70
     1
102
RTVSPropertyOp24
 70
     1
102
RTVSPropertyOp25
 70
     1
102
RTVSPropertyOp26
 70
     1
102
RTVSPropertyOp27
 70
     1
102
RTVSPropertyOp28
 70
     1
102
RTVSPropertyOp29
 70
     1
102
RTVSPropertyOp30
 70
     1
102
RTVSPropertyOp31
 70
     1
102
RTVSPropertyOp32
 70
     1
  0
XRECORD
  5
2711
102
{ACAD_REACTORS
330
2710
102
}
330
2710
100
AcDbXrecord
280
     1
102
RTVSPropertyOp0
 70
     1
102
RTVSPropertyOp1
 70
     1
102
RTVSPropertyOp2
 70
     1
102
RTVSPropertyOp3
 70
     1
102
RTVSPropertyOp4
 70
     1
102
RTVSPropertyOp5
 70
     1
102
RTVSPropertyOp6
 70
     1
102
RTVSPropertyOp7
 70
     1
102
RTVSPropertyOp8
 70
     1
102
RTVSPropertyOp9
 70
     1
102
RTVSPropertyOp10
 70
     1
102
RTVSPropertyOp11
 70
     1
102
RTVSPropertyOp12
 70
     1
102
RTVSPropertyOp13
 70
     1
102
RTVSPropertyOp14
 70
     1
102
RTVSPropertyOp15
 70
     1
102
RTVSPropertyOp16
 70
     1
102
RTVSPropertyOp17
 70
     1
102
RTVSPropertyOp18
 70
     1
102
RTVSPropertyOp19
 70
     1
102
RTVSPropertyOp20
 70
     1
102
RTVSPropertyOp21
 70
     1
102
RTVSPropertyOp22
 70
     1
102
RTVSPropertyOp23
 70
     1
102
RTVSPropertyOp24
 70
     1
102
RTVSPropertyOp25
 70
     1
102
RTVSPropertyOp26
 70
     1
102
RTVSPropertyOp27
 70
     1
102
RTVSPropertyOp28
 70
     1
102
RTVSPropertyOp29
 70
     1
102
RTVSPropertyOp30
 70
     1
102
RTVSPropertyOp31
 70
     1
102
RTVSPropertyOp32
 70
     1
  0
XRECORD
  5
270F
102
{ACAD_REACTORS
330
270E
102
}
330
270E
100
AcDbXrecord
280
     1
102
RTVSPropertyOp0
 70
     1
102
RTVSPropertyOp1
 70
     1
102
RTVSPropertyOp2
 70
     1
102
RTVSPropertyOp3
 70
     1
102
RTVSPropertyOp4
 70
     1
102
RTVSPropertyOp5
 70
     1
102
RTVSPropertyOp6
 70
     1
102
RTVSPropertyOp7
 70
     1
102
RTVSPropertyOp8
 70
     1
102
RTVSPropertyOp9
 70
     1
102
RTVSPropertyOp10
 70
     1
102
RTVSPropertyOp11
 70
     1
102
RTVSPropertyOp12
 70
     1
102
RTVSPropertyOp13
 70
     1
102
RTVSPropertyOp14
 70
     1
102
RTVSPropertyOp15
 70
     1
102
RTVSPropertyOp16
 70
     1
102
RTVSPropertyOp17
 70
     1
102
RTVSPropertyOp18
 70
     1
102
RTVSPropertyOp19
 70
     1
102
RTVSPropertyOp20
 70
     1
102
RTVSPropertyOp21
 70
     1
102
RTVSPropertyOp22
 70
     1
102
RTVSPropertyOp23
 70
     1
102
RTVSPropertyOp24
 70
     1
102
RTVSPropertyOp25
 70
     1
102
RTVSPropertyOp26
 70
     1
102
RTVSPropertyOp27
 70
     1
102
RTVSPropertyOp28
 70
     1
102
RTVSPropertyOp29
 70
     1
102
RTVSPropertyOp30
 70
     1
102
RTVSPropertyOp31
 70
     1
102
RTVSPropertyOp32
 70
     1
  0
XRECORD
  5
2709
102
{ACAD_REACTORS
330
2708
102
}
330
2708
100
AcDbXrecord
280
     1
102
RTVSPropertyOp0
 70
     1
102
RTVSPropertyOp1
 70
     1
102
RTVSPropertyOp2
 70
     1
102
RTVSPropertyOp3
 70
     1
102
RTVSPropertyOp4
 70
     1
102
RTVSPropertyOp5
 70
     1
102
RTVSPropertyOp6
 70
     1
102
RTVSPropertyOp7
 70
     1
102
RTVSPropertyOp8
 70
     1
102
RTVSPropertyOp9
 70
     1
102
RTVSPropertyOp10
 70
     1
102
RTVSPropertyOp11
 70
     1
102
RTVSPropertyOp12
 70
     1
102
RTVSPropertyOp13
 70
     1
102
RTVSPropertyOp14
 70
     1
102
RTVSPropertyOp15
 70
     1
102
RTVSPropertyOp16
 70
     1
102
RTVSPropertyOp17
 70
     1
102
RTVSPropertyOp18
 70
     1
102
RTVSPropertyOp19
 70
     1
102
RTVSPropertyOp20
 70
     1
102
RTVSPropertyOp21
 70
     1
102
RTVSPropertyOp22
 70
     1
102
RTVSPropertyOp23
 70
     1
102
RTVSPropertyOp24
 70
     1
102
RTVSPropertyOp25
 70
     1
102
RTVSPropertyOp26
 70
     1
102
RTVSPropertyOp27
 70
     1
102
RTVSPropertyOp28
 70
     1
102
RTVSPropertyOp29
 70
     1
102
RTVSPropertyOp30
 70
     1
102
RTVSPropertyOp31
 70
     1
102
RTVSPropertyOp32
 70
     1
  0
XRECORD
  5
270B
102
{ACAD_REACTORS
330
270A
102
}
330
270A
100
AcDbXrecord
280
     1
102
RTVSPropertyOp0
 70
     1
102
RTVSPropertyOp1
 70
     1
102
RTVSPropertyOp2
 70
     1
102
RTVSPropertyOp3
 70
     1
102
RTVSPropertyOp4
 70
     1
102
RTVSPropertyOp5
 70
     1
102
RTVSPropertyOp6
 70
     1
102
RTVSPropertyOp7
 70
     1
102
RTVSPropertyOp8
 70
     1
102
RTVSPropertyOp9
 70
     1
102
RTVSPropertyOp10
 70
     1
102
RTVSPropertyOp11
 70
     1
102
RTVSPropertyOp12
 70
     1
102
RTVSPropertyOp13
 70
     1
102
RTVSPropertyOp14
 70
     1
102
RTVSPropertyOp15
 70
     1
102
RTVSPropertyOp16
 70
     1
102
RTVSPropertyOp17
 70
     1
102
RTVSPropertyOp18
 70
     1
102
RTVSPropertyOp19
 70
     1
102
RTVSPropertyOp20
 70
     1
102
RTVSPropertyOp21
 70
     1
102
RTVSPropertyOp22
 70
     1
102
RTVSPropertyOp23
 70
     1
102
RTVSPropertyOp24
 70
     1
102
RTVSPropertyOp25
 70
     1
102
RTVSPropertyOp26
 70
     1
102
RTVSPropertyOp27
 70
     1
102
RTVSPropertyOp28
 70
     1
102
RTVSPropertyOp29
 70
     1
102
RTVSPropertyOp30
 70
     1
102
RTVSPropertyOp31
 70
     1
102
RTVSPropertyOp32
 70
     1
  0
XRECORD
  5
2701
102
{ACAD_REACTORS
330
2700
102
}
330
2700
100
AcDbXrecord
280
     1
102
RTVSPropertyOp0
 70
     1
102
RTVSPropertyOp1
 70
     1
102
RTVSPropertyOp2
 70
     1
102
RTVSPropertyOp3
 70
     1
102
RTVSPropertyOp4
 70
     1
102
RTVSPropertyOp5
 70
     1
102
RTVSPropertyOp6
 70
     1
102
RTVSPropertyOp7
 70
     1
102
RTVSPropertyOp8
 70
     1
102
RTVSPropertyOp9
 70
     1
102
RTVSPropertyOp10
 70
     1
102
RTVSPropertyOp11
 70
     1
102
RTVSPropertyOp12
 70
     1
102
RTVSPropertyOp13
 70
     1
102
RTVSPropertyOp14
 70
     1
102
RTVSPropertyOp15
 70
     1
102
RTVSPropertyOp16
 70
     1
102
RTVSPropertyOp17
 70
     1
102
RTVSPropertyOp18
 70
     1
102
RTVSPropertyOp19
 70
     1
102
RTVSPropertyOp20
 70
     1
102
RTVSPropertyOp21
 70
     1
102
RTVSPropertyOp22
 70
     1
102
RTVSPropertyOp23
 70
     1
102
RTVSPropertyOp24
 70
     1
102
RTVSPropertyOp25
 70
     1
102
RTVSPropertyOp26
 70
     1
102
RTVSPropertyOp27
 70
     1
102
RTVSPropertyOp28
 70
     1
102
RTVSPropertyOp29
 70
     1
102
RTVSPropertyOp30
 70
     1
102
RTVSPropertyOp31
 70
     1
102
RTVSPropertyOp32
 70
     1
  0
XRECORD
  5
26F5
102
{ACAD_REACTORS
330
26F4
102
}
330
26F4
100
AcDbXrecord
280
     1
102
RTVSPropertyOp0
 70
     1
102
RTVSPropertyOp1
 70
     1
102
RTVSPropertyOp2
 70
     1
102
RTVSPropertyOp3
 70
     1
102
RTVSPropertyOp4
 70
     1
102
RTVSPropertyOp5
 70
     1
102
RTVSPropertyOp6
 70
     1
102
RTVSPropertyOp7
 70
     1
102
RTVSPropertyOp8
 70
     1
102
RTVSPropertyOp9
 70
     1
102
RTVSPropertyOp10
 70
     1
102
RTVSPropertyOp11
 70
     1
102
RTVSPropertyOp12
 70
     1
102
RTVSPropertyOp13
 70
     1
102
RTVSPropertyOp14
 70
     1
102
RTVSPropertyOp15
 70
     1
102
RTVSPropertyOp16
 70
     1
102
RTVSPropertyOp17
 70
     1
102
RTVSPropertyOp18
 70
     1
102
RTVSPropertyOp19
 70
     1
102
RTVSPropertyOp20
 70
     1
102
RTVSPropertyOp21
 70
     1
102
RTVSPropertyOp22
 70
     1
102
RTVSPropertyOp23
 70
     1
102
RTVSPropertyOp24
 70
     1
102
RTVSPropertyOp25
 70
     1
102
RTVSPropertyOp26
 70
     1
102
RTVSPropertyOp27
 70
     1
102
RTVSPropertyOp28
 70
     1
102
RTVSPropertyOp29
 70
     1
102
RTVSPropertyOp30
 70
     1
102
RTVSPropertyOp31
 70
     1
102
RTVSPropertyOp32
 70
     1
  0
XRECORD
  5
270D
102
{ACAD_REACTORS
330
270C
102
}
330
270C
100
AcDbXrecord
280
     1
102
RTVSPropertyOp0
 70
     1
102
RTVSPropertyOp1
 70
     1
102
RTVSPropertyOp2
 70
     1
102
RTVSPropertyOp3
 70
     1
102
RTVSPropertyOp4
 70
     1
102
RTVSPropertyOp5
 70
     1
102
RTVSPropertyOp6
 70
     1
102
RTVSPropertyOp7
 70
     1
102
RTVSPropertyOp8
 70
     1
102
RTVSPropertyOp9
 70
     1
102
RTVSPropertyOp10
 70
     1
102
RTVSPropertyOp11
 70
     1
102
RTVSPropertyOp12
 70
     1
102
RTVSPropertyOp13
 70
     1
102
RTVSPropertyOp14
 70
     1
102
RTVSPropertyOp15
 70
     1
102
RTVSPropertyOp16
 70
     1
102
RTVSPropertyOp17
 70
     1
102
RTVSPropertyOp18
 70
     1
102
RTVSPropertyOp19
 70
     1
102
RTVSPropertyOp20
 70
     1
102
RTVSPropertyOp21
 70
     1
102
RTVSPropertyOp22
 70
     1
102
RTVSPropertyOp23
 70
     1
102
RTVSPropertyOp24
 70
     1
102
RTVSPropertyOp25
 70
     1
102
RTVSPropertyOp26
 70
     1
102
RTVSPropertyOp27
 70
     1
102
RTVSPropertyOp28
 70
     1
102
RTVSPropertyOp29
 70
     1
102
RTVSPropertyOp30
 70
     1
102
RTVSPropertyOp31
 70
     1
102
RTVSPropertyOp32
 70
     1
  0
ENDSEC
  0
EOF
