  0
SECTION
  2
HEADER
  9
$ACADVER
  1
AC1015
  9
$ACADMAINTVER
 70
    20
  9
$DWGCODEPAGE
  3
ANSI_932
  9
$INSBASE
 10
0.0
 20
0.0
 30
0.0
  9
$EXTMIN
 10
0.0
 20
-0.0000000000001066
 30
0.0
  9
$EXTMAX
 10
806.0000000000002
 20
560.0000000000001
 30
0.0
  9
$LIMMIN
 10
0.0
 20
0.0
  9
$LIMMAX
 10
806.0
 20
560.0000000000001
  9
$ORTHOMODE
 70
     0
  9
$REGENMODE
 70
     1
  9
$FILLMODE
 70
     1
  9
$QTEXTMODE
 70
     0
  9
$MIRRTEXT
 70
     1
  9
$LTSCALE
 40
2.0
  9
$ATTMODE
 70
     1
  9
$TEXTSIZE
 40
1.0
  9
$TRACEWID
 40
1.0
  9
$TEXTSTYLE
  7
ACISOTS
  9
$CLAYER
  8
0
  9
$CELTYPE
  6
ByLayer
  9
$CECOLOR
 62
   256
  9
$CELTSCALE
 40
1.0
  9
$DISPSILH
 70
     0
  9
$DIMSCALE
 40
1.0
  9
$DIMASZ
 40
2.5
  9
$DIMEXO
 40
1.0
  9
$DIMDLI
 40
10.0
  9
$DIMRND
 40
0.0
  9
$DIMDLE
 40
0.0
  9
$DIMEXE
 40
1.0
  9
$DIMTP
 40
0.1
  9
$DIMTM
 40
0.1
  9
$DIMTXT
 40
3.5
  9
$DIMCEN
 40
0.0
  9
$DIMTSZ
 40
0.0
  9
$DIMTOL
 70
     0
  9
$DIMLIM
 70
     0
  9
$DIMTIH
 70
     0
  9
$DIMTOH
 70
     0
  9
$DIMSE1
 70
     0
  9
$DIMSE2
 70
     0
  9
$DIMTAD
 70
     1
  9
$DIMZIN
 70
     8
  9
$DIMBLK
  1

  9
$DIMASO
 70
     1
  9
$DIMSHO
 70
     1
  9
$DIMPOST
  1

  9
$DIMAPOST
  1
"
  9
$DIMALT
 70
     0
  9
$DIMALTD
 70
     2
  9
$DIMALTF
 40
0.0393701
  9
$DIMLFAC
 40
1.0
  9
$DIMTOFL
 70
     1
  9
$DIMTVP
 40
0.0
  9
$DIMTIX
 70
     0
  9
$DIMSOXD
 70
     0
  9
$DIMSAH
 70
     0
  9
$DIMBLK1
  1

  9
$DIMBLK2
  1

  9
$DIMSTYLE
  2
AM_ISO
  9
$DIMCLRD
 70
   256
  9
$DIMCLRE
 70
   256
  9
$DIMCLRT
 70
     2
  9
$DIMTFAC
 40
0.71
  9
$DIMGAP
 40
1.5
  9
$DIMJUST
 70
     0
  9
$DIMSD1
 70
     0
  9
$DIMSD2
 70
     0
  9
$DIMTOLJ
 70
     0
  9
$DIMTZIN
 70
     8
  9
$DIMALTZ
 70
     0
  9
$DIMALTTZ
 70
     0
  9
$DIMUPT
 70
     0
  9
$DIMDEC
 70
     2
  9
$DIMTDEC
 70
     3
  9
$DIMALTU
 70
     2
  9
$DIMALTTD
 70
     4
  9
$DIMTXSTY
  7
STANDARD
  9
$DIMAUNIT
 70
     0
  9
$DIMADEC
 70
     0
  9
$DIMALTRND
 40
0.0
  9
$DIMAZIN
 70
     2
  9
$DIMDSEP
 70
    46
  9
$DIMATFIT
 70
     3
  9
$DIMFRAC
 70
     0
  9
$DIMLDRBLK
  1

  9
$DIMLUNIT
 70
     2
  9
$DIMLWD
 70
    -1
  9
$DIMLWE
 70
    -1
  9
$DIMTMOVE
 70
     0
  9
$LUNITS
 70
     2
  9
$LUPREC
 70
     2
  9
$SKETCHINC
 40
1.0
  9
$FILLETRAD
 40
5.0
  9
$AUNITS
 70
     0
  9
$AUPREC
 70
     0
  9
$MENU
  1
.
  9
$ELEVATION
 40
0.0
  9
$PELEVATION
 40
0.0
  9
$THICKNESS
 40
0.0
  9
$LIMCHECK
 70
     0
  9
$CHAMFERA
 40
5.0
  9
$CHAMFERB
 40
5.0
  9
$CHAMFERC
 40
20.0
  9
$CHAMFERD
 40
0.0
  9
$SKPOLY
 70
     0
  9
$TDCREATE
 40
2453825.766918936
  9
$TDUCREATE
 40
2453825.391918936
  9
$TDUPDATE
 40
2456939.580961401
  9
$TDUUPDATE
 40
2456939.205961401
  9
$TDINDWG
 40
0.1402598611
  9
$TDUSRTIMER
 40
0.1402598611
  9
$USRTIMER
 70
     1
  9
$ANGBASE
 50
0.0
  9
$ANGDIR
 70
     0
  9
$PDMODE
 70
     0
  9
$PDSIZE
 40
0.0
  9
$PLINEWID
 40
0.0
  9
$SPLFRAME
 70
     0
  9
$SPLINETYPE
 70
     6
  9
$SPLINESEGS
 70
     8
  9
$HANDSEED
  5
2DE8
  9
$SURFTAB1
 70
     6
  9
$SURFTAB2
 70
     6
  9
$SURFTYPE
 70
     6
  9
$SURFU
 70
     6
  9
$SURFV
 70
     6
  9
$UCSBASE
  2

  9
$UCSNAME
  2

  9
$UCSORG
 10
0.0
 20
0.0
 30
0.0
  9
$UCSXDIR
 10
1.0
 20
0.0
 30
0.0
  9
$UCSYDIR
 10
0.0
 20
1.0
 30
0.0
  9
$UCSORTHOREF
  2

  9
$UCSORTHOVIEW
 70
     0
  9
$UCSORGTOP
 10
0.0
 20
0.0
 30
0.0
  9
$UCSORGBOTTOM
 10
0.0
 20
0.0
 30
0.0
  9
$UCSORGLEFT
 10
0.0
 20
0.0
 30
0.0
  9
$UCSORGRIGHT
 10
0.0
 20
0.0
 30
0.0
  9
$UCSORGFRONT
 10
0.0
 20
0.0
 30
0.0
  9
$UCSORGBACK
 10
0.0
 20
0.0
 30
0.0
  9
$PUCSBASE
  2

  9
$PUCSNAME
  2

  9
$PUCSORG
 10
0.0
 20
0.0
 30
0.0
  9
$PUCSXDIR
 10
1.0
 20
0.0
 30
0.0
  9
$PUCSYDIR
 10
0.0
 20
1.0
 30
0.0
  9
$PUCSORTHOREF
  2

  9
$PUCSORTHOVIEW
 70
     0
  9
$PUCSORGTOP
 10
0.0
 20
0.0
 30
0.0
  9
$PUCSORGBOTTOM
 10
0.0
 20
0.0
 30
0.0
  9
$PUCSORGLEFT
 10
0.0
 20
0.0
 30
0.0
  9
$PUCSORGRIGHT
 10
0.0
 20
0.0
 30
0.0
  9
$PUCSORGFRONT
 10
0.0
 20
0.0
 30
0.0
  9
$PUCSORGBACK
 10
0.0
 20
0.0
 30
0.0
  9
$USERI1
 70
     0
  9
$USERI2
 70
     0
  9
$USERI3
 70
     0
  9
$USERI4
 70
     0
  9
$USERI5
 70
     0
  9
$USERR1
 40
0.0
  9
$USERR2
 40
0.0
  9
$USERR3
 40
0.0
  9
$USERR4
 40
0.0
  9
$USERR5
 40
0.0
  9
$WORLDVIEW
 70
     1
  9
$SHADEDGE
 70
     3
  9
$SHADEDIF
 70
    70
  9
$TILEMODE
 70
     1
  9
$MAXACTVP
 70
    64
  9
$PINSBASE
 10
0.0
 20
0.0
 30
0.0
  9
$PLIMCHECK
 70
     0
  9
$PEXTMIN
 10
1.000000000000000E+20
 20
1.000000000000000E+20
 30
1.000000000000000E+20
  9
$PEXTMAX
 10
-1.000000000000000E+20
 20
-1.000000000000000E+20
 30
-1.000000000000000E+20
  9
$PLIMMIN
 10
-6.350006103515625
 20
-6.349999904632568
  9
$PLIMMAX
 10
273.0499877929688
 20
209.5499939918518
  9
$UNITMODE
 70
     0
  9
$VISRETAIN
 70
     1
  9
$PLINEGEN
 70
     0
  9
$PSLTSCALE
 70
     1
  9
$TREEDEPTH
 70
  3020
  9
$CMLSTYLE
  2
Standard
  9
$CMLJUST
 70
     0
  9
$CMLSCALE
 40
20.0
  9
$PROXYGRAPHICS
 70
     1
  9
$MEASUREMENT
 70
     1
  9
$CELWEIGHT
370
    -1
  9
$ENDCAPS
280
     0
  9
$JOINSTYLE
280
     0
  9
$LWDISPLAY
290
     0
  9
$INSUNITS
 70
     4
  9
$HYPERLINKBASE
  1

  9
$STYLESHEET
  1

  9
$XEDIT
290
     1
  9
$CEPSNTYPE
380
     0
  9
$PSTYLEMODE
290
     1
  9
$FINGERPRINTGUID
  2
{FDEAD578-A652-11D2-9A35-0060089B3A3F}
  9
$VERSIONGUID
  2
{27CAB37B-97AE-4F5E-B1D1-5CEBDFC88C11}
  9
$EXTNAMES
290
     1
  9
$PSVPSCALE
 40
0.0
  9
$OLESTARTUP
290
     0
  0
ENDSEC
  0
SECTION
  2
CLASSES
  0
CLASS
  1
ACDBDICTIONARYWDFLT
  2
AcDbDictionaryWithDefault
  3
ObjectDBX Classes
 90
        0
280
     0
281
     0
  0
CLASS
  1
ACDBPLACEHOLDER
  2
AcDbPlaceHolder
  3
ObjectDBX Classes
 90
        0
280
     0
281
     0
  0
CLASS
  1
LAYOUT
  2
AcDbLayout
  3
ObjectDBX Classes
 90
        0
280
     0
281
     0
  0
CLASS
  1
ACME_DOCUMENT
  2
AcMeDbDoc
  3
AcMeServices
 90
     1024
280
     0
281
     0
  0
CLASS
  1
AMGSETTINGSOBJ
  2
AmgSettingsObj
  3
"AcadM|Product Description: AutoCAD Mechanical|Company: Autodesk, Inc."
 90
     1024
280
     0
281
     0
  0
CLASS
  1
ACMESCOPE
  2
AcMeScope
  3
AcMeServices
 90
     1024
280
     0
281
     0
  0
CLASS
  1
ACMECOMMANDHISTORY
  2
AcMeCommandHistory
  3
AcMeServices
 90
     1024
280
     0
281
     0
  0
CLASS
  1
ACIMSYSVARMAN
  2
AcImSysVarManager
  3
AcMeServices
 90
     1024
280
     0
281
     0
  0
CLASS
  1
ACIMREALSYSVAR
  2
AcImRealSysVar
  3
AcMeServices
 90
     1024
280
     0
281
     0
  0
CLASS
  1
ACIMINTSYSVAR
  2
AcImIntSysVar
  3
AcMeServices
 90
     1024
280
     0
281
     0
  0
CLASS
  1
ACMEDRAWINGMAN
  2
AcMeDrawingMan
  3
AcMeServices
 90
     1024
280
     0
281
     0
  0
CLASS
  1
ACMEVIEW
  2
AcMeView
  3
AcMeServices
 90
     1024
280
     0
281
     0
  0
CLASS
  1
ACDBENTITYCACHE
  2
AcMeEntityCache
  3
AcMeServices
 90
     1024
280
     0
281
     0
  0
CLASS
  1
GSMANAGER
  2
AcMeGSManager
  3
AcMeServices
 90
    32768
280
     0
281
     0
  0
CLASS
  1
AMDTINTERNALREACTOR
  2
AmdtInternalReactor
  3
AcMeServices
 90
     1024
280
     0
281
     0
  0
CLASS
  1
ACMESTATEMGR
  2
AcMeStateMgr
  3
AcMeServices
 90
     1024
280
     0
281
     0
  0
CLASS
  1
ACGREFMASTER
  2
AcGrefMaster
  3
AcAttribServices
 90
     1024
280
     0
281
     0
  0
CLASS
  1
ACME_DATABASE
  2
AcMeDbDatabase
  3
AcMeServices
 90
     1024
280
     0
281
     0
  0
CLASS
  1
ACRFINSADJUSTERMGR
  2
AcRfInsAdjusterMgr
  3
AcMeServices
 90
     1024
280
     0
281
     0
  0
CLASS
  1
ACGREFACADMASTER
  2
AcGrefacadMaster
  3
AcGrefServices
 90
     1024
280
     0
281
     0
  0
CLASS
  1
AMIMASTER
  2
AmiMaster
  3
AmiServices
 90
     1024
280
     0
281
     0
  0
CLASS
  1
ACMDATADICTIONARY
  2
AcmDataDictionary
  3
"AcmSymBB|Product Description: AutoCAD Mechanical|Company: Autodesk, Inc."
 90
     1024
280
     0
281
     0
  0
CLASS
  1
ACMDATAENTRYBLOCK
  2
AcmDataEntryBlock
  3
AcmSymBB|Product Description: AutoCAD Mechanical|Company: Autodesk, Inc.
 90
     1024
280
     0
281
     0
  0
CLASS
  1
ACIMSTRSYSVAR
  2
AcImStrSysVar
  3
AcMeServices
 90
     1024
280
     0
281
     0
  0
CLASS
  1
ACMSTANDARDISO
  2
AcmStandardISO
  3
"Amdt_StdImp|Product Description: AutoCAD Mechanical|Company: Autodesk, Inc."
 90
     1024
280
     0
281
     0
  0
CLASS
  1
AMGOBJPROPCFG
  2
AmgObjPropCfg
  3
"AmgLay|Product Description: AutoCAD Mechanical|Company: Autodesk, Inc."
 90
     1025
280
     0
281
     0
  0
CLASS
  1
AMDTEDGESTANDARDISO
  2
AmdtEdgeStdISO
  3
"Amdt_StdImp|Product Description: AutoCAD Mechanical|Company: Autodesk, Inc."
 90
     1024
280
     0
281
     0
  0
CLASS
  1
ACMSURFSTANDARDISO
  2
AcmSurfTextStdISO
  3
"Amdt_StdImp|Product Description: AutoCAD Mechanical|Company: Autodesk, Inc."
 90
     1024
280
     0
281
     0
  0
CLASS
  1
ACMFCFSTANDARDISO
  2
AcmFCFStdISO
  3
"Amdt_StdImp|Product Description: AutoCAD Mechanical|Company: Autodesk, Inc."
 90
     1024
280
     0
281
     0
  0
CLASS
  1
ACMWELDSTANDARDISO
  2
AcmWeldingStdISO
  3
"Amdt_StdImp|Product Description: AutoCAD Mechanical|Company: Autodesk, Inc."
 90
     1024
280
     0
281
     0
  0
CLASS
  1
ACMIDSTANDARDISO
  2
AcmIdStdISO
  3
"Amdt_StdImp|Product Description: AutoCAD Mechanical|Company: Autodesk, Inc."
 90
     1024
280
     0
281
     0
  0
CLASS
  1
ACMDATUMSTANDARDISO
  2
AcmDatumStdISO
  3
"Amdt_StdImp|Product Description: AutoCAD Mechanical|Company: Autodesk, Inc."
 90
     1024
280
     0
281
     0
  0
CLASS
  1
ACMBOMSTANDARDISO
  2
AcmBOMStdISO
  3
"Amdt_StdImp|Product Description: AutoCAD Mechanical|Company: Autodesk, Inc."
 90
     1024
280
     0
281
     0
  0
CLASS
  1
ACMDETAILSTANDARDISO
  2
AmdtDetailSymStdISO
  3
"Amdt_StdImp|Product Description: AutoCAD Mechanical|Company: Autodesk, Inc."
 90
     1024
280
     0
281
     0
  0
CLASS
  1
ACMSECTIONSTANDARDISO
  2
AmdtSectionSymStdISO
  3
"Amdt_StdImp|Product Description: AutoCAD Mechanical|Company: Autodesk, Inc."
 90
     1024
280
     0
281
     0
  0
CLASS
  1
ACMCENTERLINESTANDARDISO
  2
AmdtCenterLineStdISO
  3
"Amdt_StdImp|Product Description: AutoCAD Mechanical|Company: Autodesk, Inc."
 90
     1024
280
     0
281
     0
  0
CLASS
  1
ACMNOTESTANDARDISO
  2
AmdtNoteStdISO
  3
"Amdt_StdImp|Product Description: AutoCAD Mechanical|Company: Autodesk, Inc."
 90
     1024
280
     0
281
     0
  0
CLASS
  1
ACAMGLAYSTD
  2
AcAmgLayStd
  3
"AmgLay|Product Description: AutoCAD Mechanical|Company: Autodesk, Inc."
 90
     1024
280
     0
281
     0
  0
CLASS
  1
ACAMGDIMSTD
  2
AcAmgDimStd
  3
"AmgDim|Product Description: AutoCAD Mechanical|Company: Autodesk, Inc."
 90
     1024
280
     0
281
     0
  0
CLASS
  1
ACAMGHOLECHARTSTDISO
  2
AcAmgHoleChartStdISO
  3
AmgDim|Product Description: AutoCAD Mechanical|Company: Autodesk, Inc.
 90
     1024
280
     0
281
     0
  0
CLASS
  1
ACAMGTITLESTD
  2
AcAmgTitleStd
  3
"AmgTitle|Product Description: AutoCAD Mechanical|Company: Autodesk, Inc."
 90
     4095
280
     0
281
     0
  0
CLASS
  1
LAYER_INDEX
  2
AcDbLayerIndex
  3
ObjectDBX Classes
 90
    32768
280
     0
281
     0
  0
CLASS
  1
IDBUFFER
  2
AcDbIdBuffer
  3
ObjectDBX Classes
 90
    32768
280
     0
281
     0
  0
CLASS
  1
DICTIONARYVAR
  2
AcDbDictionaryVar
  3
ObjectDBX Classes
 90
        0
280
     0
281
     0
  0
CLASS
  1
AM_DRAWING_MGR
  2
AcDmDwgMgr
  3
AcMechDwgViewMgmt
 90
     1024
280
     0
281
     0
  0
CLASS
  1
AM_DWG_DOCUMENT
  2
AcDmDwgDocument
  3
AcMechDwgViewMgmt
 90
     1024
280
     0
281
     0
  0
CLASS
  1
AM_DWG_SHEET
  2
AcDmSheet
  3
AcMechDwgViewMgmt
 90
     1024
280
     0
281
     0
  0
CLASS
  1
AM_VIEWDIMPARMAP
  2
AcDmViewDimParMap
  3
AcMechDwgViewMgmt
 90
     1024
280
     0
281
     0
  0
CLASS
  1
AM_DWGMGR_NAME
  2
AcDmDwgMgrName
  3
AcMechDwgViewMgmt
 90
     1024
280
     0
281
     0
  0
CLASS
  1
AMDTMENUSTATEMGR
  2
AmdtMenuStateMgr
  3
McadcomServices
 90
     1024
280
     0
281
     0
  0
CLASS
  1
AMDTMCOMMENUSTATE
  2
AmdtMcomMenuState
  3
McadcomServices
 90
     1024
280
     0
281
     0
  0
CLASS
  1
MAPIAMMOUDLE
  2
MApiAmModule
  3
MApiAmServices
 90
     1024
280
     0
281
     0
  0
CLASS
  1
AMDTADMENUSTATE
  2
AmdtAdMenuState
  3
DesignerServices
 90
    32768
280
     0
281
     0
  0
CLASS
  1
ADAPPL
  2
AcAdAppl
  3
DesignerAssemblies
 90
     1024
280
     0
281
     0
  0
CLASS
  1
DEPMGR
  2
AcAdDepMgr
  3
DesignerAssemblies
 90
     1024
280
     0
281
     0
  0
CLASS
  1
PARAMMGR
  2
AcAdParamMgr
  3
DesignerAssemblies
 90
     1024
280
     0
281
     0
  0
CLASS
  1
PARAMSCOPE
  2
AcAdParamScope
  3
DesignerAssemblies
 90
     1024
280
     0
281
     0
  0
CLASS
  1
NAMEDAPPL
  2
AcAdNamedAppl
  3
DesignerAssemblies
 90
     1024
280
     0
281
     0
  0
CLASS
  1
AMDTDMMENUSTATE
  2
AmdtDmMenuState
  3
AcMechDwgViewMgmt
 90
    32768
280
     0
281
     0
  0
CLASS
  1
AMDTAMMENUSTATE
  2
AmdtAmMenuState
  3
DesignerAssemblies
 90
     1024
280
     0
281
     0
  0
CLASS
  1
ACAMPROJECT
  2
AcAmProject
  3
DesignerAssemblies
 90
     1024
280
     0
281
     0
  0
CLASS
  1
ACAMGRCOMPDEF
  2
AcAmGrCompDef
  3
DesignerAssemblies
 90
     1024
280
     0
281
     0
  0
CLASS
  1
ACCMCONTEXT
  2
AcCmContext
  3
DesignerAssemblies
 90
     1024
280
     0
281
     0
  0
CLASS
  1
ACAMCOMPDEF
  2
AcAmCompDef
  3
DesignerAssemblies
 90
     1024
280
     0
281
     0
  0
CLASS
  1
ACAMCOMPDEFMGR
  2
AcAmCompDefMgr
  3
DesignerAssemblies
 90
     1024
280
     0
281
     0
  0
CLASS
  1
AMCONTEXTMGR
  2
AcAmContextMgr
  3
DesignerAssemblies
 90
     1024
280
     0
281
     0
  0
CLASS
  1
ACAMCONTEXTMODELER
  2
AcAmContextModeler
  3
DesignerAssemblies
 90
     1024
280
     0
281
     0
  0
CLASS
  1
ACMTHREADLINESTANDARDISO
  2
AmdtThreadLineStdISO
  3
"Amdt_StdImp|Product Description: AutoCAD Mechanical|Company: Autodesk, Inc."
 90
     1024
280
     0
281
     0
  0
CLASS
  1
CATALOGSTATE
  2
AcAmCatalogState
  3
DesignerAssemblies
 90
     1024
280
     0
281
     0
  0
CLASS
  1
ACAMGRCOMPDEFSET
  2
AcAmGrCompDefSet
  3
DesignerAssemblies
 90
     1024
280
     0
281
     0
  0
CLASS
  1
AMDTBROWSERDBTAB
  2
AmdtBrowserDbTab
  3
McadcomServices
 90
     1024
280
     0
281
     0
  0
CLASS
  1
CBROWSERAPPOBJECT
  2
CBrowserAppObject
  3
McadcomServices
 90
     1024
280
     0
281
     0
  0
CLASS
  1
DM_PLACEHOLDER
  2
AcDmSelsetPlaceholder
  3
McadcomServices
 90
     1024
280
     0
281
     0
  0
CLASS
  1
AMDTNOTETEMPLATEDB
  2
AmdtNoteTemplateDB
  3
AcmSymBB|Product Description: AutoCAD Mechanical|Company: Autodesk, Inc.
 90
     1024
280
     0
281
     0
  0
CLASS
  1
ACMBOM
  2
AcmBom
  3
"AcmSymBB|Product Description: AutoCAD Mechanical|Company: Autodesk, Inc."
 90
     1024
280
     0
281
     0
  0
CLASS
  1
AMDTFORMULAUPDATEDISPATCHER
  2
AmdtFormulaUpdateDispatcher
  3
AcMeServices
 90
     1024
280
     0
281
     0
  0
CLASS
  1
ACAMGFILTERDAT
  2
AcAmgFilterDat
  3
"AcadM|Product Description: AutoCAD Mechanical|Company: Autodesk, Inc."
 90
     1024
280
     0
281
     0
  0
CLASS
  1
ACMDATAENTRYPART
  2
AcmDataEntryPart
  3
AcmSymBB|Product Description: AutoCAD Mechanical|Company: Autodesk, Inc.
 90
     1024
280
     0
281
     0
  0
CLASS
  1
ACMPARTREF
  2
AcmPartRef
  3
"AcmSymBB|Product Description: AutoCAD Mechanical|Company: Autodesk, Inc."
 90
     4095
280
     0
281
     1
  0
CLASS
  1
ACMBOMROW
  2
AcmBomRow
  3
"AcmSymBB|Product Description: AutoCAD Mechanical|Company: Autodesk, Inc."
 90
     1024
280
     0
281
     0
  0
CLASS
  1
ACMDATAENTRY
  2
AcmDataEntry
  3
AcmSymBB|Product Description: AutoCAD Mechanical|Company: Autodesk, Inc.
 90
     1024
280
     0
281
     0
  0
CLASS
  1
ACMBALLOON
  2
AcmBalloon
  3
"AcmSymBB|Product Description: AutoCAD Mechanical|Company: Autodesk, Inc."
 90
     4095
280
     0
281
     1
  0
CLASS
  1
ACMPARTLIST
  2
AcmPartList
  3
"AcmSymBB|Product Description: AutoCAD Mechanical|Company: Autodesk, Inc."
 90
     4095
280
     0
281
     1
  0
CLASS
  1
ACDBLINERES
  2
AcDbLineRes
  3
AcGrefServices
 90
     1024
280
     0
281
     0
  0
CLASS
  1
ACRFINSADJ
  2
AcRfInsAdjuster
  3
AcMeServices
 90
     1024
280
     0
281
     0
  0
CLASS
  1
DIMASSOC
  2
AcDbDimAssoc
  3
"AcDbDimAssoc|Product Desc:     AcDim ARX App For Dimension|Company:          Autodesk, Inc.|WEB Address:      www.autodesk.com"
 90
    32768
280
     0
281
     0
  0
CLASS
  1
AMDTACMWBLOCKBOMENTITY
  2
AmdtAcmWblockBomEntity
  3
"AcmSymBB|Product Description: AutoCAD Mechanical|Company: Autodesk, Inc."
 90
     4095
280
     0
281
     1
  0
CLASS
  1
SORTENTSTABLE
  2
AcDbSortentsTable
  3
ObjectDBX Classes
 90
        0
280
     0
281
     0
  0
CLASS
  1
ACMPICKOBJ
  2
AcmPickEnt
  3
"AcmSymBB|Product Description: AutoCAD Mechanical|Company: Autodesk, Inc."
 90
    33792
280
     0
281
     1
  0
CLASS
  1
ACDBOPPOLYLINERES
  2
AcDbOpPolylineRes
  3
AcGrefServices
 90
     1024
280
     0
281
     0
  0
CLASS
  1
ACRFATTGENMGR
  2
AcRfAttGeneralMgr
  3
AcAttribServices
 90
     1024
280
     0
281
     0
  0
CLASS
  1
TABLESTYLE
  2
AcDbTableStyle
  3
ObjectDBX Classes
 90
     4095
280
     0
281
     0
  0
CLASS
  1
VAACXREFPANELOBJECT
  2
VaAcXREFPanelObject
  3
VAAC_ADDIN
 90
    32768
280
     0
281
     0
  0
CLASS
  1
VAACIMAGEINVENTORY
  2
VaAcImageInventory
  3
VAAC_ADDIN
 90
    32768
280
     0
281
     0
  0
CLASS
  1
MATERIAL
  2
AcDbMaterial
  3
ObjectDBX Classes
 90
     1153
280
     0
281
     0
  0
CLASS
  1
VISUALSTYLE
  2
AcDbVisualStyle
  3
ObjectDBX Classes
 90
     4095
280
     0
281
     0
  0
CLASS
  1
SCALE
  2
AcDbScale
  3
ObjectDBX Classes
 90
     1153
280
     0
281
     0
  0
CLASS
  1
MLEADERSTYLE
  2
AcDbMLeaderStyle
  3
ACDB_MLEADERSTYLE_CLASS
 90
     4095
280
     0
281
     0
  0
CLASS
  1
ACRFOBJATTMGR
  2
AcRfObjAttGroupMgr
  3
AcAttribServices
 90
     1024
280
     0
281
     0
  0
CLASS
  1
ACRFMCADAPIATTHOLDER
  2
AcRfMCADAPIAttHolder
  3
AcAttribServices
 90
     1024
280
     0
281
     0
  0
CLASS
  1
AMDTSYSATTR
  2
AmdtSystemAttribute
  3
AcAttribServices
 90
     1024
280
     0
281
     0
  0
CLASS
  1
ACMTAPERSTANDARDISO
  2
AcmTaperStdISO
  3
"Amdt_StdImp|Product Description: AutoCAD Mechanical|Company: Autodesk, Inc."
 90
     1024
280
     0
281
     0
  0
CLASS
  1
ACMANOOTATIONVIEWSTANDARDISO
  2
AmdtAnViewStdISO
  3
"Amdt_StdImp|Product Description: AutoCAD Mechanical|Company: Autodesk, Inc."
 90
     1024
280
     0
281
     0
  0
CLASS
  1
EXACXREFPANELOBJECT
  2
ExAcXREFPanelObject
  3
EXAC_ESW
 90
     1025
280
     0
281
     0
  0
CLASS
  1
NPOCOLLECTION
  2
AcDbImpNonPersistentObjectsCollection
  3
ObjectDBX Classes
 90
     1153
280
     0
281
     0
  0
CLASS
  1
CELLSTYLEMAP
  2
AcDbCellStyleMap
  3
ObjectDBX Classes
 90
     1152
280
     0
281
     0
  0
ENDSEC
  0
SECTION
  2
TABLES
  0
TABLE
  2
VPORT
  5
8
330
0
100
AcDbSymbolTable
 70
     1
  0
VPORT
  5
2B81
330
8
100
AcDbSymbolTableRecord
100
AcDbViewportTableRecord
  2
*Active
 70
     0
 10
0.0
 20
0.0
 11
1.0
 21
1.0
 12
403.0000037533447
 22
280.0000026077827
 13
-76.62191506020983
 23
-6.025762229518448
 14
5.0
 24
5.0
 15
20.0
 25
20.0
 16
0.0
 26
0.0
 36
1.0
 17
0.0
 27
0.0
 37
0.0
 40
564.455914549855
 41
2.219454329774614
 42
50.0
 43
0.0
 44
0.0
 50
0.0
 51
0.0
 71
    16
 72
   100
 73
     1
 74
     3
 75
     0
 76
     0
 77
     0
 78
     0
281
     0
 65
     1
110
0.0
120
0.0
130
0.0
111
1.0
121
0.0
131
0.0
112
0.0
122
1.0
132
0.0
 79
     0
146
0.0
1001
ACAD_NAV_VCDISPLAY
1070
     3
  0
ENDTAB
  0
TABLE
  2
LTYPE
  5
5
330
0
100
AcDbSymbolTable
 70
    23
  0
LTYPE
  5
14
330
5
100
AcDbSymbolTableRecord
100
AcDbLinetypeTableRecord
  2
ByBlock
 70
     0
  3

 72
    65
 73
     0
 40
0.0
  0
LTYPE
  5
15
330
5
100
AcDbSymbolTableRecord
100
AcDbLinetypeTableRecord
  2
ByLayer
 70
     0
  3

 72
    65
 73
     0
 40
0.0
  0
LTYPE
  5
16
330
5
100
AcDbSymbolTableRecord
100
AcDbLinetypeTableRecord
  2
Continuous
 70
     0
  3
Solid line
 72
    65
 73
     0
 40
0.0
  0
LTYPE
  5
64
330
5
100
AcDbSymbolTableRecord
100
AcDbLinetypeTableRecord
  2
AM_ISO02W050
 70
     0
  3
__ __ __ __ __ __ __ __ __ __ __ __ __ __ __
 72
    65
 73
     2
 40
7.5
 49
6.0
 74
     0
 49
-1.5
 74
     0
  0
LTYPE
  5
65
330
5
100
AcDbSymbolTableRecord
100
AcDbLinetypeTableRecord
  2
AM_ISO08W050
 70
     0
  3
____ . ____ . ____ . ____ . ____ . ____ . ____
 72
    65
 73
     4
 40
18.0
 49
12.0
 74
     0
 49
-1.5
 74
     0
 49
3.0
 74
     0
 49
-1.5
 74
     0
  0
LTYPE
  5
66
330
5
100
AcDbSymbolTableRecord
100
AcDbLinetypeTableRecord
  2
AM_ISO09W050
 70
     0
  3
_____ . . _____ . . _____ . . ____ .. ____
 72
    65
 73
     6
 40
22.5
 49
12.0
 74
     0
 49
-1.5
 74
     0
 49
3.0
 74
     0
 49
-1.5
 74
     0
 49
3.0
 74
     0
 49
-1.5
 74
     0
  0
LTYPE
  5
67
330
5
100
AcDbSymbolTableRecord
100
AcDbLinetypeTableRecord
  2
Amconstr
 70
     0
  3
_______________________
 72
    65
 73
     2
 40
9999.0
 49
9999.0
 74
     0
 49
0.0
 74
     0
  0
LTYPE
  5
68
330
5
100
AcDbSymbolTableRecord
100
AcDbLinetypeTableRecord
  2
AM_ISO08W050x2
 70
     0
  3
__ . __ . __ . __ . __ . __
 72
    65
 73
     4
 40
9.0
 49
6.0
 74
     0
 49
-0.75
 74
     0
 49
1.5
 74
     0
 49
-0.75
 74
     0
  0
LTYPE
  5
69
330
5
100
AcDbSymbolTableRecord
100
AcDbLinetypeTableRecord
  2
AM_ISO02W050x2
 70
     0
  3
 _ _ _ _ _ _ _ _ _ _ _ _
 72
    65
 73
     2
 40
3.75
 49
3.0
 74
     0
 49
-0.75
 74
     0
  0
LTYPE
  5
6C
330
5
100
AcDbSymbolTableRecord
100
AcDbLinetypeTableRecord
  2
Amzigzag
 70
     0
  3
/\/-/\/-/\/-/\/-/\/-/\/
 72
    65
 73
     2
 40
11.0001
 49
0.0001
 74
     4
 75
   135
340
6B
 46
0.04
 50
0.0
 44
0.0
 45
0.0
 49
-11.0
 74
     0
  0
LTYPE
  5
7A
330
5
100
AcDbSymbolTableRecord
100
AcDbLinetypeTableRecord
  2
ACISOWELD
 70
     0
  3
_ _ _ _ _
 72
    65
 73
     2
 40
2.0
 49
2.0
 74
     0
 49
-1.0
 74
     0
  0
LTYPE
  5
7B
330
5
100
AcDbSymbolTableRecord
100
AcDbLinetypeTableRecord
  2
ACISOTGB
 70
     0
  3
__ . . __ . .
 72
    65
 73
     6
 40
9.0
 49
4.0
 74
     0
 49
-1.0
 74
     0
 49
1.0
 74
     0
 49
-1.0
 74
     0
 49
1.0
 74
     0
 49
-1.0
 74
     0
  0
LTYPE
  5
7C
330
5
100
AcDbSymbolTableRecord
100
AcDbLinetypeTableRecord
  2
ACISOTGL
 70
     0
  3
_ _ _ _ _
 72
    65
 73
     2
 40
3.0
 49
2.0
 74
     0
 49
-1.0
 74
     0
  0
LTYPE
  5
7E
330
5
100
AcDbSymbolTableRecord
100
AcDbLinetypeTableRecord
  2
CENTER
 70
     0
  3
__ . __
 72
    65
 73
     4
 40
7.0
 49
4.0
 74
     0
 49
-1.0
 74
     0
 49
1.0
 74
     0
 49
-1.0
 74
     0
  0
LTYPE
  5
D8
330
5
100
AcDbSymbolTableRecord
100
AcDbLinetypeTableRecord
  2
HIDDEN
 70
     0
  3
Hidden __ __ __ __ __ __ __ __ __ __ __ __ __ _
 72
    65
 73
     2
 40
9.524999999999998
 49
6.349999999999999
 74
     0
 49
-3.174999999999999
 74
     0
  0
LTYPE
  5
D9
330
5
100
AcDbSymbolTableRecord
100
AcDbLinetypeTableRecord
  2
PHANTOM2
 70
     0
  3
Phantom (.5x) ___ _ _ ___ _ _ ___ _ _ ___ _ _
 72
    65
 73
     6
 40
31.75
 49
15.875
 74
     0
 49
-3.174999999999999
 74
     0
 49
3.174999999999999
 74
     0
 49
-3.174999999999999
 74
     0
 49
3.174999999999999
 74
     0
 49
-3.174999999999999
 74
     0
  0
LTYPE
  5
301
330
5
100
AcDbSymbolTableRecord
100
AcDbLinetypeTableRecord
  2
gen3
 70
     0
  3
-- -- -- -- -- -- -- -- -- -- -- -- -- -- --
 72
    65
 73
     2
 40
6.25
 49
4.75
 74
     0
 49
-1.5
 74
     0
  0
LTYPE
  5
302
330
5
100
AcDbSymbolTableRecord
100
AcDbLinetypeTableRecord
  2
gen7
 70
     0
  3
____ . ____ . ____ . ____ . ____ . ____ . ____
 72
    65
 73
     4
 40
13.75
 49
9.75
 74
     0
 49
-1.5
 74
     0
 49
1.0
 74
     0
 49
-1.5
 74
     0
  0
LTYPE
  5
303
330
5
100
AcDbSymbolTableRecord
100
AcDbLinetypeTableRecord
  2
gen3a
 70
     0
  3
 - - - - -
 72
    65
 73
     2
 40
3.125
 49
2.25
 74
     0
 49
-0.875
 74
     0
  0
LTYPE
  5
304
330
5
100
AcDbSymbolTableRecord
100
AcDbLinetypeTableRecord
  2
gen7a
 70
     0
  3
__ . __ . __
 72
    65
 73
     4
 40
6.875
 49
4.75
 74
     0
 49
-0.875
 74
     0
 49
0.375
 74
     0
 49
-0.875
 74
     0
  0
LTYPE
  5
305
330
5
100
AcDbSymbolTableRecord
100
AcDbLinetypeTableRecord
  2
gen4a
 70
     0
  3
_____ . . _____ . . _____ . . ____ .. ____
 72
    65
 73
     6
 40
16.25
 49
9.75
 74
     0
 49
-1.5
 74
     0
 49
1.0
 74
     0
 49
-1.5
 74
     0
 49
1.0
 74
     0
 49
-1.5
 74
     0
  0
LTYPE
  5
306
330
5
100
AcDbSymbolTableRecord
100
AcDbLinetypeTableRecord
  2
genzigzag
 70
     0
  3
/\/-/\/-/\/-/\/-/\/-/\/
 72
    65
 73
     2
 40
12.0001
 49
0.0001
 74
     4
 75
   135
340
6B
 46
2.0
 50
0.0
 44
0.0
 45
0.0
 49
-12.0
 74
     0
  0
LTYPE
  5
4D4
330
5
100
AcDbSymbolTableRecord
100
AcDbLinetypeTableRecord
  2
TRATTOPUNTO
 70
     0
  3
Tratto punto__ . __ . __ . __ . __ . __ . __ . 
 72
    65
 73
     4
 40
25.4
 49
12.7
 74
     0
 49
-6.349999999999998
 74
     0
 49
0.0
 74
     0
 49
-6.349999999999998
 74
     0
  0
LTYPE
  5
2BEF
330
5
100
AcDbSymbolTableRecord
100
AcDbLinetypeTableRecord
  2
DASHED
 70
     0
  3
Dashed __ __ __ __ __ __ __ __ __ __ __ __ __ _
 72
    65
 73
     2
 40
0.75
 49
0.5
 74
     0
 49
-0.25
 74
     0
  0
LTYPE
  5
2BF0
330
5
100
AcDbSymbolTableRecord
100
AcDbLinetypeTableRecord
  2
DOT
 70
     0
  3
Dot . . . . . . . . . . . . . . . . . . . . . .
 72
    65
 73
     2
 40
0.25
 49
0.0
 74
     0
 49
-0.25
 74
     0
  0
ENDTAB
  0
TABLE
  2
LAYER
  5
2
102
{ACAD_XDICTIONARY
360
2EE
102
}
330
0
100
AcDbSymbolTable
 70
    14
  0
LAYER
  5
10
102
{ACAD_XDICTIONARY
360
2D85
102
}
330
2
100
AcDbSymbolTableRecord
100
AcDbLayerTableRecord
  2
0
 70
     0
 62
     7
  6
Continuous
370
    -3
390
F
  0
LAYER
  5
2F0
102
{ACAD_XDICTIONARY
360
2D87
102
}
330
2
100
AcDbSymbolTableRecord
100
AcDbLayerTableRecord
  2
AM_5
 70
     0
 62
     3
  6
Continuous
370
    13
390
F
  0
LAYER
  5
2F1
102
{ACAD_XDICTIONARY
360
2D89
102
}
330
2
100
AcDbSymbolTableRecord
100
AcDbLayerTableRecord
  2
AM_7
 70
     0
 62
     4
  6
AM_ISO08W050
370
    13
390
F
  0
LAYER
  5
307
330
2
100
AcDbSymbolTableRecord
100
AcDbLayerTableRecord
  2
Defpoints
 70
     0
 62
     7
  6
Continuous
290
     0
370
    -3
390
F
  0
LAYER
  5
33C
102
{ACAD_XDICTIONARY
360
2D8B
102
}
330
2
100
AcDbSymbolTableRecord
100
AcDbLayerTableRecord
  2
7A
 70
     0
 62
     4
  6
gen7a
370
    -3
390
F
  0
LAYER
  5
33D
102
{ACAD_XDICTIONARY
360
2D8D
102
}
330
2
100
AcDbSymbolTableRecord
100
AcDbLayerTableRecord
  2
RAHM2
 70
     0
 62
     1
  6
Continuous
370
    -3
390
F
  0
LAYER
  5
45E
102
{ACAD_XDICTIONARY
360
2D8F
102
}
330
2
100
AcDbSymbolTableRecord
100
AcDbLayerTableRecord
  2
AM_12
 70
     0
 62
     7
  6
Continuous
290
     0
370
    50
390
F
  0
LAYER
  5
45F
102
{ACAD_XDICTIONARY
360
2D91
102
}
330
2
100
AcDbSymbolTableRecord
100
AcDbLayerTableRecord
  2
AM_PAREF
 70
     0
 62
     4
  6
Continuous
290
     0
370
    25
390
F
  0
LAYER
  5
4D5
102
{ACAD_XDICTIONARY
360
2D93
102
}
330
2
100
AcDbSymbolTableRecord
100
AcDbLayerTableRecord
  2
AM_8
 70
     0
 62
     1
  6
Continuous
370
    25
390
F
  0
LAYER
  5
1751
102
{ACAD_XDICTIONARY
360
2D95
102
}
330
2
100
AcDbSymbolTableRecord
100
AcDbLayerTableRecord
  2
ﾎﾞﾃﾞｨｰ
 70
     0
 62
     7
  6
Continuous
370
    25
390
F
  0
LAYER
  5
1752
102
{ACAD_XDICTIONARY
360
2D97
102
}
330
2
100
AcDbSymbolTableRecord
100
AcDbLayerTableRecord
  2
ﾍﾞｰｽ
 70
     0
 62
     2
  6
Continuous
370
    25
390
F
  0
LAYER
  5
1753
102
{ACAD_XDICTIONARY
360
2D99
102
}
330
2
100
AcDbSymbolTableRecord
100
AcDbLayerTableRecord
  2
ﾀｰﾐﾅﾙｶﾊﾞｰ
 70
     0
 62
     5
  6
Continuous
370
    25
390
F
  0
LAYER
  5
1754
102
{ACAD_XDICTIONARY
360
2D9B
102
}
330
2
100
AcDbSymbolTableRecord
100
AcDbLayerTableRecord
  2
前面ﾊﾟﾈﾙ
 70
     0
 62
     3
  6
Continuous
370
    25
390
F
  0
LAYER
  5
1755
102
{ACAD_XDICTIONARY
360
2D9D
102
}
330
2
100
AcDbSymbolTableRecord
100
AcDbLayerTableRecord
  2
ﾎｯｸ
 70
     0
 62
     4
  6
Continuous
370
    25
390
F
  0
ENDTAB
  0
TABLE
  2
STYLE
  5
3
330
0
100
AcDbSymbolTable
 70
     8
  0
STYLE
  5
11
330
3
100
AcDbSymbolTableRecord
100
AcDbTextStyleTableRecord
  2
STANDARD
 70
     0
 40
0.0
 41
1.0
 50
0.0
 71
     0
 42
1.0
  3
ISOCP.SHX
  4
EXTFONT.SHX
  0
STYLE
  5
6B
330
3
100
AcDbSymbolTableRecord
100
AcDbTextStyleTableRecord
  2

 70
     1
 40
0.0
 41
1.0
 50
0.0
 71
     0
 42
2.5
  3
ltypeshp.shx
  4

  0
STYLE
  5
6D
330
3
100
AcDbSymbolTableRecord
100
AcDbTextStyleTableRecord
  2
ACISOTS
 70
     0
 40
1.0
 41
1.0
 50
0.0
 71
     0
 42
1.0
  3
isocp.shx
  4
bigfont.shx
  0
STYLE
  5
79
330
3
100
AcDbSymbolTableRecord
100
AcDbTextStyleTableRecord
  2
ACISOGDT
 70
     0
 40
0.0
 41
1.0
 50
0.0
 71
     0
 42
2.5
  3
amgdt.shx
  4

  0
STYLE
  5
133
330
3
100
AcDbSymbolTableRecord
100
AcDbTextStyleTableRecord
  2
USER1
 70
     0
 40
0.0
 41
1.0
 50
0.0
 71
     0
 42
2.5
  3
TXT.SHX
  4

  0
STYLE
  5
134
330
3
100
AcDbSymbolTableRecord
100
AcDbTextStyleTableRecord
  2
USER2
 70
     0
 40
0.0
 41
1.0
 50
0.0
 71
     0
 42
2.5
  3
SIMPLEX.SHX
  4

  0
STYLE
  5
135
330
3
100
AcDbSymbolTableRecord
100
AcDbTextStyleTableRecord
  2
USER3
 70
     0
 40
0.0
 41
1.0
 50
0.0
 71
     0
 42
2.5
  3
ITALIC.SHX
  4

  0
STYLE
  5
33F
330
3
100
AcDbSymbolTableRecord
100
AcDbTextStyleTableRecord
  2

 70
     1
 40
0.0
 41
1.0
 50
0.0
 71
     0
 42
3.0
  3
genltshp.shx
  4

  0
ENDTAB
  0
TABLE
  2
VIEW
  5
6
330
0
100
AcDbSymbolTable
 70
     6
  0
VIEW
  5
3A4
330
6
100
AcDbSymbolTableRecord
100
AcDbViewTableRecord
  2
AM_VIEW1
 70
     0
 40
280.0000000000001
 10
204.3288996372431
 20
420.0000000000001
 41
408.6577992744861
 11
0.0
 21
0.0
 31
1.0
 12
0.0
 22
0.0
 32
0.0
 42
50.0
 43
0.0
 44
0.0
 50
0.0
 71
    16
281
     0
 72
     0
  0
VIEW
  5
3A5
330
6
100
AcDbSymbolTableRecord
100
AcDbViewTableRecord
  2
AM_VIEW2
 70
     0
 40
280.0000000000001
 10
601.671100362757
 20
420.0000000000001
 41
408.6577992744861
 11
0.0
 21
0.0
 31
1.0
 12
0.0
 22
0.0
 32
0.0
 42
50.0
 43
0.0
 44
0.0
 50
0.0
 71
    16
281
     0
 72
     0
  0
VIEW
  5
3A6
330
6
100
AcDbSymbolTableRecord
100
AcDbViewTableRecord
  2
AM_VIEW3
 70
     0
 40
280.0000000000001
 10
204.3288996372431
 20
140.0
 41
408.6577992744861
 11
0.0
 21
0.0
 31
1.0
 12
0.0
 22
0.0
 32
0.0
 42
50.0
 43
0.0
 44
0.0
 50
0.0
 71
    16
281
     0
 72
     0
  0
VIEW
  5
3A7
330
6
100
AcDbSymbolTableRecord
100
AcDbViewTableRecord
  2
AM_VIEW4
 70
     0
 40
280.0000000000001
 10
601.671100362757
 20
140.0
 41
408.6577992744861
 11
0.0
 21
0.0
 31
1.0
 12
0.0
 22
0.0
 32
0.0
 42
50.0
 43
0.0
 44
0.0
 50
0.0
 71
    16
281
     0
 72
     0
  0
VIEW
  5
3A8
330
6
100
AcDbSymbolTableRecord
100
AcDbViewTableRecord
  2
AM_VIEW5
 70
     0
 40
280.0000000000001
 10
403.0
 20
280.0000000000001
 41
408.657799274486
 11
0.0
 21
0.0
 31
1.0
 12
0.0
 22
0.0
 32
0.0
 42
50.0
 43
0.0
 44
0.0
 50
0.0
 71
    16
281
     0
 72
     0
  0
VIEW
  5
3A9
330
6
100
AcDbSymbolTableRecord
100
AcDbViewTableRecord
  2
AM_VIEW6
 70
     0
 40
559.9944000000001
 10
403.0
 20
280.0000000000001
 41
817.3074253929867
 11
0.0
 21
0.0
 31
1.0
 12
0.0
 22
0.0
 32
0.0
 42
50.0
 43
0.0
 44
0.0
 50
0.0
 71
    16
281
     0
 72
     0
  0
ENDTAB
  0
TABLE
  2
UCS
  5
7
330
0
100
AcDbSymbolTable
 70
     0
  0
ENDTAB
  0
TABLE
  2
APPID
  5
9
330
0
100
AcDbSymbolTable
 70
    37
  0
APPID
  5
12
330
9
100
AcDbSymbolTableRecord
100
AcDbRegAppTableRecord
  2
ACAD
 70
     0
  0
APPID
  5
46
330
9
100
AcDbSymbolTableRecord
100
AcDbRegAppTableRecord
  2
MCAD_NO_VIS
 70
     0
  0
APPID
  5
47
330
9
100
AcDbSymbolTableRecord
100
AcDbRegAppTableRecord
  2
ACAD_TEMP_GRAPHIC
 70
     0
  0
APPID
  5
58
330
9
100
AcDbSymbolTableRecord
100
AcDbRegAppTableRecord
  2
ACATTRIBSERVICES
 70
     0
  0
APPID
  5
EE
330
9
100
AcDbSymbolTableRecord
100
AcDbRegAppTableRecord
  2
AD_DRAW
 70
     0
  0
APPID
  5
10C
330
9
100
AcDbSymbolTableRecord
100
AcDbRegAppTableRecord
  2
DESIGNERASSEMBLIES
 70
     0
  0
APPID
  5
111
330
9
100
AcDbSymbolTableRecord
100
AcDbRegAppTableRecord
  2
ACADM_DIM_EDIT
 70
     0
  0
APPID
  5
112
330
9
100
AcDbSymbolTableRecord
100
AcDbRegAppTableRecord
  2
AMDT_DM_ADJ
 70
     0
  0
APPID
  5
30F
330
9
100
AcDbSymbolTableRecord
100
AcDbRegAppTableRecord
  2
GENIUS_GENREC_14
 70
     0
  0
APPID
  5
310
330
9
100
AcDbSymbolTableRecord
100
AcDbRegAppTableRecord
  2
GENIUS_GENODEF_13
 70
     0
  0
APPID
  5
311
330
9
100
AcDbSymbolTableRecord
100
AcDbRegAppTableRecord
  2
GENIUS_GENOBJ-N-REC_13
 70
     0
  0
APPID
  5
312
330
9
100
AcDbSymbolTableRecord
100
AcDbRegAppTableRecord
  2
GENIUS_GENCFG_13
 70
     0
  0
APPID
  5
313
330
9
100
AcDbSymbolTableRecord
100
AcDbRegAppTableRecord
  2
GENIUS_GENCFG0_13
 70
     0
  0
APPID
  5
314
330
9
100
AcDbSymbolTableRecord
100
AcDbRegAppTableRecord
  2
GENIUS_GENCFG1_13
 70
     0
  0
APPID
  5
315
330
9
100
AcDbSymbolTableRecord
100
AcDbRegAppTableRecord
  2
GENIUS_GENCFG2_13
 70
     0
  0
APPID
  5
316
330
9
100
AcDbSymbolTableRecord
100
AcDbRegAppTableRecord
  2
GENIUS_GENCFG3_13
 70
     0
  0
APPID
  5
317
330
9
100
AcDbSymbolTableRecord
100
AcDbRegAppTableRecord
  2
GENIUS_GENCFG4_13
 70
     0
  0
APPID
  5
318
330
9
100
AcDbSymbolTableRecord
100
AcDbRegAppTableRecord
  2
GENIUS_GEVCFG0_13
 70
     0
  0
APPID
  5
319
330
9
100
AcDbSymbolTableRecord
100
AcDbRegAppTableRecord
  2
GENIUS_GENOENT_13
 70
     0
  0
APPID
  5
31A
330
9
100
AcDbSymbolTableRecord
100
AcDbRegAppTableRecord
  2
GENIUS_GENDIMSH_14
 70
     0
  0
APPID
  5
31B
330
9
100
AcDbSymbolTableRecord
100
AcDbRegAppTableRecord
  2
GENIUS_GENOBJ-N-CRS_13
 70
     0
  0
APPID
  5
31C
330
9
100
AcDbSymbolTableRecord
100
AcDbRegAppTableRecord
  2
GENIUS_GENOREF_13
 70
     0
  0
APPID
  5
31D
330
9
100
AcDbSymbolTableRecord
100
AcDbRegAppTableRecord
  2
GENIUS_GENOLIS_13
 70
     0
  0
APPID
  5
31E
330
9
100
AcDbSymbolTableRecord
100
AcDbRegAppTableRecord
  2
GENIUS_GENOBJ-N-TIT_13
 70
     0
  0
APPID
  5
31F
330
9
100
AcDbSymbolTableRecord
100
AcDbRegAppTableRecord
  2
GENIUS_GENTITLE_13
 70
     0
  0
APPID
  5
320
330
9
100
AcDbSymbolTableRecord
100
AcDbRegAppTableRecord
  2
GENIUS_GENSCREG_15
 70
     0
  0
APPID
  5
321
330
9
100
AcDbSymbolTableRecord
100
AcDbRegAppTableRecord
  2
GENIUS_GENOBJ-N-SDF_13
 70
     0
  0
APPID
  5
322
330
9
100
AcDbSymbolTableRecord
100
AcDbRegAppTableRecord
  2
GENIUS_GENOBJ-N-CEN_13
 70
     0
  0
APPID
  5
323
330
9
100
AcDbSymbolTableRecord
100
AcDbRegAppTableRecord
  2
GENIUS_GENOBJ-N-HTC_13
 70
     0
  0
APPID
  5
324
330
9
100
AcDbSymbolTableRecord
100
AcDbRegAppTableRecord
  2
GENIUS_GENHATCH_13
 70
     0
  0
APPID
  5
325
330
9
100
AcDbSymbolTableRecord
100
AcDbRegAppTableRecord
  2
GENIUS_GENOBJ-N-ZOO_13
 70
     0
  0
APPID
  5
326
330
9
100
AcDbSymbolTableRecord
100
AcDbRegAppTableRecord
  2
GENIUS_GENZOO_17
 70
     0
  0
APPID
  5
A49
330
9
100
AcDbSymbolTableRecord
100
AcDbRegAppTableRecord
  2
GENIUS_GENOBJ-N-FIL_13
 70
     0
  0
APPID
  5
A4A
330
9
100
AcDbSymbolTableRecord
100
AcDbRegAppTableRecord
  2
ACAD_PSEXT
 70
     0
  0
APPID
  5
1BB4
330
9
100
AcDbSymbolTableRecord
100
AcDbRegAppTableRecord
  2
GENIUS_GENCEN_19
 70
     0
  0
APPID
  5
2BF1
330
9
100
AcDbSymbolTableRecord
100
AcDbRegAppTableRecord
  2
ACAD_NAV_VCDISPLAY
 70
     0
  0
APPID
  5
2DE7
330
9
100
AcDbSymbolTableRecord
100
AcDbRegAppTableRecord
  2
ACAD_MLEADERVER
 70
     0
  0
ENDTAB
  0
TABLE
  2
DIMSTYLE
  5
A
330
0
100
AcDbSymbolTable
 70
    16
100
AcDbDimStyleTable
 71
     1
340
81
  0
DIMSTYLE
105
27
330
A
100
AcDbSymbolTableRecord
100
AcDbDimStyleTableRecord
  2
ISO-25
 70
     0
 41
2.5
 42
0.625
 43
3.75
 44
1.25
 73
     0
 74
     0
 77
     1
 78
     8
140
2.5
141
2.5
143
0.03937007874016
147
0.625
171
     3
172
     1
271
     2
272
     2
274
     3
278
    44
283
     0
284
     8
340
11
  0
DIMSTYLE
105
81
102
{ACAD_REACTORS
330
18DF
330
18E2
330
1A5F
102
}
330
A
100
AcDbSymbolTableRecord
100
AcDbDimStyleTableRecord
  2
AM_ISO
 70
     0
  4
"
 41
2.5
 42
1.0
 43
10.0
 44
1.0
 47
0.1
 48
0.1
 73
     0
 74
     0
 77
     1
 78
     8
 79
     2
140
3.5
141
0.0
143
0.0393701
146
0.71
147
1.5
172
     1
176
   256
177
   256
178
     2
271
     2
272
     3
274
     4
283
     0
284
     8
340
11
371
    -1
372
    -1
  0
DIMSTYLE
105
82
330
A
100
AcDbSymbolTableRecord
100
AcDbDimStyleTableRecord
  2
AM_ISO$3
 70
     0
  4
"
 41
2.5
 42
1.0
 43
10.0
 44
1.0
 47
0.1
 48
0.1
 73
     0
 77
     1
 78
     8
 79
     2
140
3.5
141
0.0
143
0.0393701
146
0.71
147
1.5
176
   256
177
   256
178
     2
271
     2
272
     3
274
     4
283
     0
284
     8
288
     1
289
     0
340
11
371
    -1
372
    -1
  0
DIMSTYLE
105
83
330
A
100
AcDbSymbolTableRecord
100
AcDbDimStyleTableRecord
  2
AM_ISO$4
 70
     0
  4
"
 41
2.5
 42
1.0
 43
10.0
 44
1.0
 47
0.1
 48
0.1
 73
     0
 77
     1
 78
     8
 79
     2
140
3.5
141
0.0
143
0.0393701
146
0.71
147
1.5
176
   256
177
   256
178
     2
271
     2
272
     3
274
     4
283
     0
284
     8
288
     1
289
     0
340
11
371
    -1
372
    -1
  0
DIMSTYLE
105
84
330
A
100
AcDbSymbolTableRecord
100
AcDbDimStyleTableRecord
  2
AM_ISO$6
 70
     0
  4
"
 41
2.5
 42
1.0
 43
10.0
 44
1.0
 47
0.1
 48
0.1
 73
     0
 74
     0
 78
     8
 79
     2
140
3.5
141
0.0
143
0.0393701
146
0.71
147
1.5
172
     1
176
   256
177
   256
178
     2
271
     2
272
     3
274
     4
283
     0
284
     8
340
11
371
    -1
372
    -1
  0
DIMSTYLE
105
85
330
A
100
AcDbSymbolTableRecord
100
AcDbDimStyleTableRecord
  2
AM_ISO$7
 70
     0
  4
"
 41
2.5
 42
1.0
 43
10.0
 44
1.0
 47
0.1
 48
0.1
 73
     0
 74
     0
 77
     1
 78
     8
 79
     2
140
5.0
141
0.0
143
0.0393701
146
0.71
147
1.5
172
     1
176
   256
177
   256
178
     2
271
     2
272
     3
274
     4
283
     0
284
     8
340
11
371
    -1
372
    -1
  0
DIMSTYLE
105
86
330
A
100
AcDbSymbolTableRecord
100
AcDbDimStyleTableRecord
  2
AM_ISO$SF
 70
     0
  4
"
 41
2.5
 42
1.0
 43
10.0
 44
1.0
 47
0.1
 48
0.1
 73
     0
 74
     0
 75
     1
 76
     1
 77
     1
 78
     8
 79
     2
140
3.5
141
0.0
143
0.0393701
146
0.71
147
1.5
172
     1
176
   256
177
   256
178
     2
271
     2
272
     3
274
     4
283
     0
284
     8
340
11
371
    -1
372
    -1
  0
DIMSTYLE
105
8B
330
A
100
AcDbSymbolTableRecord
100
AcDbDimStyleTableRecord
  2
AM_ISO$SH
 70
     0
  4
"
 41
2.5
 42
1.0
 43
10.0
 44
1.0
 47
0.1
 48
0.1
 73
     0
 74
     0
 75
     1
 76
     1
 77
     1
 78
     8
 79
     2
140
3.5
141
0.0
143
0.0393701
144
2.0
146
0.71
147
1.5
172
     1
173
     1
176
   256
177
   256
178
     2
271
     2
272
     3
274
     4
283
     0
284
     8
340
11
343
87
371
    -1
372
    -1
  0
DIMSTYLE
105
308
330
A
100
AcDbSymbolTableRecord
100
AcDbDimStyleTableRecord
  2
GEN-ISO
 70
     0
  4
"
 41
2.5
 42
1.0
 43
10.0
 44
1.0
 47
0.1
 48
0.1
 73
     0
 74
     0
 77
     1
 78
     8
140
3.5
141
0.0
143
0.0393701
146
0.71
147
1.5
172
     1
176
   256
177
   256
178
     2
271
     2
272
     3
274
     4
283
     0
340
11
  0
DIMSTYLE
105
309
330
A
100
AcDbSymbolTableRecord
100
AcDbDimStyleTableRecord
  2
GEN-ISO$3
 70
     0
  4
"
 41
2.5
 42
1.0
 43
10.0
 44
1.0
 47
0.1
 48
0.1
 73
     0
 77
     1
 78
     8
140
3.5
141
0.0
143
0.0393701
146
0.71
147
1.5
176
   256
177
   256
178
     2
271
     2
272
     3
274
     4
283
     0
288
     1
289
     0
340
11
  0
DIMSTYLE
105
30A
330
A
100
AcDbSymbolTableRecord
100
AcDbDimStyleTableRecord
  2
GEN-ISO$4
 70
     0
  4
"
 41
2.5
 42
1.0
 43
10.0
 44
1.0
 47
0.1
 48
0.1
 73
     0
 77
     1
 78
     8
140
3.5
141
0.0
143
0.0393701
146
0.71
147
1.5
176
   256
177
   256
178
     2
271
     2
272
     3
274
     4
283
     0
288
     1
289
     0
340
11
  0
DIMSTYLE
105
30B
330
A
100
AcDbSymbolTableRecord
100
AcDbDimStyleTableRecord
  2
GEN-ISO$6
 70
     0
  4
"
 41
2.5
 42
1.0
 43
10.0
 44
1.0
 47
0.1
 48
0.1
 73
     0
 74
     0
 78
     8
140
3.5
141
0.0
143
0.0393701
146
0.71
147
1.5
176
   256
177
   256
178
     2
271
     2
272
     3
274
     4
283
     0
340
11
  0
DIMSTYLE
105
30C
330
A
100
AcDbSymbolTableRecord
100
AcDbDimStyleTableRecord
  2
GEN-ISO-POS
 70
     0
  4
"
 41
2.5
 42
1.0
 43
10.0
 44
1.0
 47
0.1
 48
0.1
 73
     0
 74
     0
 78
     8
140
5.0
141
0.0
143
0.0393701
146
0.71
147
1.5
176
   256
177
   256
178
     2
271
     2
272
     3
274
     4
283
     0
340
11
  0
DIMSTYLE
105
30D
330
A
100
AcDbSymbolTableRecord
100
AcDbDimStyleTableRecord
  2
GEN-ISO-AXE-F
 70
     0
  4
"
 41
2.5
 42
1.0
 43
10.0
 44
1.0
 47
0.1
 48
0.1
 73
     0
 74
     0
 75
     1
 76
     1
 77
     1
 78
     8
140
3.5
141
0.0
143
0.0393701
146
0.71
147
1.5
172
     1
176
   256
177
   256
178
     2
271
     2
272
     3
274
     4
283
     0
340
11
  0
DIMSTYLE
105
30E
330
A
100
AcDbSymbolTableRecord
100
AcDbDimStyleTableRecord
  2
GEN-ISO-AXE-H
 70
     0
  4
"
 41
2.5
 42
1.0
 43
10.0
 44
1.0
 47
0.1
 48
0.1
 73
     0
 74
     0
 75
     1
 76
     1
 77
     1
 78
     8
140
3.5
141
0.0
143
0.0393701
144
2.0
146
0.71
147
1.5
172
     1
173
     1
176
   256
177
   256
178
     2
271
     2
272
     3
274
     4
283
     0
340
11
  0
DIMSTYLE
105
1ADD
330
A
100
AcDbSymbolTableRecord
100
AcDbDimStyleTableRecord
  2
AM_ANSI
 70
     0
  4
mm
 41
0.1
 42
0.05
 43
0.5
 44
0.1
 47
0.1
 48
0.1
 78
     7
 79
     2
140
0.12
141
0.0
146
0.71
147
0.06
176
   256
177
   256
178
     2
274
     4
284
     7
340
11
371
    -1
372
    -1
  0
ENDTAB
  0
TABLE
  2
BLOCK_RECORD
  5
1
330
0
100
AcDbSymbolTable
 70
    24
  0
BLOCK_RECORD
  5
1F
102
{ACAD_XDICTIONARY
360
8F
102
}
330
1
100
AcDbSymbolTableRecord
100
AcDbBlockTableRecord
  2
*Model_Space
340
22
  0
BLOCK_RECORD
  5
1B
330
1
100
AcDbSymbolTableRecord
100
AcDbBlockTableRecord
  2
*Paper_Space
340
1E
  0
BLOCK_RECORD
  5
23
330
1
100
AcDbSymbolTableRecord
100
AcDbBlockTableRecord
  2
*Paper_Space0
340
26
  0
BLOCK_RECORD
  5
87
330
1
100
AcDbSymbolTableRecord
100
AcDbBlockTableRecord
  2
GENAXEH
340
0
  0
BLOCK_RECORD
  5
2FB
330
1
100
AcDbSymbolTableRecord
100
AcDbBlockTableRecord
  2
_Open30
340
0
  0
BLOCK_RECORD
  5
327
102
{ACAD_XDICTIONARY
360
330
102
}
330
1
100
AcDbSymbolTableRecord
100
AcDbBlockTableRecord
  2
TAKACHI-A3
340
0
102
{BLKREFS
331
79F
102
}
  0
BLOCK_RECORD
  5
340
102
{ACAD_XDICTIONARY
360
395
102
}
330
1
100
AcDbSymbolTableRecord
100
AcDbBlockTableRecord
  2
TAKACHI-TITLE
340
0
102
{BLKREFS
331
7A1
102
}
  0
BLOCK_RECORD
  5
1A62
330
1
100
AcDbSymbolTableRecord
100
AcDbBlockTableRecord
  2
*D6
340
0
  0
BLOCK_RECORD
  5
1A6E
330
1
100
AcDbSymbolTableRecord
100
AcDbBlockTableRecord
  2
*D7
340
0
  0
BLOCK_RECORD
  5
1A7A
330
1
100
AcDbSymbolTableRecord
100
AcDbBlockTableRecord
  2
*D8
340
0
  0
BLOCK_RECORD
  5
1ADE
102
{ACAD_XDICTIONARY
360
1AE6
102
}
330
1
100
AcDbSymbolTableRecord
100
AcDbBlockTableRecord
  2
TK-A3
340
0
102
{BLKREFS
331
79F
102
}
  0
BLOCK_RECORD
  5
1AEC
102
{ACAD_XDICTIONARY
360
1B45
102
}
330
1
100
AcDbSymbolTableRecord
100
AcDbBlockTableRecord
  2
TK-TITLE
340
0
102
{BLKREFS
331
7A1
102
}
  0
BLOCK_RECORD
  5
2CF4
330
1
100
AcDbSymbolTableRecord
100
AcDbBlockTableRecord
  2
*S13
340
0
  0
BLOCK_RECORD
  5
2CFB
330
1
100
AcDbSymbolTableRecord
100
AcDbBlockTableRecord
  2
*S14
340
0
  0
BLOCK_RECORD
  5
2D03
330
1
100
AcDbSymbolTableRecord
100
AcDbBlockTableRecord
  2
*S15
340
0
  0
BLOCK_RECORD
  5
2D0A
330
1
100
AcDbSymbolTableRecord
100
AcDbBlockTableRecord
  2
*S16
340
0
  0
BLOCK_RECORD
  5
2D12
330
1
100
AcDbSymbolTableRecord
100
AcDbBlockTableRecord
  2
*S17
340
0
  0
BLOCK_RECORD
  5
2D19
330
1
100
AcDbSymbolTableRecord
100
AcDbBlockTableRecord
  2
*S18
340
0
  0
BLOCK_RECORD
  5
2D21
330
1
100
AcDbSymbolTableRecord
100
AcDbBlockTableRecord
  2
*S19
340
0
  0
BLOCK_RECORD
  5
2D28
330
1
100
AcDbSymbolTableRecord
100
AcDbBlockTableRecord
  2
*S20
340
0
  0
BLOCK_RECORD
  5
2D30
330
1
100
AcDbSymbolTableRecord
100
AcDbBlockTableRecord
  2
*S21
340
0
  0
BLOCK_RECORD
  5
2D37
330
1
100
AcDbSymbolTableRecord
100
AcDbBlockTableRecord
  2
*S22
340
0
  0
BLOCK_RECORD
  5
2D3F
330
1
100
AcDbSymbolTableRecord
100
AcDbBlockTableRecord
  2
*S23
340
0
  0
ENDTAB
  0
ENDSEC
  0
SECTION
  2
BLOCKS
  0
BLOCK
  5
20
330
1F
100
AcDbEntity
  8
0
100
AcDbBlockBegin
  2
*Model_Space
 70
     0
 10
0.0
 20
0.0
 30
0.0
  3
*Model_Space
  1

  0
ENDBLK
  5
21
330
1F
100
AcDbEntity
  8
0
100
AcDbBlockEnd
  0
BLOCK
  5
1C
330
1B
100
AcDbEntity
 67
     1
  8
0
100
AcDbBlockBegin
  2
*Paper_Space
 70
     0
 10
0.0
 20
0.0
 30
0.0
  3
*Paper_Space
  1

  0
ENDBLK
  5
1D
330
1B
100
AcDbEntity
 67
     1
  8
0
100
AcDbBlockEnd
  0
BLOCK
  5
24
330
23
100
AcDbEntity
 67
     1
  8
0
100
AcDbBlockBegin
  2
*Paper_Space0
 70
     0
 10
0.0
 20
0.0
 30
0.0
  3
*Paper_Space0
  1

  0
VIEWPORT
  5
17C
102
{ACAD_XDICTIONARY
360
2DB1
102
}
330
23
100
AcDbEntity
 67
     1
  8
0
100
AcDbViewport
 10
133.3499908447266
 20
123.6089706563676
 30
0.0
 40
370.2266912936524
 41
272.4401407679965
 68
     0
 69
     0
 12
133.3499908447266
 22
123.6089706563676
 13
0.0
 23
0.0
 14
10.0
 24
10.0
 15
10.0
 25
10.0
 16
0.0
 26
0.0
 36
1.0
 17
0.0
 27
0.0
 37
0.0
 42
50.0
 43
0.0
 44
0.0
 45
272.4401407679965
 50
0.0
 51
0.0
 72
   100
 90
    32800
  1

281
     0
 71
     1
 74
     0
110
0.0
120
0.0
130
0.0
111
1.0
121
0.0
131
0.0
112
0.0
122
1.0
132
0.0
 79
     0
146
0.0
  0
ENDBLK
  5
25
330
23
100
AcDbEntity
 67
     1
  8
0
100
AcDbBlockEnd
  0
BLOCK
  5
89
330
87
100
AcDbEntity
  8
0
100
AcDbBlockBegin
  2
GENAXEH
 70
     0
 10
0.0
 20
0.0
 30
0.0
  3
GENAXEH
  1

  0
LINE
  5
88
330
87
100
AcDbEntity
  8
0
100
AcDbLine
 10
-1.0
 20
0.0
 30
0.0
 11
1.0
 21
0.0
 31
0.0
  0
ENDBLK
  5
8A
330
87
100
AcDbEntity
  8
0
100
AcDbBlockEnd
  0
BLOCK
  5
2FC
330
2FB
100
AcDbEntity
  8
0
100
AcDbBlockBegin
  2
_Open30
 70
     0
 10
0.0
 20
0.0
 30
0.0
  3
_Open30
  1

  0
LINE
  5
2FD
330
2FB
100
AcDbEntity
  8
0
  6
ByBlock
 62
     0
370
    -2
100
AcDbLine
 10
-1.0
 20
0.26794919
 30
0.0
 11
0.0
 21
0.0
 31
0.0
  0
LINE
  5
2FE
330
2FB
100
AcDbEntity
  8
0
  6
ByBlock
 62
     0
370
    -2
100
AcDbLine
 10
0.0
 20
0.0
 30
0.0
 11
-1.0
 21
-0.26794919
 31
0.0
  0
LINE
  5
2FF
330
2FB
100
AcDbEntity
  8
0
  6
ByBlock
 62
     0
370
    -2
100
AcDbLine
 10
0.0
 20
0.0
 30
0.0
 11
-1.0
 21
0.0
 31
0.0
  0
ENDBLK
  5
300
330
2FB
100
AcDbEntity
  8
0
100
AcDbBlockEnd
  0
BLOCK
  5
331
330
327
100
AcDbEntity
  8
0
100
AcDbBlockBegin
  2
TAKACHI-A3
 70
     0
 10
0.0
 20
0.0
 30
0.0
  3
TAKACHI-A3
  1

  0
LWPOLYLINE
  5
328
330
327
100
AcDbEntity
  8
0
100
AcDbPolyline
 90
        4
 70
     1
 43
0.0
 10
10.0
 20
0.0
 10
410.0
 20
0.0
 10
410.0
 20
280.0
 10
10.00000000000003
 20
280.0
1001
GENIUS_GENREC_14
1002
{
1000
PYDIR
1011
10.00000000000001
1021
280.0
1031
0.0
1002
}
1002
{
1000
PXDIR
1011
410.0
1021
0.0
1031
0.0
1002
}
1002
{
1000
PORI
1011
10.0
1021
0.0
1031
0.0
1002
}
1002
{
1000
PINS
1011
210.0
1021
139.9999999999999
1031
0.0
1002
}
1002
{
1000
HVAL
1000
280
1002
}
1002
{
1000
H
1070
     2
1002
}
1002
{
1000
WVAL
1000
400
1002
}
1002
{
1000
W
1070
     2
1002
}
1002
{
1000
C
1070
     4
1002
}
1001
GENIUS_GENODEF_13
1002
{
1000
HIER
1070
     0
1002
}
1002
{
1000
MANEDIT
1070
     0
1002
}
1002
{
1000
NOSEL
1070
     0
1002
}
1002
{
1000
BEHIND
1070
     0
1002
}
1002
{
1000
REACTOR
1002
}
1001
GENIUS_GENOBJ-N-REC_13
1002
{
1000
OWNER
1000
GEN
1002
}
  0
TEXT
  5
329
330
327
100
AcDbEntity
  8
0
 60
     1
100
AcDbText
 10
15.00000000000003
 20
50.0
 30
0.0
 40
2.5
  1
!GENTITLE-LL
100
AcDbText
  0
TEXT
  5
32A
330
327
100
AcDbEntity
  8
0
 60
     1
100
AcDbText
 10
410.0
 20
0.0
 30
0.0
 40
2.5
  1
!GENTITLE-INSERT
100
AcDbText
  0
TEXT
  5
32B
330
327
100
AcDbEntity
  8
0
 60
     1
100
AcDbText
 10
405.0
 20
275.0
 30
0.0
 40
2.5
  1
!GENTITLE-RU
100
AcDbText
  0
TEXT
  5
32C
330
327
100
AcDbEntity
  8
0
 60
     1
100
AcDbText
 10
410.0
 20
280.0
 30
0.0
 40
2.5
  1
!GENTITLE-MAX
100
AcDbText
  0
LINE
  5
32D
330
327
100
AcDbEntity
  8
0
100
AcDbLine
 10
366.0
 20
275.0
 30
0.0
 11
410.0
 21
275.0
 31
0.0
  0
MTEXT
  5
32E
330
327
100
AcDbEntity
  8
0
100
AcDbMText
 10
409.3592953827348
 20
276.108542987227
 30
0.0
 40
2.5
 41
43.07840397728298
 71
     9
 72
     5
  1
(文書番号：TY-34)2004.10.29
 73
     1
 44
1.0
1001
ACAD
1000
MTEXTBEGIN
1070
    73
1070
     1
1070
    44
1040
1.0
1070
    74
1070
     0
1000
MTEXTEND
  0
LINE
  5
32F
330
327
100
AcDbEntity
  8
0
100
AcDbLine
 10
366.0
 20
280.0
 30
0.0
 11
366.0
 21
275.0
 31
0.0
  0
ENDBLK
  5
332
330
327
100
AcDbEntity
  8
0
100
AcDbBlockEnd
  0
BLOCK
  5
396
330
340
100
AcDbEntity
  8
0
100
AcDbBlockBegin
  2
TAKACHI-TITLE
 70
     2
 10
0.0
 20
0.0
 30
0.0
  3
TAKACHI-TITLE
  1

  0
LINE
  5
341
330
340
100
AcDbEntity
  8
RAHM2
100
AcDbLine
 10
-195.0
 20
30.00000000000003
 30
0.0
 11
-94.0
 21
30.00000000000003
 31
0.0
  0
LINE
  5
342
330
340
100
AcDbEntity
  8
RAHM2
100
AcDbLine
 10
-195.0
 20
35.00000000000003
 30
0.0
 11
-94.0
 21
35.00000000000003
 31
0.0
  0
LINE
  5
343
330
340
100
AcDbEntity
  8
RAHM2
100
AcDbLine
 10
-195.0
 20
40.00000000000002
 30
0.0
 11
-94.0
 21
40.00000000000002
 31
0.0
  0
LINE
  5
344
330
340
100
AcDbEntity
  8
RAHM2
100
AcDbLine
 10
-195.0
 20
45.00000000000002
 30
0.0
 11
-94.0
 21
45.00000000000002
 31
0.0
  0
LINE
  5
345
330
340
100
AcDbEntity
  8
0
100
AcDbLine
 10
-195.0
 20
7.0
 30
0.0
 11
-94.0
 21
7.0
 31
0.0
  0
LINE
  5
346
330
340
100
AcDbEntity
  8
0
100
AcDbLine
 10
-195.0
 20
19.99999999999997
 30
0.0
 11
-94.0
 21
19.99999999999997
 31
0.0
  0
ATTDEF
  5
347
330
340
100
AcDbEntity
  8
0
100
AcDbText
 10
-183.2438527145607
 20
8.617517191094748
 30
0.0
 40
2.5
  1

 11
-183.2438527145607
 21
8.617517191094748
 31
0.0
100
AcDbAttributeDefinition
  3
サブタイトル
  2
GEN-TITLE-DES2
 70
     0
 74
     1
  0
ATTDEF
  5
348
330
340
100
AcDbEntity
  8
0
100
AcDbText
 10
-183.2438527145607
 20
1.617517191094748
 30
0.0
 40
3.0
  1

 11
-183.2438527145607
 21
1.617517191094748
 31
0.0
100
AcDbAttributeDefinition
  3
図番
  2
GEN-TITLE-NR
 70
     0
 74
     1
  0
MTEXT
  5
349
330
340
100
AcDbEntity
  8
RAHM2
100
AcDbMText
 10
-193.8002551371314
 20
5.801035407279641
 30
0.0
 40
2.5
 41
90.0
 71
     1
 72
     5
  1
図番
 73
     1
 44
1.0
1001
ACAD
1000
MTEXTBEGIN
1070
    73
1070
     1
1070
    44
1040
1.0
1070
    74
1070
     0
1000
MTEXTEND
  0
ATTDEF
  5
34A
330
340
100
AcDbEntity
  8
0
100
AcDbText
 10
-183.2438527145607
 20
13.87395286168501
 30
0.0
 40
4.0
  1

 11
-183.2438527145607
 21
13.87395286168501
 31
0.0
100
AcDbAttributeDefinition
  3
品名
  2
GEN-TITLE-DES1
 70
     0
 74
     1
  0
LINE
  5
34B
330
340
100
AcDbEntity
  8
RAHM2
100
AcDbLine
 10
-187.5751288694036
 20
30.40000000000004
 30
0.0
 11
-190.0
 21
34.60000000000003
 31
0.0
  0
LINE
  5
34C
330
340
100
AcDbEntity
  8
RAHM2
100
AcDbLine
 10
-190.0
 20
34.60000000000003
 30
0.0
 11
-192.4248711305964
 21
30.40000000000004
 31
0.0
  0
LINE
  5
34D
330
340
100
AcDbEntity
  8
RAHM2
100
AcDbLine
 10
-185.0
 20
50.00000000000003
 30
0.0
 11
-185.0
 21
19.99999999999994
 31
0.0
  0
LINE
  5
34E
330
340
100
AcDbEntity
  8
RAHM2
100
AcDbLine
 10
-192.4248711305964
 20
30.40000000000004
 30
0.0
 11
-187.5751288694036
 21
30.40000000000004
 31
0.0
  0
MTEXT
  5
34F
330
340
100
AcDbEntity
  8
RAHM2
100
AcDbMText
 10
-190.0
 20
22.49999999999997
 30
0.0
 40
2.5
 41
10.0
 71
     5
 72
     5
  1
符号
 73
     1
 44
1.0
1001
ACAD
1000
MTEXTBEGIN
1070
    73
1070
     1
1070
    44
1040
1.0
1070
    74
1070
     0
1000
MTEXTEND
  0
MTEXT
  5
350
330
340
100
AcDbEntity
  8
RAHM2
100
AcDbMText
 10
-193.8002551371314
 20
18.80103540727961
 30
0.0
 40
2.5
 41
90.0
 71
     1
 72
     5
  1
品名
 73
     1
 44
1.0
1001
ACAD
1000
MTEXTBEGIN
1070
    73
1070
     1
1070
    44
1040
1.0
1070
    74
1070
     0
1000
MTEXTEND
  0
LINE
  5
351
330
340
100
AcDbEntity
  8
RAHM2
100
AcDbLine
 10
-192.4248711305964
 20
45.40000000000003
 30
0.0
 11
-187.5751288694036
 21
45.40000000000003
 31
0.0
  0
LINE
  5
352
330
340
100
AcDbEntity
  8
RAHM2
100
AcDbLine
 10
-187.5751288694036
 20
45.40000000000003
 30
0.0
 11
-190.0
 21
49.60000000000002
 31
0.0
  0
LINE
  5
353
330
340
100
AcDbEntity
  8
RAHM2
100
AcDbLine
 10
-192.4248711305964
 20
40.40000000000003
 30
0.0
 11
-187.5751288694036
 21
40.40000000000003
 31
0.0
  0
LINE
  5
354
330
340
100
AcDbEntity
  8
RAHM2
100
AcDbLine
 10
-187.5751288694036
 20
40.40000000000003
 30
0.0
 11
-190.0
 21
44.60000000000002
 31
0.0
  0
LINE
  5
355
330
340
100
AcDbEntity
  8
RAHM2
100
AcDbLine
 10
-192.4248711305964
 20
35.40000000000004
 30
0.0
 11
-187.5751288694036
 21
35.40000000000004
 31
0.0
  0
LINE
  5
356
330
340
100
AcDbEntity
  8
RAHM2
100
AcDbLine
 10
-187.5751288694036
 20
35.40000000000004
 30
0.0
 11
-190.0
 21
39.60000000000002
 31
0.0
  0
LINE
  5
357
330
340
100
AcDbEntity
  8
RAHM2
100
AcDbLine
 10
-190.0
 20
39.60000000000002
 30
0.0
 11
-192.4248711305964
 21
35.40000000000004
 31
0.0
  0
LINE
  5
358
330
340
100
AcDbEntity
  8
RAHM2
100
AcDbLine
 10
-190.0
 20
44.60000000000002
 30
0.0
 11
-192.4248711305964
 21
40.40000000000003
 31
0.0
  0
LINE
  5
359
330
340
100
AcDbEntity
  8
RAHM2
100
AcDbLine
 10
-190.0
 20
49.60000000000002
 30
0.0
 11
-192.4248711305964
 21
45.40000000000003
 31
0.0
  0
LINE
  5
35A
330
340
100
AcDbEntity
  8
RAHM2
100
AcDbLine
 10
-129.0
 20
50.00000000000003
 30
0.0
 11
-129.0
 21
19.99999999999994
 31
0.0
  0
MTEXT
  5
35B
330
340
100
AcDbEntity
  8
RAHM2
100
AcDbMText
 10
-157.1448171868856
 20
22.49999999999997
 30
0.0
 40
2.5
 41
45.0
 71
     5
 72
     5
  1
変更記事
 73
     1
 44
1.0
1001
ACAD
1000
MTEXTBEGIN
1070
    73
1070
     1
1070
    44
1040
1.0
1070
    74
1070
     0
1000
MTEXTEND
  0
LINE
  5
35C
330
340
100
AcDbEntity
  8
0
100
AcDbLine
 10
-34.0
 20
50.0
 30
0.0
 11
-34.0
 21
0.0
 31
0.0
  0
LINE
  5
35D
330
340
100
AcDbEntity
  8
0
100
AcDbLine
 10
-94.0
 20
50.0
 30
0.0
 11
-94.0
 21
0.0
 31
0.0
  0
MTEXT
  5
35E
330
340
100
AcDbEntity
  8
0
100
AcDbMText
 10
-64.0
 20
5.0
 30
0.0
 40
3.5
 41
60.0
 71
     5
 72
     5
  1
\fＭＳ ゴシック|b0|i0|c128|p49;株式会社タカチ電機工業
 73
     1
 44
1.0
1001
ACAD
1000
MTEXTBEGIN
1070
    73
1070
     1
1070
    44
1040
1.0
1070
    74
1070
     0
1000
MTEXTEND
  0
LINE
  5
35F
330
340
100
AcDbEntity
  8
0
100
AcDbLine
 10
-94.0
 20
10.0
 30
0.0
 11
-34.0
 21
10.0
 31
0.0
  0
ATTDEF
  5
360
330
340
100
AcDbEntity
  8
0
100
AcDbText
 10
-58.01405119799745
 20
39.25500556178349
 30
0.0
 40
3.0
  1

 72
     2
 11
-58.01405119799745
 21
39.25500556178349
 31
0.0
100
AcDbAttributeDefinition
  3
尺度
  2
GEN-TITLE-SCA
 70
     0
  0
ATTDEF
  5
361
330
340
100
AcDbEntity
  8
0
100
AcDbText
 10
-77.00284966649007
 20
30.62180787943475
 30
0.0
 40
3.0
  1

 11
-77.00284966649007
 21
30.62180787943475
 31
0.0
100
AcDbAttributeDefinition
  3
材質
  2
GEN-TITLE-MAT1
 70
     0
 74
     1
  0
ATTDEF
  5
362
330
340
100
AcDbEntity
  8
0
100
AcDbText
 10
-77.00284966649007
 20
20.62180787943475
 30
0.0
 40
3.0
  1

 11
-77.00284966649007
 21
20.62180787943475
 31
0.0
100
AcDbAttributeDefinition
  3
表面処理
  2
GEN-TITLE-MAT2
 70
     0
 74
     1
  0
ATTDEF
  5
363
330
340
100
AcDbEntity
  8
0
100
AcDbText
 10
-77.00284966649007
 20
11.61751719109475
 30
0.0
 40
3.0
  1

 11
-77.00284966649007
 21
11.61751719109475
 31
0.0
100
AcDbAttributeDefinition
  3
日付
  2
GEN-TITLE-DAT
 70
     0
 74
     1
  0
LINE
  5
364
330
340
100
AcDbEntity
  8
0
100
AcDbLine
 10
-94.0
 20
37.5
 30
0.0
 11
-34.0
 21
37.5
 31
0.0
  0
LINE
  5
365
330
340
100
AcDbEntity
  8
0
100
AcDbLine
 10
-94.0
 20
27.5
 30
0.0
 11
-34.0
 21
27.5
 31
0.0
  0
LINE
  5
366
330
340
100
AcDbEntity
  8
0
100
AcDbLine
 10
-94.0
 20
17.5
 30
0.0
 11
-34.0
 21
17.5
 31
0.0
  0
LINE
  5
367
330
340
100
AcDbEntity
  8
RAHM2
100
AcDbLine
 10
-109.0
 20
50.00000000000003
 30
0.0
 11
-109.0
 21
19.99999999999994
 31
0.0
  0
MTEXT
  5
368
330
340
100
AcDbEntity
  8
RAHM2
100
AcDbMText
 10
-119.4582894723942
 20
32.50000000000003
 30
0.0
 40
2.5
 41
20.0
 71
     5
 72
     5
  1
・  ・   
 73
     1
 44
1.0
1001
ACAD
1000
MTEXTBEGIN
1070
    73
1070
     1
1070
    44
1040
1.0
1070
    74
1070
     0
1000
MTEXTEND
  0
MTEXT
  5
369
330
340
100
AcDbEntity
  8
RAHM2
100
AcDbMText
 10
-118.738119805002
 20
22.49999999999997
 30
0.0
 40
2.5
 41
20.0
 71
     5
 72
     5
  1
年・月・日
 73
     1
 44
1.0
1001
ACAD
1000
MTEXTBEGIN
1070
    73
1070
     1
1070
    44
1040
1.0
1070
    74
1070
     0
1000
MTEXTEND
  0
MTEXT
  5
36A
330
340
100
AcDbEntity
  8
RAHM2
100
AcDbMText
 10
-101.5
 20
22.49999999999997
 30
0.0
 40
2.5
 41
15.0
 71
     5
 72
     5
  1
担当
 73
     1
 44
1.0
1001
ACAD
1000
MTEXTBEGIN
1070
    73
1070
     1
1070
    44
1040
1.0
1070
    74
1070
     0
1000
MTEXTEND
  0
MTEXT
  5
36B
330
340
100
AcDbEntity
  8
RAHM2
100
AcDbMText
 10
-119.4582894723942
 20
42.50000000000002
 30
0.0
 40
2.5
 41
20.0
 71
     5
 72
     5
  1
・  ・   
 73
     1
 44
1.0
1001
ACAD
1000
MTEXTBEGIN
1070
    73
1070
     1
1070
    44
1040
1.0
1070
    74
1070
     0
1000
MTEXTEND
  0
MTEXT
  5
36C
330
340
100
AcDbEntity
  8
RAHM2
100
AcDbMText
 10
-119.4582894723942
 20
37.50000000000003
 30
0.0
 40
2.5
 41
20.0
 71
     5
 72
     5
  1
・  ・   
 73
     1
 44
1.0
1001
ACAD
1000
MTEXTBEGIN
1070
    73
1070
     1
1070
    44
1040
1.0
1070
    74
1070
     0
1000
MTEXTEND
  0
MTEXT
  5
36D
330
340
100
AcDbEntity
  8
RAHM2
100
AcDbMText
 10
-119.4582894723942
 20
47.50000000000002
 30
0.0
 40
2.5
 41
20.0
 71
     5
 72
     5
  1
・  ・   
 73
     1
 44
1.0
1001
ACAD
1000
MTEXTBEGIN
1070
    73
1070
     1
1070
    44
1040
1.0
1070
    74
1070
     0
1000
MTEXTEND
  0
MTEXT
  5
36E
330
340
100
AcDbEntity
  8
RAHM2
100
AcDbMText
 10
-92.80025513713145
 20
16.30103540727964
 30
0.0
 40
2.5
 41
60.0
 71
     1
 72
     5
  1
日付
 73
     1
 44
1.0
1001
ACAD
1000
MTEXTBEGIN
1070
    73
1070
     1
1070
    44
1040
1.0
1070
    74
1070
     0
1000
MTEXTEND
  0
MTEXT
  5
36F
330
340
100
AcDbEntity
  8
RAHM2
100
AcDbMText
 10
-92.80025513713145
 20
26.30103540727964
 30
0.0
 40
2.5
 41
60.0
 71
     1
 72
     5
  1
表面処理
 73
     1
 44
1.0
1001
ACAD
1000
MTEXTBEGIN
1070
    73
1070
     1
1070
    44
1040
1.0
1070
    74
1070
     0
1000
MTEXTEND
  0
LINE
  5
370
330
340
100
AcDbEntity
  8
7A
100
AcDbLine
 10
-89.0
 20
43.75
 30
0.0
 11
-75.2186915997147
 21
43.75
 31
0.0
1001
GENIUS_GENOREF_13
1005
383
  0
LINE
  5
371
330
340
100
AcDbEntity
  8
0
100
AcDbLine
 10
-84.0
 20
45.75
 30
0.0
 11
-76.0
 21
46.74999999999999
 31
0.0
  0
LINE
  5
372
330
340
100
AcDbEntity
  8
0
100
AcDbLine
 10
-76.0
 20
40.75
 30
0.0
 11
-84.0
 21
41.74999999999999
 31
0.0
  0
LINE
  5
373
330
340
100
AcDbEntity
  8
7A
100
AcDbLine
 10
-89.0
 20
43.75
 30
0.0
 11
-89.0
 21
47.32478664473148
 31
0.0
1001
GENIUS_GENOREF_13
1005
383
  0
CIRCLE
  5
374
330
340
100
AcDbEntity
  8
0
100
AcDbCircle
 10
-89.0
 20
43.75
 30
0.0
 40
2.0
  0
CIRCLE
  5
375
330
340
100
AcDbEntity
  8
0
100
AcDbCircle
 10
-89.0
 20
43.75
 30
0.0
 40
3.0
  0
LINE
  5
376
330
340
100
AcDbEntity
  8
0
100
AcDbLine
 10
-84.0
 20
41.74999999999999
 30
0.0
 11
-84.0
 21
45.75
 31
0.0
  0
MTEXT
  5
377
330
340
100
AcDbEntity
  8
RAHM2
100
AcDbMText
 10
-92.80025513713145
 20
36.30103540727964
 30
0.0
 40
2.5
 41
60.0
 71
     1
 72
     5
  1
材質
 73
     1
 44
1.0
1001
ACAD
1000
MTEXTBEGIN
1070
    73
1070
     1
1070
    44
1040
1.0
1070
    74
1070
     0
1000
MTEXTEND
  0
LINE
  5
378
330
340
100
AcDbEntity
  8
7A
100
AcDbLine
 10
-89.0
 20
43.75
 30
0.0
 11
-92.72303737125117
 21
43.75
 31
0.0
1001
GENIUS_GENOREF_13
1005
383
  0
LINE
  5
379
330
340
100
AcDbEntity
  8
7A
100
AcDbLine
 10
-89.0
 20
43.75
 30
0.0
 11
-89.0
 21
40.03991724228479
 31
0.0
1001
GENIUS_GENOREF_13
1005
383
  0
LINE
  5
37A
330
340
100
AcDbEntity
  8
0
100
AcDbLine
 10
-76.0
 20
46.74999999999999
 30
0.0
 11
-76.0
 21
40.75
 31
0.0
  0
LINE
  5
37B
330
340
100
AcDbEntity
  8
0
100
AcDbLine
 10
-74.0
 20
50.0
 30
0.0
 11
-74.0
 21
37.5
 31
0.0
  0
MTEXT
  5
37C
330
340
100
AcDbEntity
  8
RAHM2
100
AcDbMText
 10
-72.80025513713145
 20
48.80103540727964
 30
0.0
 40
2.5
 41
20.0
 71
     1
 72
     5
  1
尺度
 73
     1
 44
1.0
1001
ACAD
1000
MTEXTBEGIN
1070
    73
1070
     1
1070
    44
1040
1.0
1070
    74
1070
     0
1000
MTEXTEND
  0
ATTDEF
  5
37D
330
340
100
AcDbEntity
  8
0
100
AcDbText
 10
-37.76317379391503
 20
39.25500556178349
 30
0.0
 40
3.0
  1

 72
     2
 11
-37.76317379391503
 21
39.25500556178349
 31
0.0
100
AcDbAttributeDefinition
  3
数量
  2
GEN-TITLE-QTY
 70
     0
  0
LINE
  5
37E
330
340
100
AcDbEntity
  8
0
100
AcDbLine
 10
-34.0
 20
25.0
 30
0.0
 11
0.0
 21
25.0
 31
0.0
  0
LINE
  5
37F
330
340
100
AcDbEntity
  8
0
100
AcDbLine
 10
-54.0
 20
50.0
 30
0.0
 11
-54.0
 21
37.5
 31
0.0
  0
MTEXT
  5
380
330
340
100
AcDbEntity
  8
RAHM2
100
AcDbMText
 10
-52.80025513713145
 20
48.80103540727964
 30
0.0
 40
2.5
 41
20.0
 71
     1
 72
     5
  1
数量
 73
     1
 44
1.0
1001
ACAD
1000
MTEXTBEGIN
1070
    73
1070
     1
1070
    44
1040
1.0
1070
    74
1070
     0
1000
MTEXTEND
  0
MTEXT
  5
381
330
340
100
AcDbEntity
  8
RAHM2
100
AcDbMText
 10
-25.5
 20
23.80103540727964
 30
0.0
 40
2.5
 41
17.0
 71
     2
 72
     5
  1
承認
 73
     1
 44
1.0
1001
ACAD
1000
MTEXTBEGIN
1070
    73
1070
     1
1070
    44
1040
1.0
1070
    74
1070
     0
1000
MTEXTEND
  0
MTEXT
  5
382
330
340
100
AcDbEntity
  8
RAHM2
100
AcDbMText
 10
-25.5
 20
48.80103540727964
 30
0.0
 40
2.5
 41
17.0
 71
     2
 72
     5
  1
承認
 73
     1
 44
1.0
1001
ACAD
1000
MTEXTBEGIN
1070
    73
1070
     1
1070
    44
1040
1.0
1070
    74
1070
     0
1000
MTEXTEND
  0
POINT
  5
383
330
340
100
AcDbEntity
  8
0
 60
     1
100
AcDbPoint
 10
-320.5355579819676
 20
-138.1104841268254
 30
0.0
1001
GENIUS_GENODEF_13
1002
{
1000
HIER
1070
    10
1002
}
1002
{
1000
MANEDIT
1070
     0
1002
}
1002
{
1000
NOSEL
1070
     0
1002
}
1002
{
1000
BEHIND
1070
     0
1002
}
1002
{
1000
REACTOR
1002
}
1001
GENIUS_GENOBJ-N-CRS_13
1002
{
1000
OWNER
1000
GEN
1002
}
1001
GENIUS_GENOENT_13
1002
{
1000
MYREF
1005
383
1002
}
1002
{
1000
GRP
1005
0
1002
}
1001
GENIUS_GENOLIS_13
1002
{
1000
ENT
1005
379
1005
378
1005
373
1005
370
1002
}
  0
LINE
  5
384
330
340
100
AcDbEntity
  8
RAHM2
100
AcDbLine
 10
-190.0
 20
29.60000000000002
 30
0.0
 11
-192.4248711305964
 21
25.40000000000004
 31
0.0
  0
LINE
  5
385
330
340
100
AcDbEntity
  8
RAHM2
100
AcDbLine
 10
-187.5751288694036
 20
25.40000000000004
 30
0.0
 11
-190.0
 21
29.60000000000002
 31
0.0
  0
LINE
  5
386
330
340
100
AcDbEntity
  8
RAHM2
100
AcDbLine
 10
-192.4248711305964
 20
25.40000000000004
 30
0.0
 11
-187.5751288694036
 21
25.40000000000004
 31
0.0
  0
LINE
  5
387
330
340
100
AcDbEntity
  8
RAHM2
100
AcDbLine
 10
-195.0
 20
25.00000000000003
 30
0.0
 11
-94.0
 21
25.00000000000003
 31
0.0
  0
MTEXT
  5
388
330
340
100
AcDbEntity
  8
RAHM2
100
AcDbMText
 10
-119.4582894723942
 20
27.50000000000003
 30
0.0
 40
2.5
 41
20.0
 71
     5
 72
     5
  1
・  ・   
 73
     1
 44
1.0
1001
ACAD
1000
MTEXTBEGIN
1070
    73
1070
     1
1070
    44
1040
1.0
1070
    74
1070
     0
1000
MTEXTEND
  0
TEXT
  5
389
330
340
100
AcDbEntity
  8
RAHM2
100
AcDbText
 10
-190.8155863565801
 20
25.65000000000003
 30
0.0
 40
2.5
  1
1
 72
     1
 11
-190.1905863565802
 21
25.65000000000003
 31
0.0
100
AcDbText
 73
     1
  0
TEXT
  5
38A
330
340
100
AcDbEntity
  8
RAHM2
100
AcDbText
 10
-190.9183316929134
 20
30.65000000000003
 30
0.0
 40
2.5
  1
2
 72
     1
 11
-190.0
 21
30.65000000000003
 31
0.0
100
AcDbText
 73
     1
  0
TEXT
  5
38B
330
340
100
AcDbEntity
  8
RAHM2
100
AcDbText
 10
-190.9267766952966
 20
35.65000000000001
 30
0.0
 40
2.5
  1
3
 72
     1
 11
-190.0
 21
35.65000000000001
 31
0.0
100
AcDbText
 73
     1
  0
TEXT
  5
38C
330
340
100
AcDbEntity
  8
RAHM2
100
AcDbText
 10
-191.0
 20
40.65000000000003
 30
0.0
 40
2.5
  1
4
 72
     1
 11
-190.0
 21
40.65000000000003
 31
0.0
100
AcDbText
 73
     1
  0
TEXT
  5
38D
330
340
100
AcDbEntity
  8
RAHM2
100
AcDbText
 10
-190.9267766952966
 20
45.65000000000003
 30
0.0
 40
2.5
  1
5
 72
     1
 11
-190.0
 21
45.65000000000003
 31
0.0
100
AcDbText
 73
     1
  0
LINE
  5
38E
330
340
100
AcDbEntity
  8
0
100
AcDbLine
 10
-17.0
 20
50.0
 30
0.0
 11
-17.0
 21
0.0
 31
0.0
  0
LINE
  5
38F
330
340
100
AcDbEntity
  8
0
100
AcDbLine
 10
-195.0
 20
0.0
 30
0.0
 11
0.0
 21
0.0
 31
0.0
1001
GENIUS_GENREC_14
1002
{
1000
PYDIR
1011
-184.0
1021
50.0
1031
0.0
1002
}
1002
{
1000
PXDIR
1011
0.0
1021
0.0
1031
0.0
1002
}
1002
{
1000
PORI
1011
-184.0
1021
0.0
1031
0.0
1002
}
1002
{
1000
PINS
1011
-100.5
1021
25.0
1031
0.0
1002
}
1002
{
1000
HVAL
1000
50
1002
}
1002
{
1000
H
1070
     2
1002
}
1002
{
1000
WVAL
1000
167
1002
}
1002
{
1000
W
1070
     2
1002
}
1002
{
1000
C
1070
     4
1002
}
1001
GENIUS_GENODEF_13
1002
{
1000
HIER
1070
     0
1002
}
1002
{
1000
MANEDIT
1070
     0
1002
}
1002
{
1000
NOSEL
1070
     0
1002
}
1002
{
1000
BEHIND
1070
     0
1002
}
1002
{
1000
REACTOR
1002
}
1001
GENIUS_GENOBJ-N-REC_13
1002
{
1000
OWNER
1000
GEN
1002
}
  0
LINE
  5
390
330
340
100
AcDbEntity
  8
0
100
AcDbLine
 10
0.0
 20
0.0
 30
0.0
 11
0.0
 21
50.0
 31
0.0
1001
GENIUS_GENREC_14
1002
{
1000
PYDIR
1011
-184.0
1021
50.0
1031
0.0
1002
}
1002
{
1000
PXDIR
1011
0.0
1021
0.0
1031
0.0
1002
}
1002
{
1000
PORI
1011
-184.0
1021
0.0
1031
0.0
1002
}
1002
{
1000
PINS
1011
-100.5
1021
25.0
1031
0.0
1002
}
1002
{
1000
HVAL
1000
50
1002
}
1002
{
1000
H
1070
     2
1002
}
1002
{
1000
WVAL
1000
167
1002
}
1002
{
1000
W
1070
     2
1002
}
1002
{
1000
C
1070
     4
1002
}
1001
GENIUS_GENODEF_13
1002
{
1000
HIER
1070
     0
1002
}
1002
{
1000
MANEDIT
1070
     0
1002
}
1002
{
1000
NOSEL
1070
     0
1002
}
1002
{
1000
BEHIND
1070
     0
1002
}
1002
{
1000
REACTOR
1002
}
1001
GENIUS_GENOBJ-N-REC_13
1002
{
1000
OWNER
1000
GEN
1002
}
  0
LINE
  5
391
330
340
100
AcDbEntity
  8
0
100
AcDbLine
 10
0.0
 20
50.0
 30
0.0
 11
-195.0
 21
50.00000000000003
 31
0.0
1001
GENIUS_GENREC_14
1002
{
1000
PYDIR
1011
-184.0
1021
50.0
1031
0.0
1002
}
1002
{
1000
PXDIR
1011
0.0
1021
0.0
1031
0.0
1002
}
1002
{
1000
PORI
1011
-184.0
1021
0.0
1031
0.0
1002
}
1002
{
1000
PINS
1011
-100.5
1021
25.0
1031
0.0
1002
}
1002
{
1000
HVAL
1000
50
1002
}
1002
{
1000
H
1070
     2
1002
}
1002
{
1000
WVAL
1000
167
1002
}
1002
{
1000
W
1070
     2
1002
}
1002
{
1000
C
1070
     4
1002
}
1001
GENIUS_GENODEF_13
1002
{
1000
HIER
1070
     0
1002
}
1002
{
1000
MANEDIT
1070
     0
1002
}
1002
{
1000
NOSEL
1070
     0
1002
}
1002
{
1000
BEHIND
1070
     0
1002
}
1002
{
1000
REACTOR
1002
}
1001
GENIUS_GENOBJ-N-REC_13
1002
{
1000
OWNER
1000
GEN
1002
}
  0
LINE
  5
392
330
340
100
AcDbEntity
  8
0
100
AcDbLine
 10
-195.0
 20
50.00000000000003
 30
0.0
 11
-195.0
 21
0.0
 31
0.0
1001
GENIUS_GENREC_14
1002
{
1000
PYDIR
1011
-195.0
1021
50.0
1031
0.0
1002
}
1002
{
1000
PXDIR
1011
-11.0
1021
0.0
1031
0.0
1002
}
1002
{
1000
PORI
1011
-195.0
1021
0.0
1031
0.0
1002
}
1002
{
1000
PINS
1011
-111.5
1021
25.0
1031
0.0
1002
}
1002
{
1000
HVAL
1000
50
1002
}
1002
{
1000
H
1070
     2
1002
}
1002
{
1000
WVAL
1000
167
1002
}
1002
{
1000
W
1070
     2
1002
}
1002
{
1000
C
1070
     4
1002
}
1001
GENIUS_GENODEF_13
1002
{
1000
HIER
1070
     0
1002
}
1002
{
1000
MANEDIT
1070
     0
1002
}
1002
{
1000
NOSEL
1070
     0
1002
}
1002
{
1000
BEHIND
1070
     0
1002
}
1002
{
1000
REACTOR
1002
}
1001
GENIUS_GENOBJ-N-REC_13
1002
{
1000
OWNER
1000
GEN
1002
}
  0
MTEXT
  5
393
330
340
100
AcDbEntity
  8
RAHM2
100
AcDbMText
 10
-8.5
 20
48.80103540727964
 30
0.0
 40
2.5
 41
17.0
 71
     2
 72
     5
  1
検図
 73
     1
 44
1.0
1001
ACAD
1000
MTEXTBEGIN
1070
    73
1070
     1
1070
    44
1040
1.0
1070
    74
1070
     0
1000
MTEXTEND
  0
MTEXT
  5
394
330
340
100
AcDbEntity
  8
RAHM2
100
AcDbMText
 10
-8.5
 20
23.80103540727964
 30
0.0
 40
2.5
 41
17.0
 71
     2
 72
     5
  1
製図
 73
     1
 44
1.0
1001
ACAD
1000
MTEXTBEGIN
1070
    73
1070
     1
1070
    44
1040
1.0
1070
    74
1070
     0
1000
MTEXTEND
  0
ENDBLK
  5
397
330
340
100
AcDbEntity
  8
0
100
AcDbBlockEnd
  0
BLOCK
  5
1A6C
330
1A62
100
AcDbEntity
  8
0
100
AcDbBlockBegin
  2
*D6
 70
     1
 10
0.0
 20
0.0
 30
0.0
  3
*D6
  1

  0
LINE
  5
2AF7
330
1A62
100
AcDbEntity
  8
AM_5
100
AcDbLine
 10
231.1606136665717
 20
261.409592768153
 30
0.0
 11
231.1606136665717
 21
285.6595937681529
 31
0.0
  0
LINE
  5
2AF8
330
1A62
100
AcDbEntity
  8
AM_5
100
AcDbLine
 10
289.1606136665719
 20
239.109592768153
 30
0.0
 11
289.1606136665719
 21
285.6595937681529
 31
0.0
  0
LINE
  5
2AF9
330
1A62
100
AcDbEntity
  8
AM_5
100
AcDbLine
 10
236.1606136665717
 20
283.6595937681529
 30
0.0
 11
284.1606136665719
 21
283.6595937681529
 31
0.0
  0
SOLID
  5
2AFA
330
1A62
100
AcDbEntity
  8
AM_5
100
AcDbTrace
 10
236.1606136665717
 20
284.4929271014862
 30
0.0
 11
236.1606136665717
 21
282.8262604348196
 31
0.0
 12
231.1606136665717
 22
283.6595937681529
 32
0.0
 13
231.1606136665717
 23
283.6595937681529
 33
0.0
  0
SOLID
  5
2AFB
330
1A62
100
AcDbEntity
  8
AM_5
100
AcDbTrace
 10
284.1606136665719
 20
284.4929271014862
 30
0.0
 11
284.1606136665719
 21
282.8262604348196
 31
0.0
 12
289.1606136665719
 22
283.6595937681529
 32
0.0
 13
289.1606136665719
 23
283.6595937681529
 33
0.0
  0
MTEXT
  5
2AFC
330
1A62
100
AcDbEntity
  8
AM_5
 62
     2
100
AcDbMText
 10
260.1606136665718
 20
290.159593768153
 30
0.0
 40
7.0
 41
0.0
 71
     5
 72
     1
  1
58
 73
     1
 44
1.0
1001
ACAD
1000
MTEXTBEGIN
1070
    73
1070
     1
1070
    44
1040
1.0
1070
    74
1070
     0
1000
MTEXTEND
  0
POINT
  5
2AFD
330
1A62
100
AcDbEntity
  8
Defpoints
 62
     0
100
AcDbPoint
 10
231.1606136665717
 20
259.409592768153
 30
0.0
  0
POINT
  5
2AFE
330
1A62
100
AcDbEntity
  8
Defpoints
 62
     0
100
AcDbPoint
 10
289.1606136665719
 20
237.109592768153
 30
0.0
  0
POINT
  5
2AFF
330
1A62
100
AcDbEntity
  8
Defpoints
 62
     0
100
AcDbPoint
 10
289.1606136665719
 20
283.6595937681529
 30
0.0
  0
ENDBLK
  5
1A6D
330
1A62
100
AcDbEntity
  8
0
100
AcDbBlockEnd
  0
BLOCK
  5
1A78
330
1A6E
100
AcDbEntity
  8
0
100
AcDbBlockBegin
  2
*D7
 70
     1
 10
0.0
 20
0.0
 30
0.0
  3
*D7
  1

  0
LINE
  5
2B70
330
1A6E
100
AcDbEntity
  8
AM_5
100
AcDbLine
 10
391.6290232457427
 20
261.659592768153
 30
0.0
 11
391.6290232457427
 21
285.6595927681526
 31
0.0
  0
LINE
  5
2B71
330
1A6E
100
AcDbEntity
  8
AM_5
100
AcDbLine
 10
409.1290232457445
 20
261.6595927681522
 30
0.0
 11
409.1290232457445
 21
285.6595927681526
 31
0.0
  0
LINE
  5
2B72
330
1A6E
100
AcDbEntity
  8
AM_5
100
AcDbLine
 10
396.6290232457428
 20
283.6595927681526
 30
0.0
 11
404.1290232457445
 21
283.6595927681526
 31
0.0
  0
LINE
  5
2B73
330
1A6E
100
AcDbEntity
  8
AM_5
100
AcDbLine
 10
409.1290232457445
 20
283.6595927681526
 30
0.0
 11
433.7189727394056
 21
283.6595927681526
 31
0.0
  0
SOLID
  5
2B74
330
1A6E
100
AcDbEntity
  8
AM_5
100
AcDbTrace
 10
396.6290232457428
 20
284.4929261014859
 30
0.0
 11
396.6290232457428
 21
282.8262594348193
 31
0.0
 12
391.6290232457427
 22
283.6595927681526
 32
0.0
 13
391.6290232457427
 23
283.6595927681526
 33
0.0
  0
SOLID
  5
2B75
330
1A6E
100
AcDbEntity
  8
AM_5
100
AcDbTrace
 10
404.1290232457445
 20
284.4929261014859
 30
0.0
 11
404.1290232457445
 21
282.8262594348193
 31
0.0
 12
409.1290232457445
 22
283.6595927681526
 32
0.0
 13
409.1290232457445
 23
283.6595927681526
 33
0.0
  0
MTEXT
  5
2B76
330
1A6E
100
AcDbEntity
  8
AM_5
 62
     2
100
AcDbMText
 10
423.923997992575
 20
290.1595927681526
 30
0.0
 40
7.0
 41
0.0
 71
     5
 72
     1
  1
17.5
 73
     1
 44
1.0
1001
ACAD
1000
MTEXTBEGIN
1070
    73
1070
     1
1070
    44
1040
1.0
1070
    74
1070
     0
1000
MTEXTEND
  0
POINT
  5
2B77
330
1A6E
100
AcDbEntity
  8
Defpoints
 62
     0
100
AcDbPoint
 10
391.6290232457427
 20
259.659592768153
 30
0.0
  0
POINT
  5
2B78
330
1A6E
100
AcDbEntity
  8
Defpoints
 62
     0
100
AcDbPoint
 10
409.1290232457445
 20
259.6595927681522
 30
0.0
  0
POINT
  5
2B79
330
1A6E
100
AcDbEntity
  8
Defpoints
 62
     0
100
AcDbPoint
 10
409.1290232457445
 20
283.6595927681526
 30
0.0
  0
ENDBLK
  5
1A79
330
1A6E
100
AcDbEntity
  8
0
100
AcDbBlockEnd
  0
BLOCK
  5
1A84
330
1A7A
100
AcDbEntity
  8
0
100
AcDbBlockBegin
  2
*D8
 70
     1
 10
0.0
 20
0.0
 30
0.0
  3
*D8
  1

  0
LINE
  5
2AEE
330
1A7A
100
AcDbEntity
  8
AM_5
100
AcDbLine
 10
229.1606136665719
 20
169.809592768153
 30
0.0
 11
205.1606126665717
 21
169.809592768153
 31
0.0
  0
LINE
  5
2AEF
330
1A7A
100
AcDbEntity
  8
AM_5
100
AcDbLine
 10
229.1606136665718
 20
259.4095927681529
 30
0.0
 11
205.1606126665717
 21
259.4095927681529
 31
0.0
  0
LINE
  5
2AF0
330
1A7A
100
AcDbEntity
  8
AM_5
100
AcDbLine
 10
207.1606126665717
 20
174.809592768153
 30
0.0
 11
207.1606126665717
 21
254.4095927681529
 31
0.0
  0
SOLID
  5
2AF1
330
1A7A
100
AcDbEntity
  8
AM_5
100
AcDbTrace
 10
206.3272793332383
 20
174.809592768153
 30
0.0
 11
207.993945999905
 21
174.809592768153
 31
0.0
 12
207.1606126665717
 22
169.809592768153
 32
0.0
 13
207.1606126665717
 23
169.809592768153
 33
0.0
  0
SOLID
  5
2AF2
330
1A7A
100
AcDbEntity
  8
AM_5
100
AcDbTrace
 10
206.3272793332384
 20
254.4095927681529
 30
0.0
 11
207.9939459999051
 21
254.4095927681529
 31
0.0
 12
207.1606126665717
 22
259.4095927681529
 32
0.0
 13
207.1606126665717
 23
259.4095927681529
 33
0.0
  0
MTEXT
  5
2AF3
330
1A7A
100
AcDbEntity
  8
AM_5
 62
     2
100
AcDbMText
 10
200.6606126665717
 20
214.609592768153
 30
0.0
 40
7.0
 41
0.0
 71
     5
 72
     1
  1
89.6
 11
0.0000000000000001
 21
1.0
 31
0.0
 73
     1
 44
1.0
1001
ACAD
1000
MTEXTBEGIN
1070
    73
1070
     1
1070
    44
1040
1.0
1070
    74
1070
     0
1000
MTEXTEND
  0
POINT
  5
2AF4
330
1A7A
100
AcDbEntity
  8
Defpoints
 62
     0
100
AcDbPoint
 10
231.1606136665719
 20
169.809592768153
 30
0.0
  0
POINT
  5
2AF5
330
1A7A
100
AcDbEntity
  8
Defpoints
 62
     0
100
AcDbPoint
 10
231.1606136665719
 20
259.4095927681529
 30
0.0
  0
POINT
  5
2AF6
330
1A7A
100
AcDbEntity
  8
Defpoints
 62
     0
100
AcDbPoint
 10
207.1606126665717
 20
259.4095927681529
 30
0.0
  0
ENDBLK
  5
1A85
330
1A7A
100
AcDbEntity
  8
0
100
AcDbBlockEnd
  0
BLOCK
  5
1AE7
330
1ADE
100
AcDbEntity
  8
0
100
AcDbBlockBegin
  2
TK-A3
 70
     0
 10
0.0
 20
0.0
 30
0.0
  3
TK-A3
  1

  0
LINE
  5
1ADF
330
1ADE
100
AcDbEntity
  8
0
100
AcDbLine
 10
359.0
 20
280.0
 30
0.0
 11
359.0
 21
275.0
 31
0.0
  0
MTEXT
  5
1AE0
330
1ADE
100
AcDbEntity
  8
0
100
AcDbMText
 10
402.3592953827349
 20
276.108542987227
 30
0.0
 40
2.5
 41
43.07840397728298
 71
     9
 72
     5
  1
(文書番号：TY-34)2008.02.08
 73
     1
 44
1.0
1001
ACAD
1000
MTEXTBEGIN
1070
    73
1070
     1
1070
    44
1040
1.0
1070
    74
1070
     0
1000
MTEXTEND
  0
LINE
  5
1AE1
330
1ADE
100
AcDbEntity
  8
0
100
AcDbLine
 10
359.0
 20
275.0
 30
0.0
 11
403.0
 21
275.0
 31
0.0
  0
TEXT
  5
1AE2
330
1ADE
100
AcDbEntity
  8
0
 60
     1
100
AcDbText
 10
403.0
 20
0.0
 30
0.0
 40
2.5
  1
!GENTITLE-INSERT
100
AcDbText
  0
TEXT
  5
1AE3
330
1ADE
100
AcDbEntity
  8
0
 60
     1
100
AcDbText
 10
0.0
 20
0.0
 30
0.0
 40
2.5
  1
!GENTITLE-LL
100
AcDbText
  0
TEXT
  5
1AE4
330
1ADE
100
AcDbEntity
  8
0
 60
     1
100
AcDbText
 10
403.0
 20
280.0
 30
0.0
 40
2.5
  1
!GENTITLE-MAX
100
AcDbText
  0
LWPOLYLINE
  5
1AE5
330
1ADE
100
AcDbEntity
  8
0
100
AcDbPolyline
 90
        4
 70
     1
 43
0.0
 10
0.0
 20
0.0
 10
403.0
 20
0.0
 10
403.0
 20
280.0
 10
0.0
 20
280.0000000000001
1001
GENIUS_GENREC_14
1002
{
1000
PYDIR
1011
0.0000000000000178
1021
280.0
1031
0.0
1002
}
1002
{
1000
PXDIR
1011
403.0
1021
0.0
1031
0.0
1002
}
1002
{
1000
PORI
1011
0.0
1021
0.0
1031
0.0
1002
}
1002
{
1000
PINS
1011
0.0
1021
0.0
1031
0.0
1002
}
1002
{
1000
PINS2
1011
403.0
1021
280.0
1031
0.0
1002
}
1002
{
1000
C
1070
     1
1002
}
1001
GENIUS_GENODEF_13
1002
{
1000
HIER
1070
     0
1002
}
1002
{
1000
MANEDIT
1070
     0
1002
}
1002
{
1000
NOSEL
1070
     0
1002
}
1002
{
1000
BEHIND
1070
     0
1002
}
1002
{
1000
OTHER
1070
     0
1002
}
1002
{
1000
REACTOR
1002
}
1001
GENIUS_GENOBJ-N-REC_13
1002
{
1000
OWNER
1000
GEN
1002
}
  0
ENDBLK
  5
1AE8
330
1ADE
100
AcDbEntity
  8
0
100
AcDbBlockEnd
  0
BLOCK
  5
1B46
330
1AEC
100
AcDbEntity
  8
0
100
AcDbBlockBegin
  2
TK-TITLE
 70
     2
 10
0.0
 20
0.0
 30
0.0
  3
TK-TITLE
  1

  0
LINE
  5
1AED
330
1AEC
100
AcDbEntity
  8
0
100
AcDbLine
 10
-167.0
 20
12.49999999999996
 30
0.0
 11
-193.0000000000001
 21
12.49999999999996
 31
0.0
  0
LINE
  5
1AEE
330
1AEC
100
AcDbEntity
  8
0
100
AcDbLine
 10
-167.0
 20
37.49999999999998
 30
0.0
 11
-193.0000000000001
 21
37.49999999999998
 31
0.0
  0
ATTDEF
  5
1AEF
330
1AEC
100
AcDbEntity
  8
0
100
AcDbText
 10
-180.2171951662138
 20
3.588342537610664
 30
0.0
 40
3.0
  1

 72
     1
 11
-180.2171951662138
 21
3.588342537610664
 31
0.0
100
AcDbAttributeDefinition
  3
日付
  2
GEN-TITLE-DAT
 70
     0
 74
     1
  0
MTEXT
  5
1AF0
330
1AEC
100
AcDbEntity
  8
RAHM2
100
AcDbMText
 10
-191.8002551371315
 20
11.3010354072796
 30
0.0
 40
2.5
 41
60.0
 71
     1
 72
     5
  1
日付
 73
     1
 44
1.0
1001
ACAD
1000
MTEXTBEGIN
1070
    73
1070
     1
1070
    44
1040
1.0
1070
    74
1070
     0
1000
MTEXTEND
  0
ATTDEF
  5
1AF1
330
1AEC
100
AcDbEntity
  8
0
100
AcDbText
 10
-177.824739614424
 20
28.29999999999998
 30
0.0
 40
3.0
  1

 72
     2
 11
-177.824739614424
 21
28.29999999999998
 31
0.0
100
AcDbAttributeDefinition
  3
尺度
  2
GEN-TITLE-SCA
 70
     0
 74
     1
  0
MTEXT
  5
1AF2
330
1AEC
100
AcDbEntity
  8
RAHM2
100
AcDbMText
 10
-191.8002551371315
 20
36.30103540727966
 30
0.0
 40
2.5
 41
20.0
 71
     1
 72
     5
  1
尺度
 73
     1
 44
1.0
1001
ACAD
1000
MTEXTBEGIN
1070
    73
1070
     1
1070
    44
1040
1.0
1070
    74
1070
     0
1000
MTEXTEND
  0
MTEXT
  5
1AF3
330
1AEC
100
AcDbEntity
  8
RAHM2
100
AcDbMText
 10
-191.8002551371315
 20
23.80103540727963
 30
0.0
 40
2.5
 41
20.0
 71
     1
 72
     5
  1
数量
 73
     1
 44
1.0
1001
ACAD
1000
MTEXTBEGIN
1070
    73
1070
     1
1070
    44
1040
1.0
1070
    74
1070
     0
1000
MTEXTEND
  0
ATTDEF
  5
1AF4
330
1AEC
100
AcDbEntity
  8
0
100
AcDbText
 10
-175.6127409126095
 20
15.79999999999994
 30
0.0
 40
3.0
  1

 72
     2
 11
-175.6127409126095
 21
15.79999999999994
 31
0.0
100
AcDbAttributeDefinition
  3
数量
  2
GEN-TITLE-QTY
 70
     0
 74
     1
  0
LINE
  5
1AF5
330
1AEC
100
AcDbEntity
  8
0
100
AcDbLine
 10
-193.0000000000001
 20
49.99999999999999
 30
0.0
 11
-193.0000000000001
 21
-0.0000000000000142
 31
0.0
  0
LINE
  5
1AF6
330
1AEC
100
AcDbEntity
  8
7A
100
AcDbLine
 10
-184.7167418745796
 20
43.74999999999995
 30
0.0
 11
-170.9354334742943
 21
43.74999999999995
 31
0.0
1001
GENIUS_GENOREF_13
1005
1B44
  0
LINE
  5
1AF7
330
1AEC
100
AcDbEntity
  8
0
100
AcDbLine
 10
-179.7167418745796
 20
45.74999999999994
 30
0.0
 11
-171.7167418745796
 21
46.74999999999995
 31
0.0
  0
LINE
  5
1AF8
330
1AEC
100
AcDbEntity
  8
0
100
AcDbLine
 10
-171.7167418745796
 20
40.74999999999994
 30
0.0
 11
-179.7167418745796
 21
41.74999999999995
 31
0.0
  0
LINE
  5
1AF9
330
1AEC
100
AcDbEntity
  8
7A
100
AcDbLine
 10
-184.7167418745796
 20
43.74999999999995
 30
0.0
 11
-184.7167418745796
 21
47.32478664473144
 31
0.0
1001
GENIUS_GENOREF_13
1005
1B44
  0
CIRCLE
  5
1AFA
330
1AEC
100
AcDbEntity
  8
0
100
AcDbCircle
 10
-184.7167418745796
 20
43.74999999999995
 30
0.0
 40
2.0
  0
CIRCLE
  5
1AFB
330
1AEC
100
AcDbEntity
  8
0
100
AcDbCircle
 10
-184.7167418745796
 20
43.74999999999995
 30
0.0
 40
3.0
  0
LINE
  5
1AFC
330
1AEC
100
AcDbEntity
  8
0
100
AcDbLine
 10
-179.7167418745796
 20
41.74999999999995
 30
0.0
 11
-179.7167418745796
 21
45.74999999999994
 31
0.0
  0
LINE
  5
1AFD
330
1AEC
100
AcDbEntity
  8
7A
100
AcDbLine
 10
-184.7167418745796
 20
43.74999999999995
 30
0.0
 11
-188.4397792458307
 21
43.74999999999995
 31
0.0
1001
GENIUS_GENOREF_13
1005
1B44
  0
LINE
  5
1AFE
330
1AEC
100
AcDbEntity
  8
7A
100
AcDbLine
 10
-184.7167418745796
 20
43.74999999999995
 30
0.0
 11
-184.7167418745796
 21
40.03991724228473
 31
0.0
1001
GENIUS_GENOREF_13
1005
1B44
  0
LINE
  5
1AFF
330
1AEC
100
AcDbEntity
  8
0
100
AcDbLine
 10
-171.7167418745796
 20
46.74999999999995
 30
0.0
 11
-171.7167418745796
 21
40.74999999999994
 31
0.0
  0
LINE
  5
1B00
330
1AEC
100
AcDbEntity
  8
0
100
AcDbLine
 10
-167.0
 20
24.99999999999997
 30
0.0
 11
-193.0000000000001
 21
24.99999999999997
 31
0.0
  0
LINE
  5
1B01
330
1AEC
100
AcDbEntity
  8
0
100
AcDbLine
 10
-167.0
 20
39.99999999999991
 30
0.0
 11
-96.0
 21
39.99999999999992
 31
0.0
  0
MTEXT
  5
1B02
330
1AEC
100
AcDbEntity
  8
RAHM2
100
AcDbMText
 10
-165.8002551371314
 20
38.80103540727956
 30
0.0
 40
2.5
 41
60.0
 71
     1
 72
     5
  1
表面処理
 73
     1
 44
1.0
1001
ACAD
1000
MTEXTBEGIN
1070
    73
1070
     1
1070
    44
1040
1.0
1070
    74
1070
     0
1000
MTEXTEND
  0
MTEXT
  5
1B03
330
1AEC
100
AcDbEntity
  8
RAHM2
100
AcDbMText
 10
-165.8002551371314
 20
48.80103540727955
 30
0.0
 40
2.5
 41
60.0
 71
     1
 72
     5
  1
材質
 73
     1
 44
1.0
1001
ACAD
1000
MTEXTBEGIN
1070
    73
1070
     1
1070
    44
1040
1.0
1070
    74
1070
     0
1000
MTEXTEND
  0
ATTDEF
  5
1B04
330
1AEC
100
AcDbEntity
  8
0
100
AcDbText
 10
-148.9618675835291
 20
33.29999999999991
 30
0.0
 40
3.0
  1

100
AcDbAttributeDefinition
  3
表面処理
  2
GEN-TITLE-MAT2
 70
     0
  0
ATTDEF
  5
1B05
330
1AEC
100
AcDbEntity
  8
0
100
AcDbText
 10
-148.9618675835291
 20
43.29999999999991
 30
0.0
 40
3.0
  1

100
AcDbAttributeDefinition
  3
材質
  2
GEN-TITLE-MAT1
 70
     0
  0
MTEXT
  5
1B06
330
1AEC
100
AcDbEntity
  8
0
100
AcDbMText
 10
-131.5000000000001
 20
24.99999999999992
 30
0.0
 40
3.5
 41
60.0
 71
     5
 72
     5
  1
\fＭＳ ゴシック|b0|i0|c128|p49;株式会社タカチ電機工業
 73
     1
 44
1.0
1001
ACAD
1000
MTEXTBEGIN
1070
    73
1070
     1
1070
    44
1040
1.0
1070
    74
1070
     0
1000
MTEXTEND
  0
LINE
  5
1B07
330
1AEC
100
AcDbEntity
  8
0
100
AcDbLine
 10
-167.0
 20
29.99999999999992
 30
0.0
 11
-96.0
 21
29.99999999999992
 31
0.0
  0
MTEXT
  5
1B08
330
1AEC
100
AcDbEntity
  8
RAHM2
100
AcDbMText
 10
-158.1250000000001
 20
18.80103540727956
 30
0.0
 40
2.5
 41
17.0
 71
     2
 72
     5
  1
承認
 73
     1
 44
1.0
1001
ACAD
1000
MTEXTBEGIN
1070
    73
1070
     1
1070
    44
1040
1.0
1070
    74
1070
     0
1000
MTEXTEND
  0
MTEXT
  5
1B09
330
1AEC
100
AcDbEntity
  8
RAHM2
100
AcDbMText
 10
-140.3750000000001
 20
18.80103540727958
 30
0.0
 40
2.5
 41
17.0
 71
     2
 72
     5
  1
承認
 73
     1
 44
1.0
1001
ACAD
1000
MTEXTBEGIN
1070
    73
1070
     1
1070
    44
1040
1.0
1070
    74
1070
     0
1000
MTEXTEND
  0
LINE
  5
1B0A
330
1AEC
100
AcDbEntity
  8
0
100
AcDbLine
 10
-149.2500000000001
 20
19.99999999999993
 30
0.0
 11
-149.2500000000001
 21
-0.0000000000000462
 31
0.0
  0
LINE
  5
1B0B
330
1AEC
100
AcDbEntity
  8
0
100
AcDbLine
 10
-167.0
 20
49.99999999999995
 30
0.0
 11
-167.0
 21
-0.0000000000000497
 31
0.0
  0
MTEXT
  5
1B0C
330
1AEC
100
AcDbEntity
  8
RAHM2
100
AcDbMText
 10
-122.6250000000001
 20
18.80103540727958
 30
0.0
 40
2.5
 41
17.0
 71
     2
 72
     5
  1
検図
 73
     1
 44
1.0
1001
ACAD
1000
MTEXTBEGIN
1070
    73
1070
     1
1070
    44
1040
1.0
1070
    74
1070
     0
1000
MTEXTEND
  0
LINE
  5
1B0D
330
1AEC
100
AcDbEntity
  8
0
100
AcDbLine
 10
-131.5000000000001
 20
19.99999999999993
 30
0.0
 11
-131.5000000000001
 21
-0.0000000000000533
 31
0.0
  0
LINE
  5
1B0E
330
1AEC
100
AcDbEntity
  8
0
100
AcDbLine
 10
-113.75
 20
19.99999999999993
 30
0.0
 11
-113.75
 21
-0.0000000000000533
 31
0.0
  0
LINE
  5
1B0F
330
1AEC
100
AcDbEntity
  8
0
100
AcDbLine
 10
-167.0
 20
19.99999999999993
 30
0.0
 11
-96.0
 21
19.99999999999993
 31
0.0
  0
MTEXT
  5
1B10
330
1AEC
100
AcDbEntity
  8
RAHM2
100
AcDbMText
 10
-104.875
 20
18.80103540727957
 30
0.0
 40
2.5
 41
17.0
 71
     2
 72
     5
  1
製図
 73
     1
 44
1.0
1001
ACAD
1000
MTEXTBEGIN
1070
    73
1070
     1
1070
    44
1040
1.0
1070
    74
1070
     0
1000
MTEXTEND
  0
MTEXT
  5
1B11
330
1AEC
100
AcDbEntity
  8
RAHM2
100
AcDbMText
 10
-16.85742592933491
 20
3.434762466565985
 30
0.0
 40
2.5
 41
7.936478436748416
 71
     5
 72
     5
  1
Rev.
 73
     1
 44
1.0
1001
ACAD
1000
MTEXTBEGIN
1070
    73
1070
     1
1070
    44
1040
1.0
1070
    74
1070
     0
1000
MTEXTEND
  0
LINE
  5
1B12
330
1AEC
100
AcDbEntity
  8
0
100
AcDbLine
 10
-21.17541926625711
 20
0.0
 30
0.0
 11
-21.17541926625734
 21
7.0
 31
0.0
  0
LINE
  5
1B13
330
1AEC
100
AcDbEntity
  8
RAHM2
100
AcDbLine
 10
-96.0
 20
29.99999999999992
 30
0.0
 11
0.0000000000001137
 21
30.00000000000003
 31
0.0
  0
LINE
  5
1B14
330
1AEC
100
AcDbEntity
  8
RAHM2
100
AcDbLine
 10
-96.0
 20
35.00000000000003
 30
0.0
 11
0.0000000000001137
 21
35.00000000000003
 31
0.0
  0
LINE
  5
1B15
330
1AEC
100
AcDbEntity
  8
RAHM2
100
AcDbLine
 10
-96.0
 20
39.99999999999993
 30
0.0
 11
0.0000000000001137
 21
40.00000000000002
 31
0.0
  0
LINE
  5
1B16
330
1AEC
100
AcDbEntity
  8
RAHM2
100
AcDbLine
 10
-96.0
 20
45.00000000000002
 30
0.0
 11
0.0000000000001137
 21
45.00000000000002
 31
0.0
  0
LINE
  5
1B17
330
1AEC
100
AcDbEntity
  8
0
100
AcDbLine
 10
-96.0
 20
7.0
 30
0.0
 11
0.0000000000001137
 21
7.0
 31
0.0
  0
LINE
  5
1B18
330
1AEC
100
AcDbEntity
  8
0
100
AcDbLine
 10
-96.0
 20
19.99999999999997
 30
0.0
 11
0.0000000000001137
 21
19.99999999999997
 31
0.0
  0
MTEXT
  5
1B19
330
1AEC
100
AcDbEntity
  8
RAHM2
100
AcDbMText
 10
-94.80025513713144
 20
5.801035407279627
 30
0.0
 40
2.5
 41
90.0
 71
     1
 72
     5
  1
図番
 73
     1
 44
1.0
1001
ACAD
1000
MTEXTBEGIN
1070
    73
1070
     1
1070
    44
1040
1.0
1070
    74
1070
     0
1000
MTEXTEND
  0
LINE
  5
1B1A
330
1AEC
100
AcDbEntity
  8
RAHM2
100
AcDbLine
 10
-88.57512886940355
 20
30.40000000000002
 30
0.0
 11
-91.0
 21
34.60000000000001
 31
0.0
  0
LINE
  5
1B1B
330
1AEC
100
AcDbEntity
  8
RAHM2
100
AcDbLine
 10
-91.0
 20
34.60000000000001
 30
0.0
 11
-93.42487113059645
 21
30.40000000000002
 31
0.0
  0
LINE
  5
1B1C
330
1AEC
100
AcDbEntity
  8
RAHM2
100
AcDbLine
 10
-86.0
 20
50.00000000000001
 30
0.0
 11
-86.0
 21
19.99999999999993
 31
0.0
  0
LINE
  5
1B1D
330
1AEC
100
AcDbEntity
  8
RAHM2
100
AcDbLine
 10
-93.42487113059645
 20
30.40000000000002
 30
0.0
 11
-88.57512886940355
 21
30.40000000000002
 31
0.0
  0
MTEXT
  5
1B1E
330
1AEC
100
AcDbEntity
  8
RAHM2
100
AcDbMText
 10
-91.0
 20
22.49999999999996
 30
0.0
 40
2.5
 41
10.0
 71
     5
 72
     5
  1
符号
 73
     1
 44
1.0
1001
ACAD
1000
MTEXTBEGIN
1070
    73
1070
     1
1070
    44
1040
1.0
1070
    74
1070
     0
1000
MTEXTEND
  0
MTEXT
  5
1B1F
330
1AEC
100
AcDbEntity
  8
RAHM2
100
AcDbMText
 10
-94.80025513713144
 20
18.8010354072796
 30
0.0
 40
2.5
 41
90.0
 71
     1
 72
     5
  1
品名
 73
     1
 44
1.0
1001
ACAD
1000
MTEXTBEGIN
1070
    73
1070
     1
1070
    44
1040
1.0
1070
    74
1070
     0
1000
MTEXTEND
  0
LINE
  5
1B20
330
1AEC
100
AcDbEntity
  8
RAHM2
100
AcDbLine
 10
-93.42487113059645
 20
45.40000000000001
 30
0.0
 11
-88.57512886940355
 21
45.40000000000001
 31
0.0
  0
LINE
  5
1B21
330
1AEC
100
AcDbEntity
  8
RAHM2
100
AcDbLine
 10
-88.57512886940355
 20
45.40000000000001
 30
0.0
 11
-91.0
 21
49.6
 31
0.0
  0
LINE
  5
1B22
330
1AEC
100
AcDbEntity
  8
RAHM2
100
AcDbLine
 10
-93.42487113059645
 20
40.40000000000001
 30
0.0
 11
-88.57512886940355
 21
40.40000000000001
 31
0.0
  0
LINE
  5
1B23
330
1AEC
100
AcDbEntity
  8
RAHM2
100
AcDbLine
 10
-88.57512886940355
 20
40.40000000000001
 30
0.0
 11
-91.0
 21
44.6
 31
0.0
  0
LINE
  5
1B24
330
1AEC
100
AcDbEntity
  8
RAHM2
100
AcDbLine
 10
-93.42487113059645
 20
35.40000000000002
 30
0.0
 11
-88.57512886940355
 21
35.40000000000002
 31
0.0
  0
LINE
  5
1B25
330
1AEC
100
AcDbEntity
  8
RAHM2
100
AcDbLine
 10
-88.57512886940355
 20
35.40000000000002
 30
0.0
 11
-91.0
 21
39.60000000000001
 31
0.0
  0
LINE
  5
1B26
330
1AEC
100
AcDbEntity
  8
RAHM2
100
AcDbLine
 10
-91.0
 20
39.60000000000001
 30
0.0
 11
-93.42487113059645
 21
35.40000000000002
 31
0.0
  0
LINE
  5
1B27
330
1AEC
100
AcDbEntity
  8
RAHM2
100
AcDbLine
 10
-91.0
 20
44.6
 30
0.0
 11
-93.42487113059645
 21
40.40000000000001
 31
0.0
  0
LINE
  5
1B28
330
1AEC
100
AcDbEntity
  8
RAHM2
100
AcDbLine
 10
-91.0
 20
49.6
 30
0.0
 11
-93.42487113059645
 21
45.40000000000001
 31
0.0
  0
LINE
  5
1B29
330
1AEC
100
AcDbEntity
  8
RAHM2
100
AcDbLine
 10
-31.82081941068907
 20
50.00000000000003
 30
0.0
 11
-31.82081941068918
 21
19.99999999999994
 31
0.0
  0
MTEXT
  5
1B2A
330
1AEC
100
AcDbEntity
  8
RAHM2
100
AcDbMText
 10
-59.0
 20
22.49999999999996
 30
0.0
 40
2.5
 41
45.0
 71
     5
 72
     5
  1
変更記事
 73
     1
 44
1.0
1001
ACAD
1000
MTEXTBEGIN
1070
    73
1070
     1
1070
    44
1040
1.0
1070
    74
1070
     0
1000
MTEXTEND
  0
LINE
  5
1B2B
330
1AEC
100
AcDbEntity
  8
RAHM2
100
AcDbLine
 10
-11.82081941068907
 20
50.00000000000003
 30
0.0
 11
-11.82081941068907
 21
19.99999999999994
 31
0.0
  0
MTEXT
  5
1B2C
330
1AEC
100
AcDbEntity
  8
RAHM2
100
AcDbMText
 10
-22.27910888308327
 20
32.50000000000003
 30
0.0
 40
2.5
 41
20.0
 71
     5
 72
     5
  1
・  ・   
 73
     1
 44
1.0
1001
ACAD
1000
MTEXTBEGIN
1070
    73
1070
     1
1070
    44
1040
1.0
1070
    74
1070
     0
1000
MTEXTEND
  0
MTEXT
  5
1B2D
330
1AEC
100
AcDbEntity
  8
RAHM2
100
AcDbMText
 10
-21.55893921569111
 20
22.49999999999997
 30
0.0
 40
2.5
 41
20.0
 71
     5
 72
     5
  1
年・月・日
 73
     1
 44
1.0
1001
ACAD
1000
MTEXTBEGIN
1070
    73
1070
     1
1070
    44
1040
1.0
1070
    74
1070
     0
1000
MTEXTEND
  0
MTEXT
  5
1B2E
330
1AEC
100
AcDbEntity
  8
RAHM2
100
AcDbMText
 10
-5.910409705344477
 20
22.49999999999997
 30
0.0
 40
2.5
 41
15.0
 71
     5
 72
     5
  1
担当
 73
     1
 44
1.0
1001
ACAD
1000
MTEXTBEGIN
1070
    73
1070
     1
1070
    44
1040
1.0
1070
    74
1070
     0
1000
MTEXTEND
  0
MTEXT
  5
1B2F
330
1AEC
100
AcDbEntity
  8
RAHM2
100
AcDbMText
 10
-22.27910888308327
 20
42.50000000000002
 30
0.0
 40
2.5
 41
20.0
 71
     5
 72
     5
  1
・  ・   
 73
     1
 44
1.0
1001
ACAD
1000
MTEXTBEGIN
1070
    73
1070
     1
1070
    44
1040
1.0
1070
    74
1070
     0
1000
MTEXTEND
  0
MTEXT
  5
1B30
330
1AEC
100
AcDbEntity
  8
RAHM2
100
AcDbMText
 10
-22.27910888308327
 20
37.50000000000003
 30
0.0
 40
2.5
 41
20.0
 71
     5
 72
     5
  1
・  ・   
 73
     1
 44
1.0
1001
ACAD
1000
MTEXTBEGIN
1070
    73
1070
     1
1070
    44
1040
1.0
1070
    74
1070
     0
1000
MTEXTEND
  0
MTEXT
  5
1B31
330
1AEC
100
AcDbEntity
  8
RAHM2
100
AcDbMText
 10
-22.27910888308327
 20
47.50000000000002
 30
0.0
 40
2.5
 41
20.0
 71
     5
 72
     5
  1
・  ・   
 73
     1
 44
1.0
1001
ACAD
1000
MTEXTBEGIN
1070
    73
1070
     1
1070
    44
1040
1.0
1070
    74
1070
     0
1000
MTEXTEND
  0
LINE
  5
1B32
330
1AEC
100
AcDbEntity
  8
RAHM2
100
AcDbLine
 10
-91.0
 20
29.60000000000001
 30
0.0
 11
-93.42487113059645
 21
25.40000000000002
 31
0.0
  0
LINE
  5
1B33
330
1AEC
100
AcDbEntity
  8
RAHM2
100
AcDbLine
 10
-88.57512886940355
 20
25.40000000000002
 30
0.0
 11
-91.0
 21
29.60000000000001
 31
0.0
  0
LINE
  5
1B34
330
1AEC
100
AcDbEntity
  8
RAHM2
100
AcDbLine
 10
-93.42487113059645
 20
25.40000000000002
 30
0.0
 11
-88.57512886940355
 21
25.40000000000002
 31
0.0
  0
LINE
  5
1B35
330
1AEC
100
AcDbEntity
  8
RAHM2
100
AcDbLine
 10
-96.0
 20
25.0
 30
0.0
 11
0.0000000000001137
 21
25.00000000000003
 31
0.0
  0
MTEXT
  5
1B36
330
1AEC
100
AcDbEntity
  8
RAHM2
100
AcDbMText
 10
-22.27910888308327
 20
27.50000000000003
 30
0.0
 40
2.5
 41
20.0
 71
     5
 72
     5
  1
・  ・   
 73
     1
 44
1.0
1001
ACAD
1000
MTEXTBEGIN
1070
    73
1070
     1
1070
    44
1040
1.0
1070
    74
1070
     0
1000
MTEXTEND
  0
TEXT
  5
1B37
330
1AEC
100
AcDbEntity
  8
RAHM2
100
AcDbText
 10
-91.81558635658019
 20
25.65000000000002
 30
0.0
 40
2.5
  1
1
 72
     1
 11
-91.19058635658019
 21
25.65000000000002
 31
0.0
100
AcDbText
 73
     1
  0
TEXT
  5
1B38
330
1AEC
100
AcDbEntity
  8
RAHM2
100
AcDbText
 10
-91.91833169291339
 20
30.65000000000002
 30
0.0
 40
2.5
  1
2
 72
     1
 11
-91.0
 21
30.65000000000002
 31
0.0
100
AcDbText
 73
     1
  0
TEXT
  5
1B39
330
1AEC
100
AcDbEntity
  8
RAHM2
100
AcDbText
 10
-91.92677669529663
 20
35.64999999999999
 30
0.0
 40
2.5
  1
3
 72
     1
 11
-91.0
 21
35.64999999999999
 31
0.0
100
AcDbText
 73
     1
  0
TEXT
  5
1B3A
330
1AEC
100
AcDbEntity
  8
RAHM2
100
AcDbText
 10
-92.0
 20
40.65000000000002
 30
0.0
 40
2.5
  1
4
 72
     1
 11
-91.0
 21
40.65000000000002
 31
0.0
100
AcDbText
 73
     1
  0
TEXT
  5
1B3B
330
1AEC
100
AcDbEntity
  8
RAHM2
100
AcDbText
 10
-91.92677669529663
 20
45.65000000000002
 30
0.0
 40
2.5
  1
5
 72
     1
 11
-91.0
 21
45.65000000000002
 31
0.0
100
AcDbText
 73
     1
  0
LINE
  5
1B3C
330
1AEC
100
AcDbEntity
  8
0
100
AcDbLine
 10
-193.0000000000001
 20
0.0
 30
0.0
 11
0.0
 21
0.0
 31
0.0
1001
GENIUS_GENREC_14
1002
{
1000
PYDIR
1011
-184.0
1021
50.0
1031
0.0
1002
}
1002
{
1000
PXDIR
1011
0.0
1021
0.0
1031
0.0
1002
}
1002
{
1000
PORI
1011
-184.0
1021
0.0
1031
0.0
1002
}
1002
{
1000
PINS
1011
-100.5
1021
25.0
1031
0.0
1002
}
1002
{
1000
HVAL
1000
50
1002
}
1002
{
1000
H
1070
     2
1002
}
1002
{
1000
WVAL
1000
167
1002
}
1002
{
1000
W
1070
     2
1002
}
1002
{
1000
C
1070
     4
1002
}
1001
GENIUS_GENODEF_13
1002
{
1000
HIER
1070
     0
1002
}
1002
{
1000
MANEDIT
1070
     0
1002
}
1002
{
1000
NOSEL
1070
     0
1002
}
1002
{
1000
BEHIND
1070
     0
1002
}
1002
{
1000
REACTOR
1002
}
1001
GENIUS_GENOBJ-N-REC_13
1002
{
1000
OWNER
1000
GEN
1002
}
  0
LINE
  5
1B3D
330
1AEC
100
AcDbEntity
  8
0
100
AcDbLine
 10
0.0
 20
50.0
 30
0.0
 11
-193.0000000000001
 21
50.00000000000002
 31
0.0
1001
GENIUS_GENREC_14
1002
{
1000
PYDIR
1011
-184.0
1021
50.0
1031
0.0
1002
}
1002
{
1000
PXDIR
1011
0.0
1021
0.0
1031
0.0
1002
}
1002
{
1000
PORI
1011
-184.0
1021
0.0
1031
0.0
1002
}
1002
{
1000
PINS
1011
-100.5
1021
25.0
1031
0.0
1002
}
1002
{
1000
HVAL
1000
50
1002
}
1002
{
1000
H
1070
     2
1002
}
1002
{
1000
WVAL
1000
167
1002
}
1002
{
1000
W
1070
     2
1002
}
1002
{
1000
C
1070
     4
1002
}
1001
GENIUS_GENODEF_13
1002
{
1000
HIER
1070
     0
1002
}
1002
{
1000
MANEDIT
1070
     0
1002
}
1002
{
1000
NOSEL
1070
     0
1002
}
1002
{
1000
BEHIND
1070
     0
1002
}
1002
{
1000
REACTOR
1002
}
1001
GENIUS_GENOBJ-N-REC_13
1002
{
1000
OWNER
1000
GEN
1002
}
  0
LINE
  5
1B3E
330
1AEC
100
AcDbEntity
  8
0
100
AcDbLine
 10
-96.0
 20
50.00000000000001
 30
0.0
 11
-96.0
 21
-0.0000000000000142
 31
0.0
1001
GENIUS_GENREC_14
1002
{
1000
PYDIR
1011
-96.0
1021
49.99999999999999
1031
0.0
1002
}
1002
{
1000
PXDIR
1011
88.0
1021
-0.0000000000000142
1031
0.0
1002
}
1002
{
1000
PORI
1011
-96.0
1021
-0.0000000000000142
1031
0.0
1002
}
1002
{
1000
PINS
1011
-12.5
1021
24.99999999999999
1031
0.0
1002
}
1002
{
1000
HVAL
1000
50
1002
}
1002
{
1000
H
1070
     2
1002
}
1002
{
1000
WVAL
1000
167
1002
}
1002
{
1000
W
1070
     2
1002
}
1002
{
1000
C
1070
     4
1002
}
1001
GENIUS_GENODEF_13
1002
{
1000
HIER
1070
     0
1002
}
1002
{
1000
MANEDIT
1070
     0
1002
}
1002
{
1000
NOSEL
1070
     0
1002
}
1002
{
1000
BEHIND
1070
     0
1002
}
1002
{
1000
REACTOR
1002
}
1001
GENIUS_GENOBJ-N-REC_13
1002
{
1000
OWNER
1000
GEN
1002
}
  0
ATTDEF
  5
1B3F
330
1AEC
100
AcDbEntity
  8
0
100
AcDbText
 10
-84.0
 20
1.999999999999957
 30
0.0
 40
3.0
  1

100
AcDbAttributeDefinition
  3
図番
  2
GEN-TITLE-NR1
 70
     0
  0
ATTDEF
  5
1B40
330
1AEC
100
AcDbEntity
  8
0
100
AcDbText
 10
-84.0
 20
9.149999999999948
 30
0.0
 40
2.5
  1

100
AcDbAttributeDefinition
  3
サブタイトル
  2
GEN-TITLE-DES2
 70
     0
  0
LINE
  5
1B41
330
1AEC
100
AcDbEntity
  8
0
100
AcDbLine
 10
0.0
 20
0.0
 30
0.0
 11
0.0
 21
50.0
 31
0.0
1001
GENIUS_GENREC_14
1002
{
1000
PYDIR
1011
-414.0
1021
291.0
1031
0.0
1002
}
1002
{
1000
PXDIR
1011
6.0
1021
-6.0
1031
0.0
1002
}
1002
{
1000
PORI
1011
-414.0
1021
-6.0
1031
0.0
1002
}
1002
{
1000
PINS
1011
-414.0
1021
-6.0
1031
0.0
1002
}
1002
{
1000
HVAL
1000
297
1002
}
1002
{
1000
H
1070
     2
1002
}
1002
{
1000
WVAL
1000
420
1002
}
1002
{
1000
W
1070
     2
1002
}
1002
{
1000
C
1070
     1
1002
}
1001
GENIUS_GENODEF_13
1002
{
1000
HIER
1070
     0
1002
}
1002
{
1000
MANEDIT
1070
     0
1002
}
1002
{
1000
NOSEL
1070
     0
1002
}
1002
{
1000
BEHIND
1070
     0
1002
}
1002
{
1000
OTHER
1070
     0
1002
}
1002
{
1000
REACTOR
1002
}
1001
GENIUS_GENOBJ-N-REC_13
1002
{
1000
OWNER
1000
GEN
1002
}
  0
ATTDEF
  5
1B42
330
1AEC
100
AcDbEntity
  8
0
100
AcDbText
 10
-84.14251901585329
 20
12.82790432564377
 30
0.0
 40
3.5
  1

100
AcDbAttributeDefinition
  3
品名
  2
GEN-TITLE-DES1
 70
     0
  0
ATTDEF
  5
1B43
330
1AEC
100
AcDbEntity
  8
0
100
AcDbText
 10
-8.002309189545826
 20
1.705189434395036
 30
0.0
 40
2.5
  1

100
AcDbAttributeDefinition
  3
Rev.
  2
GEN-TITLE-NR2
 70
     0
  0
POINT
  5
1B44
330
1AEC
100
AcDbEntity
  8
0
 60
     1
100
AcDbPoint
 10
-418.5355579819675
 20
-138.1104841268254
 30
0.0
1001
GENIUS_GENODEF_13
1002
{
1000
HIER
1070
    10
1002
}
1002
{
1000
MANEDIT
1070
     0
1002
}
1002
{
1000
NOSEL
1070
     0
1002
}
1002
{
1000
BEHIND
1070
     0
1002
}
1002
{
1000
REACTOR
1002
}
1001
GENIUS_GENOBJ-N-CRS_13
1002
{
1000
OWNER
1000
GEN
1002
}
1001
GENIUS_GENOENT_13
1002
{
1000
MYREF
1005
1B44
1002
}
1002
{
1000
GRP
1005
0
1002
}
1001
GENIUS_GENOLIS_13
1002
{
1000
ENT
1005
1AFE
1005
1AFD
1005
1AF9
1005
1AF6
1002
}
  0
ENDBLK
  5
1B47
330
1AEC
100
AcDbEntity
  8
0
100
AcDbBlockEnd
  0
BLOCK
  5
2CF8
330
2CF4
100
AcDbEntity
  8
0
100
AcDbBlockBegin
  2
*S13
 70
     1
 10
0.0
 20
0.0
 30
0.0
  3
*S13
  1

  0
CIRCLE
  5
2CF5
330
2CF4
100
AcDbEntity
  8
AM_12
 62
     4
100
AcDbCircle
 10
279.0012063888304
 20
229.3239285995432
 30
0.0
 40
3.5
  0
LINE
  5
2CF6
330
2CF4
100
AcDbEntity
  8
AM_12
 62
     4
100
AcDbLine
 10
275.5012063888304
 20
225.8239285995431
 30
0.0
 11
282.5012063888304
 21
232.8239285995431
 31
0.0
  0
LINE
  5
2CF7
330
2CF4
100
AcDbEntity
  8
AM_12
 62
     4
100
AcDbLine
 10
275.5012063888304
 20
232.8239285995431
 30
0.0
 11
282.5012063888304
 21
225.8239285995431
 31
0.0
  0
ENDBLK
  5
2CF9
330
2CF4
100
AcDbEntity
  8
0
100
AcDbBlockEnd
  0
BLOCK
  5
2D00
330
2CFB
100
AcDbEntity
  8
0
100
AcDbBlockBegin
  2
*S14
 70
     1
 10
0.0
 20
0.0
 30
0.0
  3
*S14
  1

  0
LINE
  5
2CFC
330
2CFB
100
AcDbEntity
  8
AM_5
100
AcDbLine
 10
319.5412658524532
 20
273.7111150697692
 30
0.0
 11
283.7218938370725
 21
234.4925947733262
 31
0.0
  0
TRACE
  5
2CFD
330
2CFB
100
AcDbEntity
  8
AM_5
  6
Continuous
100
AcDbTrace
 10
283.0414260291346
 20
235.1140850634438
 30
0.0
 11
284.4023616450105
 21
233.8711044832086
 31
0.0
 12
279.0012063888304
 22
229.3239285995432
 32
0.0
 13
279.0012063888304
 23
229.3239285995432
 33
0.0
  0
MTEXT
  5
2CFE
330
2CFB
100
AcDbEntity
  8
AM_5
 62
     7
100
AcDbMText
 10
327.802468886877
 20
282.7562808738895
 30
0.0
 40
7.0
 41
0.0
 71
     5
 72
     5
  1
1
  7
ACISOTS
 73
     1
 44
1.0
1001
ACAD
1000
MTEXTBEGIN
1070
    73
1070
     1
1070
    44
1040
1.0
1070
    74
1070
     0
1000
MTEXTEND
  0
CIRCLE
  5
2CFF
330
2CFB
100
AcDbEntity
  8
AM_5
 62
     3
100
AcDbCircle
 10
327.802468886877
 20
282.7562808738895
 30
0.0
 40
12.25
  0
ENDBLK
  5
2D01
330
2CFB
100
AcDbEntity
  8
0
100
AcDbBlockEnd
  0
BLOCK
  5
2D07
330
2D03
100
AcDbEntity
  8
0
100
AcDbBlockBegin
  2
*S15
 70
     1
 10
0.0
 20
0.0
 30
0.0
  3
*S15
  1

  0
CIRCLE
  5
2D04
330
2D03
100
AcDbEntity
  8
AM_12
 62
     4
100
AcDbCircle
 10
234.9684433471489
 20
240.8434169895019
 30
0.0
 40
3.5
  0
LINE
  5
2D05
330
2D03
100
AcDbEntity
  8
AM_12
 62
     4
100
AcDbLine
 10
231.4684433471489
 20
237.3434169895018
 30
0.0
 11
238.4684433471489
 21
244.3434169895019
 31
0.0
  0
LINE
  5
2D06
330
2D03
100
AcDbEntity
  8
AM_12
 62
     4
100
AcDbLine
 10
231.4684433471489
 20
244.3434169895019
 30
0.0
 11
238.4684433471489
 21
237.3434169895018
 31
0.0
  0
ENDBLK
  5
2D08
330
2D03
100
AcDbEntity
  8
0
100
AcDbBlockEnd
  0
BLOCK
  5
2D0F
330
2D0A
100
AcDbEntity
  8
0
100
AcDbBlockBegin
  2
*S16
 70
     1
 10
0.0
 20
0.0
 30
0.0
  3
*S16
  1

  0
LINE
  5
2D0B
330
2D0A
100
AcDbEntity
  8
AM_5
100
AcDbLine
 10
202.9956005244914
 20
275.9969564073939
 30
0.0
 11
230.2585176796548
 21
246.0218916883567
 31
0.0
  0
TRACE
  5
2D0C
330
2D0A
100
AcDbEntity
  8
AM_5
  6
Continuous
100
AcDbTrace
 10
229.5767585548992
 20
245.4018182135467
 30
0.0
 11
230.9402768044104
 21
246.6419651631667
 31
0.0
 12
234.9684433471489
 22
240.8434169895019
 32
0.0
 13
234.9684433471489
 23
240.8434169895019
 33
0.0
  0
MTEXT
  5
2D0D
330
2D0A
100
AcDbEntity
  8
AM_5
 62
     7
100
AcDbMText
 10
194.7532306063767
 20
285.0592871303899
 30
0.0
 40
7.0
 41
0.0
 71
     5
 72
     5
  1
2
  7
ACISOTS
 73
     1
 44
1.0
1001
ACAD
1000
MTEXTBEGIN
1070
    73
1070
     1
1070
    44
1040
1.0
1070
    74
1070
     0
1000
MTEXTEND
  0
CIRCLE
  5
2D0E
330
2D0A
100
AcDbEntity
  8
AM_5
 62
     3
100
AcDbCircle
 10
194.7532306063767
 20
285.0592871303899
 30
0.0
 40
12.25
  0
ENDBLK
  5
2D10
330
2D0A
100
AcDbEntity
  8
0
100
AcDbBlockEnd
  0
BLOCK
  5
2D16
330
2D12
100
AcDbEntity
  8
0
100
AcDbBlockBegin
  2
*S17
 70
     1
 10
0.0
 20
0.0
 30
0.0
  3
*S17
  1

  0
CIRCLE
  5
2D13
330
2D12
100
AcDbEntity
  8
AM_12
 62
     4
100
AcDbCircle
 10
403.0707585361395
 20
252.6505550042902
 30
0.0
 40
3.5
  0
LINE
  5
2D14
330
2D12
100
AcDbEntity
  8
AM_12
 62
     4
100
AcDbLine
 10
399.5707585361395
 20
249.1505550042901
 30
0.0
 11
406.5707585361395
 21
256.1505550042901
 31
0.0
  0
LINE
  5
2D15
330
2D12
100
AcDbEntity
  8
AM_12
 62
     4
100
AcDbLine
 10
399.5707585361395
 20
256.1505550042901
 30
0.0
 11
406.5707585361395
 21
249.1505550042901
 31
0.0
  0
ENDBLK
  5
2D17
330
2D12
100
AcDbEntity
  8
0
100
AcDbBlockEnd
  0
BLOCK
  5
2D1E
330
2D19
100
AcDbEntity
  8
0
100
AcDbBlockBegin
  2
*S18
 70
     1
 10
0.0
 20
0.0
 30
0.0
  3
*S18
  1

  0
LINE
  5
2D1A
330
2D19
100
AcDbEntity
  8
AM_5
100
AcDbLine
 10
433.5609298177324
 20
275.5497850907989
 30
0.0
 11
408.6679727059945
 21
256.8542668803319
 31
0.0
  0
TRACE
  5
2D1B
330
2D19
100
AcDbEntity
  8
AM_5
  6
Continuous
100
AcDbTrace
 10
408.114543540845
 20
257.5911541020371
 30
0.0
 11
409.2214018711439
 21
256.1173796586266
 31
0.0
 12
403.0707585361395
 22
252.6505550042902
 32
0.0
 13
403.0707585361395
 23
252.6505550042902
 33
0.0
  0
MTEXT
  5
2D1C
330
2D19
100
AcDbEntity
  8
AM_5
 62
     7
100
AcDbMText
 10
443.3560546149787
 20
282.9062808738719
 30
0.0
 40
7.0
 41
0.0
 71
     5
 72
     5
  1
3
  7
ACISOTS
 73
     1
 44
1.0
1001
ACAD
1000
MTEXTBEGIN
1070
    73
1070
     1
1070
    44
1040
1.0
1070
    74
1070
     0
1000
MTEXTEND
  0
CIRCLE
  5
2D1D
330
2D19
100
AcDbEntity
  8
AM_5
 62
     3
100
AcDbCircle
 10
443.3560546149787
 20
282.9062808738719
 30
0.0
 40
12.25
  0
ENDBLK
  5
2D1F
330
2D19
100
AcDbEntity
  8
0
100
AcDbBlockEnd
  0
BLOCK
  5
2D25
330
2D21
100
AcDbEntity
  8
0
100
AcDbBlockBegin
  2
*S19
 70
     1
 10
0.0
 20
0.0
 30
0.0
  3
*S19
  1

  0
CIRCLE
  5
2D22
330
2D21
100
AcDbEntity
  8
AM_12
 62
     4
100
AcDbCircle
 10
403.7086718440209
 20
218.5644818954241
 30
0.0
 40
3.5
  0
LINE
  5
2D23
330
2D21
100
AcDbEntity
  8
AM_12
 62
     4
100
AcDbLine
 10
400.2086718440209
 20
215.0644818954241
 30
0.0
 11
407.208671844021
 21
222.064481895424
 31
0.0
  0
LINE
  5
2D24
330
2D21
100
AcDbEntity
  8
AM_12
 62
     4
100
AcDbLine
 10
400.2086718440209
 20
222.064481895424
 30
0.0
 11
407.208671844021
 21
215.0644818954241
 31
0.0
  0
ENDBLK
  5
2D26
330
2D21
100
AcDbEntity
  8
0
100
AcDbBlockEnd
  0
BLOCK
  5
2D2D
330
2D28
100
AcDbEntity
  8
0
100
AcDbBlockBegin
  2
*S20
 70
     1
 10
0.0
 20
0.0
 30
0.0
  3
*S20
  1

  0
LINE
  5
2D29
330
2D28
100
AcDbEntity
  8
AM_5
100
AcDbLine
 10
432.4844528626049
 20
237.1172385490885
 30
0.0
 11
409.5918902854024
 21
222.3575994484388
 31
0.0
  0
TRACE
  5
2D2A
330
2D28
100
AcDbEntity
  8
AM_5
  6
Continuous
100
AcDbTrace
 10
409.0925168881335
 20
223.1321398466432
 30
0.0
 11
410.0912636826714
 21
221.5830590502346
 31
0.0
 12
403.7086718440209
 22
218.5644818954241
 32
0.0
 13
403.7086718440209
 23
218.5644818954241
 33
0.0
  0
MTEXT
  5
2D2B
330
2D28
100
AcDbEntity
  8
AM_5
 62
     7
100
AcDbMText
 10
442.7800851350225
 20
243.7551942668644
 30
0.0
 40
7.0
 41
0.0
 71
     5
 72
     5
  1
4
  7
ACISOTS
 73
     1
 44
1.0
1001
ACAD
1000
MTEXTBEGIN
1070
    73
1070
     1
1070
    44
1040
1.0
1070
    74
1070
     0
1000
MTEXTEND
  0
CIRCLE
  5
2D2C
330
2D28
100
AcDbEntity
  8
AM_5
 62
     3
100
AcDbCircle
 10
442.7800851350225
 20
243.7551942668644
 30
0.0
 40
12.25
  0
ENDBLK
  5
2D2E
330
2D28
100
AcDbEntity
  8
0
100
AcDbBlockEnd
  0
BLOCK
  5
2D34
330
2D30
100
AcDbEntity
  8
0
100
AcDbBlockBegin
  2
*S21
 70
     1
 10
0.0
 20
0.0
 30
0.0
  3
*S21
  1

  0
CIRCLE
  5
2D31
330
2D30
100
AcDbEntity
  8
AM_12
 62
     4
100
AcDbCircle
 10
235.145334156863
 20
167.8492177344221
 30
0.0
 40
3.5
  0
LINE
  5
2D32
330
2D30
100
AcDbEntity
  8
AM_12
 62
     4
100
AcDbLine
 10
231.6453341568629
 20
164.3492177344221
 30
0.0
 11
238.645334156863
 21
171.3492177344221
 31
0.0
  0
LINE
  5
2D33
330
2D30
100
AcDbEntity
  8
AM_12
 62
     4
100
AcDbLine
 10
231.6453341568629
 20
171.3492177344221
 30
0.0
 11
238.645334156863
 21
164.3492177344221
 31
0.0
  0
ENDBLK
  5
2D35
330
2D30
100
AcDbEntity
  8
0
100
AcDbBlockEnd
  0
BLOCK
  5
2D3C
330
2D37
100
AcDbEntity
  8
0
100
AcDbBlockBegin
  2
*S22
 70
     1
 10
0.0
 20
0.0
 30
0.0
  3
*S22
  1

  0
LINE
  5
2D38
330
2D37
100
AcDbEntity
  8
AM_5
100
AcDbLine
 10
200.5895935540879
 20
138.1645317261139
 30
0.0
 11
229.8355127177782
 21
163.2878806185058
 31
0.0
  0
TRACE
  5
2D39
330
2D37
100
AcDbEntity
  8
AM_5
  6
Continuous
100
AcDbTrace
 10
230.4360241387474
 20
162.5888293674262
 30
0.0
 11
229.235001296809
 21
163.9869318695855
 31
0.0
 12
235.145334156863
 22
167.8492177344221
 32
0.0
 13
235.145334156863
 23
167.8492177344221
 33
0.0
  0
MTEXT
  5
2D3A
330
2D37
100
AcDbEntity
  8
AM_5
 62
     7
100
AcDbMText
 10
191.2974060356896
 20
130.1821917732603
 30
0.0
 40
7.0
 41
0.0
 71
     5
 72
     5
  1
5
  7
ACISOTS
 73
     1
 44
1.0
1001
ACAD
1000
MTEXTBEGIN
1070
    73
1070
     1
1070
    44
1040
1.0
1070
    74
1070
     0
1000
MTEXTEND
  0
CIRCLE
  5
2D3B
330
2D37
100
AcDbEntity
  8
AM_5
 62
     3
100
AcDbCircle
 10
191.2974060356896
 20
130.1821917732603
 30
0.0
 40
12.25
  0
ENDBLK
  5
2D3D
330
2D37
100
AcDbEntity
  8
0
100
AcDbBlockEnd
  0
BLOCK
  5
2D82
330
2D3F
100
AcDbEntity
  8
0
100
AcDbBlockBegin
  2
*S23
 70
     1
 10
0.0
 20
0.0
 30
0.0
  3
*S23
  1

  0
LINE
  5
2D40
330
2D3F
100
AcDbEntity
  8
0
 62
     1
100
AcDbLine
 10
420.0
 20
522.95
 30
0.0
 11
806.0
 21
522.95
 31
0.0
  0
LINE
  5
2D41
330
2D3F
100
AcDbEntity
  8
0
 62
     1
100
AcDbLine
 10
420.0
 20
510.6
 30
0.0
 11
806.0
 21
510.6
 31
0.0
  0
LINE
  5
2D42
330
2D3F
100
AcDbEntity
  8
0
 62
     1
100
AcDbLine
 10
420.0
 20
498.2499999999999
 30
0.0
 11
806.0
 21
498.2499999999999
 31
0.0
  0
LINE
  5
2D43
330
2D3F
100
AcDbEntity
  8
0
 62
     1
100
AcDbLine
 10
420.0
 20
485.8999999999999
 30
0.0
 11
806.0
 21
485.8999999999999
 31
0.0
  0
MTEXT
  5
2D44
330
2D3F
100
AcDbEntity
  8
0
 62
     2
100
AcDbMText
 10
435.0
 20
532.6
 30
0.0
 40
7.0
 41
26.4
 71
     2
 72
     5
  1
1
  7
ACISOTS
 73
     1
 44
1.0
1001
ACAD
1000
MTEXTBEGIN
1070
    73
1070
     1
1070
    44
1040
1.0
1070
    74
1070
     0
1000
MTEXTEND
  0
LINE
  5
2D45
330
2D3F
100
AcDbEntity
  8
0
 62
     1
100
AcDbLine
 10
450.0
 20
535.2999999999999
 30
0.0
 11
450.0
 21
522.95
 31
0.0
  0
MTEXT
  5
2D46
330
2D3F
100
AcDbEntity
  8
0
 62
     2
100
AcDbMText
 10
451.7999999999999
 20
532.6
 30
0.0
 40
7.0
 41
116.4
 71
     1
 72
     5
  1
ボディー
  7
ACISOTS
 73
     1
 44
1.0
1001
ACAD
1000
MTEXTBEGIN
1070
    73
1070
     1
1070
    44
1040
1.0
1070
    74
1070
     0
1000
MTEXTEND
  0
LINE
  5
2D47
330
2D3F
100
AcDbEntity
  8
0
 62
     1
100
AcDbLine
 10
570.0
 20
535.2999999999999
 30
0.0
 11
570.0
 21
522.95
 31
0.0
  0
MTEXT
  5
2D48
330
2D3F
100
AcDbEntity
  8
0
 62
     2
100
AcDbMText
 10
585.0
 20
532.6
 30
0.0
 40
7.0
 41
26.4
 71
     2
 72
     5
  1
1
  7
ACISOTS
 73
     1
 44
1.0
1001
ACAD
1000
MTEXTBEGIN
1070
    73
1070
     1
1070
    44
1040
1.0
1070
    74
1070
     0
1000
MTEXTEND
  0
LINE
  5
2D49
330
2D3F
100
AcDbEntity
  8
0
 62
     1
100
AcDbLine
 10
600.0
 20
535.2999999999999
 30
0.0
 11
600.0
 21
522.95
 31
0.0
  0
MTEXT
  5
2D4A
330
2D3F
100
AcDbEntity
  8
0
 62
     2
100
AcDbMText
 10
601.7999999999999
 20
532.6
 30
0.0
 40
7.0
 41
76.4
 71
     1
 72
     5
  1
ﾉﾘﾙ
  7
ACISOTS
 73
     1
 44
1.0
1001
ACAD
1000
MTEXTBEGIN
1070
    73
1070
     1
1070
    44
1040
1.0
1070
    74
1070
     0
1000
MTEXTEND
  0
LINE
  5
2D4B
330
2D3F
100
AcDbEntity
  8
0
 62
     1
100
AcDbLine
 10
680.0
 20
535.2999999999999
 30
0.0
 11
680.0
 21
522.95
 31
0.0
  0
MTEXT
  5
2D4C
330
2D3F
100
AcDbEntity
  8
0
 62
     2
100
AcDbMText
 10
681.7999999999999
 20
532.6
 30
0.0
 40
7.0
 41
122.4
 71
     1
 72
     5
  1
ｸﾞﾚｰ
  7
ACISOTS
 73
     1
 44
1.0
1001
ACAD
1000
MTEXTBEGIN
1070
    73
1070
     1
1070
    44
1040
1.0
1070
    74
1070
     0
1000
MTEXTEND
  0
MTEXT
  5
2D4D
330
2D3F
100
AcDbEntity
  8
0
 62
     2
100
AcDbMText
 10
435.0
 20
520.2499999999999
 30
0.0
 40
7.0
 41
26.4
 71
     2
 72
     5
  1
2
  7
ACISOTS
 73
     1
 44
1.0
1001
ACAD
1000
MTEXTBEGIN
1070
    73
1070
     1
1070
    44
1040
1.0
1070
    74
1070
     0
1000
MTEXTEND
  0
LINE
  5
2D4E
330
2D3F
100
AcDbEntity
  8
0
 62
     1
100
AcDbLine
 10
450.0
 20
522.95
 30
0.0
 11
450.0
 21
510.6
 31
0.0
  0
MTEXT
  5
2D4F
330
2D3F
100
AcDbEntity
  8
0
 62
     2
100
AcDbMText
 10
451.7999999999999
 20
520.2499999999999
 30
0.0
 40
7.0
 41
116.4
 71
     1
 72
     5
  1
ベース
  7
ACISOTS
 73
     1
 44
1.0
1001
ACAD
1000
MTEXTBEGIN
1070
    73
1070
     1
1070
    44
1040
1.0
1070
    74
1070
     0
1000
MTEXTEND
  0
LINE
  5
2D50
330
2D3F
100
AcDbEntity
  8
0
 62
     1
100
AcDbLine
 10
570.0
 20
522.95
 30
0.0
 11
570.0
 21
510.6
 31
0.0
  0
MTEXT
  5
2D51
330
2D3F
100
AcDbEntity
  8
0
 62
     2
100
AcDbMText
 10
585.0
 20
520.2499999999999
 30
0.0
 40
7.0
 41
26.4
 71
     2
 72
     5
  1
1
  7
ACISOTS
 73
     1
 44
1.0
1001
ACAD
1000
MTEXTBEGIN
1070
    73
1070
     1
1070
    44
1040
1.0
1070
    74
1070
     0
1000
MTEXTEND
  0
LINE
  5
2D52
330
2D3F
100
AcDbEntity
  8
0
 62
     1
100
AcDbLine
 10
600.0
 20
522.95
 30
0.0
 11
600.0
 21
510.6
 31
0.0
  0
MTEXT
  5
2D53
330
2D3F
100
AcDbEntity
  8
0
 62
     2
100
AcDbMText
 10
601.7999999999999
 20
520.2499999999999
 30
0.0
 40
7.0
 41
76.4
 71
     1
 72
     5
  1
ﾉﾘﾙ
  7
ACISOTS
 73
     1
 44
1.0
1001
ACAD
1000
MTEXTBEGIN
1070
    73
1070
     1
1070
    44
1040
1.0
1070
    74
1070
     0
1000
MTEXTEND
  0
LINE
  5
2D54
330
2D3F
100
AcDbEntity
  8
0
 62
     1
100
AcDbLine
 10
680.0
 20
522.95
 30
0.0
 11
680.0
 21
510.6
 31
0.0
  0
MTEXT
  5
2D55
330
2D3F
100
AcDbEntity
  8
0
 62
     2
100
AcDbMText
 10
681.7999999999999
 20
520.2499999999999
 30
0.0
 40
7.0
 41
122.4
 71
     1
 72
     5
  1
ｸﾞﾚｰ
  7
ACISOTS
 73
     1
 44
1.0
1001
ACAD
1000
MTEXTBEGIN
1070
    73
1070
     1
1070
    44
1040
1.0
1070
    74
1070
     0
1000
MTEXTEND
  0
MTEXT
  5
2D56
330
2D3F
100
AcDbEntity
  8
0
 62
     2
100
AcDbMText
 10
435.0
 20
507.8999999999999
 30
0.0
 40
7.0
 41
26.4
 71
     2
 72
     5
  1
3
  7
ACISOTS
 73
     1
 44
1.0
1001
ACAD
1000
MTEXTBEGIN
1070
    73
1070
     1
1070
    44
1040
1.0
1070
    74
1070
     0
1000
MTEXTEND
  0
LINE
  5
2D57
330
2D3F
100
AcDbEntity
  8
0
 62
     1
100
AcDbLine
 10
450.0
 20
510.6
 30
0.0
 11
450.0
 21
498.2499999999999
 31
0.0
  0
MTEXT
  5
2D58
330
2D3F
100
AcDbEntity
  8
0
 62
     2
100
AcDbMText
 10
451.7999999999999
 20
507.8999999999999
 30
0.0
 40
7.0
 41
116.4
 71
     1
 72
     5
  1
ターミナルカバー
  7
ACISOTS
 73
     1
 44
1.0
1001
ACAD
1000
MTEXTBEGIN
1070
    73
1070
     1
1070
    44
1040
1.0
1070
    74
1070
     0
1000
MTEXTEND
  0
LINE
  5
2D59
330
2D3F
100
AcDbEntity
  8
0
 62
     1
100
AcDbLine
 10
570.0
 20
510.6
 30
0.0
 11
570.0
 21
498.2499999999999
 31
0.0
  0
MTEXT
  5
2D5A
330
2D3F
100
AcDbEntity
  8
0
 62
     2
100
AcDbMText
 10
585.0
 20
507.8999999999999
 30
0.0
 40
7.0
 41
26.4
 71
     2
 72
     5
  1
2
  7
ACISOTS
 73
     1
 44
1.0
1001
ACAD
1000
MTEXTBEGIN
1070
    73
1070
     1
1070
    44
1040
1.0
1070
    74
1070
     0
1000
MTEXTEND
  0
LINE
  5
2D5B
330
2D3F
100
AcDbEntity
  8
0
 62
     1
100
AcDbLine
 10
600.0
 20
510.6
 30
0.0
 11
600.0
 21
498.2499999999999
 31
0.0
  0
MTEXT
  5
2D5C
330
2D3F
100
AcDbEntity
  8
0
 62
     2
100
AcDbMText
 10
601.7999999999999
 20
507.8999999999999
 30
0.0
 40
7.0
 41
76.4
 71
     1
 72
     5
  1
ﾉﾘﾙ
  7
ACISOTS
 73
     1
 44
1.0
1001
ACAD
1000
MTEXTBEGIN
1070
    73
1070
     1
1070
    44
1040
1.0
1070
    74
1070
     0
1000
MTEXTEND
  0
LINE
  5
2D5D
330
2D3F
100
AcDbEntity
  8
0
 62
     1
100
AcDbLine
 10
680.0
 20
510.6
 30
0.0
 11
680.0
 21
498.2499999999999
 31
0.0
  0
MTEXT
  5
2D5E
330
2D3F
100
AcDbEntity
  8
0
 62
     2
100
AcDbMText
 10
681.7999999999999
 20
507.8999999999999
 30
0.0
 40
7.0
 41
122.4
 71
     1
 72
     5
  1
ｸﾞﾚｰ
  7
ACISOTS
 73
     1
 44
1.0
1001
ACAD
1000
MTEXTBEGIN
1070
    73
1070
     1
1070
    44
1040
1.0
1070
    74
1070
     0
1000
MTEXTEND
  0
MTEXT
  5
2D5F
330
2D3F
100
AcDbEntity
  8
0
 62
     2
100
AcDbMText
 10
435.0
 20
495.5499999999999
 30
0.0
 40
7.0
 41
26.4
 71
     2
 72
     5
  1
4
  7
ACISOTS
 73
     1
 44
1.0
1001
ACAD
1000
MTEXTBEGIN
1070
    73
1070
     1
1070
    44
1040
1.0
1070
    74
1070
     0
1000
MTEXTEND
  0
LINE
  5
2D60
330
2D3F
100
AcDbEntity
  8
0
 62
     1
100
AcDbLine
 10
450.0
 20
498.2499999999999
 30
0.0
 11
450.0
 21
485.8999999999999
 31
0.0
  0
MTEXT
  5
2D61
330
2D3F
100
AcDbEntity
  8
0
 62
     2
100
AcDbMText
 10
451.7999999999999
 20
495.5499999999999
 30
0.0
 40
7.0
 41
116.4
 71
     1
 72
     5
  1
前面パネル
  7
ACISOTS
 73
     1
 44
1.0
1001
ACAD
1000
MTEXTBEGIN
1070
    73
1070
     1
1070
    44
1040
1.0
1070
    74
1070
     0
1000
MTEXTEND
  0
LINE
  5
2D62
330
2D3F
100
AcDbEntity
  8
0
 62
     1
100
AcDbLine
 10
570.0
 20
498.2499999999999
 30
0.0
 11
570.0
 21
485.8999999999999
 31
0.0
  0
MTEXT
  5
2D63
330
2D3F
100
AcDbEntity
  8
0
 62
     2
100
AcDbMText
 10
585.0
 20
495.5499999999999
 30
0.0
 40
7.0
 41
26.4
 71
     2
 72
     5
  1
1
  7
ACISOTS
 73
     1
 44
1.0
1001
ACAD
1000
MTEXTBEGIN
1070
    73
1070
     1
1070
    44
1040
1.0
1070
    74
1070
     0
1000
MTEXTEND
  0
LINE
  5
2D64
330
2D3F
100
AcDbEntity
  8
0
 62
     1
100
AcDbLine
 10
600.0
 20
498.2499999999999
 30
0.0
 11
600.0
 21
485.8999999999999
 31
0.0
  0
MTEXT
  5
2D65
330
2D3F
100
AcDbEntity
  8
0
 62
     2
100
AcDbMText
 10
601.7999999999999
 20
495.5499999999999
 30
0.0
 40
7.0
 41
76.4
 71
     1
 72
     5
  1
ﾉﾘﾙ/ﾎﾟﾘｶｰﾎﾞﾈｰﾄ
  7
ACISOTS
 73
     1
 44
1.0
1001
ACAD
1000
MTEXTBEGIN
1070
    73
1070
     1
1070
    44
1040
1.0
1070
    74
1070
     0
1000
MTEXTEND
  0
LINE
  5
2D66
330
2D3F
100
AcDbEntity
  8
0
 62
     1
100
AcDbLine
 10
680.0
 20
498.2499999999999
 30
0.0
 11
680.0
 21
485.8999999999999
 31
0.0
  0
MTEXT
  5
2D67
330
2D3F
100
AcDbEntity
  8
0
 62
     2
100
AcDbMText
 10
681.7999999999999
 20
495.5499999999999
 30
0.0
 40
7.0
 41
122.4
 71
     1
 72
     5
  1
ｸﾞﾚｰ/ｸﾘｱｰ
  7
ACISOTS
 73
     1
 44
1.0
1001
ACAD
1000
MTEXTBEGIN
1070
    73
1070
     1
1070
    44
1040
1.0
1070
    74
1070
     0
1000
MTEXTEND
  0
MTEXT
  5
2D68
330
2D3F
100
AcDbEntity
  8
0
 62
     2
100
AcDbMText
 10
435.0
 20
483.1999999999999
 30
0.0
 40
7.0
 41
26.4
 71
     2
 72
     5
  1
5
  7
ACISOTS
 73
     1
 44
1.0
1001
ACAD
1000
MTEXTBEGIN
1070
    73
1070
     1
1070
    44
1040
1.0
1070
    74
1070
     0
1000
MTEXTEND
  0
LINE
  5
2D69
330
2D3F
100
AcDbEntity
  8
0
 62
     1
100
AcDbLine
 10
450.0
 20
485.8999999999999
 30
0.0
 11
450.0
 21
473.55
 31
0.0
  0
MTEXT
  5
2D6A
330
2D3F
100
AcDbEntity
  8
0
 62
     2
100
AcDbMText
 10
451.7999999999999
 20
483.1999999999999
 30
0.0
 40
7.0
 41
116.4
 71
     1
 72
     5
  1
ホック
  7
ACISOTS
 73
     1
 44
1.0
1001
ACAD
1000
MTEXTBEGIN
1070
    73
1070
     1
1070
    44
1040
1.0
1070
    74
1070
     0
1000
MTEXTEND
  0
LINE
  5
2D6B
330
2D3F
100
AcDbEntity
  8
0
 62
     1
100
AcDbLine
 10
570.0
 20
485.8999999999999
 30
0.0
 11
570.0
 21
473.55
 31
0.0
  0
MTEXT
  5
2D6C
330
2D3F
100
AcDbEntity
  8
0
 62
     2
100
AcDbMText
 10
585.0
 20
483.1999999999999
 30
0.0
 40
7.0
 41
26.4
 71
     2
 72
     5
  1
1
  7
ACISOTS
 73
     1
 44
1.0
1001
ACAD
1000
MTEXTBEGIN
1070
    73
1070
     1
1070
    44
1040
1.0
1070
    74
1070
     0
1000
MTEXTEND
  0
LINE
  5
2D6D
330
2D3F
100
AcDbEntity
  8
0
 62
     1
100
AcDbLine
 10
600.0
 20
485.8999999999999
 30
0.0
 11
600.0
 21
473.55
 31
0.0
  0
MTEXT
  5
2D6E
330
2D3F
100
AcDbEntity
  8
0
 62
     2
100
AcDbMText
 10
601.7999999999999
 20
483.1999999999999
 30
0.0
 40
7.0
 41
76.4
 71
     1
 72
     5
  1
ﾉﾘﾙ
  7
ACISOTS
 73
     1
 44
1.0
1001
ACAD
1000
MTEXTBEGIN
1070
    73
1070
     1
1070
    44
1040
1.0
1070
    74
1070
     0
1000
MTEXTEND
  0
LINE
  5
2D6F
330
2D3F
100
AcDbEntity
  8
0
 62
     1
100
AcDbLine
 10
680.0
 20
485.8999999999999
 30
0.0
 11
680.0
 21
473.55
 31
0.0
  0
MTEXT
  5
2D70
330
2D3F
100
AcDbEntity
  8
0
 62
     2
100
AcDbMText
 10
681.7999999999999
 20
483.1999999999999
 30
0.0
 40
7.0
 41
122.4
 71
     1
 72
     5
  1
ﾌﾞﾗｯｸ
  7
ACISOTS
 73
     1
 44
1.0
1001
ACAD
1000
MTEXTBEGIN
1070
    73
1070
     1
1070
    44
1040
1.0
1070
    74
1070
     0
1000
MTEXTEND
  0
LINE
  5
2D71
330
2D3F
100
AcDbEntity
  8
0
 62
     1
100
AcDbLine
 10
420.0
 20
535.2999999999999
 30
0.0
 11
806.0
 21
535.2999999999999
 31
0.0
  0
MTEXT
  5
2D72
330
2D3F
100
AcDbEntity
  8
0
 62
     2
100
AcDbMText
 10
435.0
 20
544.95
 30
0.0
 40
7.0
 41
26.4
 71
     2
 72
     5
  1
照番
  7
ACISOTS
 73
     1
 44
1.0
1001
ACAD
1000
MTEXTBEGIN
1070
    73
1070
     1
1070
    44
1040
1.0
1070
    74
1070
     0
1000
MTEXTEND
  0
LINE
  5
2D73
330
2D3F
100
AcDbEntity
  8
0
 62
     1
100
AcDbLine
 10
450.0
 20
547.6499999999999
 30
0.0
 11
450.0
 21
535.2999999999999
 31
0.0
  0
MTEXT
  5
2D74
330
2D3F
100
AcDbEntity
  8
0
 62
     2
100
AcDbMText
 10
510.0
 20
544.95
 30
0.0
 40
7.0
 41
116.4
 71
     2
 72
     5
  1
名称
  7
ACISOTS
 73
     1
 44
1.0
1001
ACAD
1000
MTEXTBEGIN
1070
    73
1070
     1
1070
    44
1040
1.0
1070
    74
1070
     0
1000
MTEXTEND
  0
LINE
  5
2D75
330
2D3F
100
AcDbEntity
  8
0
 62
     1
100
AcDbLine
 10
570.0
 20
547.6499999999999
 30
0.0
 11
570.0
 21
535.2999999999999
 31
0.0
  0
MTEXT
  5
2D76
330
2D3F
100
AcDbEntity
  8
0
 62
     2
100
AcDbMText
 10
585.0
 20
544.95
 30
0.0
 40
7.0
 41
26.4
 71
     2
 72
     5
  1
数量
  7
ACISOTS
 73
     1
 44
1.0
1001
ACAD
1000
MTEXTBEGIN
1070
    73
1070
     1
1070
    44
1040
1.0
1070
    74
1070
     0
1000
MTEXTEND
  0
LINE
  5
2D77
330
2D3F
100
AcDbEntity
  8
0
 62
     1
100
AcDbLine
 10
600.0
 20
547.6499999999999
 30
0.0
 11
600.0
 21
535.2999999999999
 31
0.0
  0
MTEXT
  5
2D78
330
2D3F
100
AcDbEntity
  8
0
 62
     2
100
AcDbMText
 10
640.0
 20
544.95
 30
0.0
 40
7.0
 41
76.4
 71
     2
 72
     5
  1
材質
  7
ACISOTS
 73
     1
 44
1.0
1001
ACAD
1000
MTEXTBEGIN
1070
    73
1070
     1
1070
    44
1040
1.0
1070
    74
1070
     0
1000
MTEXTEND
  0
LINE
  5
2D79
330
2D3F
100
AcDbEntity
  8
0
 62
     1
100
AcDbLine
 10
680.0
 20
547.6499999999999
 30
0.0
 11
680.0
 21
535.2999999999999
 31
0.0
  0
MTEXT
  5
2D7A
330
2D3F
100
AcDbEntity
  8
0
 62
     2
100
AcDbMText
 10
743.0
 20
544.95
 30
0.0
 40
7.0
 41
122.4
 71
     2
 72
     5
  1
色・表面処理
  7
ACISOTS
 73
     1
 44
1.0
1001
ACAD
1000
MTEXTBEGIN
1070
    73
1070
     1
1070
    44
1040
1.0
1070
    74
1070
     0
1000
MTEXTEND
  0
MTEXT
  5
2D7B
330
2D3F
100
AcDbEntity
  8
0
 62
     2
100
AcDbMText
 10
613.0
 20
553.825
 30
0.0
 40
7.0
 41
0.0
 71
     5
 72
     5
  1
構成内容
  7
ACISOTS
 73
     1
 44
1.0
1001
ACAD
1000
MTEXTBEGIN
1070
    73
1070
     1
1070
    44
1040
1.0
1070
    74
1070
     0
1000
MTEXTEND
  0
LINE
  5
2D7C
330
2D3F
100
AcDbEntity
  8
0
 62
     1
100
AcDbLine
 10
420.0
 20
547.6499999999999
 30
0.0
 11
806.0
 21
547.6499999999999
 31
0.0
  0
LINE
  5
2D7D
330
2D3F
100
AcDbEntity
  8
0
 62
     1
100
AcDbLine
 10
420.0
 20
560.0
 30
0.0
 11
806.0
 21
560.0
 31
0.0
  0
LINE
  5
2D7E
330
2D3F
100
AcDbEntity
  8
0
 62
     7
100
AcDbLine
 10
420.0
 20
473.55
 30
0.0
 11
420.0
 21
560.0
 31
0.0
  0
LINE
  5
2D7F
330
2D3F
100
AcDbEntity
  8
0
 62
     7
100
AcDbLine
 10
420.0
 20
560.0
 30
0.0
 11
806.0
 21
560.0
 31
0.0
  0
LINE
  5
2D80
330
2D3F
100
AcDbEntity
  8
0
 62
     7
100
AcDbLine
 10
806.0
 20
560.0
 30
0.0
 11
806.0
 21
473.55
 31
0.0
  0
LINE
  5
2D81
330
2D3F
100
AcDbEntity
  8
0
 62
     7
100
AcDbLine
 10
420.0
 20
473.55
 30
0.0
 11
806.0
 21
473.55
 31
0.0
  0
ENDBLK
  5
2D83
330
2D3F
100
AcDbEntity
  8
0
100
AcDbBlockEnd
  0
ENDSEC
  0
SECTION
  2
ENTITIES
  0
INSERT
  5
79F
330
1F
100
AcDbEntity
  8
0
370
     0
100
AcDbBlockReference
  2
TK-A3
 10
0.0
 20
0.0
 30
0.0
 41
2.0
 42
2.0
 43
2.0
1001
GENIUS_GENOREF_13
1005
7CB
1001
GENIUS_GENOBJ-N-SDF_13
1002
{
1000
OWNER
1000
GEN
1002
}
1001
GENIUS_GENODEF_13
1002
{
1000
HIER
1070
     0
1002
}
1002
{
1000
MANEDIT
1070
     0
1002
}
1002
{
1000
NOSEL
1070
     0
1002
}
1002
{
1000
BEHIND
1070
     0
1002
}
1002
{
1000
OTHER
1070
     0
1002
}
1002
{
1000
REACTOR
1002
}
1001
GENIUS_GENSCREG_15
1040
2.0
1040
1.0
1011
0.0
1021
0.0
1031
0.0
1011
806.0
1021
560.0000000000001
1031
0.0
1070
     3
  0
INSERT
  5
7A1
330
1F
100
AcDbEntity
  8
0
370
     0
100
AcDbBlockReference
 66
     1
  2
TK-TITLE
 10
806.0
 20
0.0
 30
0.0
 41
2.0
 42
2.0
 43
2.0
1001
GENIUS_GENOREF_13
1005
7CB
  0
ATTRIB
  5
1B4B
330
7A1
100
AcDbEntity
  8
0
100
AcDbText
 10
424.4616136045801
 20
7.176685075221328
 30
0.0
 40
6.0
  1
2008/08/22
 72
     1
 11
445.5656096675722
 21
7.176685075221328
 31
0.0
100
AcDbAttribute
  2
GEN-TITLE-DAT
 70
     0
 74
     1
  0
ATTRIB
  5
1B4C
330
7A1
100
AcDbEntity
  8
0
100
AcDbText
 10
441.8901664404432
 20
56.59999999999995
 30
0.0
 40
6.0
  1
1:2
 72
     2
 11
450.3505207711518
 21
56.59999999999995
 31
0.0
100
AcDbAttribute
  2
GEN-TITLE-SCA
 70
     0
 74
     1
  0
ATTRIB
  5
1B4D
330
7A1
100
AcDbEntity
  8
0
100
AcDbText
 10
454.7745181747809
 20
31.59999999999988
 30
0.0
 40
6.0
  1

 72
     2
 11
454.7745181747809
 21
31.59999999999988
 31
0.0
100
AcDbAttribute
  2
GEN-TITLE-QTY
 70
     0
 74
     1
  0
ATTRIB
  5
1B4E
330
7A1
100
AcDbEntity
  8
0
100
AcDbText
 10
508.0762648329416
 20
66.59999999999982
 30
0.0
 40
6.0
  1

100
AcDbAttribute
  2
GEN-TITLE-MAT2
 70
     0
  0
ATTRIB
  5
1B4F
330
7A1
100
AcDbEntity
  8
0
100
AcDbText
 10
508.0762648329416
 20
86.59999999999982
 30
0.0
 40
6.0
  1

100
AcDbAttribute
  2
GEN-TITLE-MAT1
 70
     0
  0
ATTRIB
  5
1B50
330
7A1
100
AcDbEntity
  8
0
100
AcDbText
 10
638.0
 20
3.999999999999914
 30
0.0
 40
6.0
  1

100
AcDbAttribute
  2
GEN-TITLE-NR1
 70
     0
  0
ATTRIB
  5
1B51
330
7A1
100
AcDbEntity
  8
0
100
AcDbText
 10
638.0
 20
18.2999999999999
 30
0.0
 40
5.0
  1
H53型窓開閉DINモジュールボックス
100
AcDbAttribute
  2
GEN-TITLE-DES2
 70
     0
  0
ATTRIB
  5
1B52
330
7A1
100
AcDbEntity
  8
0
100
AcDbText
 10
637.7149619682934
 20
25.65580865128755
 30
0.0
 40
7.0
  1
H53-1MG-
100
AcDbAttribute
  2
GEN-TITLE-DES1
 70
     0
  0
ATTRIB
  5
1B53
330
7A1
100
AcDbEntity
  8
0
100
AcDbText
 10
789.9953816209083
 20
3.410378868790072
 30
0.0
 40
5.0
  1

100
AcDbAttribute
  2
GEN-TITLE-NR2
 70
     0
  0
SEQEND
  5
1B4A
330
7A1
100
AcDbEntity
  8
0
370
     0
  0
POINT
  5
7CB
330
1F
100
AcDbEntity
  8
0
 60
     1
100
AcDbPoint
 10
0.0
 20
0.0
 30
0.0
1001
GENIUS_GENOENT_13
1002
{
1000
MYREF
1005
7CB
1002
}
1002
{
1000
GRP
1005
0
1002
}
1001
GENIUS_GENOBJ-N-TIT_13
1002
{
1000
OWNER
1000
GEN
1002
}
1001
GENIUS_GENODEF_13
1002
{
1000
HIER
1070
     1
1002
}
1002
{
1000
MANEDIT
1070
     0
1002
}
1002
{
1000
NOSEL
1070
     0
1002
}
1002
{
1000
BEHIND
1070
     0
1002
}
1002
{
1000
OTHER
1070
     0
1002
}
1002
{
1000
REACTOR
1002
}
1001
GENIUS_GENOLIS_13
1002
{
1000
ENT
1005
7A1
1005
79F
1005
1B49
1002
}
1001
GENIUS_GENTITLE_13
1002
{
1000
BORDER
1000
TK-A3
1002
}
1002
{
1000
TITLE
1000
TK-TITLE
1002
}
1002
{
1000
SCALE
1000
1:2
1002
}
1002
{
1000
TITLESTD
1000
ISO
1002
}
1002
{
1000
HRA
1005
79F
1002
}
1002
{
1000
HTIT
1005
7A1
1002
}
1002
{
1000
GENIUSID
1005
7CB
1002
}
1002
{
1000
INVTXTID
1005
0
1002
}
1002
{
1000
UNCHG
1002
{
1000
GEN-TITLE-SIZ
1000
GEN-TITLE-SCA
1002
}
1002
}
  0
INSERT
  5
842
102
{ACAD_REACTORS
330
841
102
}
330
1F
100
AcDbEntity
  8
AM_12
100
AcDbBlockReference
  2
*S13
 10
0.0
 20
0.0
 30
0.0
  0
INSERT
  5
847
102
{ACAD_REACTORS
330
846
102
}
330
1F
100
AcDbEntity
  8
AM_5
100
AcDbBlockReference
  2
*S14
 10
0.0
 20
0.0
 30
0.0
  0
INSERT
  5
84A
102
{ACAD_REACTORS
330
849
102
}
330
1F
100
AcDbEntity
  8
AM_12
100
AcDbBlockReference
  2
*S15
 10
0.0
 20
0.0
 30
0.0
  0
INSERT
  5
84F
102
{ACAD_REACTORS
330
84E
102
}
330
1F
100
AcDbEntity
  8
AM_5
100
AcDbBlockReference
  2
*S16
 10
0.0
 20
0.0
 30
0.0
  0
INSERT
  5
851
102
{ACAD_REACTORS
330
850
102
}
330
1F
100
AcDbEntity
  8
AM_12
100
AcDbBlockReference
  2
*S17
 10
0.0
 20
0.0
 30
0.0
  0
INSERT
  5
854
102
{ACAD_REACTORS
330
853
102
}
330
1F
100
AcDbEntity
  8
AM_5
100
AcDbBlockReference
  2
*S18
 10
0.0
 20
0.0
 30
0.0
  0
INSERT
  5
856
102
{ACAD_REACTORS
330
855
102
}
330
1F
100
AcDbEntity
  8
AM_12
100
AcDbBlockReference
  2
*S19
 10
0.0
 20
0.0
 30
0.0
  0
INSERT
  5
859
102
{ACAD_REACTORS
330
858
102
}
330
1F
100
AcDbEntity
  8
AM_5
100
AcDbBlockReference
  2
*S20
 10
0.0
 20
0.0
 30
0.0
  0
INSERT
  5
85B
102
{ACAD_REACTORS
330
85A
102
}
330
1F
100
AcDbEntity
  8
AM_12
100
AcDbBlockReference
  2
*S21
 10
0.0
 20
0.0
 30
0.0
  0
INSERT
  5
85E
102
{ACAD_REACTORS
330
85D
102
}
330
1F
100
AcDbEntity
  8
AM_5
100
AcDbBlockReference
  2
*S22
 10
0.0
 20
0.0
 30
0.0
  0
DIMENSION
  5
18DF
330
1F
100
AcDbEntity
  8
AM_5
100
AcDbDimension
  2
*D6
 10
289.1606136665719
 20
283.6595937681529
 30
0.0
 11
260.1606136665718
 21
290.159593768153
 31
0.0
 70
    32
 71
     5
 42
58.0000000000002
  3
AM_ISO
100
AcDbAlignedDimension
 13
231.1606136665717
 23
259.409592768153
 33
0.0
 14
289.1606136665719
 24
237.109592768153
 34
0.0
100
AcDbRotatedDimension
1001
ACAD
1000
DSTYLE
1002
{
1070
    40
1040
2.0
1002
}
  0
DIMENSION
  5
18E2
330
1F
100
AcDbEntity
  8
AM_5
100
AcDbDimension
  2
*D7
 10
409.1290232457445
 20
283.6595927681526
 30
0.0
 11
423.923997992575
 21
290.1595927681526
 31
0.0
 70
    32
 71
     5
 42
17.50000000000176
  3
AM_ISO
100
AcDbAlignedDimension
 13
391.6290232457427
 23
259.659592768153
 33
0.0
 14
409.1290232457445
 24
259.6595927681522
 34
0.0
100
AcDbRotatedDimension
1001
ACAD
1000
DSTYLE
1002
{
1070
    40
1040
2.0
1002
}
  0
DIMENSION
  5
1A5F
330
1F
100
AcDbEntity
  8
AM_5
100
AcDbDimension
  2
*D8
 10
207.1606126665717
 20
259.4095927681529
 30
0.0
 11
200.6606126665717
 21
214.609592768153
 31
0.0
 70
    32
 71
     5
 42
89.59999999999984
  3
AM_ISO
100
AcDbAlignedDimension
 13
231.1606136665719
 23
169.809592768153
 33
0.0
 14
231.1606136665719
 24
259.4095927681529
 34
0.0
 50
90.0
100
AcDbRotatedDimension
1001
ACAD
1000
DSTYLE
1002
{
1070
    40
1040
2.0
1002
}
  0
INSERT
  5
1EE8
102
{ACAD_REACTORS
330
1E3
102
}
330
1F
100
AcDbEntity
  8
0
100
AcDbBlockReference
  2
*S23
 10
0.0
 20
0.0
 30
0.0
  0
LINE
  5
286A
330
1F
100
AcDbEntity
  8
ﾀｰﾐﾅﾙｶﾊﾞｰ
100
AcDbLine
 10
391.629023245742
 20
184.1095927681346
 30
0.0
 11
409.1290232457419
 21
184.1095927681367
 31
0.0
  0
LINE
  5
286B
330
1F
100
AcDbEntity
  8
ﾀｰﾐﾅﾙｶﾊﾞｰ
100
AcDbLine
 10
391.6290232457436
 20
169.8095927681346
 30
0.0
 11
391.629023245742
 21
184.1095927681346
 31
0.0
  0
LINE
  5
286C
330
1F
100
AcDbEntity
  8
ﾀｰﾐﾅﾙｶﾊﾞｰ
100
AcDbLine
 10
409.1290232457435
 20
169.8095927681366
 30
0.0
 11
409.1290232457419
 21
184.1095927681367
 31
0.0
  0
LINE
  5
286D
330
1F
100
AcDbEntity
  8
ﾎﾞﾃﾞｨｰ
100
AcDbLine
 10
407.629023245744
 20
213.8095927681355
 30
0.0
 11
407.2290232457438
 21
213.8095927681355
 31
0.0
  0
LINE
  5
286E
330
1F
100
AcDbEntity
  8
ﾎﾞﾃﾞｨｰ
100
AcDbLine
 10
407.6290232457437
 20
197.8095927681355
 30
0.0
 11
407.2290232457437
 21
197.8095927681355
 31
0.0
  0
LINE
  5
286F
330
1F
100
AcDbEntity
  8
ﾎﾞﾃﾞｨｰ
100
AcDbLine
 10
407.6290232457437
 20
196.2095927681355
 30
0.0
 11
407.2290232457437
 21
196.2095927681355
 31
0.0
  0
LINE
  5
2870
330
1F
100
AcDbEntity
  8
ﾎﾞﾃﾞｨｰ
100
AcDbLine
 10
393.1290232457438
 20
197.8095927681356
 30
0.0
 11
393.5290232457439
 21
197.8095927681356
 31
0.0
  0
LINE
  5
2871
330
1F
100
AcDbEntity
  8
ﾎﾞﾃﾞｨｰ
100
AcDbLine
 10
393.1290232457438
 20
196.2095927681356
 30
0.0
 11
393.5290232457439
 21
196.2095927681356
 31
0.0
  0
LINE
  5
2872
330
1F
100
AcDbEntity
  8
ﾎﾞﾃﾞｨｰ
100
AcDbLine
 10
393.129023245744
 20
213.8095927681356
 30
0.0
 11
393.5290232457439
 21
213.8095927681356
 31
0.0
  0
LINE
  5
2873
330
1F
100
AcDbEntity
  8
ﾎﾞﾃﾞｨｰ
100
AcDbLine
 10
405.6290232457435
 20
407.5845343447944
 30
0.0
 11
406.0290232457436
 21
422.6845343447945
 31
0.0
  0
LINE
  5
2874
330
1F
100
AcDbEntity
  8
前面ﾊﾟﾈﾙ
100
AcDbLine
 10
407.2290232457433
 20
378.6845343447943
 30
0.0
 11
400.3790232457433
 21
378.6845343447944
 31
0.0
  0
LINE
  5
2875
330
1F
100
AcDbEntity
  8
前面ﾊﾟﾈﾙ
100
AcDbLine
 10
407.2290232457432
 20
376.1845343447943
 30
0.0
 11
407.2290232457433
 21
378.6845343447943
 31
0.0
  0
LINE
  5
2876
330
1F
100
AcDbEntity
  8
前面ﾊﾟﾈﾙ
100
AcDbLine
 10
400.3790232457432
 20
376.1845343447944
 30
0.0
 11
407.2290232457432
 21
376.1845343447943
 31
0.0
  0
LINE
  5
2877
330
1F
100
AcDbEntity
  8
ﾎﾞﾃﾞｨｰ
100
AcDbLine
 10
405.6290232457435
 20
407.5845343447944
 30
0.0
 11
403.3790232457435
 21
407.5845343447946
 31
0.0
  0
LINE
  5
2878
330
1F
100
AcDbEntity
  8
ﾎﾞﾃﾞｨｰ
100
AcDbLine
 10
403.3790232457433
 20
387.6845343447942
 30
0.0
 11
407.6290232457433
 21
387.6845343447942
 31
0.0
  0
LINE
  5
2879
330
1F
100
AcDbEntity
  8
ﾎﾞﾃﾞｨｰ
100
AcDbLine
 10
402.1290232457434
 20
397.5845343447947
 30
0.0
 11
400.3790232457434
 21
397.5845343447947
 31
0.0
  0
LINE
  5
287A
330
1F
100
AcDbEntity
  8
ﾎﾞﾃﾞｨｰ
100
AcDbLine
 10
402.3790232457434
 20
393.0845343447946
 30
0.0
 11
402.1290232457434
 21
397.5845343447947
 31
0.0
  0
LINE
  5
287B
330
1F
100
AcDbEntity
  8
ﾎﾞﾃﾞｨｰ
100
AcDbLine
 10
400.3790232457434
 20
393.0845343447946
 30
0.0
 11
402.3790232457434
 21
393.0845343447946
 31
0.0
  0
LINE
  5
287C
330
1F
100
AcDbEntity
  8
ﾎﾞﾃﾞｨｰ
100
AcDbLine
 10
403.3790232457434
 20
389.2845343447947
 30
0.0
 11
400.3790232457434
 21
389.2845343447948
 31
0.0
  0
LINE
  5
287D
330
1F
100
AcDbEntity
  8
ﾎﾞﾃﾞｨｰ
100
AcDbLine
 10
403.3790232457434
 20
387.2845343447946
 30
0.0
 11
403.3790232457434
 21
389.2845343447947
 31
0.0
  0
LINE
  5
287E
330
1F
100
AcDbEntity
  8
ﾎﾞﾃﾞｨｰ
100
AcDbLine
 10
400.3790232457434
 20
387.2845343447947
 30
0.0
 11
403.3790232457434
 21
387.2845343447946
 31
0.0
  0
LINE
  5
287F
330
1F
100
AcDbEntity
  8
ﾎﾞﾃﾞｨｰ
100
AcDbLine
 10
407.6290232457433
 20
378.6845343447943
 30
0.0
 11
406.6290232457433
 21
378.6845343447943
 31
0.0
  0
LINE
  5
2880
330
1F
100
AcDbEntity
  8
前面ﾊﾟﾈﾙ
100
AcDbLine
 10
407.2290232457441
 20
235.6095927681354
 30
0.0
 11
407.2290232457437
 21
193.6095927681355
 31
0.0
  0
LINE
  5
2881
330
1F
100
AcDbEntity
  8
前面ﾊﾟﾈﾙ
100
AcDbLine
 10
393.5290232457439
 20
235.6095927681356
 30
0.0
 11
393.5290232457439
 21
193.6095927681356
 31
0.0
  0
LINE
  5
2882
330
1F
100
AcDbEntity
  8
前面ﾊﾟﾈﾙ
100
AcDbLine
 10
393.5290232457439
 20
193.6095927681356
 30
0.0
 11
407.2290232457437
 21
193.6095927681355
 31
0.0
  0
LINE
  5
2883
330
1F
100
AcDbEntity
  8
ﾎﾞﾃﾞｨｰ
100
AcDbLine
 10
403.3790232457437
 20
185.6095927681356
 30
0.0
 11
397.3790232457438
 21
185.6095927681357
 31
0.0
  0
LINE
  5
2884
330
1F
100
AcDbEntity
  8
ﾎﾞﾃﾞｨｰ
100
AcDbLine
 10
403.3790232457437
 20
187.5095927681356
 30
0.0
 11
403.3790232457437
 21
185.6095927681356
 31
0.0
  0
LINE
  5
2885
330
1F
100
AcDbEntity
  8
ﾎﾞﾃﾞｨｰ
100
AcDbLine
 10
397.3790232457437
 20
187.5095927681357
 30
0.0
 11
403.3790232457437
 21
187.5095927681357
 31
0.0
  0
LINE
  5
2886
330
1F
100
AcDbEntity
  8
ﾎﾞﾃﾞｨｰ
100
AcDbLine
 10
397.3790232457438
 20
185.6095927681357
 30
0.0
 11
397.3790232457438
 21
187.5095927681357
 31
0.0
  0
ARC
  5
2887
330
1F
100
AcDbEntity
  8
ﾎﾞﾃﾞｨｰ
100
AcDbCircle
 10
391.9290232457437
 20
192.4095927681356
 30
0.0
 40
0.3
100
AcDbArc
 50
179.9999999999984
 51
270.0
  0
ARC
  5
2888
330
1F
100
AcDbEntity
  8
ﾎﾞﾃﾞｨｰ
100
AcDbCircle
 10
408.8290232457436
 20
192.4095927681355
 30
0.0
 40
0.3
100
AcDbArc
 50
270.0
 51
359.9999999999984
  0
LINE
  5
2889
330
1F
100
AcDbEntity
  8
ﾎﾞﾃﾞｨｰ
100
AcDbLine
 10
409.1290232457444
 20
259.6595927681351
 30
0.0
 11
409.1290232457435
 21
169.5595927681357
 31
0.0
  0
LINE
  5
288A
330
1F
100
AcDbEntity
  8
ﾎﾞﾃﾞｨｰ
100
AcDbLine
 10
409.1290232457435
 20
169.5595927681356
 30
0.0
 11
391.6290232457435
 21
169.5595927681359
 31
0.0
  0
LINE
  5
288B
330
1F
100
AcDbEntity
  8
ﾎﾞﾃﾞｨｰ
100
AcDbLine
 10
391.6290232457435
 20
169.5595927681359
 30
0.0
 11
391.6290232457446
 21
259.6595927681354
 31
0.0
  0
LINE
  5
288C
330
1F
100
AcDbEntity
  8
ﾎﾞﾃﾞｨｰ
100
AcDbLine
 10
407.6290232457442
 20
235.6095927681355
 30
0.0
 11
407.6290232457437
 21
193.6095927681354
 31
0.0
  0
LINE
  5
288D
330
1F
100
AcDbEntity
  8
ﾎﾞﾃﾞｨｰ
100
AcDbLine
 10
407.6290232457437
 20
193.6095927681354
 30
0.0
 11
393.1290232457438
 21
193.6095927681355
 31
0.0
  0
LINE
  5
288E
330
1F
100
AcDbEntity
  8
ﾎﾞﾃﾞｨｰ
100
AcDbLine
 10
393.1290232457438
 20
193.6095927681355
 30
0.0
 11
393.1290232457442
 21
235.6095927681356
 31
0.0
  0
LINE
  5
288F
330
1F
100
AcDbEntity
  8
ﾎﾞﾃﾞｨｰ
100
AcDbLine
 10
408.8290232457436
 20
192.1095927681355
 30
0.0
 11
391.9290232457437
 21
192.1095927681356
 31
0.0
  0
LINE
  5
2890
330
1F
100
AcDbEntity
  8
ﾎﾞﾃﾞｨｰ
100
AcDbLine
 10
409.1290232457419
 20
184.1095927681367
 30
0.0
 11
391.6290232457438
 21
184.1095927681346
 31
0.0
  0
LINE
  5
2891
330
1F
100
AcDbEntity
  8
ﾎﾞﾃﾞｨｰ
100
AcDbLine
 10
409.1290232457437
 20
433.1845343447953
 30
0.0
 11
407.6290232457437
 21
433.1845343447953
 31
0.0
  0
LINE
  5
2892
330
1F
100
AcDbEntity
  8
ﾀｰﾐﾅﾙｶﾊﾞｰ
100
AcDbLine
 10
394.6290232457436
 20
421.1845343447945
 30
0.0
 11
400.3790232457436
 21
421.1845343447945
 31
0.0
  0
LINE
  5
2893
330
1F
100
AcDbEntity
  8
ﾀｰﾐﾅﾙｶﾊﾞｰ
100
AcDbLine
 10
394.6290232457436
 20
407.7845343447942
 30
0.0
 11
394.6290232457436
 21
421.1845343447945
 31
0.0
  0
LINE
  5
2894
330
1F
100
AcDbEntity
  8
ﾀｰﾐﾅﾙｶﾊﾞｰ
100
AcDbLine
 10
391.7793925219622
 20
407.5845343447944
 30
0.0
 11
394.6290232457434
 21
407.5845343447944
 31
0.0
  0
LINE
  5
2895
330
1F
100
AcDbEntity
  8
ﾎﾞﾃﾞｨｰ
100
AcDbLine
 10
407.6290232457436
 20
422.6845343447945
 30
0.0
 11
406.0290232457436
 21
422.6845343447945
 31
0.0
  0
LINE
  5
2896
330
1F
100
AcDbEntity
  8
ﾎﾞﾃﾞｨｰ
100
AcDbLine
 10
394.6290232457436
 20
421.1845343447945
 30
0.0
 11
394.6290232457436
 21
407.5845343447944
 31
0.0
  0
LINE
  5
2897
330
1F
100
AcDbEntity
  8
ﾎﾞﾃﾞｨｰ
100
AcDbLine
 10
400.3790232457436
 20
421.1845343447945
 30
0.0
 11
394.6290232457436
 21
421.1845343447945
 31
0.0
  0
LINE
  5
2898
330
1F
100
AcDbEntity
  8
ﾎﾞﾃﾞｨｰ
100
AcDbLine
 10
409.1290232457438
 20
433.1845343447953
 30
0.0
 11
409.1290232457431
 21
376.1845343447943
 31
0.0
  0
LINE
  5
2899
330
1F
100
AcDbEntity
  8
ﾎﾞﾃﾞｨｰ
100
AcDbLine
 10
409.1290232457431
 20
376.1845343447943
 30
0.0
 11
391.6290232457432
 21
376.1845343447945
 31
0.0
  0
LINE
  5
289A
330
1F
100
AcDbEntity
  8
ﾎﾞﾃﾞｨｰ
100
AcDbLine
 10
391.6290232457432
 20
376.1845343447945
 30
0.0
 11
391.6290232457438
 21
433.1845343447953
 31
0.0
  0
LINE
  5
289B
330
1F
100
AcDbEntity
  8
ﾎﾞﾃﾞｨｰ
100
AcDbLine
 10
391.6290232457437
 20
433.1845343447954
 30
0.0
 11
400.3790232457436
 21
433.1845343447952
 31
0.0
  0
LINE
  5
289C
330
1F
100
AcDbEntity
  8
ﾎﾞﾃﾞｨｰ
100
AcDbLine
 10
400.3790232457433
 20
386.1845343447945
 30
0.0
 11
391.6290232457433
 21
386.1845343447945
 31
0.0
  0
LINE
  5
289D
330
1F
100
AcDbEntity
  8
ﾍﾞｰｽ
100
AcDbLine
 10
409.1290232457437
 20
433.1845343447953
 30
0.0
 11
409.1290232457438
 21
434.1845343447945
 31
0.0
  0
LINE
  5
289E
330
1F
100
AcDbEntity
  8
ﾍﾞｰｽ
100
AcDbLine
 10
409.1290232457438
 20
434.1845343447945
 30
0.0
 11
391.6290232457437
 21
434.1845343447947
 31
0.0
  0
LINE
  5
289F
330
1F
100
AcDbEntity
  8
ﾍﾞｰｽ
100
AcDbLine
 10
391.6290232457437
 20
434.1845343447947
 30
0.0
 11
391.6290232457437
 21
433.1845343447953
 31
0.0
  0
LINE
  5
28A0
330
1F
100
AcDbEntity
  8
ﾍﾞｰｽ
100
AcDbLine
 10
400.3790232457436
 20
424.1845343447945
 30
0.0
 11
407.6290232457437
 21
424.1845343447953
 31
0.0
  0
LINE
  5
28A1
330
1F
100
AcDbEntity
  8
AM_7
100
AcDbLine
 10
400.3790232457437
 20
437.2945343447944
 30
0.0
 11
400.3790232457432
 21
371.0745343447944
 31
0.0
1001
GENIUS_GENODEF_13
1002
{
1000
HIER
1070
     0
1002
}
1002
{
1000
MANEDIT
1070
     0
1002
}
1002
{
1000
NOSEL
1070
     0
1002
}
1002
{
1000
BEHIND
1070
     0
1002
}
1002
{
1000
OTHER
1070
     0
1002
}
1002
{
1000
REACTOR
1002
}
1001
GENIUS_GENOBJ-N-CEN_13
1002
{
1000
OWNER
1000
GEN
1002
}
  0
LINE
  5
28A2
330
1F
100
AcDbEntity
  8
ﾎﾞﾃﾞｨｰ
100
AcDbLine
 10
407.6290232457432
 20
376.1845343447943
 30
0.0
 11
407.6290232457436
 21
427.1845343447945
 31
0.0
  0
LINE
  5
28A3
330
1F
100
AcDbEntity
  8
ﾍﾞｰｽ
100
AcDbLine
 10
400.3790232457436
 20
424.1845343447945
 30
0.0
 11
407.6290232457436
 21
424.1845343447945
 31
0.0
  0
LINE
  5
28A4
330
1F
100
AcDbEntity
  8
ﾍﾞｰｽ
100
AcDbLine
 10
407.6290232457436
 20
424.1845343447945
 30
0.0
 11
407.6290232457436
 21
427.1845343447945
 31
0.0
  0
LINE
  5
28A5
330
1F
100
AcDbEntity
  8
ﾀｰﾐﾅﾙｶﾊﾞｰ
100
AcDbLine
 10
400.3790232457435
 20
401.0797337539526
 30
0.0
 11
391.6290232457437
 21
401.0893349356366
 31
0.0
  0
LINE
  5
28A6
330
1F
100
AcDbEntity
  8
ﾀｰﾐﾅﾙｶﾊﾞｰ
100
AcDbLine
 10
391.6290232457441
 20
407.5845343447946
 30
0.0
 11
394.6290232457436
 21
407.5845343447944
 31
0.0
  0
HATCH
  5
28A7
330
1F
100
AcDbEntity
  8
AM_8
100
AcDbHatch
 10
0.0
 20
0.0
 30
0.0
210
0.0
220
0.0
230
1.0
  2
_U
 70
     0
 71
     0
 91
        1
 92
        1
 93
        4
 72
     1
 10
409.1290232457431
 20
376.1845343447943
 11
409.1290232457437
 21
427.1845343447943
 72
     1
 10
409.1290232457437
 20
427.1845343447945
 11
407.6290232457436
 21
427.1845343447945
 72
     1
 10
407.6290232457436
 20
427.1845343447945
 11
407.6290232457432
 21
376.1845343447945
 72
     1
 10
407.6290232457432
 20
376.1845343447943
 11
409.1290232457431
 21
376.1845343447943
 97
        0
 75
     0
 76
     0
 52
224.9999999999996
 41
2.5
 77
     0
 78
     1
 53
224.9999999999995
 43
735.0719346455051
 44
525.8015329393758
 45
1.767766952966353
 46
-1.767766952966383
 79
     0
 98
        1
 10
735.0719346455051
 20
525.8015329393758
1001
GENIUS_GENOBJ-N-HTC_13
1002
{
1000
OWNER
1000
GEN
1002
}
1001
GENIUS_GENODEF_13
1002
{
1000
HIER
1070
     0
1002
}
1002
{
1000
MANEDIT
1070
     0
1002
}
1002
{
1000
NOSEL
1070
     0
1002
}
1002
{
1000
BEHIND
1070
     0
1002
}
1002
{
1000
OTHER
1070
     0
1002
}
1002
{
1000
REACTOR
1002
}
1001
GENIUS_GENHATCH_13
1002
{
1000
DATA
1040
45.0
1042
2.5
1000
_U
1070
     0
1011
407.9867483263855
1021
379.5748687073531
1031
0.0
1002
}
1002
{
1000
UCS
1010
0.0
1020
0.0
1030
0.0
1010
1.0
1020
0.0
1030
0.0
1010
0.0
1020
1.0
1030
0.0
1002
}
  0
LINE
  5
28A8
330
1F
100
AcDbEntity
  8
ﾀｰﾐﾅﾙｶﾊﾞｰ
100
AcDbLine
 10
392.829023245742
 20
170.9595927681356
 30
0.0
 11
407.9290232457418
 21
170.9595927681356
 31
0.0
  0
LINE
  5
28A9
330
1F
100
AcDbEntity
  8
ﾀｰﾐﾅﾙｶﾊﾞｰ
100
AcDbLine
 10
407.9290232457418
 20
183.1095927681356
 30
0.0
 11
407.9290232457418
 21
170.9595927681356
 31
0.0
  0
LINE
  5
28AA
330
1F
100
AcDbEntity
  8
ﾀｰﾐﾅﾙｶﾊﾞｰ
100
AcDbLine
 10
392.829023245742
 20
183.1095927681356
 30
0.0
 11
407.9290232457418
 21
183.1095927681356
 31
0.0
  0
LINE
  5
28AB
330
1F
100
AcDbEntity
  8
ﾀｰﾐﾅﾙｶﾊﾞｰ
100
AcDbLine
 10
392.829023245742
 20
183.1095927681356
 30
0.0
 11
392.829023245742
 21
170.9595927681356
 31
0.0
  0
LINE
  5
28AC
330
1F
100
AcDbEntity
  8
ﾀｰﾐﾅﾙｶﾊﾞｰ
100
AcDbLine
 10
402.6290232457419
 20
183.9595927681356
 30
0.0
 11
408.9290232457419
 21
183.9595927681356
 31
0.0
  0
LINE
  5
28AD
330
1F
100
AcDbEntity
  8
ﾀｰﾐﾅﾙｶﾊﾞｰ
100
AcDbLine
 10
391.8290232457419
 20
169.9595927681356
 30
0.0
 11
408.9290232457419
 21
169.9595927681356
 31
0.0
  0
LINE
  5
28AE
330
1F
100
AcDbEntity
  8
ﾀｰﾐﾅﾙｶﾊﾞｰ
100
AcDbLine
 10
391.8290232457419
 20
183.9595927681356
 30
0.0
 11
398.1290232457419
 21
183.9595927681356
 31
0.0
  0
LINE
  5
28AF
330
1F
100
AcDbEntity
  8
ﾀｰﾐﾅﾙｶﾊﾞｰ
100
AcDbLine
 10
408.9290232457419
 20
183.9595927681356
 30
0.0
 11
408.9290232457419
 21
169.9595927681356
 31
0.0
  0
LINE
  5
28B0
330
1F
100
AcDbEntity
  8
ﾀｰﾐﾅﾙｶﾊﾞｰ
100
AcDbLine
 10
391.8290232457419
 20
183.9595927681356
 30
0.0
 11
391.8290232457419
 21
169.9595927681356
 31
0.0
  0
LINE
  5
28B1
330
1F
100
AcDbEntity
  8
ﾀｰﾐﾅﾙｶﾊﾞｰ
100
AcDbLine
 10
408.1290232457419
 20
183.0595927681356
 30
0.0
 11
408.9290232457419
 21
183.0595927681356
 31
0.0
  0
LINE
  5
28B2
330
1F
100
AcDbEntity
  8
ﾀｰﾐﾅﾙｶﾊﾞｰ
100
AcDbLine
 10
391.8290232457419
 20
183.0595927681356
 30
0.0
 11
392.629023245742
 21
183.0595927681356
 31
0.0
  0
LINE
  5
28B3
330
1F
100
AcDbEntity
  8
ﾀｰﾐﾅﾙｶﾊﾞｰ
100
AcDbLine
 10
408.9290232457419
 20
183.9595927681356
 30
0.0
 11
408.9290232457419
 21
180.0595927681356
 31
0.0
  0
LINE
  5
28B4
330
1F
100
AcDbEntity
  8
ﾀｰﾐﾅﾙｶﾊﾞｰ
100
AcDbLine
 10
408.1290232457419
 20
183.9595927681356
 30
0.0
 11
408.1290232457419
 21
180.0595927681356
 31
0.0
  0
LINE
  5
28B5
330
1F
100
AcDbEntity
  8
ﾀｰﾐﾅﾙｶﾊﾞｰ
100
AcDbLine
 10
392.629023245742
 20
183.9595927681356
 30
0.0
 11
392.629023245742
 21
180.0595927681356
 31
0.0
  0
LINE
  5
28B6
330
1F
100
AcDbEntity
  8
ﾀｰﾐﾅﾙｶﾊﾞｰ
100
AcDbLine
 10
391.8290232457419
 20
183.9595927681356
 30
0.0
 11
391.8290232457419
 21
180.0595927681356
 31
0.0
  0
LINE
  5
28B7
330
1F
100
AcDbEntity
  8
ﾀｰﾐﾅﾙｶﾊﾞｰ
100
AcDbLine
 10
402.6290232457419
 20
184.1095927681356
 30
0.0
 11
402.6290232457419
 21
183.6595927681356
 31
0.0
  0
LINE
  5
28B8
330
1F
100
AcDbEntity
  8
ﾀｰﾐﾅﾙｶﾊﾞｰ
100
AcDbLine
 10
398.1290232457419
 20
184.1095927681356
 30
0.0
 11
398.1290232457419
 21
183.6595927681356
 31
0.0
  0
LINE
  5
28B9
330
1F
100
AcDbEntity
  8
ﾀｰﾐﾅﾙｶﾊﾞｰ
100
AcDbLine
 10
398.1290232457419
 20
183.6595927681356
 30
0.0
 11
402.6290232457419
 21
183.6595927681356
 31
0.0
  0
LINE
  5
28BA
330
1F
100
AcDbEntity
  8
ﾀｰﾐﾅﾙｶﾊﾞｰ
100
AcDbLine
 10
391.629023245742
 20
184.1095927681356
 30
0.0
 11
409.1290232457419
 21
184.1095927681356
 31
0.0
  0
LINE
  5
28BB
330
1F
100
AcDbEntity
  8
ﾀｰﾐﾅﾙｶﾊﾞｰ
100
AcDbLine
 10
391.629023245742
 20
169.8095927681356
 30
0.0
 11
391.629023245742
 21
184.1095927681356
 31
0.0
  0
LINE
  5
28BC
330
1F
100
AcDbEntity
  8
ﾀｰﾐﾅﾙｶﾊﾞｰ
100
AcDbLine
 10
409.1290232457419
 20
169.8095927681356
 30
0.0
 11
409.1290232457419
 21
184.1095927681356
 31
0.0
  0
LINE
  5
28BD
330
1F
100
AcDbEntity
  8
ﾀｰﾐﾅﾙｶﾊﾞｰ
100
AcDbLine
 10
391.629023245742
 20
169.8095927681356
 30
0.0
 11
409.1290232457419
 21
169.8095927681356
 31
0.0
  0
LINE
  5
28BE
330
1F
100
AcDbEntity
  8
ﾍﾞｰｽ
100
AcDbLine
 10
409.1290232457438
 20
433.1845343447953
 30
0.0
 11
391.6290232457437
 21
433.1845343447953
 31
0.0
  0
LINE
  5
28BF
330
1F
100
AcDbEntity
  8
ﾍﾞｰｽ
100
AcDbLine
 10
407.6290232457437
 20
433.1845343447953
 30
0.0
 11
407.6290232457436
 21
424.1845343447953
 31
0.0
  0
LINE
  5
28C0
330
1F
100
AcDbEntity
  8
ﾀｰﾐﾅﾙｶﾊﾞｰ
100
AcDbLine
 10
400.3790232457436
 20
421.0845343447938
 30
0.0
 11
394.6290232457436
 21
421.0845343447938
 31
0.0
  0
LINE
  5
28C1
330
1F
100
AcDbEntity
  8
ﾀｰﾐﾅﾙｶﾊﾞｰ
100
AcDbLine
 10
394.6290232457436
 20
421.0845343447938
 30
0.0
 11
394.6290232457433
 21
407.5845343447944
 31
0.0
  0
LINE
  5
28C2
330
1F
100
AcDbEntity
  8
ﾀｰﾐﾅﾙｶﾊﾞｰ
100
AcDbLine
 10
392.6290232457436
 20
401.0886450303659
 30
0.0
 11
392.6290232457436
 21
398.0845343447944
 31
0.0
  0
LINE
  5
28C3
330
1F
100
AcDbEntity
  8
ﾀｰﾐﾅﾙｶﾊﾞｰ
100
AcDbLine
 10
392.6290232457436
 20
398.0845343447944
 30
0.0
 11
391.6290232457436
 21
398.0845343447944
 31
0.0
  0
LINE
  5
28C4
330
1F
100
AcDbEntity
  8
ﾀｰﾐﾅﾙｶﾊﾞｰ
100
AcDbLine
 10
391.6290232457436
 20
398.0845343447944
 30
0.0
 11
391.6290232457441
 21
407.5845343447946
 31
0.0
  0
LINE
  5
28C5
330
1F
100
AcDbEntity
  8
ﾎﾞﾃﾞｨｰ
100
AcDbLine
 10
400.3790232457435
 20
407.3845343447946
 30
0.0
 11
403.3790232457435
 21
407.3845343447946
 31
0.0
  0
LINE
  5
28C6
330
1F
100
AcDbEntity
  8
ﾎﾞﾃﾞｨｰ
100
AcDbLine
 10
403.3790232457435
 20
407.3845343447946
 30
0.0
 11
403.3790232457435
 21
407.5845343447944
 31
0.0
  0
LINE
  5
28C7
330
1F
100
AcDbEntity
  8
ﾎﾞﾃﾞｨｰ
100
AcDbLine
 10
407.6290232457432
 20
378.6845343447943
 30
0.0
 11
406.6290232457433
 21
378.6845343447943
 31
0.0
  0
LINE
  5
28C8
330
1F
100
AcDbEntity
  8
ﾎﾞﾃﾞｨｰ
100
AcDbLine
 10
406.6290232457433
 20
378.6845343447943
 30
0.0
 11
406.6290232457433
 21
385.5845343447946
 31
0.0
  0
LINE
  5
28C9
330
1F
100
AcDbEntity
  8
ﾎﾞﾃﾞｨｰ
100
AcDbLine
 10
406.6290232457433
 20
385.5845343447946
 30
0.0
 11
407.6290232457433
 21
385.5845343447946
 31
0.0
  0
HATCH
  5
28CA
330
1F
100
AcDbEntity
  8
AM_8
100
AcDbHatch
 10
0.0
 20
0.0
 30
0.0
210
0.0
220
0.0
230
1.0
  2
_U
 70
     0
 71
     0
 91
        1
 92
        1
 93
        4
 72
     1
 10
400.3790232457433
 20
376.1845343447944
 11
407.2290232457432
 21
376.1845343447943
 72
     1
 10
407.2290232457432
 20
376.1845343447943
 11
407.2290232457433
 21
378.6845343447943
 72
     1
 10
407.2290232457433
 20
378.6845343447943
 11
400.3790232457433
 21
378.6845343447944
 72
     1
 10
400.3790232457433
 20
378.6845343447944
 11
400.3790232457432
 21
376.1845343447944
 97
        0
 75
     0
 76
     0
 52
-45.00000000000001
 41
1.0
 77
     0
 78
     1
 53
315.0
 43
141.608993460815
 44
524.3927606689153
 45
0.7071067811865478
 46
0.7071067811865474
 79
     0
 98
        1
 10
141.608993460815
 20
524.3927606689153
1001
GENIUS_GENODEF_13
1002
{
1000
HIER
1070
     0
1002
}
1002
{
1000
MANEDIT
1070
     0
1002
}
1002
{
1000
NOSEL
1070
     0
1002
}
1002
{
1000
BEHIND
1070
     0
1002
}
1002
{
1000
OTHER
1070
     0
1002
}
1002
{
1000
REACTOR
1002
}
1001
GENIUS_GENOBJ-N-HTC_13
1002
{
1000
OWNER
1000
GEN
1002
}
1001
GENIUS_GENHATCH_13
1002
{
1000
DATA
1040
45.0
1042
2.5
1000
_U
1070
     0
1011
404.8081012621239
1021
377.5941051053241
1031
0.0
1002
}
1002
{
1000
UCS
1010
0.0
1020
0.0
1030
0.0
1010
1.0
1020
0.0
1030
0.0
1010
0.0
1020
1.0
1030
0.0
1002
}
  0
LINE
  5
28CB
330
1F
100
AcDbEntity
  8
ﾀｰﾐﾅﾙｶﾊﾞｰ
100
AcDbLine
 10
391.6290232457425
 20
245.1095927681366
 30
0.0
 11
409.1290232457425
 21
245.1095927681342
 31
0.0
  0
LINE
  5
28CC
330
1F
100
AcDbEntity
  8
ﾀｰﾐﾅﾙｶﾊﾞｰ
100
AcDbLine
 10
391.6290232457445
 20
259.4095927681365
 30
0.0
 11
391.6290232457425
 21
245.1095927681366
 31
0.0
  0
LINE
  5
28CD
330
1F
100
AcDbEntity
  8
ﾀｰﾐﾅﾙｶﾊﾞｰ
100
AcDbLine
 10
409.1290232457444
 20
259.4095927681343
 30
0.0
 11
409.1290232457425
 21
245.1095927681342
 31
0.0
  0
LINE
  5
28CE
330
1F
100
AcDbEntity
  8
ﾎﾞﾃﾞｨｰ
100
AcDbLine
 10
407.629023245744
 20
215.4095927681354
 30
0.0
 11
407.229023245744
 21
215.4095927681354
 31
0.0
  0
LINE
  5
28CF
330
1F
100
AcDbEntity
  8
ﾎﾞﾃﾞｨｰ
100
AcDbLine
 10
407.629023245744
 20
231.4095927681354
 30
0.0
 11
407.2290232457441
 21
231.4095927681354
 31
0.0
  0
LINE
  5
28D0
330
1F
100
AcDbEntity
  8
ﾎﾞﾃﾞｨｰ
100
AcDbLine
 10
407.6290232457441
 20
233.0095927681354
 30
0.0
 11
407.2290232457441
 21
233.0095927681354
 31
0.0
  0
LINE
  5
28D1
330
1F
100
AcDbEntity
  8
ﾎﾞﾃﾞｨｰ
100
AcDbLine
 10
393.1290232457442
 20
231.4095927681356
 30
0.0
 11
393.5290232457441
 21
231.4095927681356
 31
0.0
  0
LINE
  5
28D2
330
1F
100
AcDbEntity
  8
ﾎﾞﾃﾞｨｰ
100
AcDbLine
 10
393.1290232457442
 20
233.0095927681355
 30
0.0
 11
393.5290232457442
 21
233.0095927681356
 31
0.0
  0
LINE
  5
28D3
330
1F
100
AcDbEntity
  8
ﾎﾞﾃﾞｨｰ
100
AcDbLine
 10
393.129023245744
 20
215.4095927681356
 30
0.0
 11
393.529023245744
 21
215.4095927681356
 31
0.0
  0
LINE
  5
28D6
330
1F
100
AcDbEntity
  8
前面ﾊﾟﾈﾙ
100
AcDbLine
 10
393.5290232457442
 20
235.6095927681356
 30
0.0
 11
407.2290232457441
 21
235.6095927681354
 31
0.0
  0
LINE
  5
28D7
330
1F
100
AcDbEntity
  8
ﾎﾞﾃﾞｨｰ
100
AcDbLine
 10
403.3790232457442
 20
243.6095927681353
 30
0.0
 11
397.3790232457442
 21
243.6095927681354
 31
0.0
  0
LINE
  5
28D8
330
1F
100
AcDbEntity
  8
ﾎﾞﾃﾞｨｰ
100
AcDbLine
 10
403.3790232457442
 20
241.7095927681353
 30
0.0
 11
403.3790232457442
 21
243.6095927681353
 31
0.0
  0
LINE
  5
28D9
330
1F
100
AcDbEntity
  8
ﾎﾞﾃﾞｨｰ
100
AcDbLine
 10
397.3790232457442
 20
241.7095927681354
 30
0.0
 11
403.3790232457442
 21
241.7095927681353
 31
0.0
  0
LINE
  5
28DA
330
1F
100
AcDbEntity
  8
ﾎﾞﾃﾞｨｰ
100
AcDbLine
 10
397.3790232457442
 20
243.6095927681354
 30
0.0
 11
397.3790232457442
 21
241.7095927681354
 31
0.0
  0
ARC
  5
28DB
330
1F
100
AcDbEntity
  8
ﾎﾞﾃﾞｨｰ
100
AcDbCircle
 10
391.9290232457442
 20
236.8095927681356
 30
0.0
 40
0.3
100
AcDbArc
 50
90.0
 51
179.9999999999984
  0
ARC
  5
28DC
330
1F
100
AcDbEntity
  8
ﾎﾞﾃﾞｨｰ
100
AcDbCircle
 10
408.829023245744
 20
236.8095927681354
 30
0.0
 40
0.3
100
AcDbArc
 50
359.9999999999984
 51
90.0
  0
LINE
  5
28DE
330
1F
100
AcDbEntity
  8
ﾎﾞﾃﾞｨｰ
100
AcDbLine
 10
409.1290232457444
 20
259.6595927681351
 30
0.0
 11
391.6290232457443
 21
259.6595927681354
 31
0.0
  0
LINE
  5
28E1
330
1F
100
AcDbEntity
  8
ﾎﾞﾃﾞｨｰ
100
AcDbLine
 10
407.6290232457441
 20
235.6095927681355
 30
0.0
 11
393.1290232457442
 21
235.6095927681356
 31
0.0
  0
LINE
  5
28E3
330
1F
100
AcDbEntity
  8
ﾎﾞﾃﾞｨｰ
100
AcDbLine
 10
408.829023245744
 20
237.1095927681354
 30
0.0
 11
391.9290232457442
 21
237.1095927681356
 31
0.0
  0
LINE
  5
28E4
330
1F
100
AcDbEntity
  8
ﾎﾞﾃﾞｨｰ
100
AcDbLine
 10
409.1290232457425
 20
245.1095927681342
 30
0.0
 11
391.6290232457443
 21
245.1095927681366
 31
0.0
  0
LINE
  5
28E5
330
1F
100
AcDbEntity
  8
ﾀｰﾐﾅﾙｶﾊﾞｰ
100
AcDbLine
 10
392.8290232457429
 20
258.2595927681355
 30
0.0
 11
407.9290232457428
 21
258.2595927681353
 31
0.0
  0
LINE
  5
28E6
330
1F
100
AcDbEntity
  8
ﾀｰﾐﾅﾙｶﾊﾞｰ
100
AcDbLine
 10
407.9290232457426
 20
246.1095927681352
 30
0.0
 11
407.9290232457428
 21
258.2595927681353
 31
0.0
  0
LINE
  5
28E7
330
1F
100
AcDbEntity
  8
ﾀｰﾐﾅﾙｶﾊﾞｰ
100
AcDbLine
 10
392.8290232457427
 20
246.1095927681355
 30
0.0
 11
407.9290232457426
 21
246.1095927681352
 31
0.0
  0
LINE
  5
28E8
330
1F
100
AcDbEntity
  8
ﾀｰﾐﾅﾙｶﾊﾞｰ
100
AcDbLine
 10
392.8290232457427
 20
246.1095927681355
 30
0.0
 11
392.8290232457429
 21
258.2595927681355
 31
0.0
  0
LINE
  5
28E9
330
1F
100
AcDbEntity
  8
ﾀｰﾐﾅﾙｶﾊﾞｰ
100
AcDbLine
 10
402.6290232457425
 20
245.2595927681354
 30
0.0
 11
408.9290232457425
 21
245.2595927681352
 31
0.0
  0
LINE
  5
28EA
330
1F
100
AcDbEntity
  8
ﾀｰﾐﾅﾙｶﾊﾞｰ
100
AcDbLine
 10
391.8290232457427
 20
259.2595927681356
 30
0.0
 11
408.9290232457428
 21
259.2595927681353
 31
0.0
  0
LINE
  5
28EB
330
1F
100
AcDbEntity
  8
ﾀｰﾐﾅﾙｶﾊﾞｰ
100
AcDbLine
 10
391.8290232457425
 20
245.2595927681355
 30
0.0
 11
398.1290232457425
 21
245.2595927681354
 31
0.0
  0
LINE
  5
28EC
330
1F
100
AcDbEntity
  8
ﾀｰﾐﾅﾙｶﾊﾞｰ
100
AcDbLine
 10
408.9290232457425
 20
245.2595927681352
 30
0.0
 11
408.9290232457428
 21
259.2595927681353
 31
0.0
  0
LINE
  5
28ED
330
1F
100
AcDbEntity
  8
ﾀｰﾐﾅﾙｶﾊﾞｰ
100
AcDbLine
 10
391.8290232457425
 20
245.2595927681355
 30
0.0
 11
391.8290232457427
 21
259.2595927681356
 31
0.0
  0
LINE
  5
28EE
330
1F
100
AcDbEntity
  8
ﾀｰﾐﾅﾙｶﾊﾞｰ
100
AcDbLine
 10
408.1290232457424
 20
246.1595927681353
 30
0.0
 11
408.9290232457425
 21
246.1595927681353
 31
0.0
  0
LINE
  5
28EF
330
1F
100
AcDbEntity
  8
ﾀｰﾐﾅﾙｶﾊﾞｰ
100
AcDbLine
 10
391.8290232457425
 20
246.1595927681356
 30
0.0
 11
392.6290232457425
 21
246.1595927681355
 31
0.0
  0
LINE
  5
28F0
330
1F
100
AcDbEntity
  8
ﾀｰﾐﾅﾙｶﾊﾞｰ
100
AcDbLine
 10
408.9290232457425
 20
245.2595927681352
 30
0.0
 11
408.9290232457425
 21
249.1595927681353
 31
0.0
  0
LINE
  5
28F1
330
1F
100
AcDbEntity
  8
ﾀｰﾐﾅﾙｶﾊﾞｰ
100
AcDbLine
 10
408.1290232457424
 20
245.2595927681352
 30
0.0
 11
408.1290232457426
 21
249.1595927681353
 31
0.0
  0
LINE
  5
28F2
330
1F
100
AcDbEntity
  8
ﾀｰﾐﾅﾙｶﾊﾞｰ
100
AcDbLine
 10
392.6290232457425
 20
245.2595927681355
 30
0.0
 11
392.6290232457427
 21
249.1595927681355
 31
0.0
  0
LINE
  5
28F3
330
1F
100
AcDbEntity
  8
ﾀｰﾐﾅﾙｶﾊﾞｰ
100
AcDbLine
 10
391.8290232457425
 20
245.2595927681355
 30
0.0
 11
391.8290232457426
 21
249.1595927681355
 31
0.0
  0
LINE
  5
28F4
330
1F
100
AcDbEntity
  8
ﾀｰﾐﾅﾙｶﾊﾞｰ
100
AcDbLine
 10
402.6290232457425
 20
245.1095927681353
 30
0.0
 11
402.6290232457425
 21
245.5595927681353
 31
0.0
  0
LINE
  5
28F5
330
1F
100
AcDbEntity
  8
ﾀｰﾐﾅﾙｶﾊﾞｰ
100
AcDbLine
 10
398.1290232457425
 20
245.1095927681354
 30
0.0
 11
398.1290232457425
 21
245.5595927681354
 31
0.0
  0
LINE
  5
28F6
330
1F
100
AcDbEntity
  8
ﾀｰﾐﾅﾙｶﾊﾞｰ
100
AcDbLine
 10
398.1290232457425
 20
245.5595927681354
 30
0.0
 11
402.6290232457425
 21
245.5595927681353
 31
0.0
  0
LINE
  5
28F7
330
1F
100
AcDbEntity
  8
ﾀｰﾐﾅﾙｶﾊﾞｰ
100
AcDbLine
 10
391.6290232457425
 20
245.1095927681356
 30
0.0
 11
409.1290232457425
 21
245.1095927681352
 31
0.0
  0
LINE
  5
28F8
330
1F
100
AcDbEntity
  8
ﾀｰﾐﾅﾙｶﾊﾞｰ
100
AcDbLine
 10
391.6290232457427
 20
259.4095927681356
 30
0.0
 11
391.6290232457425
 21
245.1095927681356
 31
0.0
  0
LINE
  5
28F9
330
1F
100
AcDbEntity
  8
ﾀｰﾐﾅﾙｶﾊﾞｰ
100
AcDbLine
 10
409.1290232457427
 20
259.4095927681353
 30
0.0
 11
409.1290232457425
 21
245.1095927681352
 31
0.0
  0
LINE
  5
28FA
330
1F
100
AcDbEntity
  8
ﾀｰﾐﾅﾙｶﾊﾞｰ
100
AcDbLine
 10
391.6290232457427
 20
259.4095927681356
 30
0.0
 11
409.1290232457427
 21
259.4095927681353
 31
0.0
  0
LINE
  5
28FB
330
1F
100
AcDbEntity
  8
ﾎｯｸ
100
AcDbLine
 10
396.1290232457436
 20
169.5595927681358
 30
0.0
 11
396.1290232457436
 21
166.8095927681356
 31
0.0
  0
LINE
  5
28FC
330
1F
100
AcDbEntity
  8
ﾎｯｸ
100
AcDbLine
 10
396.1290232457436
 20
166.8095927681356
 30
0.0
 11
400.3790232457435
 21
166.8095927681356
 31
0.0
  0
LINE
  5
28FD
330
1F
100
AcDbEntity
  8
ﾎｯｸ
100
AcDbLine
 10
400.3790232457435
 20
168.8095927681356
 30
0.0
 11
398.1290232457435
 21
168.8095927681356
 31
0.0
  0
LINE
  5
28FE
330
1F
100
AcDbEntity
  8
ﾎｯｸ
100
AcDbLine
 10
398.1290232457435
 20
168.8095927681356
 30
0.0
 11
398.1290232457435
 21
169.5595927681357
 31
0.0
  0
LINE
  5
28FF
330
1F
100
AcDbEntity
  8
ﾎｯｸ
100
AcDbLine
 10
404.6290232457435
 20
169.5595927681358
 30
0.0
 11
404.6290232457435
 21
166.8095927681356
 31
0.0
  0
LINE
  5
2900
330
1F
100
AcDbEntity
  8
ﾎｯｸ
100
AcDbLine
 10
404.6290232457435
 20
166.8095927681356
 30
0.0
 11
400.3790232457435
 21
166.8095927681356
 31
0.0
  0
LINE
  5
2901
330
1F
100
AcDbEntity
  8
ﾎｯｸ
100
AcDbLine
 10
400.3790232457435
 20
168.8095927681356
 30
0.0
 11
402.6290232457435
 21
168.8095927681356
 31
0.0
  0
LINE
  5
2902
330
1F
100
AcDbEntity
  8
ﾎｯｸ
100
AcDbLine
 10
402.6290232457435
 20
168.8095927681356
 30
0.0
 11
402.6290232457435
 21
169.5595927681357
 31
0.0
  0
LINE
  5
29AC
330
1F
100
AcDbEntity
  8
ﾎﾞﾃﾞｨｰ
100
AcDbLine
 10
267.7606136665718
 20
185.609592768153
 30
0.0
 11
272.2606136665718
 21
186.409592768153
 31
0.0
  0
LINE
  5
29AD
330
1F
100
AcDbEntity
  8
ﾎﾞﾃﾞｨｰ
100
AcDbLine
 10
272.2606136665718
 20
185.609592768153
 30
0.0
 11
272.2606136665718
 21
186.409592768153
 31
0.0
  0
LINE
  5
29AF
330
1F
100
AcDbEntity
  8
ﾎﾞﾃﾞｨｰ
100
AcDbLine
 10
278.0606136665717
 20
193.6095927681529
 30
0.0
 11
278.0606136665718
 21
194.409592768153
 31
0.0
  0
LINE
  5
29B0
330
1F
100
AcDbEntity
  8
ﾎﾞﾃﾞｨｰ
100
AcDbLine
 10
276.0606136665716
 20
191.7095927681529
 30
0.0
 11
276.0606136665717
 21
193.6095927681529
 31
0.0
  0
LINE
  5
29B1
330
1F
100
AcDbEntity
  8
ﾎﾞﾃﾞｨｰ
100
AcDbLine
 10
276.0606136665716
 20
191.7095927681529
 30
0.0
 11
277.6606136665719
 21
191.7095927681529
 31
0.0
  0
LINE
  5
29B2
330
1F
100
AcDbEntity
  8
ﾎﾞﾃﾞｨｰ
100
AcDbLine
 10
276.0606136665717
 20
193.6095927681529
 30
0.0
 11
278.0606136665718
 21
194.409592768153
 31
0.0
  0
LINE
  5
29B3
330
1F
100
AcDbEntity
  8
ﾎﾞﾃﾞｨｰ
100
AcDbLine
 10
272.2606136665718
 20
185.609592768153
 30
0.0
 11
279.1606136665718
 21
185.609592768153
 31
0.0
  0
LINE
  5
29B4
330
1F
100
AcDbEntity
  8
ﾎﾞﾃﾞｨｰ
100
AcDbLine
 10
286.6606136665719
 20
196.559592768153
 30
0.0
 11
279.7606136665718
 21
196.559592768153
 31
0.0
  0
LINE
  5
29B5
330
1F
100
AcDbEntity
  8
ﾎﾞﾃﾞｨｰ
100
AcDbLine
 10
286.6606136665719
 20
198.059592768153
 30
0.0
 11
279.7606136665718
 21
198.0595927681531
 31
0.0
  0
LINE
  5
29B6
330
1F
100
AcDbEntity
  8
ﾎﾞﾃﾞｨｰ
100
AcDbLine
 10
286.6606136665719
 20
213.859592768153
 30
0.0
 11
279.760613666572
 21
213.859592768153
 31
0.0
  0
LINE
  5
29B7
330
1F
100
AcDbEntity
  8
ﾎﾞﾃﾞｨｰ
100
AcDbLine
 10
273.9606136665719
 20
186.809592768153
 30
0.0
 11
277.6606136665719
 21
186.809592768153
 31
0.0
1001
GENIUS_GENODEF_13
1002
{
1000
HIER
1070
     0
1002
}
1002
{
1000
MANEDIT
1070
     0
1002
}
1002
{
1000
NOSEL
1070
     0
1002
}
1002
{
1000
BEHIND
1070
     0
1002
}
1002
{
1000
REACTOR
1002
}
1001
GENIUS_GENOBJ-N-CEN_13
1002
{
1000
OWNER
1000
GEN
1002
}
  0
LINE
  5
29B8
330
1F
100
AcDbEntity
  8
ﾎﾞﾃﾞｨｰ
100
AcDbLine
 10
288.6606136665719
 20
208.409592768153
 30
0.0
 11
288.6606136665719
 21
205.609592768153
 31
0.0
  0
LINE
  5
29B9
330
1F
100
AcDbEntity
  8
ﾎﾞﾃﾞｨｰ
100
AcDbLine
 10
288.6606136665719
 20
205.609592768153
 30
0.0
 11
289.1606136665719
 21
205.609592768153
 31
0.0
  0
LINE
  5
29BA
330
1F
100
AcDbEntity
  8
ﾎﾞﾃﾞｨｰ
100
AcDbLine
 10
288.6606136665719
 20
208.409592768153
 30
0.0
 11
289.1606136665719
 21
208.409592768153
 31
0.0
  0
LINE
  5
29BB
330
1F
100
AcDbEntity
  8
ﾎﾞﾃﾞｨｰ
100
AcDbLine
 10
244.0606136665719
 20
171.0595927681531
 30
0.0
 11
244.0606136665719
 21
169.559592768153
 31
0.0
  0
LINE
  5
29BC
330
1F
100
AcDbEntity
  8
ﾎﾞﾃﾞｨｰ
100
AcDbLine
 10
238.1606136665719
 20
171.0595927681531
 30
0.0
 11
244.2606136665725
 21
171.0595927681531
 31
0.0
  0
LINE
  5
29BD
330
1F
100
AcDbEntity
  8
ﾎﾞﾃﾞｨｰ
100
AcDbLine
 10
242.6606136665719
 20
184.259592768153
 30
0.0
 11
242.6606136665719
 21
185.459592768153
 31
0.0
  0
LINE
  5
29BE
330
1F
100
AcDbEntity
  8
ﾎﾞﾃﾞｨｰ
100
AcDbLine
 10
242.6606136665719
 20
184.259592768153
 30
0.0
 11
257.7606136665719
 21
184.109592768153
 31
0.0
  0
LINE
  5
29BF
330
1F
100
AcDbEntity
  8
ﾎﾞﾃﾞｨｰ
100
AcDbLine
 10
242.6606136665719
 20
185.459592768153
 30
0.0
 11
257.7606136665719
 21
185.609592768153
 31
0.0
  0
LINE
  5
29C0
330
1F
100
AcDbEntity
  8
ﾎﾞﾃﾞｨｰ
100
AcDbLine
 10
257.9606136665719
 20
185.609592768153
 30
0.0
 11
257.9606136665719
 21
184.109592768153
 31
0.0
  0
LINE
  5
29C1
330
1F
100
AcDbEntity
  8
ﾎﾞﾃﾞｨｰ
100
AcDbLine
 10
277.6606136665719
 20
185.609592768153
 30
0.0
 11
277.6606136665719
 21
191.709592768153
 31
0.0
  0
LINE
  5
29C2
330
1F
100
AcDbEntity
  8
ﾎﾞﾃﾞｨｰ
100
AcDbLine
 10
273.9606136665719
 20
186.809592768153
 30
0.0
 11
273.9606136665719
 21
188.309592768153
 31
0.0
  0
LINE
  5
29C3
330
1F
100
AcDbEntity
  8
ﾎﾞﾃﾞｨｰ
100
AcDbLine
 10
273.9606136665719
 20
188.309592768153
 30
0.0
 11
277.6606136665719
 21
188.309592768153
 31
0.0
1001
GENIUS_GENODEF_13
1002
{
1000
HIER
1070
     0
1002
}
1002
{
1000
MANEDIT
1070
     0
1002
}
1002
{
1000
NOSEL
1070
     0
1002
}
1002
{
1000
BEHIND
1070
     0
1002
}
1002
{
1000
REACTOR
1002
}
1001
GENIUS_GENOBJ-N-CEN_13
1002
{
1000
OWNER
1000
GEN
1002
}
  0
LINE
  5
29C4
330
1F
100
AcDbEntity
  8
ﾎﾞﾃﾞｨｰ
100
AcDbLine
 10
257.7606136665719
 20
185.609592768153
 30
0.0
 11
267.7606136665718
 21
185.609592768153
 31
0.0
  0
LINE
  5
29C5
330
1F
100
AcDbEntity
  8
ﾎﾞﾃﾞｨｰ
100
AcDbLine
 10
278.0606136665717
 20
193.6095927681529
 30
0.0
 11
289.1606136665719
 21
193.609592768153
 31
0.0
  0
LINE
  5
29C6
330
1F
100
AcDbEntity
  8
ﾎﾞﾃﾞｨｰ
100
AcDbLine
 10
277.6606136665719
 20
187.5095927681529
 30
0.0
 11
279.1606136665718
 21
187.509592768153
 31
0.0
  0
LINE
  5
29C7
330
1F
100
AcDbEntity
  8
ﾎﾞﾃﾞｨｰ
100
AcDbLine
 10
286.6606136665719
 20
198.059592768153
 30
0.0
 11
286.6606136665719
 21
196.559592768153
 31
0.0
  0
LINE
  5
29C8
330
1F
100
AcDbEntity
  8
ﾎﾞﾃﾞｨｰ
100
AcDbLine
 10
279.7606136665718
 20
198.0595927681531
 30
0.0
 11
279.7606136665718
 21
196.559592768153
 31
0.0
  0
LINE
  5
29C9
330
1F
100
AcDbEntity
  8
ﾎﾞﾃﾞｨｰ
100
AcDbLine
 10
286.6606136665719
 20
214.609592768153
 30
0.0
 11
286.6606136665719
 21
213.859592768153
 31
0.0
  0
LINE
  5
29CA
330
1F
100
AcDbEntity
  8
ﾎﾞﾃﾞｨｰ
100
AcDbLine
 10
279.760613666572
 20
215.3595927681528
 30
0.0
 11
279.760613666572
 21
213.859592768153
 31
0.0
  0
LINE
  5
29CB
330
1F
100
AcDbEntity
  8
ﾎﾞﾃﾞｨｰ
100
AcDbLine
 10
279.1606136665718
 20
192.109592768153
 30
0.0
 11
279.1606136665718
 21
184.109592768153
 31
0.0
  0
LINE
  5
29CC
330
1F
100
AcDbEntity
  8
ﾎﾞﾃﾞｨｰ
100
AcDbLine
 10
289.1606136665719
 20
237.109592768153
 30
0.0
 11
289.1606136665719
 21
192.109592768153
 31
0.0
  0
LINE
  5
29CD
330
1F
100
AcDbEntity
  8
ﾎﾞﾃﾞｨｰ
100
AcDbLine
 10
279.1606136665718
 20
192.109592768153
 30
0.0
 11
289.1606136665719
 21
192.109592768153
 31
0.0
1001
GENIUS_GENODEF_13
1002
{
1000
HIER
1070
     0
1002
}
1002
{
1000
MANEDIT
1070
     0
1002
}
1002
{
1000
NOSEL
1070
     0
1002
}
1002
{
1000
BEHIND
1070
     0
1002
}
1002
{
1000
REACTOR
1002
}
1001
GENIUS_GENOBJ-N-CEN_13
1002
{
1000
OWNER
1000
GEN
1002
}
  0
LINE
  5
29CE
330
1F
100
AcDbEntity
  8
ﾎﾞﾃﾞｨｰ
100
AcDbLine
 10
279.1606136665719
 20
237.109592768153
 30
0.0
 11
289.1606136665719
 21
237.109592768153
 31
0.0
1001
GENIUS_GENODEF_13
1002
{
1000
HIER
1070
     0
1002
}
1002
{
1000
MANEDIT
1070
     0
1002
}
1002
{
1000
NOSEL
1070
     0
1002
}
1002
{
1000
BEHIND
1070
     0
1002
}
1002
{
1000
REACTOR
1002
}
1001
GENIUS_GENOBJ-N-CEN_13
1002
{
1000
OWNER
1000
GEN
1002
}
  0
LINE
  5
29CF
330
1F
100
AcDbEntity
  8
ﾎﾞﾃﾞｨｰ
100
AcDbLine
 10
257.7606136665719
 20
185.609592768153
 30
0.0
 11
257.7606136665718
 21
184.1095927681529
 31
0.0
  0
LINE
  5
29D0
330
1F
100
AcDbEntity
  8
ﾎﾞﾃﾞｨｰ
100
AcDbLine
 10
257.7606136665719
 20
245.109592768153
 30
0.0
 11
279.1606136665718
 21
245.109592768153
 31
0.0
1001
GENIUS_GENODEF_13
1002
{
1000
HIER
1070
     0
1002
}
1002
{
1000
MANEDIT
1070
     0
1002
}
1002
{
1000
NOSEL
1070
     0
1002
}
1002
{
1000
BEHIND
1070
     0
1002
}
1002
{
1000
REACTOR
1002
}
1001
GENIUS_GENOBJ-N-CEN_13
1002
{
1000
OWNER
1000
GEN
1002
}
  0
LINE
  5
29D1
330
1F
100
AcDbEntity
  8
ﾎﾞﾃﾞｨｰ
100
AcDbLine
 10
257.7606136665719
 20
184.109592768153
 30
0.0
 11
279.1606136665718
 21
184.109592768153
 31
0.0
1001
GENIUS_GENODEF_13
1002
{
1000
HIER
1070
     0
1002
}
1002
{
1000
MANEDIT
1070
     0
1002
}
1002
{
1000
NOSEL
1070
     0
1002
}
1002
{
1000
BEHIND
1070
     0
1002
}
1002
{
1000
REACTOR
1002
}
1001
GENIUS_GENOBJ-N-CEN_13
1002
{
1000
OWNER
1000
GEN
1002
}
  0
LINE
  5
29D2
330
1F
100
AcDbEntity
  8
ﾎﾞﾃﾞｨｰ
100
AcDbLine
 10
279.1606136665718
 20
245.109592768153
 30
0.0
 11
279.1606136665719
 21
237.109592768153
 31
0.0
  0
LINE
  5
29D3
330
1F
100
AcDbEntity
  8
ﾎﾞﾃﾞｨｰ
100
AcDbLine
 10
232.1606136665719
 20
169.559592768153
 30
0.0
 11
257.7606136665719
 21
169.559592768153
 31
0.0
  0
LINE
  5
29D4
330
1F
100
AcDbEntity
  8
ﾎﾞﾃﾞｨｰ
100
AcDbLine
 10
232.1606136665719
 20
259.659592768153
 30
0.0
 11
257.7606136665719
 21
259.659592768153
 31
0.0
  0
LINE
  5
29D5
330
1F
100
AcDbEntity
  8
ﾎﾞﾃﾞｨｰ
100
AcDbLine
 10
238.1606136665719
 20
235.259592768153
 30
0.0
 11
238.1606136665719
 21
214.609592768153
 31
0.0
  0
LINE
  5
29D7
330
1F
100
AcDbEntity
  8
ﾎﾞﾃﾞｨｰ
100
AcDbLine
 10
232.1606136665719
 20
259.659592768153
 30
0.0
 11
232.1606136665711
 21
259.4095927681525
 31
0.0
  0
LINE
  5
29D8
330
1F
100
AcDbEntity
  8
ﾎﾞﾃﾞｨｰ
100
AcDbLine
 10
232.1606136665719
 20
235.259592768153
 30
0.0
 11
238.1606136665719
 21
235.259592768153
 31
0.0
  0
LINE
  5
29D9
330
1F
100
AcDbEntity
  8
ﾎﾞﾃﾞｨｰ
100
AcDbLine
 10
238.1606136665719
 20
171.0595927681531
 30
0.0
 11
238.1606136665719
 21
169.559592768153
 31
0.0
  0
LINE
  5
29DB
330
1F
100
AcDbEntity
  8
前面ﾊﾟﾈﾙ
100
AcDbLine
 10
286.6606136665719
 20
235.6095927681529
 30
0.0
 11
286.6606136665719
 21
193.6095927681529
 31
0.0
  0
LINE
  5
29DC
330
1F
100
AcDbEntity
  8
前面ﾊﾟﾈﾙ
100
AcDbLine
 10
286.6606136665719
 20
193.6095927681529
 30
0.0
 11
288.6606136665719
 21
193.6095927681529
 31
0.0
  0
LINE
  5
29DD
330
1F
100
AcDbEntity
  8
前面ﾊﾟﾈﾙ
100
AcDbLine
 10
288.6606136665719
 20
193.6095927681529
 30
0.0
 11
288.6606136665719
 21
235.6095927681528
 31
0.0
  0
LINE
  5
29DE
330
1F
100
AcDbEntity
  8
ﾀｰﾐﾅﾙｶﾊﾞｰ
100
AcDbLine
 10
262.6606136665726
 20
171.2095927681529
 30
0.0
 11
244.2606136665726
 21
171.2095927681531
 31
0.0
  0
LINE
  5
29DF
330
1F
100
AcDbEntity
  8
ﾀｰﾐﾅﾙｶﾊﾞｰ
100
AcDbLine
 10
262.6606136665726
 20
183.509592768153
 30
0.0
 11
254.3606136665719
 21
183.5095927681529
 31
0.0
  0
LINE
  5
29E0
330
1F
100
AcDbEntity
  8
ﾀｰﾐﾅﾙｶﾊﾞｰ
100
AcDbLine
 10
264.2606136665726
 20
169.9595927681529
 30
0.0
 11
257.7606136665714
 21
169.7095927681529
 31
0.0
  0
LINE
  5
29E1
330
1F
100
AcDbEntity
  8
ﾀｰﾐﾅﾙｶﾊﾞｰ
100
AcDbLine
 10
257.7606136665719
 20
183.509592768153
 30
0.0
 11
257.7606136665715
 21
172.509592768153
 31
0.0
  0
LINE
  5
29E2
330
1F
100
AcDbEntity
  8
ﾀｰﾐﾅﾙｶﾊﾞｰ
100
AcDbLine
 10
257.7606136665714
 20
169.7095927681529
 30
0.0
 11
244.2606136665726
 21
169.7095927681529
 31
0.0
  0
LINE
  5
29E3
330
1F
100
AcDbEntity
  8
ﾀｰﾐﾅﾙｶﾊﾞｰ
100
AcDbLine
 10
244.2606136665726
 20
171.2095927681531
 30
0.0
 11
244.2606136665726
 21
169.7095927681529
 31
0.0
  0
LINE
  5
29E4
330
1F
100
AcDbEntity
  8
ﾀｰﾐﾅﾙｶﾊﾞｰ
100
AcDbLine
 10
264.2606136665726
 20
184.1095927681529
 30
0.0
 11
264.2606136665726
 21
169.9595927681529
 31
0.0
  0
LINE
  5
29E5
330
1F
100
AcDbEntity
  8
ﾀｰﾐﾅﾙｶﾊﾞｰ
100
AcDbLine
 10
267.2606136665726
 20
183.1095927681529
 30
0.0
 11
267.2606136665726
 21
184.1095927681529
 31
0.0
  0
LINE
  5
29E6
330
1F
100
AcDbEntity
  8
ﾀｰﾐﾅﾙｶﾊﾞｰ
100
AcDbLine
 10
267.2606136665726
 20
184.1095927681529
 30
0.0
 11
254.3606136665719
 21
184.1095927681529
 31
0.0
  0
LINE
  5
29E7
330
1F
100
AcDbEntity
  8
ﾀｰﾐﾅﾙｶﾊﾞｰ
100
AcDbLine
 10
267.2606136665726
 20
183.1095927681529
 30
0.0
 11
267.2606136665726
 21
183.1095927681529
 31
0.0
  0
ARC
  5
29E8
330
1F
100
AcDbEntity
  8
ﾀｰﾐﾅﾙｶﾊﾞｰ
100
AcDbCircle
 10
267.2606136665726
 20
180.1095927681529
 30
0.0
 40
3.0
100
AcDbArc
 50
90.0
 51
180.0
  0
LINE
  5
29E9
330
1F
100
AcDbEntity
  8
ﾀｰﾐﾅﾙｶﾊﾞｰ
100
AcDbLine
 10
262.6606136665726
 20
172.509592768153
 30
0.0
 11
255.7606136665715
 21
172.509592768153
 31
0.0
  0
LINE
  5
29EA
330
1F
100
AcDbEntity
  8
ﾀｰﾐﾅﾙｶﾊﾞｰ
100
AcDbLine
 10
255.7606136665715
 20
172.509592768153
 30
0.0
 11
255.7606136665714
 21
171.209592768153
 31
0.0
  0
LINE
  5
29EB
330
1F
100
AcDbEntity
  8
ﾀｰﾐﾅﾙｶﾊﾞｰ
100
AcDbLine
 10
254.3606136665719
 20
184.1095927681529
 30
0.0
 11
254.3606136665719
 21
183.509592768153
 31
0.0
  0
LINE
  5
29EC
330
1F
100
AcDbEntity
  8
ﾀｰﾐﾅﾙｶﾊﾞｰ
100
AcDbLine
 10
263.8606136665726
 20
183.1095927681529
 30
0.0
 11
263.8606136665726
 21
171.1095927681529
 31
0.0
  0
LINE
  5
29ED
330
1F
100
AcDbEntity
  8
ﾀｰﾐﾅﾙｶﾊﾞｰ
100
AcDbLine
 10
263.8606136665726
 20
171.1095927681529
 30
0.0
 11
264.2606136665726
 21
171.1095927681529
 31
0.0
  0
LINE
  5
29EE
330
1F
100
AcDbEntity
  8
ﾀｰﾐﾅﾙｶﾊﾞｰ
100
AcDbLine
 10
264.2606136665726
 20
183.1095927681529
 30
0.0
 11
263.8606136665726
 21
183.1095927681529
 31
0.0
  0
LINE
  5
29EF
330
1F
100
AcDbEntity
  8
ﾀｰﾐﾅﾙｶﾊﾞｰ
100
AcDbLine
 10
262.6606136665726
 20
183.509592768153
 30
0.0
 11
262.6606136665726
 21
171.2095927681529
 31
0.0
  0
LINE
  5
29F0
330
1F
100
AcDbEntity
  8
ﾎﾞﾃﾞｨｰ
100
AcDbLine
 10
257.7606136665714
 20
169.7095927681529
 30
0.0
 11
257.7606136665719
 21
169.559592768153
 31
0.0
  0
LINE
  5
29F1
330
1F
100
AcDbEntity
  8
ﾀｰﾐﾅﾙｶﾊﾞｰ
100
AcDbLine
 10
264.2606136665718
 20
259.3095927681534
 30
0.0
 11
257.7606136665706
 21
259.5095927681534
 31
0.0
  0
LINE
  5
29F2
330
1F
100
AcDbEntity
  8
ﾀｰﾐﾅﾙｶﾊﾞｰ
100
AcDbLine
 10
267.260613666572
 20
246.1095927681536
 30
0.0
 11
267.260613666572
 21
245.1095927681536
 31
0.0
  0
ARC
  5
29F3
330
1F
100
AcDbEntity
  8
ﾀｰﾐﾅﾙｶﾊﾞｰ
100
AcDbCircle
 10
267.260613666572
 20
249.1095927681536
 30
0.0
 40
3.0
100
AcDbArc
 50
180.0
 51
270.0
  0
LINE
  5
29F4
330
1F
100
AcDbEntity
  8
ﾀｰﾐﾅﾙｶﾊﾞｰ
100
AcDbLine
 10
264.2606136665719
 20
249.1095927681535
 30
0.0
 11
264.2606136665718
 21
259.3095927681534
 31
0.0
  0
LINE
  5
29F5
330
1F
100
AcDbEntity
  8
ﾍﾞｰｽ
100
AcDbLine
 10
240.1606136665719
 20
217.209592768153
 30
0.0
 11
240.1606136665719
 21
212.009592768153
 31
0.0
  0
LINE
  5
29F6
330
1F
100
AcDbEntity
  8
ﾍﾞｰｽ
100
AcDbLine
 10
240.1606136665719
 20
212.009592768153
 30
0.0
 11
238.1606136665719
 21
212.009592768153
 31
0.0
  0
LINE
  5
29F7
330
1F
100
AcDbEntity
  8
ﾍﾞｰｽ
100
AcDbLine
 10
238.1606136665719
 20
214.609592768153
 30
0.0
 11
238.1606136665719
 21
173.1095927681529
 31
0.0
  0
LINE
  5
29F8
330
1F
100
AcDbEntity
  8
ﾍﾞｰｽ
100
AcDbLine
 10
236.1606136665719
 20
214.609592768153
 30
0.0
 11
236.1606136665719
 21
196.859592768153
 31
0.0
  0
LINE
  5
29F9
330
1F
100
AcDbEntity
  8
ﾍﾞｰｽ
100
AcDbLine
 10
241.1606136665719
 20
215.209592768153
 30
0.0
 11
241.1606136665719
 21
214.009592768153
 31
0.0
  0
LINE
  5
29FA
330
1F
100
AcDbEntity
  8
ﾍﾞｰｽ
100
AcDbLine
 10
241.1606136665719
 20
214.009592768153
 30
0.0
 11
240.1606136665719
 21
214.009592768153
 31
0.0
  0
LINE
  5
29FB
330
1F
100
AcDbEntity
  8
ﾍﾞｰｽ
100
AcDbLine
 10
236.1606136665719
 20
196.859592768153
 30
0.0
 11
231.1606136665719
 21
196.859592768153
 31
0.0
  0
LINE
  5
29FC
330
1F
100
AcDbEntity
  8
ﾍﾞｰｽ
100
AcDbLine
 10
232.1606136665719
 20
194.309592768153
 30
0.0
 11
232.1606136665719
 21
169.8095927681529
 31
0.0
  0
LINE
  5
29FD
330
1F
100
AcDbEntity
  8
ﾍﾞｰｽ
100
AcDbLine
 10
231.1606136665719
 20
196.859592768153
 30
0.0
 11
231.1606136665719
 21
179.6095927681529
 31
0.0
  0
LINE
  5
29FE
330
1F
100
AcDbEntity
  8
ﾍﾞｰｽ
100
AcDbLine
 10
231.1606136665719
 20
169.8095927681529
 30
0.0
 11
238.1606136665719
 21
169.8095927681529
 31
0.0
  0
LINE
  5
29FF
330
1F
100
AcDbEntity
  8
ﾍﾞｰｽ
100
AcDbLine
 10
232.1606136665719
 20
171.6095927681529
 30
0.0
 11
241.1606136665719
 21
171.6095927681529
 31
0.0
  0
LINE
  5
2A00
330
1F
100
AcDbEntity
  8
ﾍﾞｰｽ
100
AcDbLine
 10
241.1606136665719
 20
171.6095927681529
 30
0.0
 11
241.1606136665719
 21
173.1095927681529
 31
0.0
  0
LINE
  5
2A01
330
1F
100
AcDbEntity
  8
ﾍﾞｰｽ
100
AcDbLine
 10
241.1606136665719
 20
173.1095927681529
 30
0.0
 11
238.1606136665719
 21
173.1095927681529
 31
0.0
  0
LINE
  5
2A02
330
1F
100
AcDbEntity
  8
ﾍﾞｰｽ
100
AcDbLine
 10
238.1606136665719
 20
171.6095927681529
 30
0.0
 11
238.1606136665719
 21
169.8095927681529
 31
0.0
  0
LINE
  5
2A03
330
1F
100
AcDbEntity
  8
ﾍﾞｰｽ
100
AcDbLine
 10
238.1606136665719
 20
194.309592768153
 30
0.0
 11
232.1606136665719
 21
194.309592768153
 31
0.0
  0
LINE
  5
2A04
330
1F
100
AcDbEntity
  8
ﾍﾞｰｽ
100
AcDbLine
 10
231.1606136665719
 20
179.6095927681529
 30
0.0
 11
234.3606136665719
 21
179.6095927681529
 31
0.0
  0
LINE
  5
2A05
330
1F
100
AcDbEntity
  8
ﾍﾞｰｽ
100
AcDbLine
 10
234.3606136665719
 20
179.6095927681529
 30
0.0
 11
234.3606136665719
 21
175.609592768153
 31
0.0
  0
LINE
  5
2A06
330
1F
100
AcDbEntity
  8
ﾍﾞｰｽ
100
AcDbLine
 10
234.3606136665719
 20
175.609592768153
 30
0.0
 11
231.1606136665719
 21
175.609592768153
 31
0.0
  0
LINE
  5
2A07
330
1F
100
AcDbEntity
  8
ﾍﾞｰｽ
100
AcDbLine
 10
231.1606136665719
 20
175.609592768153
 30
0.0
 11
231.1606136665719
 21
169.8095927681529
 31
0.0
  0
LINE
  5
2A08
330
1F
100
AcDbEntity
  8
ﾎｯｸ
100
AcDbLine
 10
236.1606136665719
 20
169.8095927681529
 30
0.0
 11
236.1606136665719
 21
166.8095927681529
 31
0.0
  0
LINE
  5
2A09
330
1F
100
AcDbEntity
  8
ﾎｯｸ
100
AcDbLine
 10
236.1606136665719
 20
166.8095927681529
 30
0.0
 11
232.1606136665719
 21
166.8095927681529
 31
0.0
  0
LINE
  5
2A0A
330
1F
100
AcDbEntity
  8
ﾎｯｸ
100
AcDbLine
 10
232.1606136665719
 20
166.8095927681529
 30
0.0
 11
232.1606136665719
 21
169.8095927681529
 31
0.0
  0
LINE
  5
2A0B
330
1F
100
AcDbEntity
  8
ﾎｯｸ
100
AcDbLine
 10
232.1606136665719
 20
196.859592768153
 30
0.0
 11
234.1606136665719
 21
198.859592768153
 31
0.0
  0
LINE
  5
2A0C
330
1F
100
AcDbEntity
  8
ﾎｯｸ
100
AcDbLine
 10
234.1606136665719
 20
198.859592768153
 30
0.0
 11
235.1606136665719
 21
198.859592768153
 31
0.0
  0
LINE
  5
2A0D
330
1F
100
AcDbEntity
  8
ﾎｯｸ
100
AcDbLine
 10
235.1606136665719
 20
198.859592768153
 30
0.0
 11
235.1606136665719
 21
196.859592768153
 31
0.0
  0
LINE
  5
2A0E
330
1F
100
AcDbEntity
  8
ﾍﾞｰｽ
100
AcDbLine
 10
236.1606136665719
 20
214.6095927681526
 30
0.0
 11
236.1606136665715
 21
232.3595927681526
 31
0.0
  0
LINE
  5
2A0F
330
1F
100
AcDbEntity
  8
ﾍﾞｰｽ
100
AcDbLine
 10
236.1606136665715
 20
232.3595927681526
 30
0.0
 11
231.1606136665715
 21
232.3595927681525
 31
0.0
  0
LINE
  5
2A10
330
1F
100
AcDbEntity
  8
ﾍﾞｰｽ
100
AcDbLine
 10
231.1606136665715
 20
229.6595927681525
 30
0.0
 11
231.1606136665712
 21
249.6095927681525
 31
0.0
  0
LINE
  5
2A11
330
1F
100
AcDbEntity
  8
ﾍﾞｰｽ
100
AcDbLine
 10
231.1606136665711
 20
259.4095927681525
 30
0.0
 11
232.1606136665711
 21
259.4095927681525
 31
0.0
  0
LINE
  5
2A12
330
1F
100
AcDbEntity
  8
ﾍﾞｰｽ
100
AcDbLine
 10
231.1606136665712
 20
249.6095927681525
 30
0.0
 11
232.1606136665713
 21
249.6095927681525
 31
0.0
  0
LINE
  5
2A13
330
1F
100
AcDbEntity
  8
ﾍﾞｰｽ
100
AcDbLine
 10
232.1606136665712
 20
253.6095927681525
 30
0.0
 11
231.1606136665711
 21
253.6095927681525
 31
0.0
  0
LINE
  5
2A14
330
1F
100
AcDbEntity
  8
ﾍﾞｰｽ
100
AcDbLine
 10
231.1606136665711
 20
253.6095927681525
 30
0.0
 11
231.1606136665711
 21
259.4095927681525
 31
0.0
  0
LINE
  5
2A15
330
1F
100
AcDbEntity
  8
ﾍﾞｰｽ
100
AcDbLine
 10
232.1606136665715
 20
234.9095927681525
 30
0.0
 11
232.1606136665711
 21
259.4095927681525
 31
0.0
  0
LINE
  5
2A16
330
1F
100
AcDbEntity
  8
ﾍﾞｰｽ
100
AcDbLine
 10
238.1606136665719
 20
234.909592768153
 30
0.0
 11
232.1606136665719
 21
234.909592768153
 31
0.0
  0
LINE
  5
2A17
330
1F
100
AcDbEntity
  8
ﾍﾞｰｽ
100
AcDbLine
 10
238.1606136665719
 20
214.6095927681527
 30
0.0
 11
238.1606136665703
 21
256.1095927681531
 31
0.0
  0
LINE
  5
2A19
330
1F
100
AcDbEntity
  8
ﾀｰﾐﾅﾙｶﾊﾞｰ
100
AcDbLine
 10
257.7606136665719
 20
245.109592768153
 30
0.0
 11
267.260613666572
 21
245.109592768153
 31
0.0
  0
LINE
  5
2A1C
330
1F
100
AcDbEntity
  8
ﾍﾞｰｽ
100
AcDbLine
 10
233.1606136665715
 20
229.6595927681525
 30
0.0
 11
231.1606136665715
 21
229.6595927681525
 31
0.0
  0
LINE
  5
2A1D
330
1F
100
AcDbEntity
  8
ﾍﾞｰｽ
100
AcDbLine
 10
233.1606136665715
 20
229.6595927681525
 30
0.0
 11
235.1606136665715
 21
232.3595927681525
 31
0.0
  0
LINE
  5
2A40
330
1F
100
AcDbEntity
  8
ﾎﾞﾃﾞｨｰ
100
AcDbLine
 10
511.5974328249147
 20
237.1095927681358
 30
0.0
 11
511.5974328249147
 21
192.1095927681358
 31
0.0
  0
LINE
  5
2A42
330
1F
100
AcDbEntity
  8
ﾎﾞﾃﾞｨｰ
100
AcDbLine
 10
521.5974328249147
 20
237.1095927681358
 30
0.0
 11
511.5974328249147
 21
237.1095927681358
 31
0.0
1001
GENIUS_GENODEF_13
1002
{
1000
HIER
1070
     0
1002
}
1002
{
1000
MANEDIT
1070
     0
1002
}
1002
{
1000
NOSEL
1070
     0
1002
}
1002
{
1000
BEHIND
1070
     0
1002
}
1002
{
1000
REACTOR
1002
}
1001
GENIUS_GENOBJ-N-CEN_13
1002
{
1000
OWNER
1000
GEN
1002
}
  0
LINE
  5
2A44
330
1F
100
AcDbEntity
  8
ﾎﾞﾃﾞｨｰ
100
AcDbLine
 10
542.9974328249147
 20
245.1095927681358
 30
0.0
 11
521.5974328249147
 21
245.1095927681358
 31
0.0
1001
GENIUS_GENODEF_13
1002
{
1000
HIER
1070
     0
1002
}
1002
{
1000
MANEDIT
1070
     0
1002
}
1002
{
1000
NOSEL
1070
     0
1002
}
1002
{
1000
BEHIND
1070
     0
1002
}
1002
{
1000
REACTOR
1002
}
1001
GENIUS_GENOBJ-N-CEN_13
1002
{
1000
OWNER
1000
GEN
1002
}
  0
LINE
  5
2A46
330
1F
100
AcDbEntity
  8
ﾎﾞﾃﾞｨｰ
100
AcDbLine
 10
521.5974328249147
 20
245.1095927681358
 30
0.0
 11
521.5974328249147
 21
237.1095927681358
 31
0.0
  0
LINE
  5
2A48
330
1F
100
AcDbEntity
  8
ﾎﾞﾃﾞｨｰ
100
AcDbLine
 10
568.5974328249146
 20
259.6595927681358
 30
0.0
 11
542.9974328249147
 21
259.6595927681358
 31
0.0
  0
LINE
  5
2A49
330
1F
100
AcDbEntity
  8
ﾎﾞﾃﾞｨｰ
100
AcDbLine
 10
562.5974328249147
 20
235.2595927681358
 30
0.0
 11
562.597432824914
 21
193.9595927681357
 31
0.0
  0
LINE
  5
2A4B
330
1F
100
AcDbEntity
  8
ﾎﾞﾃﾞｨｰ
100
AcDbLine
 10
568.5974328249146
 20
259.6595927681358
 30
0.0
 11
568.5974328249146
 21
235.2595927681358
 31
0.0
  0
LINE
  5
2A4C
330
1F
100
AcDbEntity
  8
ﾎﾞﾃﾞｨｰ
100
AcDbLine
 10
568.5974328249146
 20
235.2595927681358
 30
0.0
 11
562.5974328249147
 21
235.2595927681358
 31
0.0
  0
LINE
  5
2A65
330
1F
100
AcDbEntity
  8
ﾀｰﾐﾅﾙｶﾊﾞｰ
100
AcDbLine
 10
536.4974328249147
 20
259.3095927681362
 30
0.0
 11
542.9974328249159
 21
259.5095927681362
 31
0.0
  0
LINE
  5
2A66
330
1F
100
AcDbEntity
  8
ﾀｰﾐﾅﾙｶﾊﾞｰ
100
AcDbLine
 10
533.4974328249145
 20
246.1095927681364
 30
0.0
 11
533.4974328249145
 21
245.1095927681364
 31
0.0
  0
ARC
  5
2A67
330
1F
100
AcDbEntity
  8
ﾀｰﾐﾅﾙｶﾊﾞｰ
100
AcDbCircle
 10
533.4974328249145
 20
249.1095927681364
 30
0.0
 40
3.0
100
AcDbArc
 50
270.0
 51
0.000000000000007
  0
LINE
  5
2A68
330
1F
100
AcDbEntity
  8
ﾀｰﾐﾅﾙｶﾊﾞｰ
100
AcDbLine
 10
536.4974328249145
 20
249.1095927681363
 30
0.0
 11
536.4974328249147
 21
259.3095927681362
 31
0.0
  0
LINE
  5
2A6F
330
1F
100
AcDbEntity
  8
ﾍﾞｰｽ
100
AcDbLine
 10
564.5974328249146
 20
196.8595927681358
 30
0.0
 11
569.5974328249146
 21
196.8595927681358
 31
0.0
  0
LINE
  5
2A70
330
1F
100
AcDbEntity
  8
ﾍﾞｰｽ
100
AcDbLine
 10
568.5974328249146
 20
194.3095927681358
 30
0.0
 11
568.5974328249146
 21
169.8095927681357
 31
0.0
  0
LINE
  5
2A71
330
1F
100
AcDbEntity
  8
ﾍﾞｰｽ
100
AcDbLine
 10
569.5974328249146
 20
196.8595927681358
 30
0.0
 11
569.5974328249146
 21
179.6095927681357
 31
0.0
  0
LINE
  5
2A72
330
1F
100
AcDbEntity
  8
ﾍﾞｰｽ
100
AcDbLine
 10
569.5974328249146
 20
169.8095927681357
 30
0.0
 11
568.5974328249146
 21
169.8095927681357
 31
0.0
  0
LINE
  5
2A77
330
1F
100
AcDbEntity
  8
ﾍﾞｰｽ
100
AcDbLine
 10
562.5974328249147
 20
194.3095927681358
 30
0.0
 11
568.5974328249146
 21
194.3095927681358
 31
0.0
  0
LINE
  5
2A78
330
1F
100
AcDbEntity
  8
ﾍﾞｰｽ
100
AcDbLine
 10
569.5974328249146
 20
179.6095927681357
 30
0.0
 11
568.5974328249146
 21
179.6095927681357
 31
0.0
  0
LINE
  5
2A7A
330
1F
100
AcDbEntity
  8
ﾍﾞｰｽ
100
AcDbLine
 10
568.5974328249146
 20
175.6095927681357
 30
0.0
 11
569.5974328249146
 21
175.6095927681357
 31
0.0
  0
LINE
  5
2A7B
330
1F
100
AcDbEntity
  8
ﾍﾞｰｽ
100
AcDbLine
 10
569.5974328249146
 20
175.6095927681357
 30
0.0
 11
569.5974328249146
 21
169.8095927681357
 31
0.0
  0
LINE
  5
2A7C
330
1F
100
AcDbEntity
  8
ﾎｯｸ
100
AcDbLine
 10
564.5974328249146
 20
169.5595927681357
 30
0.0
 11
564.5974328249146
 21
166.8095927681357
 31
0.0
  0
LINE
  5
2A7D
330
1F
100
AcDbEntity
  8
ﾎｯｸ
100
AcDbLine
 10
564.5974328249146
 20
166.8095927681357
 30
0.0
 11
568.5974328249146
 21
166.8095927681357
 31
0.0
  0
LINE
  5
2A7E
330
1F
100
AcDbEntity
  8
ﾎｯｸ
100
AcDbLine
 10
568.5974328249146
 20
166.8095927681357
 30
0.0
 11
568.5974328249146
 21
169.8095927681357
 31
0.0
  0
LINE
  5
2A7F
330
1F
100
AcDbEntity
  8
ﾎｯｸ
100
AcDbLine
 10
568.5974328249146
 20
196.8595927681358
 30
0.0
 11
566.5974328249147
 21
198.8595927681358
 31
0.0
  0
LINE
  5
2A80
330
1F
100
AcDbEntity
  8
ﾎｯｸ
100
AcDbLine
 10
566.5974328249147
 20
198.8595927681358
 30
0.0
 11
565.5974328249146
 21
198.8595927681358
 31
0.0
  0
LINE
  5
2A81
330
1F
100
AcDbEntity
  8
ﾎｯｸ
100
AcDbLine
 10
565.5974328249146
 20
198.8595927681358
 30
0.0
 11
565.5974328249146
 21
196.8595927681358
 31
0.0
  0
LINE
  5
2A82
330
1F
100
AcDbEntity
  8
ﾍﾞｰｽ
100
AcDbLine
 10
564.5974328249145
 20
196.8595927681358
 30
0.0
 11
564.5974328249151
 21
232.3595927681354
 31
0.0
  0
LINE
  5
2A83
330
1F
100
AcDbEntity
  8
ﾍﾞｰｽ
100
AcDbLine
 10
564.5974328249151
 20
232.3595927681354
 30
0.0
 11
569.5974328249151
 21
232.3595927681353
 31
0.0
  0
LINE
  5
2A84
330
1F
100
AcDbEntity
  8
ﾍﾞｰｽ
100
AcDbLine
 10
569.5974328249151
 20
229.6595927681353
 30
0.0
 11
569.5974328249153
 21
249.6095927681353
 31
0.0
  0
LINE
  5
2A85
330
1F
100
AcDbEntity
  8
ﾍﾞｰｽ
100
AcDbLine
 10
569.5974328249156
 20
259.4095927681353
 30
0.0
 11
568.5974328249155
 21
259.4095927681353
 31
0.0
  0
LINE
  5
2A86
330
1F
100
AcDbEntity
  8
ﾍﾞｰｽ
100
AcDbLine
 10
569.5974328249153
 20
249.6095927681353
 30
0.0
 11
568.5974328249153
 21
249.6095927681353
 31
0.0
  0
LINE
  5
2A87
330
1F
100
AcDbEntity
  8
ﾍﾞｰｽ
100
AcDbLine
 10
568.5974328249153
 20
253.6095927681353
 30
0.0
 11
569.5974328249153
 21
253.6095927681353
 31
0.0
  0
LINE
  5
2A88
330
1F
100
AcDbEntity
  8
ﾍﾞｰｽ
100
AcDbLine
 10
569.5974328249153
 20
253.6095927681353
 30
0.0
 11
569.5974328249156
 21
259.4095927681353
 31
0.0
  0
LINE
  5
2A89
330
1F
100
AcDbEntity
  8
ﾍﾞｰｽ
100
AcDbLine
 10
568.5974328249151
 20
234.9095927681354
 30
0.0
 11
568.5974328249155
 21
259.4095927681353
 31
0.0
  0
LINE
  5
2A8A
330
1F
100
AcDbEntity
  8
ﾍﾞｰｽ
100
AcDbLine
 10
562.5974328249147
 20
234.9095927681358
 30
0.0
 11
568.5974328249146
 21
234.9095927681358
 31
0.0
  0
LINE
  5
2A8B
330
1F
100
AcDbEntity
  8
ﾍﾞｰｽ
100
AcDbLine
 10
562.5974328249147
 20
194.3095927681358
 30
0.0
 11
562.5974328249156
 21
234.9095927681358
 31
0.0
  0
LINE
  5
2A8C
330
1F
100
AcDbEntity
  8
ﾀｰﾐﾅﾙｶﾊﾞｰ
100
AcDbLine
 10
542.9974328249147
 20
259.6595927681358
 30
0.0
 11
542.9974328249147
 21
245.1095927681358
 31
0.0
  0
LINE
  5
2A8D
330
1F
100
AcDbEntity
  8
ﾀｰﾐﾅﾙｶﾊﾞｰ
100
AcDbLine
 10
542.9974328249147
 20
245.1095927681358
 30
0.0
 11
533.4974328249145
 21
245.1095927681358
 31
0.0
  0
LINE
  5
2A90
330
1F
100
AcDbEntity
  8
ﾍﾞｰｽ
100
AcDbLine
 10
567.5974328249151
 20
229.6595927681353
 30
0.0
 11
569.5974328249151
 21
229.6595927681353
 31
0.0
  0
LINE
  5
2A91
330
1F
100
AcDbEntity
  8
ﾍﾞｰｽ
100
AcDbLine
 10
567.5974328249151
 20
229.6595927681353
 30
0.0
 11
565.5974328249151
 21
232.3595927681353
 31
0.0
  0
LINE
  5
2A93
330
1F
100
AcDbEntity
  8
ﾎﾞﾃﾞｨｰ
100
AcDbLine
 10
521.5974328249147
 20
192.1095927681357
 30
0.0
 11
511.5974328249147
 21
192.1095927681357
 31
0.0
1001
GENIUS_GENODEF_13
1002
{
1000
HIER
1070
     0
1002
}
1002
{
1000
MANEDIT
1070
     0
1002
}
1002
{
1000
NOSEL
1070
     0
1002
}
1002
{
1000
BEHIND
1070
     0
1002
}
1002
{
1000
REACTOR
1002
}
1001
GENIUS_GENOBJ-N-CEN_13
1002
{
1000
OWNER
1000
GEN
1002
}
  0
LINE
  5
2A94
330
1F
100
AcDbEntity
  8
ﾎﾞﾃﾞｨｰ
100
AcDbLine
 10
542.9974328249147
 20
184.1095927681357
 30
0.0
 11
521.5974328249147
 21
184.1095927681357
 31
0.0
1001
GENIUS_GENODEF_13
1002
{
1000
HIER
1070
     0
1002
}
1002
{
1000
MANEDIT
1070
     0
1002
}
1002
{
1000
NOSEL
1070
     0
1002
}
1002
{
1000
BEHIND
1070
     0
1002
}
1002
{
1000
REACTOR
1002
}
1001
GENIUS_GENOBJ-N-CEN_13
1002
{
1000
OWNER
1000
GEN
1002
}
  0
LINE
  5
2A95
330
1F
100
AcDbEntity
  8
ﾎﾞﾃﾞｨｰ
100
AcDbLine
 10
521.5974328249147
 20
184.1095927681357
 30
0.0
 11
521.5974328249147
 21
192.1095927681357
 31
0.0
  0
LINE
  5
2A96
330
1F
100
AcDbEntity
  8
ﾎﾞﾃﾞｨｰ
100
AcDbLine
 10
568.5974328249146
 20
169.5595927681357
 30
0.0
 11
542.9974328249147
 21
169.5595927681357
 31
0.0
  0
LINE
  5
2A97
330
1F
100
AcDbEntity
  8
ﾎﾞﾃﾞｨｰ
100
AcDbLine
 10
568.5974328249146
 20
169.5595927681357
 30
0.0
 11
568.5974328249146
 21
193.9595927681357
 31
0.0
  0
LINE
  5
2A98
330
1F
100
AcDbEntity
  8
ﾎﾞﾃﾞｨｰ
100
AcDbLine
 10
568.5974328249146
 20
193.9595927681357
 30
0.0
 11
562.5974328249147
 21
193.9595927681357
 31
0.0
  0
LINE
  5
2A99
330
1F
100
AcDbEntity
  8
ﾀｰﾐﾅﾙｶﾊﾞｰ
100
AcDbLine
 10
536.4974328249147
 20
169.9095927681353
 30
0.0
 11
542.9974328249159
 21
169.7095927681353
 31
0.0
  0
LINE
  5
2A9A
330
1F
100
AcDbEntity
  8
ﾀｰﾐﾅﾙｶﾊﾞｰ
100
AcDbLine
 10
533.4974328249145
 20
183.1095927681351
 30
0.0
 11
533.4974328249145
 21
184.1095927681351
 31
0.0
  0
ARC
  5
2A9B
330
1F
100
AcDbEntity
  8
ﾀｰﾐﾅﾙｶﾊﾞｰ
100
AcDbCircle
 10
533.4974328249145
 20
180.1095927681351
 30
0.0
 40
3.0
100
AcDbArc
 50
0.0
 51
90.00000000000003
  0
LINE
  5
2A9C
330
1F
100
AcDbEntity
  8
ﾀｰﾐﾅﾙｶﾊﾞｰ
100
AcDbLine
 10
536.4974328249145
 20
180.1095927681352
 30
0.0
 11
536.4974328249147
 21
169.9095927681353
 31
0.0
  0
LINE
  5
2A9D
330
1F
100
AcDbEntity
  8
ﾀｰﾐﾅﾙｶﾊﾞｰ
100
AcDbLine
 10
542.9974328249147
 20
169.5595927681357
 30
0.0
 11
542.9974328249147
 21
184.1095927681357
 31
0.0
  0
LINE
  5
2A9E
330
1F
100
AcDbEntity
  8
ﾀｰﾐﾅﾙｶﾊﾞｰ
100
AcDbLine
 10
542.9974328249147
 20
184.1095927681357
 30
0.0
 11
533.4974328249145
 21
184.1095927681357
 31
0.0
  0
LINE
  5
2AA2
330
1F
100
AcDbEntity
  8
ﾎﾞﾃﾞｨｰ
100
AcDbLine
 10
267.760613666572
 20
243.6095927681529
 30
0.0
 11
272.2606136665719
 21
242.8095927681528
 31
0.0
  0
LINE
  5
2AA3
330
1F
100
AcDbEntity
  8
ﾎﾞﾃﾞｨｰ
100
AcDbLine
 10
272.2606136665719
 20
243.6095927681529
 30
0.0
 11
272.2606136665719
 21
242.8095927681528
 31
0.0
  0
LINE
  5
2AA5
330
1F
100
AcDbEntity
  8
ﾎﾞﾃﾞｨｰ
100
AcDbLine
 10
278.0606136665717
 20
235.6095927681529
 30
0.0
 11
278.0606136665718
 21
234.8095927681528
 31
0.0
  0
LINE
  5
2AA6
330
1F
100
AcDbEntity
  8
ﾎﾞﾃﾞｨｰ
100
AcDbLine
 10
276.0606136665717
 20
237.5095927681529
 30
0.0
 11
276.0606136665717
 21
235.6095927681529
 31
0.0
  0
LINE
  5
2AA7
330
1F
100
AcDbEntity
  8
ﾎﾞﾃﾞｨｰ
100
AcDbLine
 10
276.0606136665717
 20
237.5095927681529
 30
0.0
 11
277.660613666572
 21
237.5095927681529
 31
0.0
  0
LINE
  5
2AA8
330
1F
100
AcDbEntity
  8
ﾎﾞﾃﾞｨｰ
100
AcDbLine
 10
276.0606136665717
 20
235.6095927681529
 30
0.0
 11
278.0606136665718
 21
234.8095927681528
 31
0.0
  0
LINE
  5
2AA9
330
1F
100
AcDbEntity
  8
ﾎﾞﾃﾞｨｰ
100
AcDbLine
 10
272.2606136665719
 20
243.6095927681529
 30
0.0
 11
279.160613666572
 21
243.6095927681528
 31
0.0
  0
LINE
  5
2AAA
330
1F
100
AcDbEntity
  8
ﾎﾞﾃﾞｨｰ
100
AcDbLine
 10
286.6606136665719
 20
232.6595927681528
 30
0.0
 11
279.7606136665719
 21
232.6595927681528
 31
0.0
  0
LINE
  5
2AAB
330
1F
100
AcDbEntity
  8
ﾎﾞﾃﾞｨｰ
100
AcDbLine
 10
286.6606136665719
 20
231.1595927681528
 30
0.0
 11
279.7606136665719
 21
231.1595927681527
 31
0.0
  0
LINE
  5
2AAC
330
1F
100
AcDbEntity
  8
ﾎﾞﾃﾞｨｰ
100
AcDbLine
 10
286.6606136665719
 20
215.3595927681528
 30
0.0
 11
279.760613666572
 21
215.3595927681528
 31
0.0
  0
LINE
  5
2AAD
330
1F
100
AcDbEntity
  8
ﾎﾞﾃﾞｨｰ
100
AcDbLine
 10
273.960613666572
 20
242.4095927681528
 30
0.0
 11
277.660613666572
 21
242.4095927681528
 31
0.0
1001
GENIUS_GENODEF_13
1002
{
1000
HIER
1070
     0
1002
}
1002
{
1000
MANEDIT
1070
     0
1002
}
1002
{
1000
NOSEL
1070
     0
1002
}
1002
{
1000
BEHIND
1070
     0
1002
}
1002
{
1000
REACTOR
1002
}
1001
GENIUS_GENOBJ-N-CEN_13
1002
{
1000
OWNER
1000
GEN
1002
}
  0
LINE
  5
2AAE
330
1F
100
AcDbEntity
  8
ﾎﾞﾃﾞｨｰ
100
AcDbLine
 10
288.6606136665719
 20
220.8095927681528
 30
0.0
 11
288.6606136665719
 21
223.6095927681528
 31
0.0
  0
LINE
  5
2AAF
330
1F
100
AcDbEntity
  8
ﾎﾞﾃﾞｨｰ
100
AcDbLine
 10
288.6606136665719
 20
223.6095927681528
 30
0.0
 11
289.1606136665719
 21
223.6095927681528
 31
0.0
  0
LINE
  5
2AB0
330
1F
100
AcDbEntity
  8
ﾎﾞﾃﾞｨｰ
100
AcDbLine
 10
244.0606136665721
 20
258.1595927681529
 30
0.0
 11
244.0606136665721
 21
259.659592768153
 31
0.0
  0
LINE
  5
2AB1
330
1F
100
AcDbEntity
  8
ﾎﾞﾃﾞｨｰ
100
AcDbLine
 10
238.1606136665719
 20
258.1595927681529
 30
0.0
 11
244.2606136665727
 21
258.1595927681529
 31
0.0
  0
LINE
  5
2AB2
330
1F
100
AcDbEntity
  8
ﾎﾞﾃﾞｨｰ
100
AcDbLine
 10
242.660613666572
 20
244.959592768153
 30
0.0
 11
242.660613666572
 21
243.759592768153
 31
0.0
  0
LINE
  5
2AB3
330
1F
100
AcDbEntity
  8
ﾎﾞﾃﾞｨｰ
100
AcDbLine
 10
242.660613666572
 20
244.959592768153
 30
0.0
 11
257.760613666572
 21
245.1095927681529
 31
0.0
  0
LINE
  5
2AB4
330
1F
100
AcDbEntity
  8
ﾎﾞﾃﾞｨｰ
100
AcDbLine
 10
242.660613666572
 20
243.759592768153
 30
0.0
 11
257.760613666572
 21
243.6095927681529
 31
0.0
  0
LINE
  5
2AB5
330
1F
100
AcDbEntity
  8
ﾎﾞﾃﾞｨｰ
100
AcDbLine
 10
257.960613666572
 20
243.6095927681529
 30
0.0
 11
257.9606136665721
 21
245.1095927681529
 31
0.0
  0
LINE
  5
2AB6
330
1F
100
AcDbEntity
  8
ﾎﾞﾃﾞｨｰ
100
AcDbLine
 10
277.660613666572
 20
243.6095927681528
 30
0.0
 11
277.660613666572
 21
237.5095927681528
 31
0.0
  0
LINE
  5
2AB7
330
1F
100
AcDbEntity
  8
ﾎﾞﾃﾞｨｰ
100
AcDbLine
 10
273.960613666572
 20
242.4095927681528
 30
0.0
 11
273.960613666572
 21
240.9095927681528
 31
0.0
  0
LINE
  5
2AB8
330
1F
100
AcDbEntity
  8
ﾎﾞﾃﾞｨｰ
100
AcDbLine
 10
273.960613666572
 20
240.9095927681528
 30
0.0
 11
277.660613666572
 21
240.9095927681528
 31
0.0
1001
GENIUS_GENODEF_13
1002
{
1000
HIER
1070
     0
1002
}
1002
{
1000
MANEDIT
1070
     0
1002
}
1002
{
1000
NOSEL
1070
     0
1002
}
1002
{
1000
BEHIND
1070
     0
1002
}
1002
{
1000
REACTOR
1002
}
1001
GENIUS_GENOBJ-N-CEN_13
1002
{
1000
OWNER
1000
GEN
1002
}
  0
LINE
  5
2AB9
330
1F
100
AcDbEntity
  8
ﾎﾞﾃﾞｨｰ
100
AcDbLine
 10
257.760613666572
 20
243.6095927681529
 30
0.0
 11
267.760613666572
 21
243.6095927681529
 31
0.0
  0
LINE
  5
2ABA
330
1F
100
AcDbEntity
  8
ﾎﾞﾃﾞｨｰ
100
AcDbLine
 10
278.0606136665717
 20
235.6095927681529
 30
0.0
 11
289.160613666572
 21
235.6095927681528
 31
0.0
  0
LINE
  5
2ABB
330
1F
100
AcDbEntity
  8
ﾎﾞﾃﾞｨｰ
100
AcDbLine
 10
277.660613666572
 20
241.7095927681529
 30
0.0
 11
279.160613666572
 21
241.7095927681528
 31
0.0
  0
LINE
  5
2ABC
330
1F
100
AcDbEntity
  8
ﾎﾞﾃﾞｨｰ
100
AcDbLine
 10
286.6606136665719
 20
231.1595927681528
 30
0.0
 11
286.6606136665719
 21
232.6595927681528
 31
0.0
  0
LINE
  5
2ABD
330
1F
100
AcDbEntity
  8
ﾎﾞﾃﾞｨｰ
100
AcDbLine
 10
279.7606136665719
 20
231.1595927681527
 30
0.0
 11
279.7606136665719
 21
232.6595927681528
 31
0.0
  0
LINE
  5
2ABE
330
1F
100
AcDbEntity
  8
ﾎﾞﾃﾞｨｰ
100
AcDbLine
 10
257.760613666572
 20
243.6095927681529
 30
0.0
 11
257.760613666572
 21
245.109592768153
 31
0.0
  0
LINE
  5
2AC1
330
1F
100
AcDbEntity
  8
前面ﾊﾟﾈﾙ
100
AcDbLine
 10
286.6606136665719
 20
235.6095927681529
 30
0.0
 11
288.660613666572
 21
235.6095927681528
 31
0.0
  0
LINE
  5
2AC3
330
1F
100
AcDbEntity
  8
ﾀｰﾐﾅﾙｶﾊﾞｰ
100
AcDbLine
 10
262.6606136665728
 20
258.009592768153
 30
0.0
 11
244.2606136665728
 21
258.0095927681528
 31
0.0
  0
LINE
  5
2AC4
330
1F
100
AcDbEntity
  8
ﾀｰﾐﾅﾙｶﾊﾞｰ
100
AcDbLine
 10
262.6606136665726
 20
245.7095927681528
 30
0.0
 11
254.360613666572
 21
245.709592768153
 31
0.0
  0
LINE
  5
2AC5
330
1F
100
AcDbEntity
  8
ﾀｰﾐﾅﾙｶﾊﾞｰ
100
AcDbLine
 10
257.760613666572
 20
245.7095927681528
 30
0.0
 11
257.7606136665717
 21
256.7095927681529
 31
0.0
  0
LINE
  5
2AC6
330
1F
100
AcDbEntity
  8
ﾀｰﾐﾅﾙｶﾊﾞｰ
100
AcDbLine
 10
257.7606136665717
 20
259.509592768153
 30
0.0
 11
244.2606136665728
 21
259.5095927681531
 31
0.0
  0
LINE
  5
2AC7
330
1F
100
AcDbEntity
  8
ﾀｰﾐﾅﾙｶﾊﾞｰ
100
AcDbLine
 10
244.2606136665728
 20
258.0095927681528
 30
0.0
 11
244.2606136665728
 21
259.5095927681531
 31
0.0
  0
LINE
  5
2AC8
330
1F
100
AcDbEntity
  8
ﾀｰﾐﾅﾙｶﾊﾞｰ
100
AcDbLine
 10
267.2606136665727
 20
245.109592768153
 30
0.0
 11
254.360613666572
 21
245.1095927681531
 31
0.0
  0
LINE
  5
2AC9
330
1F
100
AcDbEntity
  8
ﾀｰﾐﾅﾙｶﾊﾞｰ
100
AcDbLine
 10
267.2606136665727
 20
246.109592768153
 30
0.0
 11
267.2606136665727
 21
246.109592768153
 31
0.0
  0
LINE
  5
2ACA
330
1F
100
AcDbEntity
  8
ﾀｰﾐﾅﾙｶﾊﾞｰ
100
AcDbLine
 10
262.6606136665727
 20
256.7095927681529
 30
0.0
 11
255.7606136665716
 21
256.709592768153
 31
0.0
  0
LINE
  5
2ACB
330
1F
100
AcDbEntity
  8
ﾀｰﾐﾅﾙｶﾊﾞｰ
100
AcDbLine
 10
255.7606136665716
 20
256.709592768153
 30
0.0
 11
255.7606136665716
 21
258.009592768153
 31
0.0
  0
LINE
  5
2ACC
330
1F
100
AcDbEntity
  8
ﾀｰﾐﾅﾙｶﾊﾞｰ
100
AcDbLine
 10
254.360613666572
 20
245.109592768153
 30
0.0
 11
254.360613666572
 21
245.7095927681529
 31
0.0
  0
LINE
  5
2ACD
330
1F
100
AcDbEntity
  8
ﾀｰﾐﾅﾙｶﾊﾞｰ
100
AcDbLine
 10
263.8606136665727
 20
246.109592768153
 30
0.0
 11
263.8606136665728
 21
258.109592768153
 31
0.0
  0
LINE
  5
2ACE
330
1F
100
AcDbEntity
  8
ﾀｰﾐﾅﾙｶﾊﾞｰ
100
AcDbLine
 10
263.8606136665728
 20
258.109592768153
 30
0.0
 11
264.2606136665728
 21
258.109592768153
 31
0.0
  0
LINE
  5
2ACF
330
1F
100
AcDbEntity
  8
ﾀｰﾐﾅﾙｶﾊﾞｰ
100
AcDbLine
 10
264.2606136665727
 20
246.109592768153
 30
0.0
 11
263.8606136665727
 21
246.109592768153
 31
0.0
  0
LINE
  5
2AD0
330
1F
100
AcDbEntity
  8
ﾀｰﾐﾅﾙｶﾊﾞｰ
100
AcDbLine
 10
262.6606136665726
 20
245.7095927681528
 30
0.0
 11
262.6606136665728
 21
258.009592768153
 31
0.0
  0
LINE
  5
2AD1
330
1F
100
AcDbEntity
  8
ﾎﾞﾃﾞｨｰ
100
AcDbLine
 10
257.7606136665717
 20
259.509592768153
 30
0.0
 11
257.7606136665721
 21
259.6595927681528
 31
0.0
  0
LINE
  5
2AD2
330
1F
100
AcDbEntity
  8
ﾍﾞｰｽ
100
AcDbLine
 10
240.1606136665719
 20
217.209592768153
 30
0.0
 11
238.1606136665719
 21
217.209592768153
 31
0.0
  0
LINE
  5
2AD3
330
1F
100
AcDbEntity
  8
ﾍﾞｰｽ
100
AcDbLine
 10
241.1606136665719
 20
215.209592768153
 30
0.0
 11
240.1606136665719
 21
215.209592768153
 31
0.0
  0
LINE
  5
2AD4
330
1F
100
AcDbEntity
  8
ﾍﾞｰｽ
100
AcDbLine
 10
232.160613666572
 20
234.9095927681531
 30
0.0
 11
232.1606136665721
 21
259.409592768153
 31
0.0
  0
LINE
  5
2AD5
330
1F
100
AcDbEntity
  8
ﾍﾞｰｽ
100
AcDbLine
 10
232.1606136665721
 20
257.6095927681531
 30
0.0
 11
241.1606136665721
 21
257.6095927681531
 31
0.0
  0
LINE
  5
2AD6
330
1F
100
AcDbEntity
  8
ﾍﾞｰｽ
100
AcDbLine
 10
241.1606136665721
 20
257.6095927681531
 30
0.0
 11
241.160613666572
 21
256.1095927681531
 31
0.0
  0
LINE
  5
2AD7
330
1F
100
AcDbEntity
  8
ﾍﾞｰｽ
100
AcDbLine
 10
241.160613666572
 20
256.1095927681531
 30
0.0
 11
238.160613666572
 21
256.1095927681531
 31
0.0
  0
LINE
  5
2AD8
330
1F
100
AcDbEntity
  8
ﾍﾞｰｽ
100
AcDbLine
 10
231.160613666572
 20
249.6095927681531
 30
0.0
 11
234.360613666572
 21
249.6095927681531
 31
0.0
  0
LINE
  5
2AD9
330
1F
100
AcDbEntity
  8
ﾍﾞｰｽ
100
AcDbLine
 10
234.360613666572
 20
249.6095927681531
 30
0.0
 11
234.360613666572
 21
253.6095927681531
 31
0.0
  0
LINE
  5
2ADA
330
1F
100
AcDbEntity
  8
ﾍﾞｰｽ
100
AcDbLine
 10
234.360613666572
 20
253.6095927681531
 30
0.0
 11
231.160613666572
 21
253.6095927681531
 31
0.0
  0
HATCH
  5
2B25
330
1F
100
AcDbEntity
  8
AM_8
100
AcDbHatch
 10
0.0
 20
0.0
 30
0.0
210
0.0
220
0.0
230
1.0
  2
_U
 70
     0
 71
     0
 91
        1
 92
        1
 93
       14
 72
     1
 10
264.2606136665726
 20
169.9595927681529
 11
264.2606136665726
 21
171.1095927681529
 72
     1
 10
264.2606136665726
 20
171.1095927681529
 11
263.8606136665726
 21
171.1095927681529
 72
     1
 10
263.8606136665726
 20
171.1095927681529
 11
263.8606136665726
 21
183.1095927681529
 72
     1
 10
263.8606136665726
 20
183.1095927681529
 11
264.2606136665726
 21
183.1095927681529
 72
     1
 10
264.2606136665726
 20
183.1095927681529
 11
264.2606136665726
 21
184.1095927681529
 72
     1
 10
264.2606136665726
 20
184.1095927681529
 11
254.3606136665719
 21
184.1095927681529
 72
     1
 10
254.3606136665719
 20
184.1095927681529
 11
254.3606136665719
 21
183.509592768153
 72
     1
 10
254.3606136665719
 20
183.509592768153
 11
257.7606136665719
 21
183.5095927681529
 72
     1
 10
257.7606136665719
 20
183.5095927681529
 11
262.6606136665726
 21
183.509592768153
 72
     1
 10
262.6606136665726
 20
183.509592768153
 11
262.6606136665726
 21
171.2095927681529
 72
     1
 10
262.6606136665726
 20
171.2095927681529
 11
244.2606136665726
 21
171.2095927681531
 72
     1
 10
244.2606136665726
 20
171.2095927681531
 11
244.2606136665726
 21
169.7095927681529
 72
     1
 10
244.2606136665726
 20
169.7095927681529
 11
257.7606136665714
 21
169.7095927681529
 72
     1
 10
257.7606136665714
 20
169.7095927681529
 11
264.2606136665726
 21
169.9595927681529
 97
        0
 75
     0
 76
     0
 52
45.0
 41
5.0
 77
     0
 78
     1
 53
45.0
 43
140.9523873424512
 44
58.55285101466432
 45
-3.535533905932737
 46
3.535533905932737
 79
     0
 98
        1
 10
0.0
 20
0.0
1001
GENIUS_GENOBJ-N-HTC_13
1002
{
1000
OWNER
1000
GEN
1002
}
1001
GENIUS_GENODEF_13
1002
{
1000
HIER
1070
     0
1002
}
1002
{
1000
MANEDIT
1070
     0
1002
}
1002
{
1000
NOSEL
1070
     0
1002
}
1002
{
1000
BEHIND
1070
     0
1002
}
1002
{
1000
OTHER
1070
     0
1002
}
1002
{
1000
REACTOR
1002
}
1001
GENIUS_GENHATCH_13
1002
{
1000
DATA
1040
45.0
1042
2.5
1000
_U
1070
     0
1011
255.8673659192302
1021
170.2523063032442
1031
0.0
1002
}
1002
{
1000
UCS
1010
0.0
1020
0.0
1030
0.0
1010
1.0
1020
0.0
1030
0.0
1010
0.0
1020
1.0
1030
0.0
1002
}
  0
HATCH
  5
2B29
330
1F
100
AcDbEntity
  8
AM_8
100
AcDbHatch
 10
0.0
 20
0.0
 30
0.0
210
0.0
220
0.0
230
1.0
  2
_U
 70
     0
 71
     0
 91
        1
 92
        1
 93
       10
 72
     1
 10
267.2606136665726
 20
184.1095927681529
 11
279.1606136665718
 21
184.109592768153
 72
     1
 10
279.1606136665718
 20
184.109592768153
 11
279.1606136665718
 21
185.609592768153
 72
     1
 10
279.1606136665718
 20
185.609592768153
 11
272.2606136665718
 21
185.609592768153
 72
     1
 10
272.2606136665718
 20
185.609592768153
 11
272.2606136665718
 21
186.409592768153
 72
     1
 10
272.2606136665718
 20
186.409592768153
 11
267.7606136665718
 21
185.609592768153
 72
     1
 10
267.7606136665718
 20
185.609592768153
 11
257.9606136665719
 21
185.609592768153
 72
     1
 10
257.9606136665719
 20
185.609592768153
 11
257.9606136665719
 21
184.109592768153
 72
     1
 10
257.9606136665719
 20
184.109592768153
 11
264.2606136665726
 21
184.1095927681529
 72
     1
 10
264.2606136665726
 20
184.1095927681529
 11
265.9298643258428
 21
184.109592768153
 72
     1
 10
265.9298643258428
 20
184.109592768153
 11
267.2606136665726
 21
184.1095927681529
 97
        0
 75
     0
 76
     0
 52
45.0
 41
3.0
 77
     0
 78
     1
 53
45.0
 43
1.0
 44
0.0
 45
-2.121320343559642
 46
2.121320343559642
 79
     0
 98
        1
 10
0.0
 20
0.0
1001
GENIUS_GENOBJ-N-HTC_13
1002
{
1000
OWNER
1000
GEN
1002
}
1001
GENIUS_GENODEF_13
1002
{
1000
HIER
1070
     0
1002
}
1002
{
1000
MANEDIT
1070
     0
1002
}
1002
{
1000
NOSEL
1070
     0
1002
}
1002
{
1000
BEHIND
1070
     0
1002
}
1002
{
1000
OTHER
1070
     0
1002
}
1002
{
1000
REACTOR
1002
}
1001
GENIUS_GENHATCH_13
1002
{
1000
DATA
1040
45.0
1042
1.5
1000
_U
1070
     0
1011
265.9298643258428
1021
184.7415724068335
1031
0.0
1002
}
1002
{
1000
UCS
1010
0.0
1020
0.0
1030
0.0
1010
1.0
1020
0.0
1030
0.0
1010
0.0
1020
1.0
1030
0.0
1002
}
  0
HATCH
  5
2B2D
330
1F
100
AcDbEntity
  8
AM_8
100
AcDbHatch
 10
0.0
 20
0.0
 30
0.0
210
0.0
220
0.0
230
1.0
  2
_U
 70
     0
 71
     0
 91
        1
 92
        1
 93
       10
 72
     1
 10
289.1606136665719
 20
193.609592768153
 11
278.0606136665717
 21
193.6095927681529
 72
     1
 10
278.0606136665717
 20
193.6095927681529
 11
278.0606136665718
 21
194.409592768153
 72
     1
 10
278.0606136665718
 20
194.409592768153
 11
276.0606136665717
 21
193.6095927681529
 72
     1
 10
276.0606136665717
 20
193.6095927681529
 11
276.0606136665716
 21
191.7095927681529
 72
     1
 10
276.0606136665716
 20
191.7095927681529
 11
277.6606136665719
 21
191.7095927681529
 72
     1
 10
277.6606136665719
 20
191.7095927681529
 11
277.6606136665719
 21
187.5095927681529
 72
     1
 10
277.6606136665719
 20
187.5095927681529
 11
279.1606136665718
 21
187.509592768153
 72
     1
 10
279.1606136665718
 20
187.509592768153
 11
279.1606136665718
 21
192.109592768153
 72
     1
 10
279.1606136665718
 20
192.109592768153
 11
289.1606136665719
 21
192.109592768153
 72
     1
 10
289.1606136665719
 20
192.109592768153
 11
289.1606136665719
 21
193.609592768153
 97
        0
 75
     0
 76
     0
 52
45.0
 41
2.4
 77
     0
 78
     1
 53
45.0
 43
-76.62191506020883
 44
435.2449477658258
 45
-1.697056274847714
 46
1.697056274847714
 79
     0
 98
        1
 10
0.0
 20
0.0
1001
GENIUS_GENODEF_13
1002
{
1000
HIER
1070
     0
1002
}
1002
{
1000
MANEDIT
1070
     0
1002
}
1002
{
1000
NOSEL
1070
     0
1002
}
1002
{
1000
BEHIND
1070
     0
1002
}
1002
{
1000
OTHER
1070
     0
1002
}
1002
{
1000
REACTOR
1002
}
1001
GENIUS_GENOBJ-N-HTC_13
1002
{
1000
OWNER
1000
GEN
1002
}
1001
GENIUS_GENHATCH_13
1002
{
1000
DATA
1040
45.0
1042
1.5
1000
_U
1070
     0
1011
283.1705933606927
1021
192.7516191571499
1031
0.0
1002
}
1002
{
1000
UCS
1010
0.0
1020
0.0
1030
0.0
1010
1.0
1020
0.0
1030
0.0
1010
0.0
1020
1.0
1030
0.0
1002
}
  0
HATCH
  5
2B31
330
1F
100
AcDbEntity
  8
AM_8
100
AcDbHatch
 10
0.0
 20
0.0
 30
0.0
210
0.0
220
0.0
230
1.0
  2
_U
 70
     0
 71
     0
 91
        1
 92
        1
 93
        4
 72
     1
 10
288.6606136665719
 20
193.609592768153
 11
288.660613666572
 21
235.6095927681528
 72
     1
 10
288.660613666572
 20
235.6095927681528
 11
286.6606136665719
 21
235.6095927681529
 72
     1
 10
286.6606136665719
 20
235.6095927681529
 11
286.6606136665719
 21
193.6095927681529
 72
     1
 10
286.6606136665719
 20
193.6095927681529
 11
288.6606136665719
 21
193.609592768153
 97
        0
 75
     0
 76
     0
 52
45.0
 41
5.0
 77
     0
 78
     1
 53
45.0
 43
-76.62191506020883
 44
435.2449477658258
 45
-3.535533905932737
 46
3.535533905932737
 79
     0
 98
        1
 10
0.0
 20
0.0
1001
GENIUS_GENOBJ-N-HTC_13
1002
{
1000
OWNER
1000
GEN
1002
}
1001
GENIUS_GENODEF_13
1002
{
1000
HIER
1070
     0
1002
}
1002
{
1000
MANEDIT
1070
     0
1002
}
1002
{
1000
NOSEL
1070
     0
1002
}
1002
{
1000
BEHIND
1070
     0
1002
}
1002
{
1000
OTHER
1070
     0
1002
}
1002
{
1000
REACTOR
1002
}
1001
GENIUS_GENHATCH_13
1002
{
1000
DATA
1040
45.0
1042
2.5
1000
_U
1070
     0
1011
287.6589321190854
1021
204.9063976340985
1031
0.0
1002
}
1002
{
1000
UCS
1010
0.0
1020
0.0
1030
0.0
1010
1.0
1020
0.0
1030
0.0
1010
0.0
1020
1.0
1030
0.0
1002
}
  0
HATCH
  5
2B35
330
1F
100
AcDbEntity
  8
AM_8
100
AcDbHatch
 10
0.0
 20
0.0
 30
0.0
210
0.0
220
0.0
230
1.0
  2
_U
 70
     0
 71
     0
 91
        1
 92
        1
 93
       11
 72
     1
 10
276.0606136665717
 20
235.6095927681529
 11
278.0606136665718
 21
234.8095927681528
 72
     1
 10
278.0606136665718
 20
234.8095927681528
 11
278.0606136665717
 21
235.6095927681529
 72
     1
 10
278.0606136665717
 20
235.6095927681529
 11
288.660613666572
 21
235.6095927681528
 72
     1
 10
288.660613666572
 20
235.6095927681528
 11
289.160613666572
 21
235.6095927681528
 72
     1
 10
289.160613666572
 20
235.6095927681528
 11
289.1606136665719
 21
237.109592768153
 72
     1
 10
289.1606136665719
 20
237.109592768153
 11
279.1606136665719
 21
237.109592768153
 72
     1
 10
279.1606136665719
 20
237.109592768153
 11
279.1606136665718
 21
241.7095927681528
 72
     1
 10
279.1606136665718
 20
241.7095927681528
 11
277.660613666572
 21
241.7095927681529
 72
     1
 10
277.660613666572
 20
241.7095927681529
 11
277.660613666572
 21
237.5095927681529
 72
     1
 10
277.660613666572
 20
237.5095927681529
 11
276.0606136665717
 21
237.5095927681529
 72
     1
 10
276.0606136665717
 20
237.5095927681529
 11
276.0606136665717
 21
235.6095927681529
 97
        0
 75
     0
 76
     0
 52
45.0
 41
3.0
 77
     0
 78
     1
 53
45.0
 43
1.0
 44
0.0
 45
-2.121320343559642
 46
2.121320343559642
 79
     0
 98
        1
 10
0.0
 20
0.0
1001
GENIUS_GENODEF_13
1002
{
1000
HIER
1070
     0
1002
}
1002
{
1000
MANEDIT
1070
     0
1002
}
1002
{
1000
NOSEL
1070
     0
1002
}
1002
{
1000
BEHIND
1070
     0
1002
}
1002
{
1000
OTHER
1070
     0
1002
}
1002
{
1000
REACTOR
1002
}
1001
GENIUS_GENOBJ-N-HTC_13
1002
{
1000
OWNER
1000
GEN
1002
}
1001
GENIUS_GENHATCH_13
1002
{
1000
DATA
1040
45.0
1042
1.5
1000
_U
1070
     0
1011
277.0171343004019
1021
236.5689761718445
1031
0.0
1002
}
1002
{
1000
UCS
1010
0.0
1020
0.0
1030
0.0
1010
1.0
1020
0.0
1030
0.0
1010
0.0
1020
1.0
1030
0.0
1002
}
  0
HATCH
  5
2B39
330
1F
100
AcDbEntity
  8
AM_8
100
AcDbHatch
 10
0.0
 20
0.0
 30
0.0
210
0.0
220
0.0
230
1.0
  2
_U
 70
     0
 71
     0
 91
        1
 92
        1
 93
        8
 72
     1
 10
257.960613666572
 20
243.6095927681529
 11
267.760613666572
 21
243.6095927681529
 72
     1
 10
267.760613666572
 20
243.6095927681529
 11
272.2606136665719
 21
242.8095927681528
 72
     1
 10
272.2606136665719
 20
242.8095927681528
 11
272.2606136665719
 21
243.6095927681529
 72
     1
 10
272.2606136665719
 20
243.6095927681529
 11
277.660613666572
 21
243.6095927681528
 72
     1
 10
277.660613666572
 20
243.6095927681528
 11
279.160613666572
 21
243.6095927681528
 72
     1
 10
279.160613666572
 20
243.6095927681528
 11
279.1606136665718
 21
245.109592768153
 72
     1
 10
279.1606136665718
 20
245.109592768153
 11
257.9606136665721
 21
245.1095927681529
 72
     1
 10
257.9606136665721
 20
245.1095927681529
 11
257.960613666572
 21
243.6095927681529
 97
        0
 75
     0
 76
     0
 52
45.0
 41
3.0
 77
     0
 78
     1
 53
45.0
 43
1.0
 44
0.0
 45
-2.121320343559642
 46
2.121320343559642
 79
     0
 98
        1
 10
0.0
 20
0.0
1001
GENIUS_GENODEF_13
1002
{
1000
HIER
1070
     0
1002
}
1002
{
1000
MANEDIT
1070
     0
1002
}
1002
{
1000
NOSEL
1070
     0
1002
}
1002
{
1000
BEHIND
1070
     0
1002
}
1002
{
1000
OTHER
1070
     0
1002
}
1002
{
1000
REACTOR
1002
}
1001
GENIUS_GENOBJ-N-HTC_13
1002
{
1000
OWNER
1000
GEN
1002
}
1001
GENIUS_GENHATCH_13
1002
{
1000
DATA
1040
45.0
1042
1.5
1000
_U
1070
     0
1011
270.0178844680927
1021
244.2553704457873
1031
0.0
1002
}
1002
{
1000
UCS
1010
0.0
1020
0.0
1030
0.0
1010
1.0
1020
0.0
1030
0.0
1010
0.0
1020
1.0
1030
0.0
1002
}
  0
HATCH
  5
2B3D
330
1F
100
AcDbEntity
  8
AM_8
100
AcDbHatch
 10
0.0
 20
0.0
 30
0.0
210
0.0
220
0.0
230
1.0
  2
_U
 70
     0
 71
     0
 91
        1
 92
        1
 93
       13
 72
     1
 10
264.2606136665718
 20
259.3095927681534
 11
257.7606136665706
 21
259.5095927681534
 72
     1
 10
257.7606136665706
 20
259.5095927681534
 11
244.2606136665728
 21
259.5095927681531
 72
     1
 10
244.2606136665728
 20
259.5095927681531
 11
244.2606136665728
 21
258.0095927681528
 72
     1
 10
244.2606136665728
 20
258.0095927681528
 11
262.6606136665728
 21
258.009592768153
 72
     1
 10
262.6606136665728
 20
258.009592768153
 11
262.6606136665726
 21
245.7095927681528
 72
     1
 10
262.6606136665726
 20
245.7095927681528
 11
254.360613666572
 21
245.709592768153
 72
     1
 10
254.360613666572
 20
245.709592768153
 11
254.360613666572
 21
245.109592768153
 72
     1
 10
254.360613666572
 20
245.109592768153
 11
257.760613666572
 21
245.109592768153
 72
     1
 10
257.760613666572
 20
245.109592768153
 11
257.9606136665721
 21
245.1095927681529
 72
     1
 10
257.9606136665721
 20
245.1095927681529
 11
267.2606136665727
 21
245.109592768153
 72
     1
 10
267.2606136665727
 20
245.109592768153
 11
267.260613666572
 21
246.1095927681536
 72
     2
 10
267.260613666572
 20
249.1095927681536
 40
3.000000000000028
 50
90.0
 51
179.9999999999978
 73
     0
 72
     1
 10
264.2606136665719
 20
249.1095927681535
 11
264.2606136665718
 21
259.3095927681534
 97
        0
 75
     0
 76
     0
 52
45.0
 41
5.0
 77
     0
 78
     1
 53
45.0
 43
140.9523873424519
 44
370.6663345216422
 45
-3.535533905932737
 46
3.535533905932737
 79
     0
 98
        1
 10
0.0
 20
0.0
1001
GENIUS_GENODEF_13
1002
{
1000
HIER
1070
     0
1002
}
1002
{
1000
MANEDIT
1070
     0
1002
}
1002
{
1000
NOSEL
1070
     0
1002
}
1002
{
1000
BEHIND
1070
     0
1002
}
1002
{
1000
OTHER
1070
     0
1002
}
1002
{
1000
REACTOR
1002
}
1001
GENIUS_GENOBJ-N-HTC_13
1002
{
1000
OWNER
1000
GEN
1002
}
1001
GENIUS_GENHATCH_13
1002
{
1000
DATA
1040
45.0
1042
2.5
1000
_U
1070
     0
1011
263.5433458379023
1021
255.1973622247551
1031
0.0
1002
}
1002
{
1000
UCS
1010
0.0
1020
0.0
1030
0.0
1010
1.0
1020
0.0
1030
0.0
1010
0.0
1020
1.0
1030
0.0
1002
}
  0
HATCH
  5
2B4B
330
1F
100
AcDbEntity
  8
AM_8
100
AcDbHatch
 10
0.0
 20
0.0
 30
0.0
210
0.0
220
0.0
230
1.0
  2
_U
 70
     0
 71
     0
 91
        1
 92
        1
 93
        4
 72
     1
 10
238.1606136665719
 20
258.1595927681529
 11
244.0606136665721
 21
258.1595927681529
 72
     1
 10
244.0606136665721
 20
258.1595927681529
 11
244.0606136665721
 21
259.659592768153
 72
     1
 10
244.0606136665721
 20
259.659592768153
 11
238.1606136665719
 21
259.659592768153
 72
     1
 10
238.1606136665719
 20
259.659592768153
 11
238.1606136665719
 21
258.1595927681529
 97
        0
 75
     0
 76
     0
 52
45.0
 41
1.0
 77
     0
 78
     1
 53
45.0
 43
-76.62191506020983
 44
-6.025762229518448
 45
-0.7071067811865475
 46
0.7071067811865476
 79
     0
 98
        1
 10
0.0
 20
0.0
1001
GENIUS_GENOBJ-N-HTC_13
1002
{
1000
OWNER
1000
GEN
1002
}
1001
GENIUS_GENODEF_13
1002
{
1000
HIER
1070
     0
1002
}
1002
{
1000
MANEDIT
1070
     0
1002
}
1002
{
1000
NOSEL
1070
     0
1002
}
1002
{
1000
BEHIND
1070
     0
1002
}
1002
{
1000
OTHER
1070
     0
1002
}
1002
{
1000
REACTOR
1002
}
1001
GENIUS_GENHATCH_13
1002
{
1000
DATA
1040
45.0
1042
2.5
1000
_U
1070
     0
1011
238.4018248363307
1021
259.5090573649006
1031
0.0
1002
}
1002
{
1000
UCS
1010
0.0
1020
0.0
1030
0.0
1010
1.0
1020
0.0
1030
0.0
1010
0.0
1020
1.0
1030
0.0
1002
}
  0
HATCH
  5
2B4F
330
1F
100
AcDbEntity
  8
AM_8
100
AcDbHatch
 10
0.0
 20
0.0
 30
0.0
210
0.0
220
0.0
230
1.0
  2
_U
 70
     0
 71
     0
 91
        1
 92
        1
 93
        4
 72
     1
 10
244.0606136665719
 20
169.559592768153
 11
244.0606136665719
 21
171.0595927681531
 72
     1
 10
244.0606136665719
 20
171.0595927681531
 11
238.1606136665719
 21
171.0595927681531
 72
     1
 10
238.1606136665719
 20
171.0595927681531
 11
238.1606136665719
 21
169.559592768153
 72
     1
 10
238.1606136665719
 20
169.559592768153
 11
244.0606136665719
 21
169.559592768153
 97
        0
 75
     0
 76
     0
 52
45.0
 41
1.0
 77
     0
 78
     1
 53
45.0
 43
-76.62191506020983
 44
-6.025762229518448
 45
-0.7071067811865475
 46
0.7071067811865476
 79
     0
 98
        1
 10
0.0
 20
0.0
1001
GENIUS_GENOBJ-N-HTC_13
1002
{
1000
OWNER
1000
GEN
1002
}
1001
GENIUS_GENODEF_13
1002
{
1000
HIER
1070
     0
1002
}
1002
{
1000
MANEDIT
1070
     0
1002
}
1002
{
1000
NOSEL
1070
     0
1002
}
1002
{
1000
BEHIND
1070
     0
1002
}
1002
{
1000
OTHER
1070
     0
1002
}
1002
{
1000
REACTOR
1002
}
1001
GENIUS_GENHATCH_13
1002
{
1000
DATA
1040
45.0
1042
2.5
1000
_U
1070
     0
1011
238.5526596275809
1021
170.3998684048652
1031
0.0
1002
}
1002
{
1000
UCS
1010
0.0
1020
0.0
1030
0.0
1010
1.0
1020
0.0
1030
0.0
1010
0.0
1020
1.0
1030
0.0
1002
}
  0
LINE
  5
2B53
330
1F
100
AcDbEntity
  8
ﾎﾞﾃﾞｨｰ
100
AcDbLine
 10
238.1606136665719
 20
258.1595927681529
 30
0.0
 11
238.1606136665719
 21
259.659592768153
 31
0.0
  0
LINE
  5
2B54
330
1F
100
AcDbEntity
  8
ﾍﾞｰｽ
100
AcDbLine
 10
231.1606136665719
 20
259.409592768153
 30
0.0
 11
238.1606136665719
 21
259.409592768153
 31
0.0
  0
LINE
  5
2B55
330
1F
100
AcDbEntity
  8
ﾍﾞｰｽ
100
AcDbLine
 10
238.1606136665719
 20
257.609592768153
 30
0.0
 11
238.1606136665719
 21
259.409592768153
 31
0.0
  0
LINE
  5
2B5D
330
1F
100
AcDbEntity
  8
ﾎﾞﾃﾞｨｰ
100
AcDbLine
 10
542.9974328249147
 20
259.6595927681358
 30
0.0
 11
542.9974328249147
 21
245.1095927681358
 31
0.0
  0
LINE
  5
2B61
330
1F
100
AcDbEntity
  8
ﾎﾞﾃﾞｨｰ
100
AcDbLine
 10
542.9974328249147
 20
184.1095927681357
 30
0.0
 11
542.9974328249147
 21
169.5595927681357
 31
0.0
  0
LINE
  5
2B63
330
1F
100
AcDbEntity
  8
ﾎﾞﾃﾞｨｰ
100
AcDbLine
 10
232.1606136665719
 20
193.9595927681529
 30
0.0
 11
238.1606136665719
 21
193.9595927681529
 31
0.0
  0
LINE
  5
2B64
330
1F
100
AcDbEntity
  8
ﾎﾞﾃﾞｨｰ
100
AcDbLine
 10
232.1606136665719
 20
169.5595927681529
 30
0.0
 11
232.1606136665719
 21
169.8095927681529
 31
0.0
  0
VIEWPORT
  5
178
102
{ACAD_XDICTIONARY
360
2DAF
102
}
330
1B
100
AcDbEntity
 67
     1
  8
0
100
AcDbViewport
 10
133.3499908447266
 20
123.6089706563676
 30
0.0
 40
370.2266912936524
 41
272.4401407679965
 68
     1
 69
     1
 12
133.3499908447266
 22
123.6089706563676
 13
0.0
 23
0.0
 14
10.0
 24
10.0
 15
10.0
 25
10.0
 16
0.0
 26
0.0
 36
1.0
 17
0.0
 27
0.0
 37
0.0
 42
50.0
 43
0.0
 44
0.0
 45
272.4401407679965
 50
0.0
 51
0.0
 72
   100
 90
    32800
  1

281
     0
 71
     1
 74
     0
110
0.0
120
0.0
130
0.0
111
1.0
121
0.0
131
0.0
112
0.0
122
1.0
132
0.0
 79
     0
146
0.0
  0
ENDSEC
  0
SECTION
  2
OBJECTS
  0
DICTIONARY
  5
C
330
0
100
AcDbDictionary
281
     1
  3
ACAD_CIP_PREVIOUS_PRODUCT_INFO
350
2BD4
  3
ACAD_COLOR
350
BE
  3
ACAD_GROUP
350
D
  3
ACAD_LAYOUT
350
1A
  3
ACAD_MATERIAL
350
BD
  3
ACAD_MLEADERSTYLE
350
2BC6
  3
ACAD_MLINESTYLE
350
17
  3
ACAD_PLOTSETTINGS
350
19
  3
ACAD_PLOTSTYLENAME
350
E
  3
ACAD_SCALELIST
350
2BB4
  3
ACAD_TABLESTYLE
350
931
  3
ACAD_VISUALSTYLE
350
2B9B
  3
ACDB_RECOMPOSE_DATA
350
2DA7
  3
AcDbVariableDictionary
350
94
  3
AcmDictionary
350
5B
  3
AMG
350
41
  3
AMGSNAPSETTINGS
350
1E5
  3
DWGPROPS
350
2DA8
  0
DICTIONARY
  5
2EE
330
2
100
AcDbDictionary
280
     1
281
     1
  3
ACAD_LAYERFILTERS
360
2B80
  3
ACAD_LAYERSTATES
360
4DB
  3
ACLYDICTIONARY
360
2B7F
  3
AMLAYER_GROUPCOLORS
360
2EF
  0
DICTIONARY
  5
2D85
330
10
100
AcDbDictionary
280
     1
281
     1
  3
ADSK_XREC_LAYER_RECONCILED
360
2D86
  0
DICTIONARY
  5
2D87
330
2F0
100
AcDbDictionary
280
     1
281
     1
  3
ADSK_XREC_LAYER_RECONCILED
360
2D88
  0
DICTIONARY
  5
2D89
330
2F1
100
AcDbDictionary
280
     1
281
     1
  3
ADSK_XREC_LAYER_RECONCILED
360
2D8A
  0
DICTIONARY
  5
2D8B
330
33C
100
AcDbDictionary
280
     1
281
     1
  3
ADSK_XREC_LAYER_RECONCILED
360
2D8C
  0
DICTIONARY
  5
2D8D
330
33D
100
AcDbDictionary
280
     1
281
     1
  3
ADSK_XREC_LAYER_RECONCILED
360
2D8E
  0
DICTIONARY
  5
2D8F
330
45E
100
AcDbDictionary
280
     1
281
     1
  3
ADSK_XREC_LAYER_RECONCILED
360
2D90
  0
DICTIONARY
  5
2D91
330
45F
100
AcDbDictionary
280
     1
281
     1
  3
ADSK_XREC_LAYER_RECONCILED
360
2D92
  0
DICTIONARY
  5
2D93
330
4D5
100
AcDbDictionary
280
     1
281
     1
  3
ADSK_XREC_LAYER_RECONCILED
360
2D94
  0
DICTIONARY
  5
2D95
330
1751
100
AcDbDictionary
280
     1
281
     1
  3
ADSK_XREC_LAYER_RECONCILED
360
2D96
  0
DICTIONARY
  5
2D97
330
1752
100
AcDbDictionary
280
     1
281
     1
  3
ADSK_XREC_LAYER_RECONCILED
360
2D98
  0
DICTIONARY
  5
2D99
330
1753
100
AcDbDictionary
280
     1
281
     1
  3
ADSK_XREC_LAYER_RECONCILED
360
2D9A
  0
DICTIONARY
  5
2D9B
330
1754
100
AcDbDictionary
280
     1
281
     1
  3
ADSK_XREC_LAYER_RECONCILED
360
2D9C
  0
DICTIONARY
  5
2D9D
330
1755
100
AcDbDictionary
280
     1
281
     1
  3
ADSK_XREC_LAYER_RECONCILED
360
2D9E
  0
DICTIONARY
  5
8F
330
1F
100
AcDbDictionary
280
     1
281
     1
  3
ACAD_SORTENTS
360
1F1F
  0
DICTIONARY
  5
330
330
327
100
AcDbDictionary
280
     1
281
     1
  0
DICTIONARY
  5
395
330
340
100
AcDbDictionary
280
     1
281
     1
  0
DICTIONARY
  5
1AE6
330
1ADE
100
AcDbDictionary
280
     1
281
     1
  0
DICTIONARY
  5
1B45
330
1AEC
100
AcDbDictionary
280
     1
281
     1
  0
DICTIONARY
  5
2DB1
330
17C
100
AcDbDictionary
280
     1
281
     1
  3
ACAD_XREC_ROUNDTRIP
360
2DB2
  0
DICTIONARY
  5
2DAF
330
178
100
AcDbDictionary
280
     1
281
     1
  3
ACAD_XREC_ROUNDTRIP
360
2DB0
  0
XRECORD
  5
2BD4
102
{ACAD_REACTORS
330
C
102
}
330
C
100
AcDbXrecord
280
     1
300
AMECH_PP
300
2012
300
PDSP_F_S
  0
DICTIONARY
  5
BE
102
{ACAD_REACTORS
330
C
102
}
330
C
100
AcDbDictionary
281
     1
  0
DICTIONARY
  5
D
102
{ACAD_REACTORS
330
C
102
}
330
C
100
AcDbDictionary
281
     1
  0
DICTIONARY
  5
1A
102
{ACAD_REACTORS
330
C
102
}
330
C
100
AcDbDictionary
281
     1
  3
Model
350
22
  3
レイアウト1
350
1E
  3
レイアウト2
350
26
  0
DICTIONARY
  5
BD
102
{ACAD_REACTORS
330
C
102
}
330
C
100
AcDbDictionary
281
     1
  3
ByBlock
350
2B8B
  3
ByLayer
350
2B83
  3
Global
350
2B93
  0
DICTIONARY
  5
2BC6
102
{ACAD_REACTORS
330
C
102
}
330
C
100
AcDbDictionary
281
     1
  3
Standard
350
2BC7
  0
DICTIONARY
  5
17
102
{ACAD_REACTORS
330
C
102
}
330
C
100
AcDbDictionary
281
     1
  3
Standard
350
18
  0
DICTIONARY
  5
19
102
{ACAD_REACTORS
330
C
102
}
330
C
100
AcDbDictionary
281
     1
  0
ACDBDICTIONARYWDFLT
  5
E
102
{ACAD_REACTORS
330
C
102
}
330
C
100
AcDbDictionary
281
     1
  3
Normal
350
F
100
AcDbDictionaryWithDefault
340
F
  0
DICTIONARY
  5
2BB4
102
{ACAD_REACTORS
330
C
102
}
330
C
100
AcDbDictionary
281
     1
  3
A0
350
2BB5
  3
A1
350
2BB6
  3
A2
350
2BB7
  3
A3
350
2BB8
  3
A4
350
2BB9
  3
A5
350
2BBA
  3
A6
350
2BBB
  3
A7
350
2BBC
  3
A8
350
2BBD
  3
A9
350
2BBE
  3
B0
350
2BBF
  3
B1
350
2BC0
  3
B2
350
2BC1
  3
B3
350
2BC2
  3
B4
350
2BC3
  3
B5
350
2BC4
  3
B6
350
2BC5
  0
DICTIONARY
  5
931
102
{ACAD_REACTORS
330
C
102
}
330
C
100
AcDbDictionary
281
     1
  3
Standard
350
932
  0
DICTIONARY
  5
2B9B
102
{ACAD_REACTORS
330
C
102
}
330
C
100
AcDbDictionary
281
     1
  3
2dWireframe
350
2BA1
  3
Basic
350
2BA0
  3
Brighten
350
2BA7
  3
ColorChange
350
2BAB
  3
Conceptual
350
2BA4
  3
Dim
350
2BA6
  3
EdgeColorOff
350
2BB3
  3
Facepattern
350
2BAA
  3
Flat
350
2B9C
  3
FlatWithEdges
350
2B9D
  3
Gouraud
350
2B9E
  3
GouraudWithEdges
350
2B9F
  3
Hidden
350
2BA3
  3
JitterOff
350
2BB1
  3
Linepattern
350
2BA9
  3
OverhangOff
350
2BB2
  3
Realistic
350
2BA5
  3
Shaded
350
2BB0
  3
Shaded with edges
350
2BAF
  3
Shades of Gray
350
2BAC
  3
Sketchy
350
2BAD
  3
Thicken
350
2BA8
  3
Wireframe
350
2BA2
  3
X-Ray
350
2BAE
  0
XRECORD
  5
2DA7
102
{ACAD_REACTORS
330
C
102
}
330
C
100
AcDbXrecord
280
     1
 90
        1
330
932
  0
DICTIONARY
  5
94
102
{ACAD_REACTORS
330
C
102
}
330
C
100
AcDbDictionary
281
     1
  3
CANNOSCALE
350
2DA0
  3
CMLEADERSTYLE
350
2D9F
  3
CTABLESTYLE
350
9AD
  3
DIMASSOC
350
96
  3
INDEXCTL
350
95
  3
SORTENTS
350
2DA1
  3
XCLIPFRAME
350
2DA2
  0
DICTIONARY
  5
5B
102
{ACAD_REACTORS
330
C
102
}
330
C
100
AcDbDictionary
281
     1
  3
AcmBOM
350
1E2
  3
AcmStdDictionary
350
61
  3
AMDTSECTSYM_ARROWCOLOR
350
94D
  0
DICTIONARY
  5
41
102
{ACAD_REACTORS
330
C
102
}
330
C
100
AcDbDictionary
281
     1
  0
DICTIONARY
  5
1E5
102
{ACAD_REACTORS
330
C
102
}
330
C
100
AcDbDictionary
281
     1
  0
XRECORD
  5
2DA8
102
{ACAD_REACTORS
330
C
102
}
330
C
100
AcDbXrecord
280
     1
  1
DWGPROPS COOKIE
  2

  3

  4

  6

  7

  8
TAKACHI
  9

300
AmdtFileType=84
301
=
302
=
303
=
304
=
305
=
306
=
307
=
308
=
309
=
 40
0.1402596759259259
 41
2453825.766918936
 42
2456939.580961401
  1

 90
        1
  0
DICTIONARY
  5
2B80
102
{ACAD_REACTORS
330
2EE
102
}
330
2EE
100
AcDbDictionary
281
     1
  0
DICTIONARY
  5
4DB
102
{ACAD_REACTORS
330
2EE
102
}
330
2EE
100
AcDbDictionary
281
     1
  0
DICTIONARY
  5
2B7F
102
{ACAD_REACTORS
330
2EE
102
}
330
2EE
100
AcDbDictionary
281
     1
1001
ACAD
1000
<All
  0
DICTIONARY
  5
2EF
102
{ACAD_REACTORS
330
2EE
102
}
330
2EE
100
AcDbDictionary
280
     1
281
     1
  0
XRECORD
  5
2D86
102
{ACAD_REACTORS
330
2D85
102
}
330
2D85
100
AcDbXrecord
280
     1
290
     1
  0
XRECORD
  5
2D88
102
{ACAD_REACTORS
330
2D87
102
}
330
2D87
100
AcDbXrecord
280
     1
290
     1
  0
XRECORD
  5
2D8A
102
{ACAD_REACTORS
330
2D89
102
}
330
2D89
100
AcDbXrecord
280
     1
290
     1
  0
XRECORD
  5
2D8C
102
{ACAD_REACTORS
330
2D8B
102
}
330
2D8B
100
AcDbXrecord
280
     1
290
     1
  0
XRECORD
  5
2D8E
102
{ACAD_REACTORS
330
2D8D
102
}
330
2D8D
100
AcDbXrecord
280
     1
290
     1
  0
XRECORD
  5
2D90
102
{ACAD_REACTORS
330
2D8F
102
}
330
2D8F
100
AcDbXrecord
280
     1
290
     1
  0
XRECORD
  5
2D92
102
{ACAD_REACTORS
330
2D91
102
}
330
2D91
100
AcDbXrecord
280
     1
290
     1
  0
XRECORD
  5
2D94
102
{ACAD_REACTORS
330
2D93
102
}
330
2D93
100
AcDbXrecord
280
     1
290
     1
  0
XRECORD
  5
2D96
102
{ACAD_REACTORS
330
2D95
102
}
330
2D95
100
AcDbXrecord
280
     1
290
     1
  0
XRECORD
  5
2D98
102
{ACAD_REACTORS
330
2D97
102
}
330
2D97
100
AcDbXrecord
280
     1
290
     1
  0
XRECORD
  5
2D9A
102
{ACAD_REACTORS
330
2D99
102
}
330
2D99
100
AcDbXrecord
280
     1
290
     1
  0
XRECORD
  5
2D9C
102
{ACAD_REACTORS
330
2D9B
102
}
330
2D9B
100
AcDbXrecord
280
     1
290
     1
  0
XRECORD
  5
2D9E
102
{ACAD_REACTORS
330
2D9D
102
}
330
2D9D
100
AcDbXrecord
280
     1
290
     1
  0
SORTENTSTABLE
  5
1F1F
102
{ACAD_REACTORS
330
8F
102
}
330
8F
100
AcDbSortentsTable
330
1F
331
7A1
  5
7A1
331
28AD
  5
28AD
331
28A9
  5
28A9
331
286E
  5
286E
331
2A15
  5
2A15
331
286A
  5
286A
331
2A11
  5
2A11
331
2ABB
  5
2ABB
331
28A5
  5
28A5
331
28E4
  5
28E4
331
28A1
  5
28A1
331
29D2
  5
29D2
331
2A7C
  5
2A7D
331
2AB7
  5
2AB7
331
2B61
  5
2B61
331
2A0D
  5
2A0D
331
2A78
  5
2A79
331
2A09
  5
2A09
331
2AB3
  5
2AB3
331
2B5D
  5
2B5D
331
18E2
  5
18E2
331
289D
  5
289D
331
28DC
  5
28DC
331
29CE
  5
29CE
331
2899
  5
2899
331
28D8
  5
28D8
331
29CA
  5
29CA
331
2AAF
  5
2AAF
331
2A05
  5
2A05
331
2895
  5
2895
331
2A70
  5
2A70
331
2A01
  5
2A01
331
2AAB
  5
2AAB
331
29C6
  5
29C6
331
2B55
  5
2B55
331
2891
  5
2891
331
28D0
  5
28D0
331
29C2
  5
29C2
331
2AA7
  5
2AA7
331
29FD
  5
29FD
331
2A68
  5
2A68
331
29F9
  5
29F9
331
2AA3
  5
2AA3
331
854
  5
854
331
288D
  5
288D
331
28CC
  5
28CC
331
29BE
  5
29BE
331
2889
  5
2889
331
28C8
  5
28C8
331
29BA
  5
29BA
331
29F5
  5
29F5
331
2885
  5
2885
331
28C4
  5
28C4
331
28FF
  5
28FF
331
29F1
  5
29F1
331
2ADA
  5
2ADA
331
2B3D
  5
2B3C
331
2A9B
  5
2A9C
331
29B6
  5
29B6
331
2881
  5
2881
331
28C0
  5
28C0
331
29B2
  5
29B2
331
2A4C
  5
2A4C
331
28FB
  5
28FB
331
2AD6
  5
2AD6
331
2A97
  5
2A98
331
2B39
  5
2B38
331
29ED
  5
29ED
331
2A48
  5
2A48
331
29E9
  5
29E9
331
2AD2
  5
2AD2
331
2B35
  5
2B34
331
2A93
  5
2A94
331
2B31
  5
2B30
331
28F7
  5
28F7
331
287D
  5
287D
331
28BC
  5
28BC
331
2879
  5
2879
331
28B8
  5
28B8
331
2A44
  5
2A44
331
28F3
  5
28F3
331
2ACE
  5
2ACE
331
29E5
  5
29E5
331
28B4
  5
28B4
331
2A40
  5
2A40
331
29E1
  5
29E1
331
28EF
  5
28EF
331
2B2D
  5
2B2C
331
2A8B
  5
2A8C
331
2ACA
  5
2ACA
331
2875
  5
2875
331
28B0
  5
28B0
331
2871
  5
2871
331
28EB
  5
28EB
331
2A1C
  5
2A1C
331
2A87
  5
2A88
331
2AC6
  5
2AC6
331
2B29
  5
2B28
331
29DD
  5
29DD
331
29D9
  5
29D9
331
2B25
  5
2B24
331
2A83
  5
2A84
331
28AC
  5
28AC
331
28A8
  5
28A8
331
28E7
  5
28E7
331
286D
  5
286D
331
2ABE
  5
2ABE
331
2A14
  5
2A14
331
29D5
  5
29D5
331
2A7F
  5
2A80
331
2A10
  5
2A10
331
2B64
  5
2B64
331
2ABA
  5
2ABA
331
28A4
  5
28A4
331
28E3
  5
28E3
331
28A0
  5
28A0
331
29D1
  5
29D1
331
2A7B
  5
2A7C
331
2AB6
  5
2AB6
331
2A0C
  5
2A0C
331
2A08
  5
2A08
331
2AB2
  5
2AB2
331
85B
  5
85B
331
29CD
  5
29CD
331
2A77
  5
2A78
331
289C
  5
289C
331
28DB
  5
28DB
331
2898
  5
2898
331
28D7
  5
28D7
331
29C9
  5
29C9
331
2AAE
  5
2AAE
331
2A04
  5
2A04
331
29C5
  5
29C5
331
2A6F
  5
2A6F
331
2A00
  5
2A00
331
2B54
  5
2B54
331
2AAA
  5
2AAA
331
2894
  5
2894
331
28D3
  5
28D3
331
2890
  5
2890
331
29C1
  5
29C1
331
2AA6
  5
2AA6
331
29FC
  5
29FC
331
29F8
  5
29F8
331
2AA2
  5
2AA2
331
84F
  5
84F
331
28CF
  5
28CF
331
29BD
  5
29BD
331
2A67
  5
2A67
331
288C
  5
288C
331
28CB
  5
28CB
331
2888
  5
2888
331
28C7
  5
28C7
331
29B9
  5
29B9
331
2902
  5
2902
331
2A9E
  5
2AA0
331
29F4
  5
29F4
331
29B5
  5
29B5
331
28FE
  5
28FE
331
29F0
  5
29F0
331
2AD9
  5
2AD9
331
2A9A
  5
2A9B
331
2884
  5
2884
331
28C3
  5
28C3
331
2880
  5
2880
331
29B1
  5
29B1
331
2A4B
  5
2A4B
331
28FA
  5
28FA
331
2AD5
  5
2AD5
331
2A96
  5
2A97
331
29EC
  5
29EC
331
29E8
  5
29E8
331
2AD1
  5
2AD1
331
847
  5
847
331
28BF
  5
28BF
331
29AD
  5
29AD
331
28F6
  5
28F6
331
287C
  5
287C
331
28BB
  5
28BB
331
2878
  5
2878
331
28B7
  5
28B7
331
28F2
  5
28F2
331
2ACD
  5
2ACD
331
29E4
  5
29E4
331
28B3
  5
28B3
331
29E0
  5
29E0
331
28EE
  5
28EE
331
2A8A
  5
2A8B
331
2AC9
  5
2AC9
331
2874
  5
2874
331
2870
  5
2870
331
29DC
  5
29DC
331
2A86
  5
2A87
331
2AC5
  5
2AC5
331
28EA
  5
28EA
331
29D8
  5
29D8
331
2A82
  5
2A83
331
2AC1
  5
2AC1
331
79F
  5
79F
331
28AF
  5
28AF
331
2A17
  5
2A17
331
28AB
  5
28AB
331
28A7
  5
28A7
331
28E6
  5
28E6
331
286C
  5
286C
331
2ABD
  5
2ABD
331
2A13
  5
2A13
331
29D4
  5
29D4
331
2A7E
  5
2A7F
331
2A0F
  5
2A0F
331
2B63
  5
2B63
331
2AB9
  5
2AB9
331
28A3
  5
28A3
331
29D0
  5
29D0
331
2A7A
  5
2A7B
331
2AB5
  5
2AB5
331
2A0B
  5
2A0B
331
2AB1
  5
2AB1
331
85E
  5
85E
331
289F
  5
289F
331
28DE
  5
28DE
331
29CC
  5
29CC
331
2A07
  5
2A07
331
289B
  5
289B
331
28DA
  5
28DA
331
2897
  5
2897
331
28D6
  5
28D6
331
29C8
  5
29C8
331
2A72
  5
2A72
331
2AAD
  5
2AAD
331
2A03
  5
2A03
331
1EE8
  5
1EE8
331
29C4
  5
29C4
331
29FF
  5
29FF
331
2B53
  5
2B53
331
2AA9
  5
2AA9
331
2893
  5
2893
331
28D2
  5
28D2
331
29C0
  5
29C0
331
2AA5
  5
2AA5
331
2B4F
  5
2B4E
331
29FB
  5
29FB
331
2B4B
  5
2B4A
331
856
  5
856
331
288F
  5
288F
331
28CE
  5
28CE
331
84A
  5
84A
331
29BC
  5
29BC
331
2A66
  5
2A66
331
29F7
  5
29F7
331
288B
  5
288B
331
28CA
  5
28CA
331
2887
  5
2887
331
28C6
  5
28C6
331
29B8
  5
29B8
331
2901
  5
2901
331
2A9D
  5
2A9E
331
29F3
  5
29F3
331
29B4
  5
29B4
331
28FD
  5
28FD
331
29EF
  5
29EF
331
2AD8
  5
2AD8
331
2A99
  5
2A9A
331
2883
  5
2883
331
28C2
  5
28C2
331
29B0
  5
29B0
331
28F9
  5
28F9
331
2AD4
  5
2AD4
331
2A95
  5
2A96
331
29EB
  5
29EB
331
2AD0
  5
2AD0
331
2A91
  5
2A93
331
842
  5
842
331
287F
  5
287F
331
28BE
  5
28BE
331
29AC
  5
29AC
331
2A46
  5
2A46
331
28F5
  5
28F5
331
29E7
  5
29E7
331
287B
  5
287B
331
28BA
  5
28BA
331
28B6
  5
28B6
331
2877
  5
2877
331
2A42
  5
2A42
331
28F1
  5
28F1
331
2A8D
  5
2A90
331
2ACC
  5
2ACC
331
29E3
  5
29E3
331
2873
  5
2873
331
28ED
  5
28ED
331
29DF
  5
29DF
331
2A89
  5
2A8A
331
2AC8
  5
2AC8
331
28B2
  5
28B2
331
28E9
  5
28E9
331
29DB
  5
29DB
331
2A85
  5
2A86
331
2AC4
  5
2AC4
331
2A81
  5
2A82
331
28AE
  5
28AE
331
28AA
  5
28AA
331
286F
  5
286F
331
2A16
  5
2A16
331
286B
  5
286B
331
28A6
  5
28A6
331
28E5
  5
28E5
331
2A12
  5
2A12
331
2ABC
  5
2ABC
331
29D7
  5
29D7
331
28A2
  5
28A2
331
28E1
  5
28E1
331
29D3
  5
29D3
331
2A7D
  5
2A7E
331
2A0E
  5
2A0E
331
2AB8
  5
2AB8
331
2A0A
  5
2A0A
331
2AB4
  5
2AB4
331
2AB0
  5
2AB0
331
1A5F
  5
1A5F
331
859
  5
859
331
289E
  5
289E
331
29CF
  5
29CF
331
289A
  5
289A
331
28D9
  5
28D9
331
29CB
  5
29CB
331
2A06
  5
2A06
331
2896
  5
2896
331
29C7
  5
29C7
331
2A02
  5
2A02
331
2AAC
  5
2AAC
331
2A71
  5
2A71
331
2892
  5
2892
331
28D1
  5
28D1
331
29C3
  5
29C3
331
29FE
  5
29FE
331
2AA8
  5
2AA8
331
29FA
  5
29FA
331
18DF
  5
18DF
331
851
  5
851
331
288E
  5
288E
331
28CD
  5
28CD
331
29BF
  5
29BF
331
288A
  5
288A
331
28C9
  5
28C9
331
29BB
  5
29BB
331
2A65
  5
2A65
331
29F6
  5
29F6
331
2886
  5
2886
331
28C5
  5
28C5
331
2900
  5
2900
331
29F2
  5
29F2
331
2A9C
  5
2A9D
331
29B7
  5
29B7
331
2882
  5
2882
331
28C1
  5
28C1
331
29B3
  5
29B3
331
28FC
  5
28FC
331
29EE
  5
29EE
331
2AD7
  5
2AD7
331
2A98
  5
2A99
331
2A49
  5
2A49
331
28F8
  5
28F8
331
29EA
  5
29EA
331
2AD3
  5
2AD3
331
2A94
  5
2A95
331
2A90
  5
2A91
331
287E
  5
287E
331
28BD
  5
28BD
331
29AF
  5
29AF
331
287A
  5
287A
331
28B9
  5
28B9
331
28F4
  5
28F4
331
2ACF
  5
2ACF
331
29E6
  5
29E6
331
28B5
  5
28B5
331
28F0
  5
28F0
331
29E2
  5
29E2
331
2A8C
  5
2A8D
331
2ACB
  5
2ACB
331
2876
  5
2876
331
28B1
  5
28B1
331
2872
  5
2872
331
28EC
  5
28EC
331
2A1D
  5
2A1D
331
2A88
  5
2A89
331
2AC7
  5
2AC7
331
29DE
  5
29DE
331
28E8
  5
28E8
331
2A19
  5
2A19
331
2A84
  5
2A85
331
2AC3
  5
2AC3
331
2A80
  5
2A81
  0
XRECORD
  5
2DB2
102
{ACAD_REACTORS
330
2DB1
102
}
330
2DB1
100
AcDbXrecord
280
     1
102
SHADEPLOT
 70
     0
  0
XRECORD
  5
2DB0
102
{ACAD_REACTORS
330
2DAF
102
}
330
2DAF
100
AcDbXrecord
280
     1
102
SHADEPLOT
 70
     0
  0
LAYOUT
  5
22
102
{ACAD_XDICTIONARY
360
2DAB
102
}
102
{ACAD_REACTORS
330
1A
102
}
330
1A
100
AcDbPlotSettings
  1

  2

  4

  6

 40
0.0
 41
0.0
 42
0.0
 43
0.0
 44
0.0
 45
0.0
 46
0.0
 47
0.0
 48
0.0
 49
0.0
140
0.0
141
0.0
142
1.0
143
1.0
 70
  1712
 72
     0
 73
     0
 74
     0
  7

 75
     0
147
1.0
148
0.0
149
0.0
100
AcDbLayout
  1
Model
 70
     1
 71
     0
 10
0.0
 20
0.0
 11
12.0
 21
9.0
 12
0.0
 22
0.0
 32
0.0
 14
0.0
 24
0.0
 34
0.0
 15
0.0
 25
0.0
 35
0.0
146
0.0
 13
0.0
 23
0.0
 33
0.0
 16
1.0
 26
0.0
 36
0.0
 17
0.0
 27
1.0
 37
0.0
 76
     0
330
1F
331
2B81
  0
LAYOUT
  5
1E
102
{ACAD_XDICTIONARY
360
2DA9
102
}
102
{ACAD_REACTORS
330
1A
102
}
330
1A
100
AcDbPlotSettings
  1

  2
none_device
  4
Letter_(8.50_x_11.00_Inches)
  6

 40
6.349999904632568
 41
6.349999904632568
 42
6.350006103515625
 43
6.350006103515625
 44
215.8999938964844
 45
279.3999938964844
 46
0.0
 47
0.0
 48
0.0
 49
0.0
140
0.0
141
0.0
142
1.0
143
1.0
 70
   688
 72
     1
 73
     1
 74
     5
  7

 75
    16
147
1.0
148
0.0
149
0.0
100
AcDbLayout
  1
レイアウト1
 70
     1
 71
     1
 10
-6.350006103515625
 20
-6.349999904632568
 11
273.0499877929688
 21
209.5499939918518
 12
0.0
 22
0.0
 32
0.0
 14
1.000000000000000E+20
 24
1.000000000000000E+20
 34
1.000000000000000E+20
 15
-1.000000000000000E+20
 25
-1.000000000000000E+20
 35
-1.000000000000000E+20
146
0.0
 13
0.0
 23
0.0
 33
0.0
 16
1.0
 26
0.0
 36
0.0
 17
0.0
 27
1.0
 37
0.0
 76
     0
330
1B
331
178
  0
LAYOUT
  5
26
102
{ACAD_XDICTIONARY
360
2DAD
102
}
102
{ACAD_REACTORS
330
1A
102
}
330
1A
100
AcDbPlotSettings
  1

  2
none_device
  4
Letter_(8.50_x_11.00_Inches)
  6

 40
6.349999904632568
 41
6.349999904632568
 42
6.350006103515625
 43
6.350006103515625
 44
215.8999938964844
 45
279.3999938964844
 46
0.0
 47
0.0
 48
0.0
 49
0.0
140
0.0
141
0.0
142
1.0
143
1.0
 70
   688
 72
     1
 73
     1
 74
     5
  7

 75
    16
147
1.0
148
0.0
149
0.0
100
AcDbLayout
  1
レイアウト2
 70
     1
 71
     2
 10
-6.350006103515625
 20
-6.349999904632568
 11
273.0499877929688
 21
209.5499939918518
 12
0.0
 22
0.0
 32
0.0
 14
1.000000000000000E+20
 24
1.000000000000000E+20
 34
1.000000000000000E+20
 15
-1.000000000000000E+20
 25
-1.000000000000000E+20
 35
-1.000000000000000E+20
146
0.0
 13
0.0
 23
0.0
 33
0.0
 16
1.0
 26
0.0
 36
0.0
 17
0.0
 27
1.0
 37
0.0
 76
     0
330
23
331
17C
  0
MATERIAL
  5
2B8B
102
{ACAD_XDICTIONARY
360
2B8C
102
}
102
{ACAD_REACTORS
330
BD
102
}
330
BD
100
AcDbMaterial
  1
ByBlock
 72
     0
 43
0.0008202099737533
 43
0.0
 43
0.0
 43
0.0
 43
0.0
 43
0.0008202099737533
 43
0.0
 43
0.0
 43
0.0
 43
0.0
 43
1.0
 43
0.0
 43
0.0
 43
0.0
 43
0.0
 43
1.0
 77
     0
 47
0.0008202099737533
 47
0.0
 47
0.0
 47
0.0
 47
0.0
 47
0.0008202099737533
 47
0.0
 47
0.0
 47
0.0
 47
0.0
 47
1.0
 47
0.0
 47
0.0
 47
0.0
 47
0.0
 47
1.0
171
     0
 49
0.0008202099737533
 49
0.0
 49
0.0
 49
0.0
 49
0.0
 49
0.0008202099737533
 49
0.0
 49
0.0
 49
0.0
 49
0.0
 49
1.0
 49
0.0
 49
0.0
 49
0.0
 49
0.0
 49
1.0
175
     0
142
0.0008202099737533
142
0.0
142
0.0
142
0.0
142
0.0
142
0.0008202099737533
142
0.0
142
0.0
142
0.0
142
0.0
142
1.0
142
0.0
142
0.0
142
0.0
142
0.0
142
1.0
179
     0
144
0.0008202099737533
144
0.0
144
0.0
144
0.0
144
0.0
144
0.0008202099737533
144
0.0
144
0.0
144
0.0
144
0.0
144
1.0
144
0.0
144
0.0
144
0.0
144
0.0
144
1.0
147
0.0008202099737533
147
0.0
147
0.0
147
0.0
147
0.0
147
0.0008202099737533
147
0.0
147
0.0
147
0.0
147
0.0
147
1.0
147
0.0
147
0.0
147
0.0
147
0.0
147
1.0
  0
MATERIAL
  5
2B83
102
{ACAD_XDICTIONARY
360
2B84
102
}
102
{ACAD_REACTORS
330
BD
102
}
330
BD
100
AcDbMaterial
  1
ByLayer
 72
     0
 43
0.0008202099737533
 43
0.0
 43
0.0
 43
0.0
 43
0.0
 43
0.0008202099737533
 43
0.0
 43
0.0
 43
0.0
 43
0.0
 43
1.0
 43
0.0
 43
0.0
 43
0.0
 43
0.0
 43
1.0
 77
     0
 47
0.0008202099737533
 47
0.0
 47
0.0
 47
0.0
 47
0.0
 47
0.0008202099737533
 47
0.0
 47
0.0
 47
0.0
 47
0.0
 47
1.0
 47
0.0
 47
0.0
 47
0.0
 47
0.0
 47
1.0
171
     0
 49
0.0008202099737533
 49
0.0
 49
0.0
 49
0.0
 49
0.0
 49
0.0008202099737533
 49
0.0
 49
0.0
 49
0.0
 49
0.0
 49
1.0
 49
0.0
 49
0.0
 49
0.0
 49
0.0
 49
1.0
175
     0
142
0.0008202099737533
142
0.0
142
0.0
142
0.0
142
0.0
142
0.0008202099737533
142
0.0
142
0.0
142
0.0
142
0.0
142
1.0
142
0.0
142
0.0
142
0.0
142
0.0
142
1.0
179
     0
144
0.0008202099737533
144
0.0
144
0.0
144
0.0
144
0.0
144
0.0008202099737533
144
0.0
144
0.0
144
0.0
144
0.0
144
1.0
144
0.0
144
0.0
144
0.0
144
0.0
144
1.0
147
0.0008202099737533
147
0.0
147
0.0
147
0.0
147
0.0
147
0.0008202099737533
147
0.0
147
0.0
147
0.0
147
0.0
147
1.0
147
0.0
147
0.0
147
0.0
147
0.0
147
1.0
  0
MATERIAL
  5
2B93
102
{ACAD_XDICTIONARY
360
2B94
102
}
102
{ACAD_REACTORS
330
BD
102
}
330
BD
100
AcDbMaterial
  1
Global
 72
     0
 43
0.0008202099737533
 43
0.0
 43
0.0
 43
0.0
 43
0.0
 43
0.0008202099737533
 43
0.0
 43
0.0
 43
0.0
 43
0.0
 43
1.0
 43
0.0
 43
0.0
 43
0.0
 43
0.0
 43
1.0
 77
     0
 47
0.0008202099737533
 47
0.0
 47
0.0
 47
0.0
 47
0.0
 47
0.0008202099737533
 47
0.0
 47
0.0
 47
0.0
 47
0.0
 47
1.0
 47
0.0
 47
0.0
 47
0.0
 47
0.0
 47
1.0
171
     0
 49
0.0008202099737533
 49
0.0
 49
0.0
 49
0.0
 49
0.0
 49
0.0008202099737533
 49
0.0
 49
0.0
 49
0.0
 49
0.0
 49
1.0
 49
0.0
 49
0.0
 49
0.0
 49
0.0
 49
1.0
175
     0
142
0.0008202099737533
142
0.0
142
0.0
142
0.0
142
0.0
142
0.0008202099737533
142
0.0
142
0.0
142
0.0
142
0.0
142
1.0
142
0.0
142
0.0
142
0.0
142
0.0
142
1.0
179
     0
144
0.0008202099737533
144
0.0
144
0.0
144
0.0
144
0.0
144
0.0008202099737533
144
0.0
144
0.0
144
0.0
144
0.0
144
1.0
144
0.0
144
0.0
144
0.0
144
0.0
144
1.0
147
0.0008202099737533
147
0.0
147
0.0
147
0.0
147
0.0
147
0.0008202099737533
147
0.0
147
0.0
147
0.0
147
0.0
147
1.0
147
0.0
147
0.0
147
0.0
147
0.0
147
1.0
  0
MLEADERSTYLE
  5
2BC7
102
{ACAD_XDICTIONARY
360
2DA5
102
}
102
{ACAD_REACTORS
330
2BC6
102
}
330
2BC6
100
AcDbMLeaderStyle
170
     2
171
     1
172
     0
 90
        2
 40
0.0
 41
0.0
173
     1
 91
-1056964608
340
14
 92
       -2
290
     1
 42
2.0
291
     1
 43
0.36
  3
Standard
 44
4.0
300

342
11
174
     1
178
     6
175
     1
176
     0
 93
-1056964608
 45
4.0
292
     0
297
     0
 46
4.0
 94
-1056964608
 47
1.0
 49
1.0
140
1.0
293
     1
141
0.0
294
     1
177
     0
142
1.0
295
     0
296
     0
143
0.125
1001
ACAD_MLEADERVER
1070
     2
  0
MLINESTYLE
  5
18
102
{ACAD_REACTORS
330
17
102
}
330
17
100
AcDbMlineStyle
  2
STANDARD
 70
     0
  3

 62
   256
 51
90.0
 52
90.0
 71
     2
 49
0.5
 62
   256
  6
BYLAYER
 49
-0.5
 62
   256
  6
BYLAYER
  0
ACDBPLACEHOLDER
  5
F
102
{ACAD_REACTORS
330
E
102
}
330
E
  0
SCALE
  5
2BB5
102
{ACAD_REACTORS
330
2BB4
102
}
330
2BB4
100
AcDbScale
 70
     0
300
1:1
140
1.0
141
1.0
290
     1
  0
SCALE
  5
2BB6
102
{ACAD_REACTORS
330
2BB4
102
}
330
2BB4
100
AcDbScale
 70
     0
300
1:2
140
1.0
141
2.0
290
     0
  0
SCALE
  5
2BB7
102
{ACAD_REACTORS
330
2BB4
102
}
330
2BB4
100
AcDbScale
 70
     0
300
1:4
140
1.0
141
4.0
290
     0
  0
SCALE
  5
2BB8
102
{ACAD_REACTORS
330
2BB4
102
}
330
2BB4
100
AcDbScale
 70
     0
300
1:5
140
1.0
141
5.0
290
     0
  0
SCALE
  5
2BB9
102
{ACAD_REACTORS
330
2BB4
102
}
330
2BB4
100
AcDbScale
 70
     0
300
1:8
140
1.0
141
8.0
290
     0
  0
SCALE
  5
2BBA
102
{ACAD_REACTORS
330
2BB4
102
}
330
2BB4
100
AcDbScale
 70
     0
300
1:10
140
1.0
141
10.0
290
     0
  0
SCALE
  5
2BBB
102
{ACAD_REACTORS
330
2BB4
102
}
330
2BB4
100
AcDbScale
 70
     0
300
1:16
140
1.0
141
16.0
290
     0
  0
SCALE
  5
2BBC
102
{ACAD_REACTORS
330
2BB4
102
}
330
2BB4
100
AcDbScale
 70
     0
300
1:20
140
1.0
141
20.0
290
     0
  0
SCALE
  5
2BBD
102
{ACAD_REACTORS
330
2BB4
102
}
330
2BB4
100
AcDbScale
 70
     0
300
1:30
140
1.0
141
30.0
290
     0
  0
SCALE
  5
2BBE
102
{ACAD_REACTORS
330
2BB4
102
}
330
2BB4
100
AcDbScale
 70
     0
300
1:40
140
1.0
141
40.0
290
     0
  0
SCALE
  5
2BBF
102
{ACAD_REACTORS
330
2BB4
102
}
330
2BB4
100
AcDbScale
 70
     0
300
1:50
140
1.0
141
50.0
290
     0
  0
SCALE
  5
2BC0
102
{ACAD_REACTORS
330
2BB4
102
}
330
2BB4
100
AcDbScale
 70
     0
300
1:100
140
1.0
141
100.0
290
     0
  0
SCALE
  5
2BC1
102
{ACAD_REACTORS
330
2BB4
102
}
330
2BB4
100
AcDbScale
 70
     0
300
2:1
140
2.0
141
1.0
290
     0
  0
SCALE
  5
2BC2
102
{ACAD_REACTORS
330
2BB4
102
}
330
2BB4
100
AcDbScale
 70
     0
300
4:1
140
4.0
141
1.0
290
     0
  0
SCALE
  5
2BC3
102
{ACAD_REACTORS
330
2BB4
102
}
330
2BB4
100
AcDbScale
 70
     0
300
8:1
140
8.0
141
1.0
290
     0
  0
SCALE
  5
2BC4
102
{ACAD_REACTORS
330
2BB4
102
}
330
2BB4
100
AcDbScale
 70
     0
300
10:1
140
10.0
141
1.0
290
     0
  0
SCALE
  5
2BC5
102
{ACAD_REACTORS
330
2BB4
102
}
330
2BB4
100
AcDbScale
 70
     0
300
100:1
140
100.0
141
1.0
290
     0
  0
TABLESTYLE
  5
932
102
{ACAD_XDICTIONARY
360
2DA3
102
}
102
{ACAD_REACTORS
330
931
102
}
330
931
100
AcDbTableStyle
  3
Standard
 70
     0
 71
     0
 40
1.5
 41
1.5
280
     0
281
     0
  7
STANDARD
140
4.5
170
     2
 62
     0
 63
     7
283
     0
274
    -2
284
     1
 64
     0
275
    -2
285
     1
 65
     0
276
    -2
286
     1
 66
     0
277
    -2
287
     1
 67
     0
278
    -2
288
     1
 68
     0
279
    -2
289
     1
 69
     0
  7
STANDARD
140
6.0
170
     5
 62
     0
 63
     7
283
     0
274
    -2
284
     1
 64
     0
275
    -2
285
     1
 65
     0
276
    -2
286
     1
 66
     0
277
    -2
287
     1
 67
     0
278
    -2
288
     1
 68
     0
279
    -2
289
     1
 69
     0
  7
STANDARD
140
4.5
170
     5
 62
     0
 63
     7
283
     0
274
    -2
284
     1
 64
     0
275
    -2
285
     1
 65
     0
276
    -2
286
     1
 66
     0
277
    -2
287
     1
 67
     0
278
    -2
288
     1
 68
     0
279
    -2
289
     1
 69
     0
  0
VISUALSTYLE
  5
2BA1
102
{ACAD_XDICTIONARY
360
2DC1
102
}
102
{ACAD_REACTORS
330
2B9B
102
}
330
2B9B
100
AcDbVisualStyle
  2
2dWireframe
 70
     4
 71
     0
 72
     2
 73
     0
 90
        0
 40
-0.6
 41
-30.0
 62
     5
 63
     7
 74
     1
 91
        4
 64
     7
 65
   257
 75
     1
175
     1
 42
1.0
 92
        0
 66
   257
 43
1.0
 76
     1
 77
     6
 78
     2
 67
     7
 79
     5
170
     0
171
     0
290
     0
174
     0
 93
        1
 44
0.0
173
     0
291
     0
 45
0.0
1001
ACAD
1000
AcDbSavedByObjectVersion
1070
     0
  0
VISUALSTYLE
  5
2BA0
102
{ACAD_XDICTIONARY
360
2DBF
102
}
102
{ACAD_REACTORS
330
2B9B
102
}
330
2B9B
100
AcDbVisualStyle
  2
Basic
 70
     7
 71
     1
 72
     0
 73
     1
 90
        0
 40
-0.6
 41
-30.0
 62
     5
 63
     7
 74
     0
 91
        4
 64
     7
 65
   257
 75
     1
175
     1
 42
1.0
 92
        8
 66
     7
 43
1.0
 76
     1
 77
     6
 78
     2
 67
     7
 79
     5
170
     0
171
     0
290
     0
174
     0
 93
        1
 44
0.0
173
     0
291
     1
 45
0.0
1001
ACAD
1000
AcDbSavedByObjectVersion
1070
     0
  0
VISUALSTYLE
  5
2BA7
102
{ACAD_XDICTIONARY
360
2DCD
102
}
102
{ACAD_REACTORS
330
2B9B
102
}
330
2B9B
100
AcDbVisualStyle
  2
Brighten
 70
    12
 71
     2
 72
     2
 73
     0
 90
        0
 40
-0.6
 41
-30.0
 62
     5
 63
     7
 74
     1
 91
        4
 64
     7
 65
   257
 75
     1
175
     1
 42
1.0
 92
        8
 66
     7
 43
1.0
 76
     1
 77
     6
 78
     2
 67
     7
 79
     5
170
     0
171
     0
290
     0
174
     0
 93
        1
 44
50.0
173
     0
291
     1
 45
0.0
1001
ACAD
1000
AcDbSavedByObjectVersion
1070
     0
  0
VISUALSTYLE
  5
2BAB
102
{ACAD_XDICTIONARY
360
2DD5
102
}
102
{ACAD_REACTORS
330
2B9B
102
}
330
2B9B
100
AcDbVisualStyle
  2
ColorChange
 70
    16
 71
     2
 72
     2
 73
     3
 90
        0
 40
-0.6
 41
-30.0
 62
     5
 63
     8
 74
     1
 91
        4
 64
     7
 65
   257
 75
     1
175
     1
 42
1.0
 92
        8
 66
     8
 43
1.0
 76
     1
 77
     6
 78
     2
 67
     7
 79
     5
170
     0
171
     0
290
     0
174
     0
 93
        1
 44
0.0
173
     0
291
     1
 45
0.0
1001
ACAD
1000
AcDbSavedByObjectVersion
1070
     0
  0
VISUALSTYLE
  5
2BA4
102
{ACAD_XDICTIONARY
360
2DC7
102
}
102
{ACAD_REACTORS
330
2B9B
102
}
330
2B9B
100
AcDbVisualStyle
  2
Conceptual
 70
     9
 71
     3
 72
     2
 73
     0
 90
        0
 40
-0.6
 41
-30.0
 62
     5
 63
     7
 74
     2
 91
        2
 64
     7
 65
   257
 75
     1
175
     1
 42
179.0
 92
        8
 66
     7
 43
1.0
 76
     1
 77
     6
 78
     2
 67
     7
 79
     3
170
     0
171
     0
290
     0
174
     0
 93
        1
 44
0.0
173
     0
291
     0
 45
0.0
1001
ACAD
1000
AcDbSavedByObjectVersion
1070
     0
  0
VISUALSTYLE
  5
2BA6
102
{ACAD_XDICTIONARY
360
2DCB
102
}
102
{ACAD_REACTORS
330
2B9B
102
}
330
2B9B
100
AcDbVisualStyle
  2
Dim
 70
    11
 71
     2
 72
     2
 73
     0
 90
        0
 40
-0.6
 41
-30.0
 62
     5
 63
     7
 74
     1
 91
        4
 64
     7
 65
   257
 75
     1
175
     1
 42
1.0
 92
        8
 66
     7
 43
1.0
 76
     1
 77
     6
 78
     2
 67
     7
 79
     5
170
     0
171
     0
290
     0
174
     0
 93
        1
 44
-50.0
173
     0
291
     1
 45
0.0
1001
ACAD
1000
AcDbSavedByObjectVersion
1070
     0
  0
VISUALSTYLE
  5
2BB3
102
{ACAD_XDICTIONARY
360
2DE5
102
}
102
{ACAD_REACTORS
330
2B9B
102
}
330
2B9B
100
AcDbVisualStyle
  2
EdgeColorOff
 70
    22
 71
     2
 72
     2
 73
     0
 90
        0
 40
-0.6
 41
-30.0
 62
     5
 63
     7
 74
     1
 91
        4
 64
     7
 65
   257
 75
     1
175
     1
 42
1.0
 92
        8
 66
     7
 43
1.0
 76
     1
 77
     6
 78
     2
 67
     7
 79
     5
170
     0
171
     0
290
     0
174
     0
 93
        1
 44
0.0
173
     0
291
     1
 45
0.0
1001
ACAD
1000
AcDbSavedByObjectVersion
1070
     0
  0
VISUALSTYLE
  5
2BAA
102
{ACAD_XDICTIONARY
360
2DD3
102
}
102
{ACAD_REACTORS
330
2B9B
102
}
330
2B9B
100
AcDbVisualStyle
  2
Facepattern
 70
    15
 71
     2
 72
     2
 73
     0
 90
        0
 40
-0.6
 41
-30.0
 62
     5
 63
     7
 74
     1
 91
        4
 64
     7
 65
   257
 75
     1
175
     1
 42
1.0
 92
        8
 66
     7
 43
1.0
 76
     1
 77
     6
 78
     2
 67
     7
 79
     5
170
     0
171
     0
290
     0
174
     0
 93
        1
 44
0.0
173
     0
291
     1
 45
0.0
1001
ACAD
1000
AcDbSavedByObjectVersion
1070
     0
  0
VISUALSTYLE
  5
2B9C
102
{ACAD_XDICTIONARY
360
2DB7
102
}
102
{ACAD_REACTORS
330
2B9B
102
}
330
2B9B
100
AcDbVisualStyle
  2
Flat
 70
     0
 71
     2
 72
     1
 73
     1
 90
        2
 40
-0.6
 41
30.0
 62
     5
 63
     7
 74
     0
 91
        0
 64
     7
 65
   257
 75
     1
175
     1
 42
1.0
 92
        8
 66
     7
 43
1.0
 76
     1
 77
     6
 78
     2
 67
     7
 79
     5
170
     0
171
     0
290
     0
174
     0
 93
       13
 44
0.0
173
     0
291
     1
 45
0.0
1001
ACAD
1000
AcDbSavedByObjectVersion
1070
     0
  0
VISUALSTYLE
  5
2B9D
102
{ACAD_XDICTIONARY
360
2DB9
102
}
102
{ACAD_REACTORS
330
2B9B
102
}
330
2B9B
100
AcDbVisualStyle
  2
FlatWithEdges
 70
     1
 71
     2
 72
     1
 73
     1
 90
        2
 40
-0.6
 41
30.0
 62
     5
 63
     7
 74
     1
 91
        0
 64
     7
 65
   257
 75
     1
175
     1
 42
1.0
 92
        0
 66
   257
 43
1.0
 76
     1
 77
     6
 78
     2
 67
     7
 79
     5
170
     0
171
     0
290
     0
174
     0
 93
       13
 44
0.0
173
     0
291
     1
 45
0.0
1001
ACAD
1000
AcDbSavedByObjectVersion
1070
     0
  0
VISUALSTYLE
  5
2B9E
102
{ACAD_XDICTIONARY
360
2DBB
102
}
102
{ACAD_REACTORS
330
2B9B
102
}
330
2B9B
100
AcDbVisualStyle
  2
Gouraud
 70
     2
 71
     2
 72
     2
 73
     1
 90
        2
 40
-0.6
 41
30.0
 62
     5
 63
     7
 74
     0
 91
        0
 64
     7
 65
   257
 75
     1
175
     1
 42
1.0
 92
        0
 66
     7
 43
1.0
 76
     1
 77
     6
 78
     2
 67
     7
 79
     5
170
     0
171
     0
290
     0
174
     0
 93
       13
 44
0.0
173
     0
291
     1
 45
0.0
1001
ACAD
1000
AcDbSavedByObjectVersion
1070
     0
  0
VISUALSTYLE
  5
2B9F
102
{ACAD_XDICTIONARY
360
2DBD
102
}
102
{ACAD_REACTORS
330
2B9B
102
}
330
2B9B
100
AcDbVisualStyle
  2
GouraudWithEdges
 70
     3
 71
     2
 72
     2
 73
     1
 90
        2
 40
-0.6
 41
30.0
 62
     5
 63
     7
 74
     1
 91
        0
 64
     7
 65
   257
 75
     1
175
     1
 42
1.0
 92
        0
 66
   257
 43
1.0
 76
     1
 77
     6
 78
     2
 67
     7
 79
     5
170
     0
171
     0
290
     0
174
     0
 93
       13
 44
0.0
173
     0
291
     1
 45
0.0
1001
ACAD
1000
AcDbSavedByObjectVersion
1070
     0
  0
VISUALSTYLE
  5
2BA3
102
{ACAD_XDICTIONARY
360
2DC5
102
}
102
{ACAD_REACTORS
330
2B9B
102
}
330
2B9B
100
AcDbVisualStyle
  2
Hidden
 70
     6
 71
     1
 72
     2
 73
     2
 90
        0
 40
-0.6
 41
-30.0
 62
     5
 63
     7
 74
     2
 91
        2
 64
     7
 65
   257
 75
     2
175
     1
 42
40.0
 92
        0
 66
   257
 43
1.0
 76
     1
 77
     6
 78
     2
 67
     7
 79
     3
170
     0
171
     0
290
     0
174
     0
 93
        1
 44
0.0
173
     0
291
     0
 45
0.0
1001
ACAD
1000
AcDbSavedByObjectVersion
1070
     0
  0
VISUALSTYLE
  5
2BB1
102
{ACAD_XDICTIONARY
360
2DE1
102
}
102
{ACAD_REACTORS
330
2B9B
102
}
330
2B9B
100
AcDbVisualStyle
  2
JitterOff
 70
    20
 71
     2
 72
     2
 73
     0
 90
        0
 40
-0.6
 41
-30.0
 62
     5
 63
     7
 74
     1
 91
        4
 64
     7
 65
   257
 75
     1
175
     1
 42
1.0
 92
       10
 66
     7
 43
1.0
 76
     1
 77
     6
 78
     2
 67
     7
 79
     5
170
     0
171
     0
290
     0
174
     0
 93
        1
 44
0.0
173
     0
291
     1
 45
0.0
1001
ACAD
1000
AcDbSavedByObjectVersion
1070
     0
  0
VISUALSTYLE
  5
2BA9
102
{ACAD_XDICTIONARY
360
2DD1
102
}
102
{ACAD_REACTORS
330
2B9B
102
}
330
2B9B
100
AcDbVisualStyle
  2
Linepattern
 70
    14
 71
     2
 72
     2
 73
     0
 90
        0
 40
-0.6
 41
-30.0
 62
     5
 63
     7
 74
     1
 91
        4
 64
     7
 65
   257
 75
     7
175
     7
 42
1.0
 92
        8
 66
     7
 43
1.0
 76
     1
 77
     6
 78
     2
 67
     7
 79
     5
170
     0
171
     0
290
     0
174
     0
 93
        1
 44
0.0
173
     0
291
     1
 45
0.0
1001
ACAD
1000
AcDbSavedByObjectVersion
1070
     0
  0
VISUALSTYLE
  5
2BB2
102
{ACAD_XDICTIONARY
360
2DE3
102
}
102
{ACAD_REACTORS
330
2B9B
102
}
330
2B9B
100
AcDbVisualStyle
  2
OverhangOff
 70
    21
 71
     2
 72
     2
 73
     0
 90
        0
 40
-0.6
 41
-30.0
 62
     5
 63
     7
 74
     1
 91
        4
 64
     7
 65
   257
 75
     1
175
     1
 42
1.0
 92
        9
 66
     7
 43
1.0
 76
     1
 77
     6
 78
     2
 67
     7
 79
     5
170
     0
171
     0
290
     0
174
     0
 93
        1
 44
0.0
173
     0
291
     1
 45
0.0
1001
ACAD
1000
AcDbSavedByObjectVersion
1070
     0
  0
VISUALSTYLE
  5
2BA5
102
{ACAD_XDICTIONARY
360
2DC9
102
}
102
{ACAD_REACTORS
330
2B9B
102
}
330
2B9B
100
AcDbVisualStyle
  2
Realistic
 70
     8
 71
     2
 72
     3
 73
     0
 90
        2
 40
-0.6
 41
30.0
 62
     5
 63
     7
 74
     0
 91
        0
 64
     7
 65
   257
 75
     1
175
     1
 42
1.0
 92
        8
 66
   257
 43
1.0
 76
     1
 77
     6
 78
     2
 67
     7
 79
     3
170
     0
171
     0
290
     0
174
     0
 93
       13
 44
0.0
173
     0
291
     0
 45
0.0
1001
ACAD
1000
AcDbSavedByObjectVersion
1070
     0
  0
VISUALSTYLE
  5
2BB0
102
{ACAD_XDICTIONARY
360
2DDF
102
}
102
{ACAD_REACTORS
330
2B9B
102
}
330
2B9B
100
AcDbVisualStyle
  2
Shaded
 70
    27
 71
     2
 72
     2
 73
     1
 90
        2
 40
-0.6
 41
30.0
 62
     5
 63
     7
 74
     0
 91
        4
 64
     7
 65
   257
 75
     1
175
     1
 42
1.0
 92
        8
 66
   257
 43
1.0
 76
     1
 77
     6
 78
     2
 67
     8
 79
     3
170
     0
171
     0
290
     0
174
     0
 93
        5
 44
0.0
173
     0
291
     0
 45
0.0
1001
ACAD
1000
AcDbSavedByObjectVersion
1070
     0
  0
VISUALSTYLE
  5
2BAF
102
{ACAD_XDICTIONARY
360
2DDD
102
}
102
{ACAD_REACTORS
330
2B9B
102
}
330
2B9B
100
AcDbVisualStyle
  2
Shaded with edges
 70
    26
 71
     2
 72
     2
 73
     1
 90
        2
 40
-0.6
 41
30.0
 62
     5
 63
     7
 74
     1
 91
       10
 64
     7
 65
   257
 75
     2
175
     1
 42
1.0
 92
        8
 66
   257
 43
1.0
 76
     1
 77
     6
 78
     2
 67
     7
 79
     3
170
     0
171
     0
290
     0
174
     0
 93
        5
 44
0.0
173
     0
291
     0
 45
0.0
1001
ACAD
1000
AcDbSavedByObjectVersion
1070
     0
  0
VISUALSTYLE
  5
2BAC
102
{ACAD_XDICTIONARY
360
2DD7
102
}
102
{ACAD_REACTORS
330
2B9B
102
}
330
2B9B
100
AcDbVisualStyle
  2
Shades of Gray
 70
    23
 71
     2
 72
     2
 73
     3
 90
        0
 40
-0.6
 41
-30.0
 62
     5
 63
     7
 74
     2
 91
        2
 64
     7
 65
     7
 75
     1
175
     1
 42
40.0
 92
        8
 66
     7
 43
1.0
 76
     1
 77
     6
 78
     2
 67
     7
 79
     3
170
     0
171
     0
290
     0
174
     0
 93
        1
 44
0.0
173
     0
291
     0
 45
0.0
1001
ACAD
1000
AcDbSavedByObjectVersion
1070
     0
  0
VISUALSTYLE
  5
2BAD
102
{ACAD_XDICTIONARY
360
2DD9
102
}
102
{ACAD_REACTORS
330
2B9B
102
}
330
2B9B
100
AcDbVisualStyle
  2
Sketchy
 70
    24
 71
     1
 72
     2
 73
     2
 90
        0
 40
-0.6
 41
-30.0
 62
     5
 63
     7
 74
     2
 91
        2
 64
     7
 65
     7
 75
     1
175
     1
 42
40.0
 92
       11
 66
     7
 43
1.0
 76
     1
 77
     6
 78
     2
 67
     7
 79
     6
170
     0
171
     0
290
     0
174
     0
 93
        1
 44
0.0
173
     0
291
     0
 45
0.0
1001
ACAD
1000
AcDbSavedByObjectVersion
1070
     0
  0
VISUALSTYLE
  5
2BA8
102
{ACAD_XDICTIONARY
360
2DCF
102
}
102
{ACAD_REACTORS
330
2B9B
102
}
330
2B9B
100
AcDbVisualStyle
  2
Thicken
 70
    13
 71
     2
 72
     2
 73
     0
 90
        0
 40
-0.6
 41
-30.0
 62
     5
 63
     7
 74
     1
 91
        4
 64
     7
 65
   257
 75
     1
175
     1
 42
1.0
 92
       12
 66
     7
 43
1.0
 76
     1
 77
     6
 78
     2
 67
     7
 79
     5
170
     0
171
     0
290
     0
174
     0
 93
        1
 44
0.0
173
     0
291
     1
 45
0.0
1001
ACAD
1000
AcDbSavedByObjectVersion
1070
     0
  0
VISUALSTYLE
  5
2BA2
102
{ACAD_XDICTIONARY
360
2DC3
102
}
102
{ACAD_REACTORS
330
2B9B
102
}
330
2B9B
100
AcDbVisualStyle
  2
Wireframe
 70
     5
 71
     0
 72
     2
 73
     0
 90
        0
 40
-0.6
 41
-30.0
 62
     5
 63
     7
 74
     1
 91
        4
 64
     7
 65
   257
 75
     1
175
     1
 42
1.0
 92
        0
 66
   257
 43
1.0
 76
     1
 77
     6
 78
     2
 67
     7
 79
     3
170
     0
171
     0
290
     0
174
     0
 93
        1
 44
0.0
173
     0
291
     0
 45
0.0
1001
ACAD
1000
AcDbSavedByObjectVersion
1070
     0
  0
VISUALSTYLE
  5
2BAE
102
{ACAD_XDICTIONARY
360
2DDB
102
}
102
{ACAD_REACTORS
330
2B9B
102
}
330
2B9B
100
AcDbVisualStyle
  2
X-Ray
 70
    25
 71
     2
 72
     2
 73
     1
 90
        1
 40
0.5
 41
-30.0
 62
     5
 63
     7
 74
     1
 91
        0
 64
     7
 65
   257
 75
     1
175
     1
 42
1.0
 92
        8
 66
     7
 43
1.0
 76
     1
 77
     6
 78
     2
 67
     7
 79
     3
170
     0
171
     0
290
     0
174
     0
 93
       13
 44
0.0
173
     0
291
     0
 45
0.0
1001
ACAD
1000
AcDbSavedByObjectVersion
1070
     0
  0
DICTIONARYVAR
  5
2DA0
102
{ACAD_REACTORS
330
94
102
}
330
94
100
DictionaryVariables
280
     0
  1
1:1
  0
DICTIONARYVAR
  5
2D9F
102
{ACAD_REACTORS
330
94
102
}
330
94
100
DictionaryVariables
280
     0
  1
STANDARD
  0
DICTIONARYVAR
  5
9AD
102
{ACAD_REACTORS
330
94
102
}
330
94
100
DictionaryVariables
280
     0
  1
STANDARD
  0
DICTIONARYVAR
  5
96
102
{ACAD_REACTORS
330
94
102
}
330
94
100
DictionaryVariables
280
     0
  1
2
  0
DICTIONARYVAR
  5
95
102
{ACAD_REACTORS
330
94
102
}
330
94
100
DictionaryVariables
280
     0
  1
0
  0
DICTIONARYVAR
  5
2DA1
102
{ACAD_REACTORS
330
94
102
}
330
94
100
DictionaryVariables
280
     0
  1
127
  0
DICTIONARYVAR
  5
2DA2
102
{ACAD_REACTORS
330
94
102
}
330
94
100
DictionaryVariables
280
     0
  1
0
  0
DICTIONARY
  5
1E2
102
{ACAD_REACTORS
330
5B
102
}
330
5B
100
AcDbDictionary
281
     1
  0
DICTIONARY
  5
61
102
{ACAD_REACTORS
330
5B
102
}
330
5B
100
AcDbDictionary
281
     1
  0
XRECORD
  5
94D
102
{ACAD_REACTORS
330
5B
102
}
330
5B
100
AcDbXrecord
280
     1
 90
-1023410169
  0
DICTIONARY
  5
2DAB
330
22
100
AcDbDictionary
280
     1
281
     1
  3
ACAD_XREC_ROUNDTRIP
360
2DAC
  0
DICTIONARY
  5
2DA9
330
1E
100
AcDbDictionary
280
     1
281
     1
  3
ACAD_XREC_ROUNDTRIP
360
2DAA
  0
DICTIONARY
  5
2DAD
330
26
100
AcDbDictionary
280
     1
281
     1
  3
ACAD_XREC_ROUNDTRIP
360
2DAE
  0
DICTIONARY
  5
2B8C
330
2B8B
100
AcDbDictionary
280
     1
281
     1
  3
ACAD_XREC_ROUNDTRIP
360
2DB5
  3
BUMPTILE
360
2B8E
  3
DIFFUSETILE
360
2B8D
  3
OPACITYTILE
360
2B91
  3
REFLECTIONTILE
360
2B90
  3
REFRACTIONTILE
360
2B92
  3
SPECULARTILE
360
2B8F
  0
DICTIONARY
  5
2B84
330
2B83
100
AcDbDictionary
280
     1
281
     1
  3
ACAD_XREC_ROUNDTRIP
360
2DB4
  3
BUMPTILE
360
2B86
  3
DIFFUSETILE
360
2B85
  3
OPACITYTILE
360
2B89
  3
REFLECTIONTILE
360
2B88
  3
REFRACTIONTILE
360
2B8A
  3
SPECULARTILE
360
2B87
  0
DICTIONARY
  5
2B94
330
2B93
100
AcDbDictionary
280
     1
281
     1
  3
ACAD_XREC_ROUNDTRIP
360
2DB6
  3
BUMPTILE
360
2B96
  3
DIFFUSETILE
360
2B95
  3
OPACITYTILE
360
2B99
  3
REFLECTIONTILE
360
2B98
  3
REFRACTIONTILE
360
2B9A
  3
SPECULARTILE
360
2B97
  0
DICTIONARY
  5
2DA5
330
2BC7
100
AcDbDictionary
280
     1
281
     1
  3
ACAD_XREC_ROUNDTRIP
360
2DA6
  0
DICTIONARY
  5
2DA3
330
932
100
AcDbDictionary
280
     1
281
     1
  3
ACAD_ROUNDTRIP_2008_TABLESTYLE_CELLSTYLEMAP
360
2DA4
  3
ACAD_XREC_ROUNDTRIP
360
2DB3
  0
DICTIONARY
  5
2DC1
330
2BA1
100
AcDbDictionary
280
     1
281
     1
  3
ACAD_XREC_ROUNDTRIP
360
2DC2
  0
DICTIONARY
  5
2DBF
330
2BA0
100
AcDbDictionary
280
     1
281
     1
  3
ACAD_XREC_ROUNDTRIP
360
2DC0
  0
DICTIONARY
  5
2DCD
330
2BA7
100
AcDbDictionary
280
     1
281
     1
  3
ACAD_XREC_ROUNDTRIP
360
2DCE
  0
DICTIONARY
  5
2DD5
330
2BAB
100
AcDbDictionary
280
     1
281
     1
  3
ACAD_XREC_ROUNDTRIP
360
2DD6
  0
DICTIONARY
  5
2DC7
330
2BA4
100
AcDbDictionary
280
     1
281
     1
  3
ACAD_XREC_ROUNDTRIP
360
2DC8
  0
DICTIONARY
  5
2DCB
330
2BA6
100
AcDbDictionary
280
     1
281
     1
  3
ACAD_XREC_ROUNDTRIP
360
2DCC
  0
DICTIONARY
  5
2DE5
330
2BB3
100
AcDbDictionary
280
     1
281
     1
  3
ACAD_XREC_ROUNDTRIP
360
2DE6
  0
DICTIONARY
  5
2DD3
330
2BAA
100
AcDbDictionary
280
     1
281
     1
  3
ACAD_XREC_ROUNDTRIP
360
2DD4
  0
DICTIONARY
  5
2DB7
330
2B9C
100
AcDbDictionary
280
     1
281
     1
  3
ACAD_XREC_ROUNDTRIP
360
2DB8
  0
DICTIONARY
  5
2DB9
330
2B9D
100
AcDbDictionary
280
     1
281
     1
  3
ACAD_XREC_ROUNDTRIP
360
2DBA
  0
DICTIONARY
  5
2DBB
330
2B9E
100
AcDbDictionary
280
     1
281
     1
  3
ACAD_XREC_ROUNDTRIP
360
2DBC
  0
DICTIONARY
  5
2DBD
330
2B9F
100
AcDbDictionary
280
     1
281
     1
  3
ACAD_XREC_ROUNDTRIP
360
2DBE
  0
DICTIONARY
  5
2DC5
330
2BA3
100
AcDbDictionary
280
     1
281
     1
  3
ACAD_XREC_ROUNDTRIP
360
2DC6
  0
DICTIONARY
  5
2DE1
330
2BB1
100
AcDbDictionary
280
     1
281
     1
  3
ACAD_XREC_ROUNDTRIP
360
2DE2
  0
DICTIONARY
  5
2DD1
330
2BA9
100
AcDbDictionary
280
     1
281
     1
  3
ACAD_XREC_ROUNDTRIP
360
2DD2
  0
DICTIONARY
  5
2DE3
330
2BB2
100
AcDbDictionary
280
     1
281
     1
  3
ACAD_XREC_ROUNDTRIP
360
2DE4
  0
DICTIONARY
  5
2DC9
330
2BA5
100
AcDbDictionary
280
     1
281
     1
  3
ACAD_XREC_ROUNDTRIP
360
2DCA
  0
DICTIONARY
  5
2DDF
330
2BB0
100
AcDbDictionary
280
     1
281
     1
  3
ACAD_XREC_ROUNDTRIP
360
2DE0
  0
DICTIONARY
  5
2DDD
330
2BAF
100
AcDbDictionary
280
     1
281
     1
  3
ACAD_XREC_ROUNDTRIP
360
2DDE
  0
DICTIONARY
  5
2DD7
330
2BAC
100
AcDbDictionary
280
     1
281
     1
  3
ACAD_XREC_ROUNDTRIP
360
2DD8
  0
DICTIONARY
  5
2DD9
330
2BAD
100
AcDbDictionary
280
     1
281
     1
  3
ACAD_XREC_ROUNDTRIP
360
2DDA
  0
DICTIONARY
  5
2DCF
330
2BA8
100
AcDbDictionary
280
     1
281
     1
  3
ACAD_XREC_ROUNDTRIP
360
2DD0
  0
DICTIONARY
  5
2DC3
330
2BA2
100
AcDbDictionary
280
     1
281
     1
  3
ACAD_XREC_ROUNDTRIP
360
2DC4
  0
DICTIONARY
  5
2DDB
330
2BAE
100
AcDbDictionary
280
     1
281
     1
  3
ACAD_XREC_ROUNDTRIP
360
2DDC
  0
XRECORD
  5
2DAC
102
{ACAD_REACTORS
330
2DAB
102
}
330
2DAB
100
AcDbXrecord
280
     1
102
SHADEPLOT
 70
     0
102
SHADEPLOTRESLEVEL
 70
     2
102
SHADEPLOTCUSTOMDPI
 70
   300
  0
XRECORD
  5
2DAA
102
{ACAD_REACTORS
330
2DA9
102
}
330
2DA9
100
AcDbXrecord
280
     1
102
SHADEPLOT
 70
     1
102
SHADEPLOTRESLEVEL
 70
     2
102
SHADEPLOTCUSTOMDPI
 70
   300
  0
XRECORD
  5
2DAE
102
{ACAD_REACTORS
330
2DAD
102
}
330
2DAD
100
AcDbXrecord
280
     1
102
SHADEPLOT
 70
     1
102
SHADEPLOTRESLEVEL
 70
     2
102
SHADEPLOTCUSTOMDPI
 70
   300
  0
XRECORD
  5
2DB5
102
{ACAD_REACTORS
330
2B8C
102
}
330
2B8C
100
AcDbXrecord
280
     1
102
MATERIAL
148
0.0
149
0.0
149
0.0
 93
        0
 94
      127
282
     0
 72
     0
 77
     0
171
     0
175
     0
179
     0
273
     0
  0
XRECORD
  5
2B8E
102
{ACAD_REACTORS
330
2B8C
102
}
330
2B8C
100
AcDbXrecord
280
     1
270
     1
271
     1
  0
XRECORD
  5
2B8D
102
{ACAD_REACTORS
330
2B8C
102
}
330
2B8C
100
AcDbXrecord
280
     1
270
     1
271
     1
  0
XRECORD
  5
2B91
102
{ACAD_REACTORS
330
2B8C
102
}
330
2B8C
100
AcDbXrecord
280
     1
270
     1
271
     1
  0
XRECORD
  5
2B90
102
{ACAD_REACTORS
330
2B8C
102
}
330
2B8C
100
AcDbXrecord
280
     1
270
     1
271
     1
  0
XRECORD
  5
2B92
102
{ACAD_REACTORS
330
2B8C
102
}
330
2B8C
100
AcDbXrecord
280
     1
270
     1
271
     1
  0
XRECORD
  5
2B8F
102
{ACAD_REACTORS
330
2B8C
102
}
330
2B8C
100
AcDbXrecord
280
     1
270
     1
271
     1
  0
XRECORD
  5
2DB4
102
{ACAD_REACTORS
330
2B84
102
}
330
2B84
100
AcDbXrecord
280
     1
102
MATERIAL
148
0.0
149
0.0
149
0.0
 93
        0
 94
      127
282
     0
 72
     0
 77
     0
171
     0
175
     0
179
     0
273
     0
  0
XRECORD
  5
2B86
102
{ACAD_REACTORS
330
2B84
102
}
330
2B84
100
AcDbXrecord
280
     1
270
     1
271
     1
  0
XRECORD
  5
2B85
102
{ACAD_REACTORS
330
2B84
102
}
330
2B84
100
AcDbXrecord
280
     1
270
     1
271
     1
  0
XRECORD
  5
2B89
102
{ACAD_REACTORS
330
2B84
102
}
330
2B84
100
AcDbXrecord
280
     1
270
     1
271
     1
  0
XRECORD
  5
2B88
102
{ACAD_REACTORS
330
2B84
102
}
330
2B84
100
AcDbXrecord
280
     1
270
     1
271
     1
  0
XRECORD
  5
2B8A
102
{ACAD_REACTORS
330
2B84
102
}
330
2B84
100
AcDbXrecord
280
     1
270
     1
271
     1
  0
XRECORD
  5
2B87
102
{ACAD_REACTORS
330
2B84
102
}
330
2B84
100
AcDbXrecord
280
     1
270
     1
271
     1
  0
XRECORD
  5
2DB6
102
{ACAD_REACTORS
330
2B94
102
}
330
2B94
100
AcDbXrecord
280
     1
102
MATERIAL
148
0.0
149
0.0
149
0.0
 93
        0
 94
      127
282
     0
 72
     0
 77
     0
171
     0
175
     0
179
     0
273
     0
  0
XRECORD
  5
2B96
102
{ACAD_REACTORS
330
2B94
102
}
330
2B94
100
AcDbXrecord
280
     1
270
     1
271
     1
  0
XRECORD
  5
2B95
102
{ACAD_REACTORS
330
2B94
102
}
330
2B94
100
AcDbXrecord
280
     1
270
     1
271
     1
  0
XRECORD
  5
2B99
102
{ACAD_REACTORS
330
2B94
102
}
330
2B94
100
AcDbXrecord
280
     1
270
     1
271
     1
  0
XRECORD
  5
2B98
102
{ACAD_REACTORS
330
2B94
102
}
330
2B94
100
AcDbXrecord
280
     1
270
     1
271
     1
  0
XRECORD
  5
2B9A
102
{ACAD_REACTORS
330
2B94
102
}
330
2B94
100
AcDbXrecord
280
     1
270
     1
271
     1
  0
XRECORD
  5
2B97
102
{ACAD_REACTORS
330
2B94
102
}
330
2B94
100
AcDbXrecord
280
     1
270
     1
271
     1
  0
XRECORD
  5
2DA6
102
{ACAD_REACTORS
330
2DA5
102
}
330
2DA5
100
AcDbXrecord
280
     1
102
ACAD_ROUNDTRIP_2012_MLEADER_STYLE
298
     1
  0
CELLSTYLEMAP
  5
2DA4
102
{ACAD_REACTORS
330
2DA3
102
}
330
2DA3
100
AcDbCellStyleMap
 90
        3
300
CELLSTYLE
  1
TABLEFORMAT_BEGIN
 90
        5
170
     1
 91
        0
 92
    32768
 62
   257
 93
        1
300
CONTENTFORMAT
  1
CONTENTFORMAT_BEGIN
 90
        0
 91
        0
 92
        4
 93
        0
300

 40
0.0
140
1.0
 94
        5
 62
     0
340
11
144
6.0
309
CONTENTFORMAT_END
171
     1
301
MARGIN
  1
CELLMARGIN_BEGIN
 40
1.5
 40
1.5
 40
1.5
 40
1.5
 40
0.18
 40
0.18
309
CELLMARGIN_END
 94
        6
 95
        1
302
GRIDFORMAT
  1
GRIDFORMAT_BEGIN
 90
        0
 91
        1
 62
     0
 92
       -2
340
0
 93
        0
 40
0.045
309
GRIDFORMAT_END
 95
        2
302
GRIDFORMAT
  1
GRIDFORMAT_BEGIN
 90
        0
 91
        1
 62
     0
 92
       -2
340
0
 93
        0
 40
0.045
309
GRIDFORMAT_END
 95
        4
302
GRIDFORMAT
  1
GRIDFORMAT_BEGIN
 90
        0
 91
        1
 62
     0
 92
       -2
340
0
 93
        0
 40
0.045
309
GRIDFORMAT_END
 95
        8
302
GRIDFORMAT
  1
GRIDFORMAT_BEGIN
 90
        0
 91
        1
 62
     0
 92
       -2
340
0
 93
        0
 40
0.045
309
GRIDFORMAT_END
 95
       16
302
GRIDFORMAT
  1
GRIDFORMAT_BEGIN
 90
        0
 91
        1
 62
     0
 92
       -2
340
0
 93
        0
 40
0.045
309
GRIDFORMAT_END
 95
       32
302
GRIDFORMAT
  1
GRIDFORMAT_BEGIN
 90
        0
 91
        1
 62
     0
 92
       -2
340
0
 93
        0
 40
0.045
309
GRIDFORMAT_END
309
TABLEFORMAT_END
  1
CELLSTYLE_BEGIN
 90
        1
 91
        1
300
_TITLE
309
CELLSTYLE_END
300
CELLSTYLE
  1
TABLEFORMAT_BEGIN
 90
        5
170
     1
 91
        0
 92
        0
 62
   257
 93
        1
300
CONTENTFORMAT
  1
CONTENTFORMAT_BEGIN
 90
        0
 91
        0
 92
        4
 93
        0
300

 40
0.0
140
1.0
 94
        5
 62
     0
340
11
144
4.5
309
CONTENTFORMAT_END
171
     1
301
MARGIN
  1
CELLMARGIN_BEGIN
 40
1.5
 40
1.5
 40
1.5
 40
1.5
 40
0.18
 40
0.18
309
CELLMARGIN_END
 94
        6
 95
        1
302
GRIDFORMAT
  1
GRIDFORMAT_BEGIN
 90
        0
 91
        1
 62
     0
 92
       -2
340
0
 93
        0
 40
0.045
309
GRIDFORMAT_END
 95
        2
302
GRIDFORMAT
  1
GRIDFORMAT_BEGIN
 90
        0
 91
        1
 62
     0
 92
       -2
340
0
 93
        0
 40
0.045
309
GRIDFORMAT_END
 95
        4
302
GRIDFORMAT
  1
GRIDFORMAT_BEGIN
 90
        0
 91
        1
 62
     0
 92
       -2
340
0
 93
        0
 40
0.045
309
GRIDFORMAT_END
 95
        8
302
GRIDFORMAT
  1
GRIDFORMAT_BEGIN
 90
        0
 91
        1
 62
     0
 92
       -2
340
0
 93
        0
 40
0.045
309
GRIDFORMAT_END
 95
       16
302
GRIDFORMAT
  1
GRIDFORMAT_BEGIN
 90
        0
 91
        1
 62
     0
 92
       -2
340
0
 93
        0
 40
0.045
309
GRIDFORMAT_END
 95
       32
302
GRIDFORMAT
  1
GRIDFORMAT_BEGIN
 90
        0
 91
        1
 62
     0
 92
       -2
340
0
 93
        0
 40
0.045
309
GRIDFORMAT_END
309
TABLEFORMAT_END
  1
CELLSTYLE_BEGIN
 90
        2
 91
        1
300
_HEADER
309
CELLSTYLE_END
300
CELLSTYLE
  1
TABLEFORMAT_BEGIN
 90
        5
170
     1
 91
        0
 92
        0
 62
   257
 93
        1
300
CONTENTFORMAT
  1
CONTENTFORMAT_BEGIN
 90
        0
 91
        0
 92
        4
 93
        0
300

 40
0.0
140
1.0
 94
        2
 62
     0
340
11
144
4.5
309
CONTENTFORMAT_END
171
     1
301
MARGIN
  1
CELLMARGIN_BEGIN
 40
1.5
 40
1.5
 40
1.5
 40
1.5
 40
0.18
 40
0.18
309
CELLMARGIN_END
 94
        6
 95
        1
302
GRIDFORMAT
  1
GRIDFORMAT_BEGIN
 90
        0
 91
        1
 62
     0
 92
       -2
340
0
 93
        0
 40
0.045
309
GRIDFORMAT_END
 95
        2
302
GRIDFORMAT
  1
GRIDFORMAT_BEGIN
 90
        0
 91
        1
 62
     0
 92
       -2
340
0
 93
        0
 40
0.045
309
GRIDFORMAT_END
 95
        4
302
GRIDFORMAT
  1
GRIDFORMAT_BEGIN
 90
        0
 91
        1
 62
     0
 92
       -2
340
0
 93
        0
 40
0.045
309
GRIDFORMAT_END
 95
        8
302
GRIDFORMAT
  1
GRIDFORMAT_BEGIN
 90
        0
 91
        1
 62
     0
 92
       -2
340
0
 93
        0
 40
0.045
309
GRIDFORMAT_END
 95
       16
302
GRIDFORMAT
  1
GRIDFORMAT_BEGIN
 90
        0
 91
        1
 62
     0
 92
       -2
340
0
 93
        0
 40
0.045
309
GRIDFORMAT_END
 95
       32
302
GRIDFORMAT
  1
GRIDFORMAT_BEGIN
 90
        0
 91
        1
 62
     0
 92
       -2
340
0
 93
        0
 40
0.045
309
GRIDFORMAT_END
309
TABLEFORMAT_END
  1
CELLSTYLE_BEGIN
 90
        3
 91
        2
300
_DATA
309
CELLSTYLE_END
  0
XRECORD
  5
2DB3
102
{ACAD_REACTORS
330
2DA3
102
}
330
2DA3
100
AcDbXrecord
280
     1
102
ACAD_ROUNDTRIP_PRE2007_TABLESTYLE
 90
        4
 91
        0
  1

 92
        4
 93
        0
  2

 94
        4
 95
        0
  3

  0
XRECORD
  5
2DC2
102
{ACAD_REACTORS
330
2DC1
102
}
330
2DC1
100
AcDbXrecord
280
     1
102
RTVSPropertyOp0
 70
     1
102
RTVSPropertyOp1
 70
     1
102
RTVSPropertyOp2
 70
     1
102
RTVSPropertyOp3
 70
     1
102
RTVSPropertyOp4
 70
     1
102
RTVSPropertyOp5
 70
     1
102
RTVSPropertyOp6
 70
     1
102
RTVSPropertyOp7
 70
     1
102
RTVSPropertyOp8
 70
     1
102
RTVSPropertyOp9
 70
     1
102
RTVSPropertyOp10
 70
     1
102
RTVSPropertyOp11
 70
     1
102
RTVSPropertyOp12
 70
     1
102
RTVSPropertyOp13
 70
     1
102
RTVSPropertyOp14
 70
     1
102
RTVSPropertyOp15
 70
     1
102
RTVSPropertyOp16
 70
     1
102
RTVSPropertyOp17
 70
     1
102
RTVSPropertyOp18
 70
     1
102
RTVSPropertyOp19
 70
     1
102
RTVSPropertyOp20
 70
     1
102
RTVSPropertyOp21
 70
     1
102
RTVSPropertyOp22
 70
     1
102
RTVSPropertyOp23
 70
     1
102
RTVSPropertyOp24
 70
     1
102
RTVSPropertyOp25
 70
     1
102
RTVSPropertyOp26
 70
     1
102
RTVSPropertyOp27
 70
     1
102
RTVSPropertyOp28
 70
     1
102
RTVSPropertyOp29
 70
     1
102
RTVSPropertyOp30
 70
     1
102
RTVSPropertyOp31
 70
     1
102
RTVSPropertyOp32
 70
     1
  0
XRECORD
  5
2DC0
102
{ACAD_REACTORS
330
2DBF
102
}
330
2DBF
100
AcDbXrecord
280
     1
102
RTVSPropertyOp0
 70
     1
102
RTVSPropertyOp1
 70
     1
102
RTVSPropertyOp2
 70
     1
102
RTVSPropertyOp3
 70
     1
102
RTVSPropertyOp4
 70
     1
102
RTVSPropertyOp5
 70
     1
102
RTVSPropertyOp6
 70
     1
102
RTVSPropertyOp7
 70
     1
102
RTVSPropertyOp8
 70
     1
102
RTVSPropertyOp9
 70
     1
102
RTVSPropertyOp10
 70
     1
102
RTVSPropertyOp11
 70
     1
102
RTVSPropertyOp12
 70
     1
102
RTVSPropertyOp13
 70
     1
102
RTVSPropertyOp14
 70
     1
102
RTVSPropertyOp15
 70
     1
102
RTVSPropertyOp16
 70
     1
102
RTVSPropertyOp17
 70
     1
102
RTVSPropertyOp18
 70
     1
102
RTVSPropertyOp19
 70
     1
102
RTVSPropertyOp20
 70
     1
102
RTVSPropertyOp21
 70
     1
102
RTVSPropertyOp22
 70
     1
102
RTVSPropertyOp23
 70
     1
102
RTVSPropertyOp24
 70
     1
102
RTVSPropertyOp25
 70
     1
102
RTVSPropertyOp26
 70
     1
102
RTVSPropertyOp27
 70
     1
102
RTVSPropertyOp28
 70
     1
102
RTVSPropertyOp29
 70
     1
102
RTVSPropertyOp30
 70
     1
102
RTVSPropertyOp31
 70
     1
102
RTVSPropertyOp32
 70
     1
  0
XRECORD
  5
2DCE
102
{ACAD_REACTORS
330
2DCD
102
}
330
2DCD
100
AcDbXrecord
280
     1
102
RTVSPropertyOp0
 70
     1
102
RTVSPropertyOp1
 70
     1
102
RTVSPropertyOp2
 70
     1
102
RTVSPropertyOp3
 70
     1
102
RTVSPropertyOp4
 70
     1
102
RTVSPropertyOp5
 70
     1
102
RTVSPropertyOp6
 70
     1
102
RTVSPropertyOp7
 70
     1
102
RTVSPropertyOp8
 70
     1
102
RTVSPropertyOp9
 70
     1
102
RTVSPropertyOp10
 70
     1
102
RTVSPropertyOp11
 70
     1
102
RTVSPropertyOp12
 70
     1
102
RTVSPropertyOp13
 70
     1
102
RTVSPropertyOp14
 70
     1
102
RTVSPropertyOp15
 70
     1
102
RTVSPropertyOp16
 70
     1
102
RTVSPropertyOp17
 70
     1
102
RTVSPropertyOp18
 70
     1
102
RTVSPropertyOp19
 70
     1
102
RTVSPropertyOp20
 70
     1
102
RTVSPropertyOp21
 70
     1
102
RTVSPropertyOp22
 70
     1
102
RTVSPropertyOp23
 70
     1
102
RTVSPropertyOp24
 70
     1
102
RTVSPropertyOp25
 70
     1
102
RTVSPropertyOp26
 70
     1
102
RTVSPropertyOp27
 70
     1
102
RTVSPropertyOp28
 70
     1
102
RTVSPropertyOp29
 70
     1
102
RTVSPropertyOp30
 70
     1
102
RTVSPropertyOp31
 70
     1
102
RTVSPropertyOp32
 70
     1
  0
XRECORD
  5
2DD6
102
{ACAD_REACTORS
330
2DD5
102
}
330
2DD5
100
AcDbXrecord
280
     1
102
RTVSPropertyOp0
 70
     1
102
RTVSPropertyOp1
 70
     1
102
RTVSPropertyOp2
 70
     1
102
RTVSPropertyOp3
 70
     1
102
RTVSPropertyOp4
 70
     1
102
RTVSPropertyOp5
 70
     1
102
RTVSPropertyOp6
 70
     1
102
RTVSPropertyOp7
 70
     1
102
RTVSPropertyOp8
 70
     1
102
RTVSPropertyOp9
 70
     1
102
RTVSPropertyOp10
 70
     1
102
RTVSPropertyOp11
 70
     1
102
RTVSPropertyOp12
 70
     1
102
RTVSPropertyOp13
 70
     1
102
RTVSPropertyOp14
 70
     1
102
RTVSPropertyOp15
 70
     1
102
RTVSPropertyOp16
 70
     1
102
RTVSPropertyOp17
 70
     1
102
RTVSPropertyOp18
 70
     1
102
RTVSPropertyOp19
 70
     1
102
RTVSPropertyOp20
 70
     1
102
RTVSPropertyOp21
 70
     1
102
RTVSPropertyOp22
 70
     1
102
RTVSPropertyOp23
 70
     1
102
RTVSPropertyOp24
 70
     1
102
RTVSPropertyOp25
 70
     1
102
RTVSPropertyOp26
 70
     1
102
RTVSPropertyOp27
 70
     1
102
RTVSPropertyOp28
 70
     1
102
RTVSPropertyOp29
 70
     1
102
RTVSPropertyOp30
 70
     1
102
RTVSPropertyOp31
 70
     1
102
RTVSPropertyOp32
 70
     1
  0
XRECORD
  5
2DC8
102
{ACAD_REACTORS
330
2DC7
102
}
330
2DC7
100
AcDbXrecord
280
     1
102
RTVSPropertyOp0
 70
     1
102
RTVSPropertyOp1
 70
     1
102
RTVSPropertyOp2
 70
     1
102
RTVSPropertyOp3
 70
     1
102
RTVSPropertyOp4
 70
     1
102
RTVSPropertyOp5
 70
     1
102
RTVSPropertyOp6
 70
     1
102
RTVSPropertyOp7
 70
     1
102
RTVSPropertyOp8
 70
     1
102
RTVSPropertyOp9
 70
     1
102
RTVSPropertyOp10
 70
     1
102
RTVSPropertyOp11
 70
     1
102
RTVSPropertyOp12
 70
     1
102
RTVSPropertyOp13
 70
     1
102
RTVSPropertyOp14
 70
     1
102
RTVSPropertyOp15
 70
     1
102
RTVSPropertyOp16
 70
     1
102
RTVSPropertyOp17
 70
     1
102
RTVSPropertyOp18
 70
     1
102
RTVSPropertyOp19
 70
     1
102
RTVSPropertyOp20
 70
     1
102
RTVSPropertyOp21
 70
     1
102
RTVSPropertyOp22
 70
     1
102
RTVSPropertyOp23
 70
     1
102
RTVSPropertyOp24
 70
     1
102
RTVSPropertyOp25
 70
     1
102
RTVSPropertyOp26
 70
     1
102
RTVSPropertyOp27
 70
     1
102
RTVSPropertyOp28
 70
     1
102
RTVSPropertyOp29
 70
     1
102
RTVSPropertyOp30
 70
     1
102
RTVSPropertyOp31
 70
     1
102
RTVSPropertyOp32
 70
     1
  0
XRECORD
  5
2DCC
102
{ACAD_REACTORS
330
2DCB
102
}
330
2DCB
100
AcDbXrecord
280
     1
102
RTVSPropertyOp0
 70
     1
102
RTVSPropertyOp1
 70
     1
102
RTVSPropertyOp2
 70
     1
102
RTVSPropertyOp3
 70
     1
102
RTVSPropertyOp4
 70
     1
102
RTVSPropertyOp5
 70
     1
102
RTVSPropertyOp6
 70
     1
102
RTVSPropertyOp7
 70
     1
102
RTVSPropertyOp8
 70
     1
102
RTVSPropertyOp9
 70
     1
102
RTVSPropertyOp10
 70
     1
102
RTVSPropertyOp11
 70
     1
102
RTVSPropertyOp12
 70
     1
102
RTVSPropertyOp13
 70
     1
102
RTVSPropertyOp14
 70
     1
102
RTVSPropertyOp15
 70
     1
102
RTVSPropertyOp16
 70
     1
102
RTVSPropertyOp17
 70
     1
102
RTVSPropertyOp18
 70
     1
102
RTVSPropertyOp19
 70
     1
102
RTVSPropertyOp20
 70
     1
102
RTVSPropertyOp21
 70
     1
102
RTVSPropertyOp22
 70
     1
102
RTVSPropertyOp23
 70
     1
102
RTVSPropertyOp24
 70
     1
102
RTVSPropertyOp25
 70
     1
102
RTVSPropertyOp26
 70
     1
102
RTVSPropertyOp27
 70
     1
102
RTVSPropertyOp28
 70
     1
102
RTVSPropertyOp29
 70
     1
102
RTVSPropertyOp30
 70
     1
102
RTVSPropertyOp31
 70
     1
102
RTVSPropertyOp32
 70
     1
  0
XRECORD
  5
2DE6
102
{ACAD_REACTORS
330
2DE5
102
}
330
2DE5
100
AcDbXrecord
280
     1
102
RTVSPropertyOp0
 70
     0
102
RTVSPropertyOp1
 70
     0
102
RTVSPropertyOp2
 70
     0
102
RTVSPropertyOp3
 70
     0
102
RTVSPropertyOp4
 70
     0
102
RTVSPropertyOp5
 70
     0
102
RTVSPropertyOp6
 70
     0
102
RTVSPropertyOp7
 70
     0
102
RTVSPropertyOp8
 70
     0
102
RTVSPropertyOp9
 70
     0
102
RTVSPropertyOp10
 70
     0
102
RTVSPropertyOp11
 70
     0
102
RTVSPropertyOp12
 70
     0
102
RTVSPropertyOp13
 70
     0
102
RTVSPropertyOp14
 70
     2
102
RTVSPropertyOp15
 70
     0
102
RTVSPropertyOp16
 70
     0
102
RTVSPropertyOp17
 70
     0
102
RTVSPropertyOp18
 70
     0
102
RTVSPropertyOp19
 70
     0
102
RTVSPropertyOp20
 70
     0
102
RTVSPropertyOp21
 70
     0
102
RTVSPropertyOp22
 70
     0
102
RTVSPropertyOp23
 70
     0
102
RTVSPropertyOp24
 70
     0
102
RTVSPropertyOp25
 70
     0
102
RTVSPropertyOp26
 70
     0
102
RTVSPropertyOp27
 70
     0
102
RTVSPropertyOp28
 70
     0
102
RTVSPropertyOp29
 70
     0
102
RTVSPropertyOp30
 70
     0
102
RTVSPropertyOp31
 70
     0
102
RTVSPropertyOp32
 70
     0
  0
XRECORD
  5
2DD4
102
{ACAD_REACTORS
330
2DD3
102
}
330
2DD3
100
AcDbXrecord
280
     1
102
RTVSPropertyOp0
 70
     1
102
RTVSPropertyOp1
 70
     1
102
RTVSPropertyOp2
 70
     1
102
RTVSPropertyOp3
 70
     1
102
RTVSPropertyOp4
 70
     1
102
RTVSPropertyOp5
 70
     1
102
RTVSPropertyOp6
 70
     1
102
RTVSPropertyOp7
 70
     1
102
RTVSPropertyOp8
 70
     1
102
RTVSPropertyOp9
 70
     1
102
RTVSPropertyOp10
 70
     1
102
RTVSPropertyOp11
 70
     1
102
RTVSPropertyOp12
 70
     1
102
RTVSPropertyOp13
 70
     1
102
RTVSPropertyOp14
 70
     1
102
RTVSPropertyOp15
 70
     1
102
RTVSPropertyOp16
 70
     1
102
RTVSPropertyOp17
 70
     1
102
RTVSPropertyOp18
 70
     1
102
RTVSPropertyOp19
 70
     1
102
RTVSPropertyOp20
 70
     1
102
RTVSPropertyOp21
 70
     1
102
RTVSPropertyOp22
 70
     1
102
RTVSPropertyOp23
 70
     1
102
RTVSPropertyOp24
 70
     1
102
RTVSPropertyOp25
 70
     1
102
RTVSPropertyOp26
 70
     1
102
RTVSPropertyOp27
 70
     1
102
RTVSPropertyOp28
 70
     1
102
RTVSPropertyOp29
 70
     1
102
RTVSPropertyOp30
 70
     1
102
RTVSPropertyOp31
 70
     1
102
RTVSPropertyOp32
 70
     1
  0
XRECORD
  5
2DB8
102
{ACAD_REACTORS
330
2DB7
102
}
330
2DB7
100
AcDbXrecord
280
     1
102
RTVSPropertyOp0
 70
     1
102
RTVSPropertyOp1
 70
     1
102
RTVSPropertyOp2
 70
     1
102
RTVSPropertyOp3
 70
     1
102
RTVSPropertyOp4
 70
     1
102
RTVSPropertyOp5
 70
     1
102
RTVSPropertyOp6
 70
     1
102
RTVSPropertyOp7
 70
     1
102
RTVSPropertyOp8
 70
     1
102
RTVSPropertyOp9
 70
     1
102
RTVSPropertyOp10
 70
     1
102
RTVSPropertyOp11
 70
     1
102
RTVSPropertyOp12
 70
     1
102
RTVSPropertyOp13
 70
     1
102
RTVSPropertyOp14
 70
     1
102
RTVSPropertyOp15
 70
     1
102
RTVSPropertyOp16
 70
     1
102
RTVSPropertyOp17
 70
     1
102
RTVSPropertyOp18
 70
     1
102
RTVSPropertyOp19
 70
     1
102
RTVSPropertyOp20
 70
     1
102
RTVSPropertyOp21
 70
     1
102
RTVSPropertyOp22
 70
     1
102
RTVSPropertyOp23
 70
     1
102
RTVSPropertyOp24
 70
     1
102
RTVSPropertyOp25
 70
     1
102
RTVSPropertyOp26
 70
     1
102
RTVSPropertyOp27
 70
     1
102
RTVSPropertyOp28
 70
     1
102
RTVSPropertyOp29
 70
     1
102
RTVSPropertyOp30
 70
     1
102
RTVSPropertyOp31
 70
     1
102
RTVSPropertyOp32
 70
     1
  0
XRECORD
  5
2DBA
102
{ACAD_REACTORS
330
2DB9
102
}
330
2DB9
100
AcDbXrecord
280
     1
102
RTVSPropertyOp0
 70
     1
102
RTVSPropertyOp1
 70
     1
102
RTVSPropertyOp2
 70
     1
102
RTVSPropertyOp3
 70
     1
102
RTVSPropertyOp4
 70
     1
102
RTVSPropertyOp5
 70
     1
102
RTVSPropertyOp6
 70
     1
102
RTVSPropertyOp7
 70
     1
102
RTVSPropertyOp8
 70
     1
102
RTVSPropertyOp9
 70
     1
102
RTVSPropertyOp10
 70
     1
102
RTVSPropertyOp11
 70
     1
102
RTVSPropertyOp12
 70
     1
102
RTVSPropertyOp13
 70
     1
102
RTVSPropertyOp14
 70
     1
102
RTVSPropertyOp15
 70
     1
102
RTVSPropertyOp16
 70
     1
102
RTVSPropertyOp17
 70
     1
102
RTVSPropertyOp18
 70
     1
102
RTVSPropertyOp19
 70
     1
102
RTVSPropertyOp20
 70
     1
102
RTVSPropertyOp21
 70
     1
102
RTVSPropertyOp22
 70
     1
102
RTVSPropertyOp23
 70
     1
102
RTVSPropertyOp24
 70
     1
102
RTVSPropertyOp25
 70
     1
102
RTVSPropertyOp26
 70
     1
102
RTVSPropertyOp27
 70
     1
102
RTVSPropertyOp28
 70
     1
102
RTVSPropertyOp29
 70
     1
102
RTVSPropertyOp30
 70
     1
102
RTVSPropertyOp31
 70
     1
102
RTVSPropertyOp32
 70
     1
  0
XRECORD
  5
2DBC
102
{ACAD_REACTORS
330
2DBB
102
}
330
2DBB
100
AcDbXrecord
280
     1
102
RTVSPropertyOp0
 70
     1
102
RTVSPropertyOp1
 70
     1
102
RTVSPropertyOp2
 70
     1
102
RTVSPropertyOp3
 70
     1
102
RTVSPropertyOp4
 70
     1
102
RTVSPropertyOp5
 70
     1
102
RTVSPropertyOp6
 70
     1
102
RTVSPropertyOp7
 70
     1
102
RTVSPropertyOp8
 70
     1
102
RTVSPropertyOp9
 70
     1
102
RTVSPropertyOp10
 70
     1
102
RTVSPropertyOp11
 70
     1
102
RTVSPropertyOp12
 70
     1
102
RTVSPropertyOp13
 70
     1
102
RTVSPropertyOp14
 70
     1
102
RTVSPropertyOp15
 70
     1
102
RTVSPropertyOp16
 70
     1
102
RTVSPropertyOp17
 70
     1
102
RTVSPropertyOp18
 70
     1
102
RTVSPropertyOp19
 70
     1
102
RTVSPropertyOp20
 70
     1
102
RTVSPropertyOp21
 70
     1
102
RTVSPropertyOp22
 70
     1
102
RTVSPropertyOp23
 70
     1
102
RTVSPropertyOp24
 70
     1
102
RTVSPropertyOp25
 70
     1
102
RTVSPropertyOp26
 70
     1
102
RTVSPropertyOp27
 70
     1
102
RTVSPropertyOp28
 70
     1
102
RTVSPropertyOp29
 70
     1
102
RTVSPropertyOp30
 70
     1
102
RTVSPropertyOp31
 70
     1
102
RTVSPropertyOp32
 70
     1
  0
XRECORD
  5
2DBE
102
{ACAD_REACTORS
330
2DBD
102
}
330
2DBD
100
AcDbXrecord
280
     1
102
RTVSPropertyOp0
 70
     1
102
RTVSPropertyOp1
 70
     1
102
RTVSPropertyOp2
 70
     1
102
RTVSPropertyOp3
 70
     1
102
RTVSPropertyOp4
 70
     1
102
RTVSPropertyOp5
 70
     1
102
RTVSPropertyOp6
 70
     1
102
RTVSPropertyOp7
 70
     1
102
RTVSPropertyOp8
 70
     1
102
RTVSPropertyOp9
 70
     1
102
RTVSPropertyOp10
 70
     1
102
RTVSPropertyOp11
 70
     1
102
RTVSPropertyOp12
 70
     1
102
RTVSPropertyOp13
 70
     1
102
RTVSPropertyOp14
 70
     1
102
RTVSPropertyOp15
 70
     1
102
RTVSPropertyOp16
 70
     1
102
RTVSPropertyOp17
 70
     1
102
RTVSPropertyOp18
 70
     1
102
RTVSPropertyOp19
 70
     1
102
RTVSPropertyOp20
 70
     1
102
RTVSPropertyOp21
 70
     1
102
RTVSPropertyOp22
 70
     1
102
RTVSPropertyOp23
 70
     1
102
RTVSPropertyOp24
 70
     1
102
RTVSPropertyOp25
 70
     1
102
RTVSPropertyOp26
 70
     1
102
RTVSPropertyOp27
 70
     1
102
RTVSPropertyOp28
 70
     1
102
RTVSPropertyOp29
 70
     1
102
RTVSPropertyOp30
 70
     1
102
RTVSPropertyOp31
 70
     1
102
RTVSPropertyOp32
 70
     1
  0
XRECORD
  5
2DC6
102
{ACAD_REACTORS
330
2DC5
102
}
330
2DC5
100
AcDbXrecord
280
     1
102
RTVSPropertyOp0
 70
     1
102
RTVSPropertyOp1
 70
     1
102
RTVSPropertyOp2
 70
     1
102
RTVSPropertyOp3
 70
     1
102
RTVSPropertyOp4
 70
     1
102
RTVSPropertyOp5
 70
     1
102
RTVSPropertyOp6
 70
     1
102
RTVSPropertyOp7
 70
     1
102
RTVSPropertyOp8
 70
     1
102
RTVSPropertyOp9
 70
     1
102
RTVSPropertyOp10
 70
     1
102
RTVSPropertyOp11
 70
     1
102
RTVSPropertyOp12
 70
     1
102
RTVSPropertyOp13
 70
     1
102
RTVSPropertyOp14
 70
     1
102
RTVSPropertyOp15
 70
     1
102
RTVSPropertyOp16
 70
     1
102
RTVSPropertyOp17
 70
     1
102
RTVSPropertyOp18
 70
     1
102
RTVSPropertyOp19
 70
     1
102
RTVSPropertyOp20
 70
     1
102
RTVSPropertyOp21
 70
     1
102
RTVSPropertyOp22
 70
     1
102
RTVSPropertyOp23
 70
     1
102
RTVSPropertyOp24
 70
     1
102
RTVSPropertyOp25
 70
     1
102
RTVSPropertyOp26
 70
     1
102
RTVSPropertyOp27
 70
     1
102
RTVSPropertyOp28
 70
     1
102
RTVSPropertyOp29
 70
     1
102
RTVSPropertyOp30
 70
     1
102
RTVSPropertyOp31
 70
     1
102
RTVSPropertyOp32
 70
     1
  0
XRECORD
  5
2DE2
102
{ACAD_REACTORS
330
2DE1
102
}
330
2DE1
100
AcDbXrecord
280
     1
102
RTVSPropertyOp0
 70
     0
102
RTVSPropertyOp1
 70
     0
102
RTVSPropertyOp2
 70
     0
102
RTVSPropertyOp3
 70
     0
102
RTVSPropertyOp4
 70
     0
102
RTVSPropertyOp5
 70
     0
102
RTVSPropertyOp6
 70
     0
102
RTVSPropertyOp7
 70
     0
102
RTVSPropertyOp8
 70
     0
102
RTVSPropertyOp9
 70
     0
102
RTVSPropertyOp10
 70
     0
102
RTVSPropertyOp11
 70
     0
102
RTVSPropertyOp12
 70
     0
102
RTVSPropertyOp13
 70
     0
102
RTVSPropertyOp14
 70
     2
102
RTVSPropertyOp15
 70
     0
102
RTVSPropertyOp16
 70
     0
102
RTVSPropertyOp17
 70
     0
102
RTVSPropertyOp18
 70
     0
102
RTVSPropertyOp19
 70
     0
102
RTVSPropertyOp20
 70
     0
102
RTVSPropertyOp21
 70
     0
102
RTVSPropertyOp22
 70
     0
102
RTVSPropertyOp23
 70
     0
102
RTVSPropertyOp24
 70
     0
102
RTVSPropertyOp25
 70
     0
102
RTVSPropertyOp26
 70
     0
102
RTVSPropertyOp27
 70
     0
102
RTVSPropertyOp28
 70
     0
102
RTVSPropertyOp29
 70
     0
102
RTVSPropertyOp30
 70
     0
102
RTVSPropertyOp31
 70
     0
102
RTVSPropertyOp32
 70
     0
  0
XRECORD
  5
2DD2
102
{ACAD_REACTORS
330
2DD1
102
}
330
2DD1
100
AcDbXrecord
280
     1
102
RTVSPropertyOp0
 70
     1
102
RTVSPropertyOp1
 70
     1
102
RTVSPropertyOp2
 70
     1
102
RTVSPropertyOp3
 70
     1
102
RTVSPropertyOp4
 70
     1
102
RTVSPropertyOp5
 70
     1
102
RTVSPropertyOp6
 70
     1
102
RTVSPropertyOp7
 70
     1
102
RTVSPropertyOp8
 70
     1
102
RTVSPropertyOp9
 70
     1
102
RTVSPropertyOp10
 70
     1
102
RTVSPropertyOp11
 70
     1
102
RTVSPropertyOp12
 70
     1
102
RTVSPropertyOp13
 70
     1
102
RTVSPropertyOp14
 70
     1
102
RTVSPropertyOp15
 70
     1
102
RTVSPropertyOp16
 70
     1
102
RTVSPropertyOp17
 70
     1
102
RTVSPropertyOp18
 70
     1
102
RTVSPropertyOp19
 70
     1
102
RTVSPropertyOp20
 70
     1
102
RTVSPropertyOp21
 70
     1
102
RTVSPropertyOp22
 70
     1
102
RTVSPropertyOp23
 70
     1
102
RTVSPropertyOp24
 70
     1
102
RTVSPropertyOp25
 70
     1
102
RTVSPropertyOp26
 70
     1
102
RTVSPropertyOp27
 70
     1
102
RTVSPropertyOp28
 70
     1
102
RTVSPropertyOp29
 70
     1
102
RTVSPropertyOp30
 70
     1
102
RTVSPropertyOp31
 70
     1
102
RTVSPropertyOp32
 70
     1
  0
XRECORD
  5
2DE4
102
{ACAD_REACTORS
330
2DE3
102
}
330
2DE3
100
AcDbXrecord
280
     1
102
RTVSPropertyOp0
 70
     0
102
RTVSPropertyOp1
 70
     0
102
RTVSPropertyOp2
 70
     0
102
RTVSPropertyOp3
 70
     0
102
RTVSPropertyOp4
 70
     0
102
RTVSPropertyOp5
 70
     0
102
RTVSPropertyOp6
 70
     0
102
RTVSPropertyOp7
 70
     0
102
RTVSPropertyOp8
 70
     0
102
RTVSPropertyOp9
 70
     0
102
RTVSPropertyOp10
 70
     0
102
RTVSPropertyOp11
 70
     0
102
RTVSPropertyOp12
 70
     0
102
RTVSPropertyOp13
 70
     0
102
RTVSPropertyOp14
 70
     2
102
RTVSPropertyOp15
 70
     0
102
RTVSPropertyOp16
 70
     0
102
RTVSPropertyOp17
 70
     0
102
RTVSPropertyOp18
 70
     0
102
RTVSPropertyOp19
 70
     0
102
RTVSPropertyOp20
 70
     0
102
RTVSPropertyOp21
 70
     0
102
RTVSPropertyOp22
 70
     0
102
RTVSPropertyOp23
 70
     0
102
RTVSPropertyOp24
 70
     0
102
RTVSPropertyOp25
 70
     0
102
RTVSPropertyOp26
 70
     0
102
RTVSPropertyOp27
 70
     0
102
RTVSPropertyOp28
 70
     0
102
RTVSPropertyOp29
 70
     0
102
RTVSPropertyOp30
 70
     0
102
RTVSPropertyOp31
 70
     0
102
RTVSPropertyOp32
 70
     0
  0
XRECORD
  5
2DCA
102
{ACAD_REACTORS
330
2DC9
102
}
330
2DC9
100
AcDbXrecord
280
     1
102
RTVSPropertyOp0
 70
     1
102
RTVSPropertyOp1
 70
     1
102
RTVSPropertyOp2
 70
     1
102
RTVSPropertyOp3
 70
     1
102
RTVSPropertyOp4
 70
     1
102
RTVSPropertyOp5
 70
     1
102
RTVSPropertyOp6
 70
     1
102
RTVSPropertyOp7
 70
     1
102
RTVSPropertyOp8
 70
     1
102
RTVSPropertyOp9
 70
     1
102
RTVSPropertyOp10
 70
     1
102
RTVSPropertyOp11
 70
     1
102
RTVSPropertyOp12
 70
     1
102
RTVSPropertyOp13
 70
     1
102
RTVSPropertyOp14
 70
     1
102
RTVSPropertyOp15
 70
     1
102
RTVSPropertyOp16
 70
     1
102
RTVSPropertyOp17
 70
     1
102
RTVSPropertyOp18
 70
     1
102
RTVSPropertyOp19
 70
     1
102
RTVSPropertyOp20
 70
     1
102
RTVSPropertyOp21
 70
     1
102
RTVSPropertyOp22
 70
     1
102
RTVSPropertyOp23
 70
     1
102
RTVSPropertyOp24
 70
     1
102
RTVSPropertyOp25
 70
     1
102
RTVSPropertyOp26
 70
     1
102
RTVSPropertyOp27
 70
     1
102
RTVSPropertyOp28
 70
     1
102
RTVSPropertyOp29
 70
     1
102
RTVSPropertyOp30
 70
     1
102
RTVSPropertyOp31
 70
     1
102
RTVSPropertyOp32
 70
     1
  0
XRECORD
  5
2DE0
102
{ACAD_REACTORS
330
2DDF
102
}
330
2DDF
100
AcDbXrecord
280
     1
102
RTVSPropertyOp0
 70
     1
102
RTVSPropertyOp1
 70
     1
102
RTVSPropertyOp2
 70
     1
102
RTVSPropertyOp3
 70
     1
102
RTVSPropertyOp4
 70
     1
102
RTVSPropertyOp5
 70
     1
102
RTVSPropertyOp6
 70
     1
102
RTVSPropertyOp7
 70
     1
102
RTVSPropertyOp8
 70
     1
102
RTVSPropertyOp9
 70
     1
102
RTVSPropertyOp10
 70
     1
102
RTVSPropertyOp11
 70
     1
102
RTVSPropertyOp12
 70
     1
102
RTVSPropertyOp13
 70
     1
102
RTVSPropertyOp14
 70
     1
102
RTVSPropertyOp15
 70
     1
102
RTVSPropertyOp16
 70
     1
102
RTVSPropertyOp17
 70
     1
102
RTVSPropertyOp18
 70
     1
102
RTVSPropertyOp19
 70
     1
102
RTVSPropertyOp20
 70
     1
102
RTVSPropertyOp21
 70
     1
102
RTVSPropertyOp22
 70
     1
102
RTVSPropertyOp23
 70
     1
102
RTVSPropertyOp24
 70
     1
102
RTVSPropertyOp25
 70
     1
102
RTVSPropertyOp26
 70
     1
102
RTVSPropertyOp27
 70
     1
102
RTVSPropertyOp28
 70
     1
102
RTVSPropertyOp29
 70
     1
102
RTVSPropertyOp30
 70
     1
102
RTVSPropertyOp31
 70
     1
102
RTVSPropertyOp32
 70
     1
  0
XRECORD
  5
2DDE
102
{ACAD_REACTORS
330
2DDD
102
}
330
2DDD
100
AcDbXrecord
280
     1
102
RTVSPropertyOp0
 70
     1
102
RTVSPropertyOp1
 70
     1
102
RTVSPropertyOp2
 70
     1
102
RTVSPropertyOp3
 70
     1
102
RTVSPropertyOp4
 70
     1
102
RTVSPropertyOp5
 70
     1
102
RTVSPropertyOp6
 70
     1
102
RTVSPropertyOp7
 70
     1
102
RTVSPropertyOp8
 70
     1
102
RTVSPropertyOp9
 70
     1
102
RTVSPropertyOp10
 70
     1
102
RTVSPropertyOp11
 70
     1
102
RTVSPropertyOp12
 70
     1
102
RTVSPropertyOp13
 70
     1
102
RTVSPropertyOp14
 70
     1
102
RTVSPropertyOp15
 70
     1
102
RTVSPropertyOp16
 70
     1
102
RTVSPropertyOp17
 70
     1
102
RTVSPropertyOp18
 70
     1
102
RTVSPropertyOp19
 70
     1
102
RTVSPropertyOp20
 70
     1
102
RTVSPropertyOp21
 70
     1
102
RTVSPropertyOp22
 70
     1
102
RTVSPropertyOp23
 70
     1
102
RTVSPropertyOp24
 70
     1
102
RTVSPropertyOp25
 70
     1
102
RTVSPropertyOp26
 70
     1
102
RTVSPropertyOp27
 70
     1
102
RTVSPropertyOp28
 70
     1
102
RTVSPropertyOp29
 70
     1
102
RTVSPropertyOp30
 70
     1
102
RTVSPropertyOp31
 70
     1
102
RTVSPropertyOp32
 70
     1
  0
XRECORD
  5
2DD8
102
{ACAD_REACTORS
330
2DD7
102
}
330
2DD7
100
AcDbXrecord
280
     1
102
RTVSPropertyOp0
 70
     1
102
RTVSPropertyOp1
 70
     1
102
RTVSPropertyOp2
 70
     1
102
RTVSPropertyOp3
 70
     1
102
RTVSPropertyOp4
 70
     1
102
RTVSPropertyOp5
 70
     1
102
RTVSPropertyOp6
 70
     1
102
RTVSPropertyOp7
 70
     1
102
RTVSPropertyOp8
 70
     1
102
RTVSPropertyOp9
 70
     1
102
RTVSPropertyOp10
 70
     1
102
RTVSPropertyOp11
 70
     1
102
RTVSPropertyOp12
 70
     1
102
RTVSPropertyOp13
 70
     1
102
RTVSPropertyOp14
 70
     1
102
RTVSPropertyOp15
 70
     1
102
RTVSPropertyOp16
 70
     1
102
RTVSPropertyOp17
 70
     1
102
RTVSPropertyOp18
 70
     1
102
RTVSPropertyOp19
 70
     1
102
RTVSPropertyOp20
 70
     1
102
RTVSPropertyOp21
 70
     1
102
RTVSPropertyOp22
 70
     1
102
RTVSPropertyOp23
 70
     1
102
RTVSPropertyOp24
 70
     1
102
RTVSPropertyOp25
 70
     1
102
RTVSPropertyOp26
 70
     1
102
RTVSPropertyOp27
 70
     1
102
RTVSPropertyOp28
 70
     1
102
RTVSPropertyOp29
 70
     1
102
RTVSPropertyOp30
 70
     1
102
RTVSPropertyOp31
 70
     1
102
RTVSPropertyOp32
 70
     1
  0
XRECORD
  5
2DDA
102
{ACAD_REACTORS
330
2DD9
102
}
330
2DD9
100
AcDbXrecord
280
     1
102
RTVSPropertyOp0
 70
     1
102
RTVSPropertyOp1
 70
     1
102
RTVSPropertyOp2
 70
     1
102
RTVSPropertyOp3
 70
     1
102
RTVSPropertyOp4
 70
     1
102
RTVSPropertyOp5
 70
     1
102
RTVSPropertyOp6
 70
     1
102
RTVSPropertyOp7
 70
     1
102
RTVSPropertyOp8
 70
     1
102
RTVSPropertyOp9
 70
     1
102
RTVSPropertyOp10
 70
     1
102
RTVSPropertyOp11
 70
     1
102
RTVSPropertyOp12
 70
     1
102
RTVSPropertyOp13
 70
     1
102
RTVSPropertyOp14
 70
     1
102
RTVSPropertyOp15
 70
     1
102
RTVSPropertyOp16
 70
     1
102
RTVSPropertyOp17
 70
     1
102
RTVSPropertyOp18
 70
     1
102
RTVSPropertyOp19
 70
     1
102
RTVSPropertyOp20
 70
     1
102
RTVSPropertyOp21
 70
     1
102
RTVSPropertyOp22
 70
     1
102
RTVSPropertyOp23
 70
     1
102
RTVSPropertyOp24
 70
     1
102
RTVSPropertyOp25
 70
     1
102
RTVSPropertyOp26
 70
     1
102
RTVSPropertyOp27
 70
     1
102
RTVSPropertyOp28
 70
     1
102
RTVSPropertyOp29
 70
     1
102
RTVSPropertyOp30
 70
     1
102
RTVSPropertyOp31
 70
     1
102
RTVSPropertyOp32
 70
     1
  0
XRECORD
  5
2DD0
102
{ACAD_REACTORS
330
2DCF
102
}
330
2DCF
100
AcDbXrecord
280
     1
102
RTVSPropertyOp0
 70
     1
102
RTVSPropertyOp1
 70
     1
102
RTVSPropertyOp2
 70
     1
102
RTVSPropertyOp3
 70
     1
102
RTVSPropertyOp4
 70
     1
102
RTVSPropertyOp5
 70
     1
102
RTVSPropertyOp6
 70
     1
102
RTVSPropertyOp7
 70
     1
102
RTVSPropertyOp8
 70
     1
102
RTVSPropertyOp9
 70
     1
102
RTVSPropertyOp10
 70
     1
102
RTVSPropertyOp11
 70
     1
102
RTVSPropertyOp12
 70
     1
102
RTVSPropertyOp13
 70
     1
102
RTVSPropertyOp14
 70
     1
102
RTVSPropertyOp15
 70
     1
102
RTVSPropertyOp16
 70
     1
102
RTVSPropertyOp17
 70
     1
102
RTVSPropertyOp18
 70
     1
102
RTVSPropertyOp19
 70
     1
102
RTVSPropertyOp20
 70
     1
102
RTVSPropertyOp21
 70
     1
102
RTVSPropertyOp22
 70
     1
102
RTVSPropertyOp23
 70
     1
102
RTVSPropertyOp24
 70
     1
102
RTVSPropertyOp25
 70
     1
102
RTVSPropertyOp26
 70
     1
102
RTVSPropertyOp27
 70
     1
102
RTVSPropertyOp28
 70
     1
102
RTVSPropertyOp29
 70
     1
102
RTVSPropertyOp30
 70
     1
102
RTVSPropertyOp31
 70
     1
102
RTVSPropertyOp32
 70
     1
  0
XRECORD
  5
2DC4
102
{ACAD_REACTORS
330
2DC3
102
}
330
2DC3
100
AcDbXrecord
280
     1
102
RTVSPropertyOp0
 70
     1
102
RTVSPropertyOp1
 70
     1
102
RTVSPropertyOp2
 70
     1
102
RTVSPropertyOp3
 70
     1
102
RTVSPropertyOp4
 70
     1
102
RTVSPropertyOp5
 70
     1
102
RTVSPropertyOp6
 70
     1
102
RTVSPropertyOp7
 70
     1
102
RTVSPropertyOp8
 70
     1
102
RTVSPropertyOp9
 70
     1
102
RTVSPropertyOp10
 70
     1
102
RTVSPropertyOp11
 70
     1
102
RTVSPropertyOp12
 70
     1
102
RTVSPropertyOp13
 70
     1
102
RTVSPropertyOp14
 70
     1
102
RTVSPropertyOp15
 70
     1
102
RTVSPropertyOp16
 70
     1
102
RTVSPropertyOp17
 70
     1
102
RTVSPropertyOp18
 70
     1
102
RTVSPropertyOp19
 70
     1
102
RTVSPropertyOp20
 70
     1
102
RTVSPropertyOp21
 70
     1
102
RTVSPropertyOp22
 70
     1
102
RTVSPropertyOp23
 70
     1
102
RTVSPropertyOp24
 70
     1
102
RTVSPropertyOp25
 70
     1
102
RTVSPropertyOp26
 70
     1
102
RTVSPropertyOp27
 70
     1
102
RTVSPropertyOp28
 70
     1
102
RTVSPropertyOp29
 70
     1
102
RTVSPropertyOp30
 70
     1
102
RTVSPropertyOp31
 70
     1
102
RTVSPropertyOp32
 70
     1
  0
XRECORD
  5
2DDC
102
{ACAD_REACTORS
330
2DDB
102
}
330
2DDB
100
AcDbXrecord
280
     1
102
RTVSPropertyOp0
 70
     1
102
RTVSPropertyOp1
 70
     1
102
RTVSPropertyOp2
 70
     1
102
RTVSPropertyOp3
 70
     1
102
RTVSPropertyOp4
 70
     1
102
RTVSPropertyOp5
 70
     1
102
RTVSPropertyOp6
 70
     1
102
RTVSPropertyOp7
 70
     1
102
RTVSPropertyOp8
 70
     1
102
RTVSPropertyOp9
 70
     1
102
RTVSPropertyOp10
 70
     1
102
RTVSPropertyOp11
 70
     1
102
RTVSPropertyOp12
 70
     1
102
RTVSPropertyOp13
 70
     1
102
RTVSPropertyOp14
 70
     1
102
RTVSPropertyOp15
 70
     1
102
RTVSPropertyOp16
 70
     1
102
RTVSPropertyOp17
 70
     1
102
RTVSPropertyOp18
 70
     1
102
RTVSPropertyOp19
 70
     1
102
RTVSPropertyOp20
 70
     1
102
RTVSPropertyOp21
 70
     1
102
RTVSPropertyOp22
 70
     1
102
RTVSPropertyOp23
 70
     1
102
RTVSPropertyOp24
 70
     1
102
RTVSPropertyOp25
 70
     1
102
RTVSPropertyOp26
 70
     1
102
RTVSPropertyOp27
 70
     1
102
RTVSPropertyOp28
 70
     1
102
RTVSPropertyOp29
 70
     1
102
RTVSPropertyOp30
 70
     1
102
RTVSPropertyOp31
 70
     1
102
RTVSPropertyOp32
 70
     1
  0
ENDSEC
  0
EOF
