  0
SECTION
  2
HEADER
  9
$ACADVER
  1
AC1015
  9
$ACADMAINTVER
 70
    20
  9
$DWGCODEPAGE
  3
ANSI_932
  9
$INSBASE
 10
0.0
 20
0.0
 30
0.0
  9
$EXTMIN
 10
10.0
 20
9.999999999999893
 30
0.0
  9
$EXTMAX
 10
816.0000000000001
 20
570.0000000000001
 30
0.0
  9
$LIMMIN
 10
10.0
 20
10.0
  9
$LIMMAX
 10
816.0
 20
570.0000000000001
  9
$ORTHOMODE
 70
     0
  9
$REGENMODE
 70
     1
  9
$FILLMODE
 70
     1
  9
$QTEXTMODE
 70
     0
  9
$MIRRTEXT
 70
     1
  9
$LTSCALE
 40
2.0
  9
$ATTMODE
 70
     1
  9
$TEXTSIZE
 40
2.5
  9
$TRACEWID
 40
0.05
  9
$TEXTSTYLE
  7
takachi1
  9
$CLAYER
  8
0
  9
$CELTYPE
  6
ByLayer
  9
$CECOLOR
 62
   256
  9
$CELTSCALE
 40
1.0
  9
$DISPSILH
 70
     0
  9
$DIMSCALE
 40
1.0
  9
$DIMASZ
 40
3.5
  9
$DIMEXO
 40
1.0
  9
$DIMDLI
 40
10.0
  9
$DIMRND
 40
0.0
  9
$DIMDLE
 40
0.0
  9
$DIMEXE
 40
1.0
  9
$DIMTP
 40
0.1
  9
$DIMTM
 40
0.1
  9
$DIMTXT
 40
3.5
  9
$DIMCEN
 40
0.0
  9
$DIMTSZ
 40
0.0
  9
$DIMTOL
 70
     0
  9
$DIMLIM
 70
     0
  9
$DIMTIH
 70
     0
  9
$DIMTOH
 70
     0
  9
$DIMSE1
 70
     0
  9
$DIMSE2
 70
     0
  9
$DIMTAD
 70
     1
  9
$DIMZIN
 70
     8
  9
$DIMBLK
  1

  9
$DIMASO
 70
     1
  9
$DIMSHO
 70
     1
  9
$DIMPOST
  1

  9
$DIMAPOST
  1
"
  9
$DIMALT
 70
     0
  9
$DIMALTD
 70
     2
  9
$DIMALTF
 40
0.0393701
  9
$DIMLFAC
 40
1.0
  9
$DIMTOFL
 70
     1
  9
$DIMTVP
 40
0.0
  9
$DIMTIX
 70
     0
  9
$DIMSOXD
 70
     0
  9
$DIMSAH
 70
     0
  9
$DIMBLK1
  1

  9
$DIMBLK2
  1

  9
$DIMSTYLE
  2
AM_ISO
  9
$DIMCLRD
 70
   256
  9
$DIMCLRE
 70
   256
  9
$DIMCLRT
 70
     2
  9
$DIMTFAC
 40
0.71
  9
$DIMGAP
 40
1.5
  9
$DIMJUST
 70
     0
  9
$DIMSD1
 70
     0
  9
$DIMSD2
 70
     0
  9
$DIMTOLJ
 70
     0
  9
$DIMTZIN
 70
     8
  9
$DIMALTZ
 70
     0
  9
$DIMALTTZ
 70
     0
  9
$DIMUPT
 70
     0
  9
$DIMDEC
 70
     2
  9
$DIMTDEC
 70
     3
  9
$DIMALTU
 70
     2
  9
$DIMALTTD
 70
     4
  9
$DIMTXSTY
  7
STANDARD
  9
$DIMAUNIT
 70
     0
  9
$DIMADEC
 70
     0
  9
$DIMALTRND
 40
0.0
  9
$DIMAZIN
 70
     2
  9
$DIMDSEP
 70
    46
  9
$DIMATFIT
 70
     3
  9
$DIMFRAC
 70
     0
  9
$DIMLDRBLK
  1

  9
$DIMLUNIT
 70
     2
  9
$DIMLWD
 70
    -1
  9
$DIMLWE
 70
    -1
  9
$DIMTMOVE
 70
     0
  9
$LUNITS
 70
     2
  9
$LUPREC
 70
     2
  9
$SKETCHINC
 40
0.1
  9
$FILLETRAD
 40
1.0
  9
$AUNITS
 70
     0
  9
$AUPREC
 70
     0
  9
$MENU
  1
.
  9
$ELEVATION
 40
0.0
  9
$PELEVATION
 40
0.0
  9
$THICKNESS
 40
0.0
  9
$LIMCHECK
 70
     0
  9
$CHAMFERA
 40
5.0
  9
$CHAMFERB
 40
5.0
  9
$CHAMFERC
 40
1.0
  9
$CHAMFERD
 40
0.0
  9
$SKPOLY
 70
     0
  9
$TDCREATE
 40
2454538.617823345
  9
$TDUCREATE
 40
2454538.242823345
  9
$TDUPDATE
 40
2455491.545884329
  9
$TDUUPDATE
 40
2455491.170884329
  9
$TDINDWG
 40
0.1956723958
  9
$TDUSRTIMER
 40
0.1956722106
  9
$USRTIMER
 70
     1
  9
$ANGBASE
 50
0.0
  9
$ANGDIR
 70
     0
  9
$PDMODE
 70
     0
  9
$PDSIZE
 40
0.0
  9
$PLINEWID
 40
0.0
  9
$SPLFRAME
 70
     0
  9
$SPLINETYPE
 70
     6
  9
$SPLINESEGS
 70
     8
  9
$HANDSEED
  5
2EF2
  9
$SURFTAB1
 70
     6
  9
$SURFTAB2
 70
     6
  9
$SURFTYPE
 70
     6
  9
$SURFU
 70
     6
  9
$SURFV
 70
     6
  9
$UCSBASE
  2

  9
$UCSNAME
  2

  9
$UCSORG
 10
0.0
 20
0.0
 30
0.0
  9
$UCSXDIR
 10
1.0
 20
0.0
 30
0.0
  9
$UCSYDIR
 10
0.0
 20
1.0
 30
0.0
  9
$UCSORTHOREF
  2

  9
$UCSORTHOVIEW
 70
     0
  9
$UCSORGTOP
 10
0.0
 20
0.0
 30
0.0
  9
$UCSORGBOTTOM
 10
0.0
 20
0.0
 30
0.0
  9
$UCSORGLEFT
 10
0.0
 20
0.0
 30
0.0
  9
$UCSORGRIGHT
 10
0.0
 20
0.0
 30
0.0
  9
$UCSORGFRONT
 10
0.0
 20
0.0
 30
0.0
  9
$UCSORGBACK
 10
0.0
 20
0.0
 30
0.0
  9
$PUCSBASE
  2

  9
$PUCSNAME
  2

  9
$PUCSORG
 10
0.0
 20
0.0
 30
0.0
  9
$PUCSXDIR
 10
1.0
 20
0.0
 30
0.0
  9
$PUCSYDIR
 10
0.0
 20
1.0
 30
0.0
  9
$PUCSORTHOREF
  2

  9
$PUCSORTHOVIEW
 70
     0
  9
$PUCSORGTOP
 10
0.0
 20
0.0
 30
0.0
  9
$PUCSORGBOTTOM
 10
0.0
 20
0.0
 30
0.0
  9
$PUCSORGLEFT
 10
0.0
 20
0.0
 30
0.0
  9
$PUCSORGRIGHT
 10
0.0
 20
0.0
 30
0.0
  9
$PUCSORGFRONT
 10
0.0
 20
0.0
 30
0.0
  9
$PUCSORGBACK
 10
0.0
 20
0.0
 30
0.0
  9
$USERI1
 70
     0
  9
$USERI2
 70
     0
  9
$USERI3
 70
     0
  9
$USERI4
 70
     0
  9
$USERI5
 70
     0
  9
$USERR1
 40
0.0
  9
$USERR2
 40
0.0
  9
$USERR3
 40
0.0
  9
$USERR4
 40
0.0
  9
$USERR5
 40
0.0
  9
$WORLDVIEW
 70
     1
  9
$SHADEDGE
 70
     3
  9
$SHADEDIF
 70
    70
  9
$TILEMODE
 70
     1
  9
$MAXACTVP
 70
    64
  9
$PINSBASE
 10
0.0
 20
0.0
 30
0.0
  9
$PLIMCHECK
 70
     0
  9
$PEXTMIN
 10
1.000000000000000E+20
 20
1.000000000000000E+20
 30
1.000000000000000E+20
  9
$PEXTMAX
 10
-1.000000000000000E+20
 20
-1.000000000000000E+20
 30
-1.000000000000000E+20
  9
$PLIMMIN
 10
-0.2500002402958907
 20
-0.2499999962453767
  9
$PLIMMAX
 10
10.74999951940821
 20
8.249999763458731
  9
$UNITMODE
 70
     0
  9
$VISRETAIN
 70
     1
  9
$PLINEGEN
 70
     0
  9
$PSLTSCALE
 70
     1
  9
$TREEDEPTH
 70
  3020
  9
$CMLSTYLE
  2
Standard
  9
$CMLJUST
 70
     0
  9
$CMLSCALE
 40
1.0
  9
$PROXYGRAPHICS
 70
     1
  9
$MEASUREMENT
 70
     1
  9
$CELWEIGHT
370
    -1
  9
$ENDCAPS
280
     0
  9
$JOINSTYLE
280
     0
  9
$LWDISPLAY
290
     0
  9
$INSUNITS
 70
     4
  9
$HYPERLINKBASE
  1

  9
$STYLESHEET
  1
takachi-2.ctb
  9
$XEDIT
290
     1
  9
$CEPSNTYPE
380
     0
  9
$PSTYLEMODE
290
     1
  9
$FINGERPRINTGUID
  2
{FDEAD576-A652-11D2-9A35-0060089B3A3F}
  9
$VERSIONGUID
  2
{6788A6B2-FAD9-4E10-A5A3-7A6A1FE70C2C}
  9
$EXTNAMES
290
     1
  9
$PSVPSCALE
 40
0.0
  9
$OLESTARTUP
290
     0
  0
ENDSEC
  0
SECTION
  2
CLASSES
  0
CLASS
  1
ACDBDICTIONARYWDFLT
  2
AcDbDictionaryWithDefault
  3
ObjectDBX Classes
 90
        0
280
     0
281
     0
  0
CLASS
  1
ACDBPLACEHOLDER
  2
AcDbPlaceHolder
  3
ObjectDBX Classes
 90
        0
280
     0
281
     0
  0
CLASS
  1
LAYOUT
  2
AcDbLayout
  3
ObjectDBX Classes
 90
        0
280
     0
281
     0
  0
CLASS
  1
ACME_DOCUMENT
  2
AcMeDbDoc
  3
AcMeServices
 90
     1024
280
     0
281
     0
  0
CLASS
  1
AMGSETTINGSOBJ
  2
AmgSettingsObj
  3
"AcadM|Product Description: AutoCAD Mechanical|Company: Autodesk, Inc."
 90
     1024
280
     0
281
     0
  0
CLASS
  1
ACMESCOPE
  2
AcMeScope
  3
AcMeServices
 90
     1024
280
     0
281
     0
  0
CLASS
  1
ACMECOMMANDHISTORY
  2
AcMeCommandHistory
  3
AcMeServices
 90
     1024
280
     0
281
     0
  0
CLASS
  1
ACIMSYSVARMAN
  2
AcImSysVarManager
  3
AcMeServices
 90
     1024
280
     0
281
     0
  0
CLASS
  1
ACIMREALSYSVAR
  2
AcImRealSysVar
  3
AcMeServices
 90
     1024
280
     0
281
     0
  0
CLASS
  1
ACIMINTSYSVAR
  2
AcImIntSysVar
  3
AcMeServices
 90
     1024
280
     0
281
     0
  0
CLASS
  1
ACMEDRAWINGMAN
  2
AcMeDrawingMan
  3
AcMeServices
 90
     1024
280
     0
281
     0
  0
CLASS
  1
ACMEVIEW
  2
AcMeView
  3
AcMeServices
 90
     1024
280
     0
281
     0
  0
CLASS
  1
ACDBENTITYCACHE
  2
AcMeEntityCache
  3
AcMeServices
 90
     1024
280
     0
281
     0
  0
CLASS
  1
GSMANAGER
  2
AcMeGSManager
  3
AcMeServices
 90
     1024
280
     0
281
     0
  0
CLASS
  1
AMDTINTERNALREACTOR
  2
AmdtInternalReactor
  3
AcMeServices
 90
     1024
280
     0
281
     0
  0
CLASS
  1
ACMESTATEMGR
  2
AcMeStateMgr
  3
AcMeServices
 90
     1024
280
     0
281
     0
  0
CLASS
  1
ACGREFMASTER
  2
AcGrefMaster
  3
AcAttribServices
 90
     1024
280
     0
281
     0
  0
CLASS
  1
ACME_DATABASE
  2
AcMeDbDatabase
  3
AcMeServices
 90
     1024
280
     0
281
     0
  0
CLASS
  1
ACRFINSADJUSTERMGR
  2
AcRfInsAdjusterMgr
  3
AcMeServices
 90
     1024
280
     0
281
     0
  0
CLASS
  1
ACGREFACADMASTER
  2
AcGrefacadMaster
  3
AcGrefServices
 90
     1024
280
     0
281
     0
  0
CLASS
  1
AMIMASTER
  2
AmiMaster
  3
AmiServices
 90
     1024
280
     0
281
     0
  0
CLASS
  1
ACMDATADICTIONARY
  2
AcmDataDictionary
  3
"AcmSymBB|Product Description: AutoCAD Mechanical|Company: Autodesk, Inc."
 90
     1024
280
     0
281
     0
  0
CLASS
  1
ACMDATAENTRYBLOCK
  2
AcmDataEntryBlock
  3
AcmSymBB|Product Description: AutoCAD Mechanical|Company: Autodesk, Inc.
 90
    33792
280
     0
281
     0
  0
CLASS
  1
ACIMSTRSYSVAR
  2
AcImStrSysVar
  3
AcMeServices
 90
     1024
280
     0
281
     0
  0
CLASS
  1
ACMSTANDARDANSI
  2
AcmStandardANSI
  3
"Amdt_StdImp|Product Description: AutoCAD Mechanical|Company: Autodesk, Inc."
 90
    33792
280
     0
281
     0
  0
CLASS
  1
AMGOBJPROPCFG
  2
AmgObjPropCfg
  3
"AmgLay|Product Description: AutoCAD Mechanical|Company: Autodesk, Inc."
 90
     1025
280
     0
281
     0
  0
CLASS
  1
ACMSURFSTANDARDANSI
  2
AcmSurfTextStdANSI
  3
"Amdt_StdImp|Product Description: AutoCAD Mechanical|Company: Autodesk, Inc."
 90
    33792
280
     0
281
     0
  0
CLASS
  1
ACMFCFSTANDARDANSI
  2
AcmFCFStdANSI
  3
"Amdt_StdImp|Product Description: AutoCAD Mechanical|Company: Autodesk, Inc."
 90
    33792
280
     0
281
     0
  0
CLASS
  1
ACMWELDSTANDARDANSI
  2
AcmWeldingStdANSI
  3
"Amdt_StdImp|Product Description: AutoCAD Mechanical|Company: Autodesk, Inc."
 90
    33792
280
     0
281
     0
  0
CLASS
  1
ACMIDSTANDARDANSI
  2
AcmIdStdANSI
  3
"Amdt_StdImp|Product Description: AutoCAD Mechanical|Company: Autodesk, Inc."
 90
    33792
280
     0
281
     0
  0
CLASS
  1
ACMDATUMSTANDARDANSI
  2
AcmDatumStdANSI
  3
"Amdt_StdImp|Product Description: AutoCAD Mechanical|Company: Autodesk, Inc."
 90
    33792
280
     0
281
     0
  0
CLASS
  1
ACMBOMSTANDARDANSI
  2
AcmBOMStdANSI
  3
"Amdt_StdImp|Product Description: AutoCAD Mechanical|Company: Autodesk, Inc."
 90
    33792
280
     0
281
     0
  0
CLASS
  1
ACMDETAILSTANDARDANSI
  2
AmdtDetailSymStdANSI
  3
"Amdt_StdImp|Product Description: AutoCAD Mechanical|Company: Autodesk, Inc."
 90
    33792
280
     0
281
     0
  0
CLASS
  1
ACMSECTIONSTANDARDANSI
  2
AmdtSectionSymStdANSI
  3
"Amdt_StdImp|Product Description: AutoCAD Mechanical|Company: Autodesk, Inc."
 90
    33792
280
     0
281
     0
  0
CLASS
  1
ACMCENTERLINESTANDARDANSI
  2
AmdtCenterLineStdANSI
  3
"Amdt_StdImp|Product Description: AutoCAD Mechanical|Company: Autodesk, Inc."
 90
    33792
280
     0
281
     0
  0
CLASS
  1
ACMNOTESTANDARDANSI
  2
AmdtNoteStdANSI
  3
"Amdt_StdImp|Product Description: AutoCAD Mechanical|Company: Autodesk, Inc."
 90
    33792
280
     0
281
     0
  0
CLASS
  1
ACAMGLAYSTD
  2
AcAmgLayStd
  3
"AmgLay|Product Description: AutoCAD Mechanical|Company: Autodesk, Inc."
 90
     1024
280
     0
281
     0
  0
CLASS
  1
ACAMGDIMSTD
  2
AcAmgDimStd
  3
"AmgDim|Product Description: AutoCAD Mechanical|Company: Autodesk, Inc."
 90
     1024
280
     0
281
     0
  0
CLASS
  1
ACAMGHOLECHARTSTDANSI
  2
AcAmgHoleChartStdANSI
  3
AmgDim|Product Description: AutoCAD Mechanical|Company: Autodesk, Inc.
 90
    33792
280
     0
281
     0
  0
CLASS
  1
ACAMGTITLESTD
  2
AcAmgTitleStd
  3
"AmgTitle|Product Description: AutoCAD Mechanical|Company: Autodesk, Inc."
 90
     4095
280
     0
281
     0
  0
CLASS
  1
LAYER_INDEX
  2
AcDbLayerIndex
  3
ObjectDBX Classes
 90
    32768
280
     0
281
     0
  0
CLASS
  1
IDBUFFER
  2
AcDbIdBuffer
  3
ObjectDBX Classes
 90
    32768
280
     0
281
     0
  0
CLASS
  1
DICTIONARYVAR
  2
AcDbDictionaryVar
  3
ObjectDBX Classes
 90
        0
280
     0
281
     0
  0
CLASS
  1
AM_DRAWING_MGR
  2
AcDmDwgMgr
  3
AcMechDwgViewMgmt
 90
     1024
280
     0
281
     0
  0
CLASS
  1
AM_DWG_DOCUMENT
  2
AcDmDwgDocument
  3
AcMechDwgViewMgmt
 90
     1024
280
     0
281
     0
  0
CLASS
  1
AM_DWG_SHEET
  2
AcDmSheet
  3
AcMechDwgViewMgmt
 90
     1024
280
     0
281
     0
  0
CLASS
  1
AM_VIEWDIMPARMAP
  2
AcDmViewDimParMap
  3
AcMechDwgViewMgmt
 90
     1024
280
     0
281
     0
  0
CLASS
  1
AM_DWGMGR_NAME
  2
AcDmDwgMgrName
  3
AcMechDwgViewMgmt
 90
     1024
280
     0
281
     0
  0
CLASS
  1
AMDTMENUSTATEMGR
  2
AmdtMenuStateMgr
  3
McadcomServices
 90
     1024
280
     0
281
     0
  0
CLASS
  1
AMDTMCOMMENUSTATE
  2
AmdtMcomMenuState
  3
McadcomServices
 90
     1024
280
     0
281
     0
  0
CLASS
  1
MAPIAMMOUDLE
  2
MApiAmModule
  3
MApiAmServices
 90
     1024
280
     0
281
     0
  0
CLASS
  1
AMDTADMENUSTATE
  2
AmdtAdMenuState
  3
DesignerServices
 90
     1024
280
     0
281
     0
  0
CLASS
  1
ADAPPL
  2
AcAdAppl
  3
DesignerServices
 90
     1024
280
     0
281
     0
  0
CLASS
  1
DEPMGR
  2
AcAdDepMgr
  3
DesignerServices
 90
     1024
280
     0
281
     0
  0
CLASS
  1
PARAMMGR
  2
AcAdParamMgr
  3
DesignerServices
 90
     1024
280
     0
281
     0
  0
CLASS
  1
PARAMSCOPE
  2
AcAdParamScope
  3
DesignerServices
 90
     1024
280
     0
281
     0
  0
CLASS
  1
NAMEDAPPL
  2
AcAdNamedAppl
  3
DesignerServices
 90
     1024
280
     0
281
     0
  0
CLASS
  1
AMDTDMMENUSTATE
  2
AmdtDmMenuState
  3
AcMechDwgViewMgmt
 90
     1024
280
     0
281
     0
  0
CLASS
  1
AMDTAMMENUSTATE
  2
AmdtAmMenuState
  3
DesignerAssemblies
 90
     1024
280
     0
281
     0
  0
CLASS
  1
ACAMPROJECT
  2
AcAmProject
  3
DesignerAssemblies
 90
     1024
280
     0
281
     0
  0
CLASS
  1
ACAMGRCOMPDEF
  2
AcAmGrCompDef
  3
DesignerAssemblies
 90
     1024
280
     0
281
     0
  0
CLASS
  1
ACCMCONTEXT
  2
AcCmContext
  3
DesignerAssemblies
 90
     1024
280
     0
281
     0
  0
CLASS
  1
ACAMCOMPDEF
  2
AcAmCompDef
  3
DesignerAssemblies
 90
     1024
280
     0
281
     0
  0
CLASS
  1
ACAMCOMPDEFMGR
  2
AcAmCompDefMgr
  3
DesignerAssemblies
 90
     1024
280
     0
281
     0
  0
CLASS
  1
AMCONTEXTMGR
  2
AcAmContextMgr
  3
DesignerAssemblies
 90
     1024
280
     0
281
     0
  0
CLASS
  1
ACAMCONTEXTMODELER
  2
AcAmContextModeler
  3
DesignerAssemblies
 90
     1024
280
     0
281
     0
  0
CLASS
  1
ACMTHREADLINESTANDARDANSI
  2
AmdtThreadLineStdANSI
  3
"Amdt_StdImp|Product Description: AutoCAD Mechanical|Company: Autodesk, Inc."
 90
    33792
280
     0
281
     0
  0
CLASS
  1
CATALOGSTATE
  2
AcAmCatalogState
  3
DesignerAssemblies
 90
     1024
280
     0
281
     0
  0
CLASS
  1
ACAMGRCOMPDEFSET
  2
AcAmGrCompDefSet
  3
DesignerAssemblies
 90
     1024
280
     0
281
     0
  0
CLASS
  1
AMDTBROWSERDBTAB
  2
AmdtBrowserDbTab
  3
McadcomServices
 90
     1024
280
     0
281
     0
  0
CLASS
  1
CBROWSERAPPOBJECT
  2
CBrowserAppObject
  3
McadcomServices
 90
     1024
280
     0
281
     0
  0
CLASS
  1
DM_PLACEHOLDER
  2
AcDmSelsetPlaceholder
  3
AcMechDwgViewMgmt
 90
     1024
280
     0
281
     0
  0
CLASS
  1
AMDTNOTETEMPLATEDB
  2
AmdtNoteTemplateDB
  3
AcmSymBB|Product Description: AutoCAD Mechanical|Company: Autodesk, Inc.
 90
     1024
280
     0
281
     0
  0
CLASS
  1
ACMSTANDARDISO
  2
AcmStandardISO
  3
"Amdt_StdImp|Product Description: AutoCAD Mechanical|Company: Autodesk, Inc."
 90
     1024
280
     0
281
     0
  0
CLASS
  1
AMDTEDGESTANDARDISO
  2
AmdtEdgeStdISO
  3
"Amdt_StdImp|Product Description: AutoCAD Mechanical|Company: Autodesk, Inc."
 90
    33792
280
     0
281
     0
  0
CLASS
  1
ACMSURFSTANDARDISO
  2
AcmSurfTextStdISO
  3
"Amdt_StdImp|Product Description: AutoCAD Mechanical|Company: Autodesk, Inc."
 90
    33792
280
     0
281
     0
  0
CLASS
  1
ACMFCFSTANDARDISO
  2
AcmFCFStdISO
  3
"Amdt_StdImp|Product Description: AutoCAD Mechanical|Company: Autodesk, Inc."
 90
     1024
280
     0
281
     0
  0
CLASS
  1
ACMWELDSTANDARDISO
  2
AcmWeldingStdISO
  3
"Amdt_StdImp|Product Description: AutoCAD Mechanical|Company: Autodesk, Inc."
 90
     1024
280
     0
281
     0
  0
CLASS
  1
ACMIDSTANDARDISO
  2
AcmIdStdISO
  3
"Amdt_StdImp|Product Description: AutoCAD Mechanical|Company: Autodesk, Inc."
 90
     1024
280
     0
281
     0
  0
CLASS
  1
ACMDATUMSTANDARDISO
  2
AcmDatumStdISO
  3
"Amdt_StdImp|Product Description: AutoCAD Mechanical|Company: Autodesk, Inc."
 90
     1024
280
     0
281
     0
  0
CLASS
  1
ACMBOMSTANDARDISO
  2
AcmBOMStdISO
  3
"Amdt_StdImp|Product Description: AutoCAD Mechanical|Company: Autodesk, Inc."
 90
     1024
280
     0
281
     0
  0
CLASS
  1
ACMDETAILSTANDARDISO
  2
AmdtDetailSymStdISO
  3
"Amdt_StdImp|Product Description: AutoCAD Mechanical|Company: Autodesk, Inc."
 90
     1024
280
     0
281
     0
  0
CLASS
  1
ACMSECTIONSTANDARDISO
  2
AmdtSectionSymStdISO
  3
"Amdt_StdImp|Product Description: AutoCAD Mechanical|Company: Autodesk, Inc."
 90
    33792
280
     0
281
     0
  0
CLASS
  1
ACMCENTERLINESTANDARDISO
  2
AmdtCenterLineStdISO
  3
"Amdt_StdImp|Product Description: AutoCAD Mechanical|Company: Autodesk, Inc."
 90
     1024
280
     0
281
     0
  0
CLASS
  1
ACMTHREADLINESTANDARDISO
  2
AmdtThreadLineStdISO
  3
"Amdt_StdImp|Product Description: AutoCAD Mechanical|Company: Autodesk, Inc."
 90
     1024
280
     0
281
     0
  0
CLASS
  1
ACMNOTESTANDARDISO
  2
AmdtNoteStdISO
  3
"Amdt_StdImp|Product Description: AutoCAD Mechanical|Company: Autodesk, Inc."
 90
     1024
280
     0
281
     0
  0
CLASS
  1
ACAMGHOLECHARTSTDISO
  2
AcAmgHoleChartStdISO
  3
AmgDim|Product Description: AutoCAD Mechanical|Company: Autodesk, Inc.
 90
     1024
280
     0
281
     0
  0
CLASS
  1
ACAMGFILTERDAT
  2
AcAmgFilterDat
  3
"AcadM|Product Description: AutoCAD Mechanical|Company: Autodesk, Inc."
 90
    33792
280
     0
281
     0
  0
CLASS
  1
ACMBOM
  2
AcmBom
  3
"AcmSymBB|Product Description: AutoCAD Mechanical|Company: Autodesk, Inc."
 90
    33792
280
     0
281
     0
  0
CLASS
  1
AMDTFORMULAUPDATEDISPATCHER
  2
AmdtFormulaUpdateDispatcher
  3
AcMeServices
 90
    33792
280
     0
281
     0
  0
CLASS
  1
ACMPARTLIST
  2
AcmPartList
  3
"AcmSymBB|Product Description: AutoCAD Mechanical|Company: Autodesk, Inc."
 90
    36863
280
     0
281
     1
  0
CLASS
  1
ACDBOPPOLYLINERES
  2
AcDbOpPolylineRes
  3
AcGrefServices
 90
    33792
280
     0
281
     0
  0
CLASS
  1
ACRFINSADJ
  2
AcRfInsAdjuster
  3
AcMeServices
 90
    33792
280
     0
281
     0
  0
CLASS
  1
MATERIAL
  2
AcDbMaterial
  3
ObjectDBX Classes
 90
     1153
280
     0
281
     0
  0
CLASS
  1
ACMSTANDARDJIS
  2
AcmStandardJIS
  3
"Amdt_StdImp|Product Description: AutoCAD Mechanical|Company: Autodesk, Inc."
 90
    33792
280
     0
281
     0
  0
CLASS
  1
ACMSURFSTANDARDJIS
  2
AcmSurfTextStdJIS
  3
"Amdt_StdImp|Product Description: AutoCAD Mechanical|Company: Autodesk, Inc."
 90
    33792
280
     0
281
     0
  0
CLASS
  1
ACMFCFSTANDARDJIS
  2
AcmFCFStdJIS
  3
"Amdt_StdImp|Product Description: AutoCAD Mechanical|Company: Autodesk, Inc."
 90
    33792
280
     0
281
     0
  0
CLASS
  1
ACMWELDSTANDARDJIS
  2
AcmWeldingStdJIS
  3
"Amdt_StdImp|Product Description: AutoCAD Mechanical|Company: Autodesk, Inc."
 90
    33792
280
     0
281
     0
  0
CLASS
  1
ACMIDSTANDARDJIS
  2
AcmIdStdJIS
  3
"Amdt_StdImp|Product Description: AutoCAD Mechanical|Company: Autodesk, Inc."
 90
    33792
280
     0
281
     0
  0
CLASS
  1
ACMDATUMSTANDARDJIS
  2
AcmDatumStdJIS
  3
"Amdt_StdImp|Product Description: AutoCAD Mechanical|Company: Autodesk, Inc."
 90
    33792
280
     0
281
     0
  0
CLASS
  1
ACMBOMSTANDARDJIS
  2
AcmBOMStdJIS
  3
"Amdt_StdImp|Product Description: AutoCAD Mechanical|Company: Autodesk, Inc."
 90
    33792
280
     0
281
     0
  0
CLASS
  1
ACMDETAILSTANDARDJIS
  2
AmdtDetailSymStdJIS
  3
"Amdt_StdImp|Product Description: AutoCAD Mechanical|Company: Autodesk, Inc."
 90
    33792
280
     0
281
     0
  0
CLASS
  1
ACMSECTIONSTANDARDJIS
  2
AmdtSectionSymStdJIS
  3
"Amdt_StdImp|Product Description: AutoCAD Mechanical|Company: Autodesk, Inc."
 90
    33792
280
     0
281
     0
  0
CLASS
  1
ACMCENTERLINESTANDARDJIS
  2
AmdtCenterLineStdJIS
  3
"Amdt_StdImp|Product Description: AutoCAD Mechanical|Company: Autodesk, Inc."
 90
    33792
280
     0
281
     0
  0
CLASS
  1
ACMTHREADLINESTANDARDJIS
  2
AmdtThreadLineStdJIS
  3
"Amdt_StdImp|Product Description: AutoCAD Mechanical|Company: Autodesk, Inc."
 90
    33792
280
     0
281
     0
  0
CLASS
  1
ACMNOTESTANDARDJIS
  2
AmdtNoteStdJIS
  3
"Amdt_StdImp|Product Description: AutoCAD Mechanical|Company: Autodesk, Inc."
 90
    33792
280
     0
281
     0
  0
CLASS
  1
ACAMGHOLECHARTSTDJIS
  2
AcAmgHoleChartStdJIS
  3
AmgDim|Product Description: AutoCAD Mechanical|Company: Autodesk, Inc.
 90
    33792
280
     0
281
     0
  0
CLASS
  1
ACMDATAENTRYPART
  2
AcmDataEntryPart
  3
AcmSymBB|Product Description: AutoCAD Mechanical|Company: Autodesk, Inc.
 90
    33792
280
     0
281
     0
  0
CLASS
  1
ACMPARTREF
  2
AcmPartRef
  3
"AcmSymBB|Product Description: AutoCAD Mechanical|Company: Autodesk, Inc."
 90
    36863
280
     0
281
     1
  0
CLASS
  1
ACMBOMROW
  2
AcmBomRow
  3
"AcmSymBB|Product Description: AutoCAD Mechanical|Company: Autodesk, Inc."
 90
    33792
280
     0
281
     0
  0
CLASS
  1
ACMDATAENTRY
  2
AcmDataEntry
  3
AcmSymBB|Product Description: AutoCAD Mechanical|Company: Autodesk, Inc.
 90
    33792
280
     0
281
     0
  0
CLASS
  1
ACMBALLOON
  2
AcmBalloon
  3
"AcmSymBB|Product Description: AutoCAD Mechanical|Company: Autodesk, Inc."
 90
    36863
280
     0
281
     1
  0
CLASS
  1
DIMASSOC
  2
AcDbDimAssoc
  3
"AcDbDimAssoc|Product Desc:     AcDim ARX App For Dimension|Company:          Autodesk, Inc.|WEB Address:      www.autodesk.com"
 90
    32768
280
     0
281
     0
  0
CLASS
  1
VISUALSTYLE
  2
AcDbVisualStyle
  3
ObjectDBX Classes
 90
     4095
280
     0
281
     0
  0
CLASS
  1
TABLESTYLE
  2
AcDbTableStyle
  3
ObjectDBX Classes
 90
     4095
280
     0
281
     0
  0
CLASS
  1
SCALE
  2
AcDbScale
  3
ObjectDBX Classes
 90
     1153
280
     0
281
     0
  0
CLASS
  1
MLEADERSTYLE
  2
AcDbMLeaderStyle
  3
ACDB_MLEADERSTYLE_CLASS
 90
     4095
280
     0
281
     0
  0
CLASS
  1
ACRFATTGENMGR
  2
AcRfAttGeneralMgr
  3
AcAttribServices
 90
    33792
280
     0
281
     0
  0
CLASS
  1
ACRFOBJATTMGR
  2
AcRfObjAttGroupMgr
  3
AcAttribServices
 90
    33792
280
     0
281
     0
  0
CLASS
  1
ACRFMCADAPIATTHOLDER
  2
AcRfMCADAPIAttHolder
  3
AcAttribServices
 90
    33792
280
     0
281
     0
  0
CLASS
  1
AMDTSYSATTR
  2
AmdtSystemAttribute
  3
AcAttribServices
 90
    33792
280
     0
281
     0
  0
CLASS
  1
ACMTAPERSTANDARDISO
  2
AcmTaperStdISO
  3
"Amdt_StdImp|Product Description: AutoCAD Mechanical|Company: Autodesk, Inc."
 90
     1024
280
     0
281
     0
  0
CLASS
  1
ACMANOOTATIONVIEWSTANDARDISO
  2
AmdtAnViewStdISO
  3
"Amdt_StdImp|Product Description: AutoCAD Mechanical|Company: Autodesk, Inc."
 90
     1024
280
     0
281
     0
  0
CLASS
  1
ACMTAPERSTANDARDANSI
  2
AcmTaperStdANSI
  3
"Amdt_StdImp|Product Description: AutoCAD Mechanical|Company: Autodesk, Inc."
 90
    33792
280
     0
281
     0
  0
CLASS
  1
ACMANOOTATIONVIEWSTANDARDANSI
  2
AmdtAnViewStdANSI
  3
"Amdt_StdImp|Product Description: AutoCAD Mechanical|Company: Autodesk, Inc."
 90
    33792
280
     0
281
     0
  0
CLASS
  1
ACMTAPERSTANDARDJIS
  2
AcmTaperStdJIS
  3
"Amdt_StdImp|Product Description: AutoCAD Mechanical|Company: Autodesk, Inc."
 90
    33792
280
     0
281
     0
  0
CLASS
  1
ACMANOOTATIONVIEWSTANDARDJIS
  2
AmdtAnViewStdJIS
  3
"Amdt_StdImp|Product Description: AutoCAD Mechanical|Company: Autodesk, Inc."
 90
    33792
280
     0
281
     0
  0
CLASS
  1
AMDTEDGESTANDARDJIS
  2
AmdtEdgeStdJIS
  3
"Amdt_StdImp|Product Description: AutoCAD Mechanical|Company: Autodesk, Inc."
 90
    33792
280
     0
281
     0
  0
CLASS
  1
CELLSTYLEMAP
  2
AcDbCellStyleMap
  3
ObjectDBX Classes
 90
     1152
280
     0
281
     0
  0
CLASS
  1
SORTENTSTABLE
  2
AcDbSortentsTable
  3
ObjectDBX Classes
 90
        0
280
     0
281
     0
  0
CLASS
  1
EXACXREFPANELOBJECT
  2
ExAcXREFPanelObject
  3
EXAC_ESW
 90
     1025
280
     0
281
     0
  0
CLASS
  1
NPOCOLLECTION
  2
AcDbImpNonPersistentObjectsCollection
  3
ObjectDBX Classes
 90
     1153
280
     0
281
     0
  0
CLASS
  1
AMDTEDGESTANDARDISO13715
  2
AmdtEdgeStdISO13715
  3
"Amdt_StdImp|Product Description: AutoCAD Mechanical|Company: Autodesk, Inc."
 90
     1024
280
     0
281
     0
  0
CLASS
  1
ACMSURFSTANDARDISO2002
  2
AcmSurfTextStdISO2002
  3
"Amdt_StdImp|Product Description: AutoCAD Mechanical|Company: Autodesk, Inc."
 90
     1024
280
     0
281
     0
  0
CLASS
  1
ACMSECTIONSTANDARDISO2001
  2
AmdtSectionSymStdISO2001
  3
"Amdt_StdImp|Product Description: AutoCAD Mechanical|Company: Autodesk, Inc."
 90
     1024
280
     0
281
     0
  0
ENDSEC
  0
SECTION
  2
TABLES
  0
TABLE
  2
VPORT
  5
8
102
{ACAD_XDICTIONARY
360
2C60
102
}
330
0
100
AcDbSymbolTable
 70
     1
  0
VPORT
  5
23A7
330
8
100
AcDbSymbolTableRecord
100
AcDbViewportTableRecord
  2
*Active
 70
     0
 10
0.0
 20
0.0
 11
1.0
 21
1.0
 12
412.9692601089004
 22
289.9786422592854
 13
0.0
 23
0.0
 14
5.0
 24
5.0
 15
20.0
 25
20.0
 16
0.0
 26
0.0
 36
1.0
 17
0.0
 27
0.0
 37
0.0
 40
563.8223447863581
 41
1.648148148148148
 42
50.0
 43
0.0
 44
0.0
 50
0.0
 51
0.0
 71
    16
 72
   100
 73
     1
 74
     3
 75
     0
 76
     0
 77
     0
 78
     0
281
     0
 65
     1
110
0.0
120
0.0
130
0.0
111
1.0
121
0.0
131
0.0
112
0.0
122
1.0
132
0.0
 79
     0
146
0.0
  0
ENDTAB
  0
TABLE
  2
LTYPE
  5
5
330
0
100
AcDbSymbolTable
 70
    27
  0
LTYPE
  5
14
330
5
100
AcDbSymbolTableRecord
100
AcDbLinetypeTableRecord
  2
ByBlock
 70
     0
  3

 72
    65
 73
     0
 40
0.0
  0
LTYPE
  5
15
330
5
100
AcDbSymbolTableRecord
100
AcDbLinetypeTableRecord
  2
ByLayer
 70
     0
  3

 72
    65
 73
     0
 40
0.0
  0
LTYPE
  5
16
330
5
100
AcDbSymbolTableRecord
100
AcDbLinetypeTableRecord
  2
Continuous
 70
     0
  3
Solid line
 72
    65
 73
     0
 40
0.0
  0
LTYPE
  5
6C
330
5
100
AcDbSymbolTableRecord
100
AcDbLinetypeTableRecord
  2
AM_ISO02W050
 70
     0
  3
__ __ __ __ __ __ __ __ __ __ __ __ __ __ __
 72
    65
 73
     2
 40
7.5
 49
6.0
 74
     0
 49
-1.5
 74
     0
  0
LTYPE
  5
6D
330
5
100
AcDbSymbolTableRecord
100
AcDbLinetypeTableRecord
  2
AM_ISO08W050
 70
     0
  3
____ . ____ . ____ . ____ . ____ . ____ . ____
 72
    65
 73
     4
 40
18.0
 49
12.0
 74
     0
 49
-1.5
 74
     0
 49
3.0
 74
     0
 49
-1.5
 74
     0
  0
LTYPE
  5
6E
330
5
100
AcDbSymbolTableRecord
100
AcDbLinetypeTableRecord
  2
AM_ISO09W050
 70
     0
  3
_____ . . _____ . . _____ . . ____ .. ____
 72
    65
 73
     6
 40
22.5
 49
12.0
 74
     0
 49
-1.5
 74
     0
 49
3.0
 74
     0
 49
-1.5
 74
     0
 49
3.0
 74
     0
 49
-1.5
 74
     0
  0
LTYPE
  5
6F
330
5
100
AcDbSymbolTableRecord
100
AcDbLinetypeTableRecord
  2
Amconstr
 70
     0
  3
_______________________
 72
    65
 73
     2
 40
9999.0
 49
9999.0
 74
     0
 49
0.0
 74
     0
  0
LTYPE
  5
70
330
5
100
AcDbSymbolTableRecord
100
AcDbLinetypeTableRecord
  2
AM_ISO08W050x2
 70
     0
  3
__ . __ . __ . __ . __ . __
 72
    65
 73
     4
 40
9.0
 49
6.0
 74
     0
 49
-0.75
 74
     0
 49
1.5
 74
     0
 49
-0.75
 74
     0
  0
LTYPE
  5
71
330
5
100
AcDbSymbolTableRecord
100
AcDbLinetypeTableRecord
  2
AM_ISO02W050x2
 70
     0
  3
 _ _ _ _ _ _ _ _ _ _ _ _
 72
    65
 73
     2
 40
3.75
 49
3.0
 74
     0
 49
-0.75
 74
     0
  0
LTYPE
  5
74
330
5
100
AcDbSymbolTableRecord
100
AcDbLinetypeTableRecord
  2
Amzigzag
 70
     0
  3
/\/-/\/-/\/-/\/-/\/-/\/
 72
    65
 73
     2
 40
11.0001
 49
0.0001
 74
     4
 75
   135
340
73
 46
0.04
 50
0.0
 44
0.0
 45
0.0
 49
-11.0
 74
     0
  0
LTYPE
  5
75
330
5
100
AcDbSymbolTableRecord
100
AcDbLinetypeTableRecord
  2
HIDDEN
 70
     0
  3
Hidden __ __ __ __ __ __ __ __ __ __ __ __ __ _
 72
    65
 73
     2
 40
0.375
 49
0.25
 74
     0
 49
-0.125
 74
     0
  0
LTYPE
  5
76
330
5
100
AcDbSymbolTableRecord
100
AcDbLinetypeTableRecord
  2
CENTER
 70
     0
  3
Center ____ _ ____ _ ____ _ ____ _ ____ _ ____
 72
    65
 73
     4
 40
2.0
 49
1.25
 74
     0
 49
-0.25
 74
     0
 49
0.25
 74
     0
 49
-0.25
 74
     0
  0
LTYPE
  5
77
330
5
100
AcDbSymbolTableRecord
100
AcDbLinetypeTableRecord
  2
PHANTOM2
 70
     0
  3
Phantom (.5x) ___ _ _ ___ _ _ ___ _ _ ___ _ _
 72
    65
 73
     6
 40
1.25
 49
0.625
 74
     0
 49
-0.125
 74
     0
 49
0.125
 74
     0
 49
-0.125
 74
     0
 49
0.125
 74
     0
 49
-0.125
 74
     0
  0
LTYPE
  5
78
330
5
100
AcDbSymbolTableRecord
100
AcDbLinetypeTableRecord
  2
CENTER2
 70
     0
  3
Center (.5x) ___ _ ___ _ ___ _ ___ _ ___ _ ___
 72
    65
 73
     4
 40
1.125
 49
0.75
 74
     0
 49
-0.125
 74
     0
 49
0.125
 74
     0
 49
-0.125
 74
     0
  0
LTYPE
  5
79
330
5
100
AcDbSymbolTableRecord
100
AcDbLinetypeTableRecord
  2
HIDDEN2
 70
     0
  3
Hidden (.5x) _ _ _ _ _ _ _ _ _ _ _ _ _ _ _ _ _
 72
    65
 73
     2
 40
0.1875
 49
0.125
 74
     0
 49
-0.0625
 74
     0
  0
LTYPE
  5
7A
330
5
100
AcDbSymbolTableRecord
100
AcDbLinetypeTableRecord
  2
Amzigzag2
 70
     0
  3
/\/-/\/-/\/-/\/-/\/-/\/
 72
    65
 73
     2
 40
0.4401
 49
0.0001
 74
     4
 75
   135
340
73
 46
0.0016
 50
0.0
 44
0.0
 45
0.0
 49
-0.4400000000000001
 74
     0
  0
LTYPE
  5
87
330
5
100
AcDbSymbolTableRecord
100
AcDbLinetypeTableRecord
  2
ACANSTGB
 70
     0
  3
__ . . __ . .
 72
    65
 73
     6
 40
0.35433070866
 49
0.15748031496
 74
     0
 49
-0.03937007874
 74
     0
 49
0.03937007874
 74
     0
 49
-0.03937007874
 74
     0
 49
0.03937007874
 74
     0
 49
-0.03937007874
 74
     0
  0
LTYPE
  5
88
330
5
100
AcDbSymbolTableRecord
100
AcDbLinetypeTableRecord
  2
ACANSTGL
 70
     0
  3
_ _ _ _ _
 72
    65
 73
     2
 40
0.11811023622
 49
0.07874015748
 74
     0
 49
-0.03937007874
 74
     0
  0
LTYPE
  5
1DE
330
5
100
AcDbSymbolTableRecord
100
AcDbLinetypeTableRecord
  2
ACISOWELD
 70
     0
  3
_ _ _ _ _
 72
    65
 73
     2
 40
2.0
 49
2.0
 74
     0
 49
-1.0
 74
     0
  0
LTYPE
  5
1DF
330
5
100
AcDbSymbolTableRecord
100
AcDbLinetypeTableRecord
  2
ACISOTGB
 70
     0
  3
__ . . __ . .
 72
    65
 73
     6
 40
9.0
 49
4.0
 74
     0
 49
-1.0
 74
     0
 49
1.0
 74
     0
 49
-1.0
 74
     0
 49
1.0
 74
     0
 49
-1.0
 74
     0
  0
LTYPE
  5
1E0
330
5
100
AcDbSymbolTableRecord
100
AcDbLinetypeTableRecord
  2
ACISOTGL
 70
     0
  3
_ _ _ _ _
 72
    65
 73
     2
 40
3.0
 49
2.0
 74
     0
 49
-1.0
 74
     0
  0
LTYPE
  5
1FE
330
5
100
AcDbSymbolTableRecord
100
AcDbLinetypeTableRecord
  2
gen3
 70
     0
  3
-- -- -- -- -- -- -- -- -- -- -- -- -- -- --
 72
    65
 73
     2
 40
6.25
 49
4.75
 74
     0
 49
-1.5
 74
     0
  0
LTYPE
  5
1FF
330
5
100
AcDbSymbolTableRecord
100
AcDbLinetypeTableRecord
  2
gen7
 70
     0
  3
____ . ____ . ____ . ____ . ____ . ____ . ____
 72
    65
 73
     4
 40
13.75
 49
9.75
 74
     0
 49
-1.5
 74
     0
 49
1.0
 74
     0
 49
-1.5
 74
     0
  0
LTYPE
  5
200
330
5
100
AcDbSymbolTableRecord
100
AcDbLinetypeTableRecord
  2
gen3a
 70
     0
  3
 - - - - -
 72
    65
 73
     2
 40
3.125
 49
2.25
 74
     0
 49
-0.875
 74
     0
  0
LTYPE
  5
201
330
5
100
AcDbSymbolTableRecord
100
AcDbLinetypeTableRecord
  2
gen7a
 70
     0
  3
__ . __ . __
 72
    65
 73
     4
 40
6.875
 49
4.75
 74
     0
 49
-0.875
 74
     0
 49
0.375
 74
     0
 49
-0.875
 74
     0
  0
LTYPE
  5
202
330
5
100
AcDbSymbolTableRecord
100
AcDbLinetypeTableRecord
  2
gen4a
 70
     0
  3
_____ . . _____ . . _____ . . ____ .. ____
 72
    65
 73
     6
 40
16.25
 49
9.75
 74
     0
 49
-1.5
 74
     0
 49
1.0
 74
     0
 49
-1.5
 74
     0
 49
1.0
 74
     0
 49
-1.5
 74
     0
  0
LTYPE
  5
203
330
5
100
AcDbSymbolTableRecord
100
AcDbLinetypeTableRecord
  2
genzigzag
 70
     0
  3
/\/-/\/-/\/-/\/-/\/-/\/
 72
    65
 73
     2
 40
12.0001
 49
0.0001
 74
     4
 75
   135
340
73
 46
2.0
 50
0.0
 44
0.0
 45
0.0
 49
-12.0
 74
     0
  0
LTYPE
  5
BD7
330
5
100
AcDbSymbolTableRecord
100
AcDbLinetypeTableRecord
  2
ACJISTGB
 70
     0
  3
__ . . __ . .
 72
    65
 73
     6
 40
9.0
 49
4.0
 74
     0
 49
-1.0
 74
     0
 49
1.0
 74
     0
 49
-1.0
 74
     0
 49
1.0
 74
     0
 49
-1.0
 74
     0
  0
LTYPE
  5
BD8
330
5
100
AcDbSymbolTableRecord
100
AcDbLinetypeTableRecord
  2
ACJISTGL
 70
     0
  3
_ _ _ _ _
 72
    65
 73
     2
 40
3.0
 49
2.0
 74
     0
 49
-1.0
 74
     0
  0
ENDTAB
  0
TABLE
  2
LAYER
  5
2
102
{ACAD_XDICTIONARY
360
2C1
102
}
330
0
100
AcDbSymbolTable
 70
    15
  0
LAYER
  5
10
102
{ACAD_XDICTIONARY
360
2B95
102
}
330
2
100
AcDbSymbolTableRecord
100
AcDbLayerTableRecord
  2
0
 70
     0
 62
     7
  6
Continuous
370
    -3
390
F
  0
LAYER
  5
1F0
102
{ACAD_XDICTIONARY
360
2B97
102
}
330
2
100
AcDbSymbolTableRecord
100
AcDbLayerTableRecord
  2
AM_5
 70
     0
 62
     3
  6
Continuous
370
    25
390
F
  0
LAYER
  5
204
330
2
100
AcDbSymbolTableRecord
100
AcDbLayerTableRecord
  2
Defpoints
 70
     0
 62
     7
  6
Continuous
290
     0
370
    -3
390
F
  0
LAYER
  5
23E
102
{ACAD_XDICTIONARY
360
2B99
102
}
330
2
100
AcDbSymbolTableRecord
100
AcDbLayerTableRecord
  2
7A
 70
     0
 62
     4
  6
gen7a
370
    -3
390
F
  0
LAYER
  5
23F
102
{ACAD_XDICTIONARY
360
2B9B
102
}
330
2
100
AcDbSymbolTableRecord
100
AcDbLayerTableRecord
  2
RAHM2
 70
     0
 62
     1
  6
Continuous
370
    -3
390
F
  0
LAYER
  5
BDC
102
{ACAD_XDICTIONARY
360
2B9D
102
}
330
2
100
AcDbSymbolTableRecord
100
AcDbLayerTableRecord
  2
ｶﾊﾞｰ
 70
     0
 62
     7
  6
Continuous
370
    25
390
F
  0
LAYER
  5
BDF
102
{ACAD_XDICTIONARY
360
2B9F
102
}
330
2
100
AcDbSymbolTableRecord
100
AcDbLayerTableRecord
  2
ｼｬｰｼ
 70
     0
 62
     2
  6
Continuous
370
    25
390
F
  0
LAYER
  5
BE2
102
{ACAD_XDICTIONARY
360
2BA1
102
}
330
2
100
AcDbSymbolTableRecord
100
AcDbLayerTableRecord
  2
ｶﾊﾞｰ0
 70
     0
 62
     7
  6
AM_ISO02W050x2
370
    15
390
F
  0
LAYER
  5
BE5
102
{ACAD_XDICTIONARY
360
2BA3
102
}
330
2
100
AcDbSymbolTableRecord
100
AcDbLayerTableRecord
  2
ｼｬｰｼ0
 70
     0
 62
     2
  6
AM_ISO02W050x2
370
    15
390
F
  0
LAYER
  5
CFD
102
{ACAD_XDICTIONARY
360
2BA5
102
}
330
2
100
AcDbSymbolTableRecord
100
AcDbLayerTableRecord
  2
ｺﾞﾑ足
 70
     0
 62
     8
  6
Continuous
370
    25
390
F
  0
LAYER
  5
D1C
102
{ACAD_XDICTIONARY
360
2BA7
102
}
330
2
100
AcDbSymbolTableRecord
100
AcDbLayerTableRecord
  2
ﾋﾞｽ
 70
     0
 62
     8
  6
Continuous
370
    25
390
F
  0
LAYER
  5
D1D
102
{ACAD_XDICTIONARY
360
2BA9
102
}
330
2
100
AcDbSymbolTableRecord
100
AcDbLayerTableRecord
  2
ﾋﾞｽ0
 70
     0
 62
     8
  6
AM_ISO02W050x2
370
    13
390
F
  0
LAYER
  5
ECF
102
{ACAD_XDICTIONARY
360
2BAB
102
}
330
2
100
AcDbSymbolTableRecord
100
AcDbLayerTableRecord
  2
AM_12
 70
     0
 62
     7
  6
Continuous
290
     0
370
    50
390
F
  0
LAYER
  5
ED0
102
{ACAD_XDICTIONARY
360
2BAD
102
}
330
2
100
AcDbSymbolTableRecord
100
AcDbLayerTableRecord
  2
AM_PAREF
 70
     0
 62
     4
  6
Continuous
290
     0
370
    25
390
F
  0
LAYER
  5
2896
102
{ACAD_XDICTIONARY
360
2BAF
102
}
330
2
100
AcDbSymbolTableRecord
100
AcDbLayerTableRecord
  2
AM_CL
 70
     0
 62
     1
  6
Amconstr
370
    25
390
F
1001
AcAecLayerStandard
1000

1000

  0
ENDTAB
  0
TABLE
  2
STYLE
  5
3
330
0
100
AcDbSymbolTable
 70
    13
  0
STYLE
  5
11
330
3
100
AcDbSymbolTableRecord
100
AcDbTextStyleTableRecord
  2
STANDARD
 70
     0
 40
0.0
 41
1.0
 50
0.0
 71
     0
 42
0.2
  3
ISOCP.SHX
  4
EXTFONT.SHX
  0
STYLE
  5
73
330
3
100
AcDbSymbolTableRecord
100
AcDbTextStyleTableRecord
  2

 70
     1
 40
0.0
 41
1.0
 50
0.0
 71
     0
 42
0.2
  3
ltypeshp.shx
  4

  0
STYLE
  5
7B
330
3
100
AcDbSymbolTableRecord
100
AcDbTextStyleTableRecord
  2
ACANSTS
 70
     0
 40
1.0
 41
1.0
 50
0.0
 71
     0
 42
0.2
  3
isoct.shx
  4
extfont.shx
  0
STYLE
  5
86
330
3
100
AcDbSymbolTableRecord
100
AcDbTextStyleTableRecord
  2
ACANSGDT
 70
     0
 40
0.0
 41
1.0
 50
0.0
 71
     0
 42
0.2
  3
amgdtans.shx
  4

  0
STYLE
  5
13C
330
3
100
AcDbSymbolTableRecord
100
AcDbTextStyleTableRecord
  2
USER1
 70
     0
 40
0.0
 41
1.0
 50
0.0
 71
     0
 42
0.2
  3
TXT.SHX
  4

  0
STYLE
  5
13D
330
3
100
AcDbSymbolTableRecord
100
AcDbTextStyleTableRecord
  2
USER2
 70
     0
 40
0.0
 41
1.0
 50
0.0
 71
     0
 42
0.2
  3
SIMPLEX.SHX
  4

  0
STYLE
  5
13E
330
3
100
AcDbSymbolTableRecord
100
AcDbTextStyleTableRecord
  2
USER3
 70
     0
 40
0.0
 41
1.0
 50
0.0
 71
     0
 42
0.2
  3
ITALIC.SHX
  4

  0
STYLE
  5
1D0
330
3
100
AcDbSymbolTableRecord
100
AcDbTextStyleTableRecord
  2
ACISOTS
 70
     0
 40
1.0
 41
1.0
 50
0.0
 71
     0
 42
0.2
  3
isocp.shx
  4
extfont.shx
  0
STYLE
  5
1DD
330
3
100
AcDbSymbolTableRecord
100
AcDbTextStyleTableRecord
  2
ACISOGDT
 70
     0
 40
0.0
 41
1.0
 50
0.0
 71
     0
 42
0.2
  3
amgdt.shx
  4

  0
STYLE
  5
241
330
3
100
AcDbSymbolTableRecord
100
AcDbTextStyleTableRecord
  2

 70
     1
 40
0.0
 41
1.0
 50
0.0
 71
     0
 42
3.0
  3
genltshp.shx
  4

  0
STYLE
  5
94C
330
3
100
AcDbSymbolTableRecord
100
AcDbTextStyleTableRecord
  2
takachi1
 70
     0
 40
2.5
 41
1.0
 50
0.0
 71
     0
 42
2.5
  3
MS PGothic.ttf
  4

1001
ACAD
1000
MS PGothic
1071
    32818
  0
STYLE
  5
BE8
330
3
100
AcDbSymbolTableRecord
100
AcDbTextStyleTableRecord
  2
ACJISGDT
 70
     0
 40
0.0
 41
1.0
 50
0.0
 71
     0
 42
2.5
  3
amgdt.shx
  4

  0
STYLE
  5
BE9
330
3
100
AcDbSymbolTableRecord
100
AcDbTextStyleTableRecord
  2
ACJISTS
 70
     0
 40
1.0
 41
1.0
 50
0.0
 71
     0
 42
2.5
  3
isocp.shx
  4
extfont.shx
  0
ENDTAB
  0
TABLE
  2
VIEW
  5
6
330
0
100
AcDbSymbolTable
 70
     6
  0
VIEW
  5
2A6
330
6
100
AcDbSymbolTableRecord
100
AcDbViewTableRecord
  2
AM_VIEW1
 70
     0
 40
280.0000000000001
 10
220.4358655043587
 20
430.0000000000001
 41
420.8717310087173
 11
0.0
 21
0.0
 31
1.0
 12
0.0
 22
0.0
 32
0.0
 42
50.0
 43
0.0
 44
0.0
 50
0.0
 71
    16
281
     0
 72
     0
  0
VIEW
  5
2A7
330
6
100
AcDbSymbolTableRecord
100
AcDbViewTableRecord
  2
AM_VIEW2
 70
     0
 40
280.0000000000001
 10
605.5641344956413
 20
430.0000000000001
 41
420.8717310087173
 11
0.0
 21
0.0
 31
1.0
 12
0.0
 22
0.0
 32
0.0
 42
50.0
 43
0.0
 44
0.0
 50
0.0
 71
    16
281
     0
 72
     0
  0
VIEW
  5
2A8
330
6
100
AcDbSymbolTableRecord
100
AcDbViewTableRecord
  2
AM_VIEW3
 70
     0
 40
280.0000000000001
 10
220.4358655043587
 20
150.0
 41
420.8717310087173
 11
0.0
 21
0.0
 31
1.0
 12
0.0
 22
0.0
 32
0.0
 42
50.0
 43
0.0
 44
0.0
 50
0.0
 71
    16
281
     0
 72
     0
  0
VIEW
  5
2A9
330
6
100
AcDbSymbolTableRecord
100
AcDbViewTableRecord
  2
AM_VIEW4
 70
     0
 40
280.0000000000001
 10
605.5641344956413
 20
150.0
 41
420.8717310087173
 11
0.0
 21
0.0
 31
1.0
 12
0.0
 22
0.0
 32
0.0
 42
50.0
 43
0.0
 44
0.0
 50
0.0
 71
    16
281
     0
 72
     0
  0
VIEW
  5
2AA
330
6
100
AcDbSymbolTableRecord
100
AcDbViewTableRecord
  2
AM_VIEW5
 70
     0
 40
280.0000000000001
 10
413.0
 20
290.0000000000001
 41
420.8717310087174
 11
0.0
 21
0.0
 31
1.0
 12
0.0
 22
0.0
 32
0.0
 42
50.0
 43
0.0
 44
0.0
 50
0.0
 71
    16
281
     0
 72
     0
  0
VIEW
  5
2AB
330
6
100
AcDbSymbolTableRecord
100
AcDbViewTableRecord
  2
AM_VIEW6
 70
     0
 40
559.9944000000001
 10
413.0
 20
290.0000000000001
 41
841.7350445828146
 11
0.0
 21
0.0
 31
1.0
 12
0.0
 22
0.0
 32
0.0
 42
50.0
 43
0.0
 44
0.0
 50
0.0
 71
    16
281
     0
 72
     0
  0
ENDTAB
  0
TABLE
  2
UCS
  5
7
330
0
100
AcDbSymbolTable
 70
     0
  0
ENDTAB
  0
TABLE
  2
APPID
  5
9
330
0
100
AcDbSymbolTable
 70
    42
  0
APPID
  5
12
330
9
100
AcDbSymbolTableRecord
100
AcDbRegAppTableRecord
  2
ACAD
 70
     0
  0
APPID
  5
4E
330
9
100
AcDbSymbolTableRecord
100
AcDbRegAppTableRecord
  2
MCAD_NO_VIS
 70
     0
  0
APPID
  5
4F
330
9
100
AcDbSymbolTableRecord
100
AcDbRegAppTableRecord
  2
ACAD_TEMP_GRAPHIC
 70
     0
  0
APPID
  5
60
330
9
100
AcDbSymbolTableRecord
100
AcDbRegAppTableRecord
  2
ACATTRIBSERVICES
 70
     0
  0
APPID
  5
F7
330
9
100
AcDbSymbolTableRecord
100
AcDbRegAppTableRecord
  2
AD_DRAW
 70
     0
  0
APPID
  5
115
330
9
100
AcDbSymbolTableRecord
100
AcDbRegAppTableRecord
  2
DESIGNERASSEMBLIES
 70
     0
  0
APPID
  5
11A
330
9
100
AcDbSymbolTableRecord
100
AcDbRegAppTableRecord
  2
ACADM_DIM_EDIT
 70
     0
  0
APPID
  5
11B
330
9
100
AcDbSymbolTableRecord
100
AcDbRegAppTableRecord
  2
AMDT_DM_ADJ
 70
     0
  0
APPID
  5
20C
330
9
100
AcDbSymbolTableRecord
100
AcDbRegAppTableRecord
  2
GENIUS_GENREC_14
 70
     0
  0
APPID
  5
20D
330
9
100
AcDbSymbolTableRecord
100
AcDbRegAppTableRecord
  2
GENIUS_GENODEF_13
 70
     0
  0
APPID
  5
20E
330
9
100
AcDbSymbolTableRecord
100
AcDbRegAppTableRecord
  2
GENIUS_GENOBJ-N-REC_13
 70
     0
  0
APPID
  5
20F
330
9
100
AcDbSymbolTableRecord
100
AcDbRegAppTableRecord
  2
GENIUS_GENCFG_13
 70
     0
  0
APPID
  5
210
330
9
100
AcDbSymbolTableRecord
100
AcDbRegAppTableRecord
  2
GENIUS_GENCFG0_13
 70
     0
  0
APPID
  5
211
330
9
100
AcDbSymbolTableRecord
100
AcDbRegAppTableRecord
  2
GENIUS_GENCFG1_13
 70
     0
  0
APPID
  5
212
330
9
100
AcDbSymbolTableRecord
100
AcDbRegAppTableRecord
  2
GENIUS_GENCFG2_13
 70
     0
  0
APPID
  5
213
330
9
100
AcDbSymbolTableRecord
100
AcDbRegAppTableRecord
  2
GENIUS_GENCFG3_13
 70
     0
  0
APPID
  5
214
330
9
100
AcDbSymbolTableRecord
100
AcDbRegAppTableRecord
  2
GENIUS_GENCFG4_13
 70
     0
  0
APPID
  5
215
330
9
100
AcDbSymbolTableRecord
100
AcDbRegAppTableRecord
  2
GENIUS_GEVCFG0_13
 70
     0
  0
APPID
  5
216
330
9
100
AcDbSymbolTableRecord
100
AcDbRegAppTableRecord
  2
GENIUS_GENOENT_13
 70
     0
  0
APPID
  5
217
330
9
100
AcDbSymbolTableRecord
100
AcDbRegAppTableRecord
  2
GENIUS_GENDIMSH_14
 70
     0
  0
APPID
  5
218
330
9
100
AcDbSymbolTableRecord
100
AcDbRegAppTableRecord
  2
GENIUS_GENOBJ-N-CRS_13
 70
     0
  0
APPID
  5
219
330
9
100
AcDbSymbolTableRecord
100
AcDbRegAppTableRecord
  2
GENIUS_GENOREF_13
 70
     0
  0
APPID
  5
21A
330
9
100
AcDbSymbolTableRecord
100
AcDbRegAppTableRecord
  2
GENIUS_GENOLIS_13
 70
     0
  0
APPID
  5
21B
330
9
100
AcDbSymbolTableRecord
100
AcDbRegAppTableRecord
  2
GENIUS_GENOBJ-N-TIT_13
 70
     0
  0
APPID
  5
21C
330
9
100
AcDbSymbolTableRecord
100
AcDbRegAppTableRecord
  2
GENIUS_GENTITLE_13
 70
     0
  0
APPID
  5
21D
330
9
100
AcDbSymbolTableRecord
100
AcDbRegAppTableRecord
  2
GENIUS_GENSCREG_15
 70
     0
  0
APPID
  5
21E
330
9
100
AcDbSymbolTableRecord
100
AcDbRegAppTableRecord
  2
GENIUS_GENOBJ-N-SDF_13
 70
     0
  0
APPID
  5
21F
330
9
100
AcDbSymbolTableRecord
100
AcDbRegAppTableRecord
  2
GENIUS_GENOBJ-N-CEN_13
 70
     0
  0
APPID
  5
220
330
9
100
AcDbSymbolTableRecord
100
AcDbRegAppTableRecord
  2
GENIUS_GENOBJ-N-HTC_13
 70
     0
  0
APPID
  5
221
330
9
100
AcDbSymbolTableRecord
100
AcDbRegAppTableRecord
  2
GENIUS_GENHATCH_13
 70
     0
  0
APPID
  5
222
330
9
100
AcDbSymbolTableRecord
100
AcDbRegAppTableRecord
  2
GENIUS_GENOBJ-N-ZOO_13
 70
     0
  0
APPID
  5
223
330
9
100
AcDbSymbolTableRecord
100
AcDbRegAppTableRecord
  2
GENIUS_GENZOO_17
 70
     0
  0
APPID
  5
BF1
330
9
100
AcDbSymbolTableRecord
100
AcDbRegAppTableRecord
  2
GENIUS_GENOBJ-N-FIL_13
 70
     0
  0
APPID
  5
BF2
330
9
100
AcDbSymbolTableRecord
100
AcDbRegAppTableRecord
  2
ACAD_DSTYLE_DIMARC_LENGTH_SYMBOL
 70
     0
  0
APPID
  5
BF3
330
9
100
AcDbSymbolTableRecord
100
AcDbRegAppTableRecord
  2
ACAD_DSTYLE_DIMJOGGED_JOGANGLE_SYMBOL
 70
     0
  0
APPID
  5
23E0
330
9
100
AcDbSymbolTableRecord
100
AcDbRegAppTableRecord
  2
ACAD_MLEADERVER
 70
     0
  0
APPID
  5
24F2
330
9
100
AcDbSymbolTableRecord
100
AcDbRegAppTableRecord
  2
ACAD_DSTYLE_DIMINSPECT
 70
     0
  0
APPID
  5
2897
330
9
100
AcDbSymbolTableRecord
100
AcDbRegAppTableRecord
  2
AcAecLayerStandard
 70
     0
  0
APPID
  5
294F
330
9
100
AcDbSymbolTableRecord
100
AcDbRegAppTableRecord
  2
ACAD_EXEMPT_FROM_CAD_STANDARDS
 70
     0
  0
APPID
  5
2E76
330
9
100
AcDbSymbolTableRecord
100
AcDbRegAppTableRecord
  2
ACAD_DSTYLE_DIM_LINETYPE
 70
     0
  0
APPID
  5
2E77
330
9
100
AcDbSymbolTableRecord
100
AcDbRegAppTableRecord
  2
ACAD_DSTYLE_DIM_EXT1_LINETYPE
 70
     0
  0
APPID
  5
2E78
330
9
100
AcDbSymbolTableRecord
100
AcDbRegAppTableRecord
  2
ACAD_DSTYLE_DIM_EXT2_LINETYPE
 70
     0
  0
ENDTAB
  0
TABLE
  2
DIMSTYLE
  5
A
330
0
100
AcDbSymbolTable
 70
    34
100
AcDbDimStyleTable
 71
     2
340
1E7
340
8C
  0
DIMSTYLE
105
27
330
A
100
AcDbSymbolTableRecord
100
AcDbDimStyleTableRecord
  2
Standard
 70
     0
340
11
  0
DIMSTYLE
105
8C
330
A
100
AcDbSymbolTableRecord
100
AcDbDimStyleTableRecord
  2
AM_ANSI
 70
     0
  4
mm
 41
0.1
 42
0.05
 43
0.5
 44
0.1
 47
0.1
 48
0.1
 78
     7
 79
     2
140
0.12
141
0.0
146
0.71
147
0.06
176
   256
177
   256
178
     2
274
     4
284
     7
340
11
371
    -1
372
    -1
  0
DIMSTYLE
105
8D
330
A
100
AcDbSymbolTableRecord
100
AcDbDimStyleTableRecord
  2
AM_ANSI$3
 70
     0
  4
mm
 41
0.1
 42
0.05
 43
0.5
 44
0.1
 47
0.1
 48
0.1
 78
     7
 79
     2
140
0.12
141
0.0
146
0.71
147
0.06
176
   256
177
   256
178
     2
274
     4
284
     7
288
     1
289
     0
340
11
371
    -1
372
    -1
  0
DIMSTYLE
105
8E
330
A
100
AcDbSymbolTableRecord
100
AcDbDimStyleTableRecord
  2
AM_ANSI$4
 70
     0
  4
mm
 41
0.1
 42
0.05
 43
0.5
 44
0.1
 47
0.1
 48
0.1
 78
     7
 79
     2
140
0.12
141
0.0
146
0.71
147
0.06
176
   256
177
   256
178
     2
274
     4
284
     7
288
     1
289
     0
340
11
371
    -1
372
    -1
  0
DIMSTYLE
105
8F
330
A
100
AcDbSymbolTableRecord
100
AcDbDimStyleTableRecord
  2
AM_ANSI$7
 70
     0
  4
mm
 41
0.1
 42
0.05
 43
0.5
 44
0.1
 47
0.1
 48
0.1
 78
     7
 79
     2
140
0.24
141
0.0
146
0.71
147
0.06
176
   256
177
   256
178
     2
274
     4
284
     7
340
11
371
    -1
372
    -1
  0
DIMSTYLE
105
90
330
A
100
AcDbSymbolTableRecord
100
AcDbDimStyleTableRecord
  2
AM_ANSI$SF
 70
     0
  4
mm
 41
0.1
 42
0.05
 43
0.5
 44
0.1
 47
0.1
 48
0.1
 75
     1
 76
     1
 78
     7
 79
     2
140
0.12
141
0.0
146
0.71
147
0.06
176
   256
177
   256
178
     2
274
     4
284
     7
340
11
371
    -1
372
    -1
  0
DIMSTYLE
105
95
330
A
100
AcDbSymbolTableRecord
100
AcDbDimStyleTableRecord
  2
AM_ANSI$SH
 70
     0
  4
mm
 41
0.1
 42
0.05
 43
0.5
 44
0.1
 47
0.1
 48
0.1
 75
     1
 76
     1
 78
     7
 79
     2
140
0.12
141
0.0
146
0.71
147
0.06
173
     1
176
   256
177
   256
178
     2
274
     4
284
     7
340
11
343
91
371
    -1
372
    -1
  0
DIMSTYLE
105
1E7
102
{ACAD_REACTORS
330
2275
330
2297
330
22B9
330
2CE9
102
}
330
A
100
AcDbSymbolTableRecord
100
AcDbDimStyleTableRecord
  2
AM_ISO
 70
     0
  4
"
 41
3.5
 42
1.0
 43
10.0
 44
1.0
 47
0.1
 48
0.1
 73
     0
 74
     0
 77
     1
 78
     8
 79
     2
140
3.5
141
0.0
143
0.0393701
146
0.71
147
1.5
172
     1
176
   256
177
   256
178
     2
271
     2
272
     3
274
     4
283
     0
284
     8
340
11
371
    -1
372
    -1
1001
ACAD_DSTYLE_DIMARC_LENGTH_SYMBOL
1070
   379
1070
     1
1001
ACAD_DSTYLE_DIM_LINETYPE
1070
   380
1005
14
1001
ACAD_DSTYLE_DIM_EXT1_LINETYPE
1070
   381
1005
14
1001
ACAD_DSTYLE_DIM_EXT2_LINETYPE
1070
   382
1005
14
  0
DIMSTYLE
105
1E8
330
A
100
AcDbSymbolTableRecord
100
AcDbDimStyleTableRecord
  2
AM_ISO$3
 70
     0
  4
"
 41
3.5
 42
1.0
 43
10.0
 44
1.0
 47
0.1
 48
0.1
 73
     0
 77
     1
 78
     8
 79
     2
140
3.5
141
0.0
143
0.0393701
146
0.71
147
1.5
176
   256
177
   256
178
     2
271
     2
272
     3
274
     4
283
     0
284
     8
288
     1
289
     0
340
11
371
    -1
372
    -1
1001
ACAD_DSTYLE_DIMARC_LENGTH_SYMBOL
1070
   379
1070
     1
1001
ACAD_DSTYLE_DIM_LINETYPE
1070
   380
1005
14
1001
ACAD_DSTYLE_DIM_EXT1_LINETYPE
1070
   381
1005
14
1001
ACAD_DSTYLE_DIM_EXT2_LINETYPE
1070
   382
1005
14
  0
DIMSTYLE
105
1E9
330
A
100
AcDbSymbolTableRecord
100
AcDbDimStyleTableRecord
  2
AM_ISO$4
 70
     0
  4
"
 41
3.5
 42
1.0
 43
10.0
 44
1.0
 47
0.1
 48
0.1
 73
     0
 74
     0
 77
     1
 78
     8
 79
     2
140
3.5
141
0.0
143
0.0393701
146
0.71
147
1.5
172
     1
176
   256
177
   256
178
     2
271
     2
272
     3
274
     4
283
     0
284
     8
340
11
371
    -1
372
    -1
1001
ACAD_DSTYLE_DIMARC_LENGTH_SYMBOL
1070
   379
1070
     1
1001
ACAD_DSTYLE_DIM_LINETYPE
1070
   380
1005
14
1001
ACAD_DSTYLE_DIM_EXT1_LINETYPE
1070
   381
1005
14
1001
ACAD_DSTYLE_DIM_EXT2_LINETYPE
1070
   382
1005
14
  0
DIMSTYLE
105
1EA
330
A
100
AcDbSymbolTableRecord
100
AcDbDimStyleTableRecord
  2
AM_ISO$6
 70
     0
  4
"
 41
3.5
 42
1.0
 43
10.0
 44
1.0
 47
0.1
 48
0.1
 73
     0
 74
     0
 78
     8
 79
     2
140
3.5
141
0.0
143
0.0393701
146
0.71
147
1.5
172
     1
176
   256
177
   256
178
     2
271
     2
272
     3
274
     4
283
     0
284
     8
340
11
371
    -1
372
    -1
1001
ACAD_DSTYLE_DIMARC_LENGTH_SYMBOL
1070
   379
1070
     1
1001
ACAD_DSTYLE_DIM_LINETYPE
1070
   380
1005
14
1001
ACAD_DSTYLE_DIM_EXT1_LINETYPE
1070
   381
1005
14
1001
ACAD_DSTYLE_DIM_EXT2_LINETYPE
1070
   382
1005
14
  0
DIMSTYLE
105
1EB
330
A
100
AcDbSymbolTableRecord
100
AcDbDimStyleTableRecord
  2
AM_ISO$7
 70
     0
  4
"
 41
3.5
 42
1.0
 43
10.0
 44
1.0
 47
0.1
 48
0.1
 73
     0
 74
     0
 77
     1
 78
     8
 79
     2
140
3.5
141
0.0
143
0.0393701
146
0.71
147
1.5
172
     1
176
   256
177
   256
178
     2
271
     2
272
     3
274
     4
283
     0
284
     8
340
11
371
    -1
372
    -1
1001
ACAD_DSTYLE_DIMARC_LENGTH_SYMBOL
1070
   379
1070
     1
1001
ACAD_DSTYLE_DIM_LINETYPE
1070
   380
1005
14
1001
ACAD_DSTYLE_DIM_EXT1_LINETYPE
1070
   381
1005
14
1001
ACAD_DSTYLE_DIM_EXT2_LINETYPE
1070
   382
1005
14
  0
DIMSTYLE
105
1EC
330
A
100
AcDbSymbolTableRecord
100
AcDbDimStyleTableRecord
  2
AM_ISO$SF
 70
     0
  4
"
 41
3.5
 42
1.0
 43
10.0
 44
1.0
 47
0.1
 48
0.1
 73
     0
 74
     0
 75
     1
 76
     1
 77
     1
 78
     8
 79
     2
140
3.5
141
0.0
143
0.0393701
146
0.71
147
1.5
172
     1
176
   256
177
   256
178
     2
271
     2
272
     3
274
     4
283
     0
284
     8
340
11
371
    -1
372
    -1
1001
ACAD_DSTYLE_DIMARC_LENGTH_SYMBOL
1070
   379
1070
     1
1001
ACAD_DSTYLE_DIM_LINETYPE
1070
   380
1005
14
1001
ACAD_DSTYLE_DIM_EXT1_LINETYPE
1070
   381
1005
14
1001
ACAD_DSTYLE_DIM_EXT2_LINETYPE
1070
   382
1005
14
  0
DIMSTYLE
105
1ED
330
A
100
AcDbSymbolTableRecord
100
AcDbDimStyleTableRecord
  2
AM_ISO$SH
 70
     0
  4
"
 41
3.5
 42
1.0
 43
10.0
 44
1.0
 47
0.1
 48
0.1
 73
     0
 74
     0
 75
     1
 76
     1
 77
     1
 78
     8
 79
     2
140
3.5
141
0.0
143
0.0393701
144
2.0
146
0.71
147
1.5
172
     1
173
     1
176
   256
177
   256
178
     2
271
     2
272
     3
274
     4
283
     0
284
     8
340
11
343
91
371
    -1
372
    -1
1001
ACAD_DSTYLE_DIMARC_LENGTH_SYMBOL
1070
   379
1070
     1
1001
ACAD_DSTYLE_DIM_LINETYPE
1070
   380
1005
14
1001
ACAD_DSTYLE_DIM_EXT1_LINETYPE
1070
   381
1005
14
1001
ACAD_DSTYLE_DIM_EXT2_LINETYPE
1070
   382
1005
14
  0
DIMSTYLE
105
205
330
A
100
AcDbSymbolTableRecord
100
AcDbDimStyleTableRecord
  2
GEN-ISO
 70
     0
  4
"
 41
2.5
 42
1.0
 43
10.0
 44
1.0
 47
0.1
 48
0.1
 73
     0
 74
     0
 77
     1
 78
     8
140
3.5
141
0.0
143
0.0393701
146
0.71
147
1.5
172
     1
176
   256
177
   256
178
     2
271
     2
272
     3
274
     4
283
     0
340
11
  0
DIMSTYLE
105
206
330
A
100
AcDbSymbolTableRecord
100
AcDbDimStyleTableRecord
  2
GEN-ISO$3
 70
     0
  4
"
 41
2.5
 42
1.0
 43
10.0
 44
1.0
 47
0.1
 48
0.1
 73
     0
 77
     1
 78
     8
140
3.5
141
0.0
143
0.0393701
146
0.71
147
1.5
176
   256
177
   256
178
     2
271
     2
272
     3
274
     4
283
     0
288
     1
289
     0
340
11
  0
DIMSTYLE
105
207
330
A
100
AcDbSymbolTableRecord
100
AcDbDimStyleTableRecord
  2
GEN-ISO$4
 70
     0
  4
"
 41
2.5
 42
1.0
 43
10.0
 44
1.0
 47
0.1
 48
0.1
 73
     0
 77
     1
 78
     8
140
3.5
141
0.0
143
0.0393701
146
0.71
147
1.5
176
   256
177
   256
178
     2
271
     2
272
     3
274
     4
283
     0
288
     1
289
     0
340
11
  0
DIMSTYLE
105
208
330
A
100
AcDbSymbolTableRecord
100
AcDbDimStyleTableRecord
  2
GEN-ISO$6
 70
     0
  4
"
 41
2.5
 42
1.0
 43
10.0
 44
1.0
 47
0.1
 48
0.1
 73
     0
 74
     0
 78
     8
140
3.5
141
0.0
143
0.0393701
146
0.71
147
1.5
176
   256
177
   256
178
     2
271
     2
272
     3
274
     4
283
     0
340
11
  0
DIMSTYLE
105
209
330
A
100
AcDbSymbolTableRecord
100
AcDbDimStyleTableRecord
  2
GEN-ISO-POS
 70
     0
  4
"
 41
2.5
 42
1.0
 43
10.0
 44
1.0
 47
0.1
 48
0.1
 73
     0
 74
     0
 78
     8
140
5.0
141
0.0
143
0.0393701
146
0.71
147
1.5
176
   256
177
   256
178
     2
271
     2
272
     3
274
     4
283
     0
340
11
  0
DIMSTYLE
105
20A
330
A
100
AcDbSymbolTableRecord
100
AcDbDimStyleTableRecord
  2
GEN-ISO-AXE-F
 70
     0
  4
"
 41
2.5
 42
1.0
 43
10.0
 44
1.0
 47
0.1
 48
0.1
 73
     0
 74
     0
 75
     1
 76
     1
 77
     1
 78
     8
140
3.5
141
0.0
143
0.0393701
146
0.71
147
1.5
172
     1
176
   256
177
   256
178
     2
271
     2
272
     3
274
     4
283
     0
340
11
  0
DIMSTYLE
105
20B
330
A
100
AcDbSymbolTableRecord
100
AcDbDimStyleTableRecord
  2
GEN-ISO-AXE-H
 70
     0
  4
"
 41
2.5
 42
1.0
 43
10.0
 44
1.0
 47
0.1
 48
0.1
 73
     0
 74
     0
 75
     1
 76
     1
 77
     1
 78
     8
140
3.5
141
0.0
143
0.0393701
144
2.0
146
0.71
147
1.5
172
     1
173
     1
176
   256
177
   256
178
     2
271
     2
272
     3
274
     4
283
     0
340
11
  0
DIMSTYLE
105
2BD
330
A
100
AcDbSymbolTableRecord
100
AcDbDimStyleTableRecord
  2
ISO-35
 70
     0
 41
3.5
 42
0.875
 43
5.25
 44
1.75
 73
     0
 74
     0
 77
     1
 78
     8
140
3.5
141
3.5
143
0.0394
147
0.875
171
     4
172
     1
273
     8
274
     4
277
     6
340
11
341
1F8
342
1F8
  0
DIMSTYLE
105
2BE
330
A
100
AcDbSymbolTableRecord
100
AcDbDimStyleTableRecord
  2
ISO-5
 70
     0
 41
5.0
 42
1.25
 43
7.5
 44
2.5
 73
     0
 74
     0
 77
     1
 78
     8
140
5.0
141
5.0
143
0.0394
147
1.25
171
     4
172
     1
273
     8
274
     4
277
     6
340
11
341
1F8
342
1F8
  0
DIMSTYLE
105
2BF
330
A
100
AcDbSymbolTableRecord
100
AcDbDimStyleTableRecord
  2
ISO-7
 70
     0
 41
7.0
 42
1.75
 43
10.5
 44
3.5
 73
     0
 74
     0
 77
     1
 78
     8
140
7.0
141
7.0
143
0.0394
147
1.75
171
     4
172
     1
273
     8
274
     4
277
     6
340
11
341
1F8
342
1F8
  0
DIMSTYLE
105
2C0
330
A
100
AcDbSymbolTableRecord
100
AcDbDimStyleTableRecord
  2
ISO-4
 70
     0
 41
14.0
 42
3.5
 43
21.0
 44
7.0
 73
     0
 74
     0
 77
     1
 78
     8
140
14.0
141
14.0
143
0.0394
147
3.5
171
     4
172
     1
273
     8
274
     4
277
     6
340
11
341
1F8
342
1F8
  0
DIMSTYLE
105
BEA
330
A
100
AcDbSymbolTableRecord
100
AcDbDimStyleTableRecord
  2
AM_JIS
 70
     0
  4
"
 41
2.5
 42
1.0
 43
10.0
 44
1.0
 47
0.1
 48
0.1
 73
     0
 74
     0
 77
     3
 78
     8
 79
     2
140
3.5
141
0.0
143
0.0393701
146
0.71
147
1.5
172
     1
176
   256
177
   256
178
     2
271
     2
272
     3
274
     4
283
     0
284
     8
340
11
341
1F8
342
1F8
343
1F8
344
1F8
371
    -1
372
    -1
1001
ACAD_DSTYLE_DIMJOGGED_JOGANGLE_SYMBOL
1070
   384
1040
0.7853981633974483
1001
ACAD_DSTYLE_DIMARC_LENGTH_SYMBOL
1070
   379
1070
     1
  0
DIMSTYLE
105
BEB
330
A
100
AcDbSymbolTableRecord
100
AcDbDimStyleTableRecord
  2
AM_JIS$3
 70
     0
  4
"
 41
2.5
 42
1.0
 43
10.0
 44
1.0
 47
0.1
 48
0.1
 73
     0
 77
     3
 78
     8
 79
     2
140
3.5
141
0.0
143
0.0393701
146
0.71
147
1.5
176
   256
177
   256
178
     2
271
     2
272
     3
274
     4
283
     0
284
     8
288
     1
289
     0
340
11
341
1F8
342
1F8
343
1F8
344
1F8
371
    -1
372
    -1
1001
ACAD_DSTYLE_DIMJOGGED_JOGANGLE_SYMBOL
1070
   384
1040
0.7853981633974483
1001
ACAD_DSTYLE_DIMARC_LENGTH_SYMBOL
1070
   379
1070
     1
  0
DIMSTYLE
105
BEC
330
A
100
AcDbSymbolTableRecord
100
AcDbDimStyleTableRecord
  2
AM_JIS$4
 70
     0
  4
"
 41
2.5
 42
1.0
 43
10.0
 44
1.0
 47
0.1
 48
0.1
 73
     0
 77
     3
 78
     8
 79
     2
140
3.5
141
0.0
143
0.0393701
146
0.71
147
1.5
176
   256
177
   256
178
     2
271
     2
272
     3
274
     4
283
     0
284
     8
288
     1
289
     0
340
11
341
1F8
342
1F8
343
1F8
344
1F8
371
    -1
372
    -1
1001
ACAD_DSTYLE_DIMJOGGED_JOGANGLE_SYMBOL
1070
   384
1040
0.7853981633974483
1001
ACAD_DSTYLE_DIMARC_LENGTH_SYMBOL
1070
   379
1070
     1
  0
DIMSTYLE
105
BED
330
A
100
AcDbSymbolTableRecord
100
AcDbDimStyleTableRecord
  2
AM_JIS$6
 70
     0
  4
"
 41
2.5
 42
1.0
 43
10.0
 44
1.0
 47
0.1
 48
0.1
 73
     0
 74
     0
 78
     8
 79
     2
140
3.5
141
0.0
143
0.0393701
146
0.71
147
1.5
172
     1
176
   256
177
   256
178
     2
271
     2
272
     3
274
     4
283
     0
284
     8
340
11
341
1F8
342
1F8
343
1F8
344
1F8
371
    -1
372
    -1
1001
ACAD_DSTYLE_DIMJOGGED_JOGANGLE_SYMBOL
1070
   384
1040
0.7853981633974483
1001
ACAD_DSTYLE_DIMARC_LENGTH_SYMBOL
1070
   379
1070
     1
  0
DIMSTYLE
105
BEE
330
A
100
AcDbSymbolTableRecord
100
AcDbDimStyleTableRecord
  2
AM_JIS$7
 70
     0
  4
"
 41
2.5
 42
1.0
 43
10.0
 44
1.0
 47
0.1
 48
0.1
 73
     0
 74
     0
 77
     3
 78
     8
 79
     2
140
5.0
141
0.0
143
0.0393701
146
0.71
147
1.5
172
     1
176
   256
177
   256
178
     2
271
     2
272
     3
274
     4
283
     0
284
     8
340
11
341
1F8
342
1F8
343
1F8
344
1F8
371
    -1
372
    -1
1001
ACAD_DSTYLE_DIMJOGGED_JOGANGLE_SYMBOL
1070
   384
1040
0.7853981633974483
1001
ACAD_DSTYLE_DIMARC_LENGTH_SYMBOL
1070
   379
1070
     1
  0
DIMSTYLE
105
BEF
330
A
100
AcDbSymbolTableRecord
100
AcDbDimStyleTableRecord
  2
AM_JIS$SF
 70
     0
  4
"
 41
2.5
 42
1.0
 43
10.0
 44
1.0
 47
0.1
 48
0.1
 73
     0
 74
     0
 75
     1
 76
     1
 77
     3
 78
     8
 79
     2
140
3.5
141
0.0
143
0.0393701
146
0.71
147
1.5
172
     1
176
   256
177
   256
178
     2
271
     2
272
     3
274
     4
283
     0
284
     8
340
11
341
1F8
342
1F8
343
1F8
344
1F8
371
    -1
372
    -1
1001
ACAD_DSTYLE_DIMJOGGED_JOGANGLE_SYMBOL
1070
   384
1040
0.7853981633974483
1001
ACAD_DSTYLE_DIMARC_LENGTH_SYMBOL
1070
   379
1070
     1
  0
DIMSTYLE
105
BF0
330
A
100
AcDbSymbolTableRecord
100
AcDbDimStyleTableRecord
  2
AM_JIS$SH
 70
     0
  4
"
 41
2.5
 42
1.0
 43
10.0
 44
1.0
 47
0.1
 48
0.1
 73
     0
 74
     0
 75
     1
 76
     1
 77
     3
 78
     8
 79
     2
140
3.5
141
0.0
143
0.0393701
144
2.0
146
0.71
147
1.5
172
     1
173
     1
176
   256
177
   256
178
     2
271
     2
272
     3
274
     4
283
     0
284
     8
340
11
341
1F8
342
1F8
343
91
344
1F8
371
    -1
372
    -1
1001
ACAD_DSTYLE_DIMJOGGED_JOGANGLE_SYMBOL
1070
   384
1040
0.7853981633974483
1001
ACAD_DSTYLE_DIMARC_LENGTH_SYMBOL
1070
   379
1070
     1
  0
DIMSTYLE
105
F6C
330
A
100
AcDbSymbolTableRecord
100
AcDbDimStyleTableRecord
  2
ISO-25
 70
     0
 41
2.5
 42
0.625
 43
3.75
 44
1.25
 73
     0
 74
     0
 77
     1
 78
     8
140
2.5
141
2.5
143
0.03937007874016
147
0.625
171
     3
172
     1
271
     2
272
     2
274
     3
278
    44
283
     0
284
     8
340
11
341
1F8
342
1F8
  0
DIMSTYLE
105
24DA
102
{ACAD_REACTORS
330
2275
330
2297
330
22B9
102
}
330
A
100
AcDbSymbolTableRecord
100
AcDbDimStyleTableRecord
  2
AM_ISO$0
 70
     0
  4
"
 41
3.5
 42
1.0
 43
10.0
 44
1.0
 47
0.1
 48
0.1
 73
     0
 74
     0
 77
     1
 78
     8
 79
     2
140
3.5
141
0.0
143
0.0393701
146
0.71
147
1.5
172
     1
176
   256
177
   256
178
     2
271
     2
272
     3
274
     4
283
     0
284
     8
340
11
371
    -1
372
    -1
1001
ACAD_DSTYLE_DIMARC_LENGTH_SYMBOL
1070
   379
1070
     1
1001
ACAD_DSTYLE_DIM_LINETYPE
1070
   380
1005
14
1001
ACAD_DSTYLE_DIM_EXT1_LINETYPE
1070
   381
1005
14
1001
ACAD_DSTYLE_DIM_EXT2_LINETYPE
1070
   382
1005
14
  0
ENDTAB
  0
TABLE
  2
BLOCK_RECORD
  5
1
330
0
100
AcDbSymbolTable
 70
    41
  0
BLOCK_RECORD
  5
1F
102
{ACAD_XDICTIONARY
360
99
102
}
330
1
100
AcDbSymbolTableRecord
100
AcDbBlockTableRecord
  2
*Model_Space
340
22
  0
BLOCK_RECORD
  5
23
330
1
100
AcDbSymbolTableRecord
100
AcDbBlockTableRecord
  2
*Paper_Space
340
26
  0
BLOCK_RECORD
  5
1B
330
1
100
AcDbSymbolTableRecord
100
AcDbBlockTableRecord
  2
*Paper_Space0
340
1E
  0
BLOCK_RECORD
  5
91
330
1
100
AcDbSymbolTableRecord
100
AcDbBlockTableRecord
  2
GENAXEH
340
0
  0
BLOCK_RECORD
  5
1F8
330
1
100
AcDbSymbolTableRecord
100
AcDbBlockTableRecord
  2
_Open30
340
0
  0
BLOCK_RECORD
  5
224
102
{ACAD_XDICTIONARY
360
22D
102
}
330
1
100
AcDbSymbolTableRecord
100
AcDbBlockTableRecord
  2
TAKACHI-A3
340
0
  0
BLOCK_RECORD
  5
242
102
{ACAD_XDICTIONARY
360
297
102
}
330
1
100
AcDbSymbolTableRecord
100
AcDbBlockTableRecord
  2
TAKACHI-TITLE
340
0
  0
BLOCK_RECORD
  5
A0D
102
{ACAD_XDICTIONARY
360
A15
102
}
330
1
100
AcDbSymbolTableRecord
100
AcDbBlockTableRecord
  2
TAKACHI-A3-2
340
0
  0
BLOCK_RECORD
  5
A20
102
{ACAD_XDICTIONARY
360
A79
102
}
330
1
100
AcDbSymbolTableRecord
100
AcDbBlockTableRecord
  2
TAKACHI-TITLEA3
340
0
  0
BLOCK_RECORD
  5
AA1
102
{ACAD_XDICTIONARY
360
AA9
102
}
330
1
100
AcDbSymbolTableRecord
100
AcDbBlockTableRecord
  2
TAKACHI-A4-2
340
0
  0
BLOCK_RECORD
  5
AE9
102
{ACAD_XDICTIONARY
360
AF1
102
}
330
1
100
AcDbSymbolTableRecord
100
AcDbBlockTableRecord
  2
TK-A3
340
0
102
{BLKREFS
331
BC6
102
}
  0
BLOCK_RECORD
  5
AFC
102
{ACAD_XDICTIONARY
360
B55
102
}
330
1
100
AcDbSymbolTableRecord
100
AcDbBlockTableRecord
  2
TK-TITLE
340
0
102
{BLKREFS
331
BC8
102
}
  0
BLOCK_RECORD
  5
DC3
102
{ACAD_XDICTIONARY
360
DD3
102
}
330
1
100
AcDbSymbolTableRecord
100
AcDbBlockTableRecord
  2
A$C0B3205F2
340
0
102
{BLKREFS
331
E22
102
}
  0
BLOCK_RECORD
  5
DD9
102
{ACAD_XDICTIONARY
360
DEB
102
}
330
1
100
AcDbSymbolTableRecord
100
AcDbBlockTableRecord
  2
A$C143B6173
340
0
102
{BLKREFS
331
DEE
102
}
  0
BLOCK_RECORD
  5
DF1
102
{ACAD_XDICTIONARY
360
E02
102
}
330
1
100
AcDbSymbolTableRecord
100
AcDbBlockTableRecord
  2
A$C767F5274
340
0
  0
BLOCK_RECORD
  5
E08
102
{ACAD_XDICTIONARY
360
E1A
102
}
330
1
100
AcDbSymbolTableRecord
100
AcDbBlockTableRecord
  2
A$C79BC6D1E
340
0
102
{BLKREFS
331
E1D
102
}
  0
BLOCK_RECORD
  5
1406
102
{ACAD_XDICTIONARY
360
1417
102
}
330
1
100
AcDbSymbolTableRecord
100
AcDbBlockTableRecord
  2
A$C06337972
340
0
102
{BLKREFS
331
141A
102
}
  0
BLOCK_RECORD
  5
2276
330
1
100
AcDbSymbolTableRecord
100
AcDbBlockTableRecord
  2
*D15
340
0
  0
BLOCK_RECORD
  5
2298
330
1
100
AcDbSymbolTableRecord
100
AcDbBlockTableRecord
  2
*D16
340
0
  0
BLOCK_RECORD
  5
22BA
330
1
100
AcDbSymbolTableRecord
100
AcDbBlockTableRecord
  2
*D17
340
0
  0
BLOCK_RECORD
  5
2BB1
330
1
100
AcDbSymbolTableRecord
100
AcDbBlockTableRecord
  2
*S18
340
0
102
{BLKREFS
331
ED1
102
}
  0
BLOCK_RECORD
  5
2BB8
330
1
100
AcDbSymbolTableRecord
100
AcDbBlockTableRecord
  2
*S19
340
0
102
{BLKREFS
331
ED6
102
}
  0
BLOCK_RECORD
  5
2BC0
330
1
100
AcDbSymbolTableRecord
100
AcDbBlockTableRecord
  2
*S20
340
0
102
{BLKREFS
331
ED8
102
}
  0
BLOCK_RECORD
  5
2BC7
330
1
100
AcDbSymbolTableRecord
100
AcDbBlockTableRecord
  2
*S21
340
0
102
{BLKREFS
331
EDB
102
}
  0
BLOCK_RECORD
  5
2BCF
330
1
100
AcDbSymbolTableRecord
100
AcDbBlockTableRecord
  2
*S22
340
0
102
{BLKREFS
331
EDD
102
}
  0
BLOCK_RECORD
  5
2BD6
330
1
100
AcDbSymbolTableRecord
100
AcDbBlockTableRecord
  2
*S23
340
0
102
{BLKREFS
331
EE0
102
}
  0
BLOCK_RECORD
  5
2BDE
330
1
100
AcDbSymbolTableRecord
100
AcDbBlockTableRecord
  2
*S24
340
0
102
{BLKREFS
331
EE2
102
}
  0
BLOCK_RECORD
  5
2BE5
330
1
100
AcDbSymbolTableRecord
100
AcDbBlockTableRecord
  2
*S25
340
0
102
{BLKREFS
331
EE5
102
}
  0
BLOCK_RECORD
  5
2BED
330
1
100
AcDbSymbolTableRecord
100
AcDbBlockTableRecord
  2
*S26
340
0
102
{BLKREFS
331
EE7
102
}
  0
BLOCK_RECORD
  5
2BF4
330
1
100
AcDbSymbolTableRecord
100
AcDbBlockTableRecord
  2
*S27
340
0
102
{BLKREFS
331
EFE
102
}
  0
BLOCK_RECORD
  5
2BFC
330
1
100
AcDbSymbolTableRecord
100
AcDbBlockTableRecord
  2
*S28
340
0
102
{BLKREFS
331
F00
102
}
  0
BLOCK_RECORD
  5
2C4C
330
1
100
AcDbSymbolTableRecord
100
AcDbBlockTableRecord
  2
*S29
340
0
102
{BLKREFS
331
F58
102
}
  0
BLOCK_RECORD
  5
2C53
330
1
100
AcDbSymbolTableRecord
100
AcDbBlockTableRecord
  2
*S30
340
0
102
{BLKREFS
331
F5B
102
}
  0
ENDTAB
  0
ENDSEC
  0
SECTION
  2
BLOCKS
  0
BLOCK
  5
20
330
1F
100
AcDbEntity
  8
0
100
AcDbBlockBegin
  2
*Model_Space
 70
     0
 10
0.0
 20
0.0
 30
0.0
  3
*Model_Space
  1

  0
ENDBLK
  5
21
330
1F
100
AcDbEntity
  8
0
100
AcDbBlockEnd
  0
BLOCK
  5
24
330
23
100
AcDbEntity
 67
     1
  8
0
100
AcDbBlockBegin
  2
*Paper_Space
 70
     0
 10
0.0
 20
0.0
 30
0.0
  3
*Paper_Space
  1

  0
ENDBLK
  5
25
330
23
100
AcDbEntity
 67
     1
  8
0
100
AcDbBlockEnd
  0
BLOCK
  5
1C
330
1B
100
AcDbEntity
 67
     1
  8
0
100
AcDbBlockBegin
  2
*Paper_Space0
 70
     0
 10
0.0
 20
0.0
 30
0.0
  3
*Paper_Space0
  1

  0
VIEWPORT
  5
182
102
{ACAD_XDICTIONARY
360
2EE7
102
}
330
1B
100
AcDbEntity
 67
     1
  8
0
100
AcDbViewport
 10
5.249999639556163
 20
3.999999883606677
 30
0.0
 40
14.57585398793907
 41
8.992999745766947
 68
     0
 69
     0
 12
5.249999639556163
 22
3.999999883606677
 13
0.0
 23
0.0
 14
10.0
 24
10.0
 15
10.0
 25
10.0
 16
0.0
 26
0.0
 36
1.0
 17
0.0
 27
0.0
 37
0.0
 42
50.0
 43
0.0
 44
0.0
 45
8.992999745766947
 50
0.0
 51
0.0
 72
   100
 90
    32800
  1

281
     0
 71
     1
 74
     0
110
0.0
120
0.0
130
0.0
111
1.0
121
0.0
131
0.0
112
0.0
122
1.0
132
0.0
 79
     0
146
0.0
1001
GENIUS_GENSCREG_15
1000
PF
1040
1.0
1000
DF
1040
1.0
1000
MIN
1011
-2.037927354413371
1021
-0.4964999892767957
1031
0.0
1000
MAX
1011
12.5379266335257
1021
8.496499756490152
1031
0.0
1000
FLAGS
1070
     4
1001
GENIUS_GENODEF_13
1002
{
1000
HIER
1070
     0
1002
}
1002
{
1000
MANEDIT
1070
     0
1002
}
1002
{
1000
NOSEL
1070
     0
1002
}
1002
{
1000
BEHIND
1070
     0
1002
}
1002
{
1000
OTHER
1070
     0
1002
}
1002
{
1000
REACTOR
1002
}
1001
GENIUS_GENOBJ-N-SDF_13
1002
{
1000
OWNER
1000
GEN
1002
}
  0
ENDBLK
  5
1D
330
1B
100
AcDbEntity
 67
     1
  8
0
100
AcDbBlockEnd
  0
BLOCK
  5
93
330
91
100
AcDbEntity
  8
0
100
AcDbBlockBegin
  2
GENAXEH
 70
     0
 10
0.0
 20
0.0
 30
0.0
  3
GENAXEH
  1

  0
LINE
  5
92
330
91
100
AcDbEntity
  8
0
100
AcDbLine
 10
-1.0
 20
0.0
 30
0.0
 11
1.0
 21
0.0
 31
0.0
  0
ENDBLK
  5
94
330
91
100
AcDbEntity
  8
0
100
AcDbBlockEnd
  0
BLOCK
  5
1F9
330
1F8
100
AcDbEntity
  8
0
100
AcDbBlockBegin
  2
_Open30
 70
     0
 10
0.0
 20
0.0
 30
0.0
  3
_Open30
  1

  0
LINE
  5
1FA
330
1F8
100
AcDbEntity
  8
0
  6
ByBlock
 62
     0
370
    -2
100
AcDbLine
 10
-1.0
 20
0.26794919
 30
0.0
 11
0.0
 21
0.0
 31
0.0
  0
LINE
  5
1FB
330
1F8
100
AcDbEntity
  8
0
  6
ByBlock
 62
     0
370
    -2
100
AcDbLine
 10
0.0
 20
0.0
 30
0.0
 11
-1.0
 21
-0.26794919
 31
0.0
  0
LINE
  5
1FC
330
1F8
100
AcDbEntity
  8
0
  6
ByBlock
 62
     0
370
    -2
100
AcDbLine
 10
0.0
 20
0.0
 30
0.0
 11
-1.0
 21
0.0
 31
0.0
  0
ENDBLK
  5
1FD
330
1F8
100
AcDbEntity
  8
0
100
AcDbBlockEnd
  0
BLOCK
  5
22E
330
224
100
AcDbEntity
  8
0
100
AcDbBlockBegin
  2
TAKACHI-A3
 70
     0
 10
0.0
 20
0.0
 30
0.0
  3
TAKACHI-A3
  1

  0
LWPOLYLINE
  5
225
330
224
100
AcDbEntity
  8
0
100
AcDbPolyline
 90
        4
 70
     1
 43
0.0
 10
10.0
 20
0.0
 10
410.0
 20
0.0
 10
410.0
 20
280.0
 10
10.00000000000003
 20
280.0
1001
GENIUS_GENREC_14
1002
{
1000
PYDIR
1011
10.00000000000001
1021
280.0
1031
0.0
1002
}
1002
{
1000
PXDIR
1011
410.0
1021
0.0
1031
0.0
1002
}
1002
{
1000
PORI
1011
10.0
1021
0.0
1031
0.0
1002
}
1002
{
1000
PINS
1011
210.0
1021
139.9999999999999
1031
0.0
1002
}
1002
{
1000
HVAL
1000
280
1002
}
1002
{
1000
H
1070
     2
1002
}
1002
{
1000
WVAL
1000
400
1002
}
1002
{
1000
W
1070
     2
1002
}
1002
{
1000
C
1070
     4
1002
}
1001
GENIUS_GENODEF_13
1002
{
1000
HIER
1070
     0
1002
}
1002
{
1000
MANEDIT
1070
     0
1002
}
1002
{
1000
NOSEL
1070
     0
1002
}
1002
{
1000
BEHIND
1070
     0
1002
}
1002
{
1000
REACTOR
1002
}
1001
GENIUS_GENOBJ-N-REC_13
1002
{
1000
OWNER
1000
GEN
1002
}
  0
TEXT
  5
226
330
224
100
AcDbEntity
  8
0
 60
     1
100
AcDbText
 10
15.00000000000003
 20
50.0
 30
0.0
 40
2.5
  1
!GENTITLE-LL
100
AcDbText
  0
TEXT
  5
227
330
224
100
AcDbEntity
  8
0
 60
     1
100
AcDbText
 10
410.0
 20
0.0
 30
0.0
 40
2.5
  1
!GENTITLE-INSERT
100
AcDbText
  0
TEXT
  5
228
330
224
100
AcDbEntity
  8
0
 60
     1
100
AcDbText
 10
405.0
 20
275.0
 30
0.0
 40
2.5
  1
!GENTITLE-RU
100
AcDbText
  0
TEXT
  5
229
330
224
100
AcDbEntity
  8
0
 60
     1
100
AcDbText
 10
410.0
 20
280.0
 30
0.0
 40
2.5
  1
!GENTITLE-MAX
100
AcDbText
  0
LINE
  5
22A
330
224
100
AcDbEntity
  8
0
100
AcDbLine
 10
366.0
 20
275.0
 30
0.0
 11
410.0
 21
275.0
 31
0.0
  0
MTEXT
  5
22B
330
224
100
AcDbEntity
  8
0
100
AcDbMText
 10
409.3592953827348
 20
276.108542987227
 30
0.0
 40
2.5
 41
43.07840397728298
 71
     9
 72
     5
  1
(文書番号：TY-34)2004.10.29
 73
     1
 44
1.0
1001
ACAD
1000
MTEXTBEGIN
1070
    73
1070
     1
1070
    44
1040
1.0
1070
    74
1070
     0
1000
MTEXTEND
  0
LINE
  5
22C
330
224
100
AcDbEntity
  8
0
100
AcDbLine
 10
366.0
 20
280.0
 30
0.0
 11
366.0
 21
275.0
 31
0.0
  0
ENDBLK
  5
22F
330
224
100
AcDbEntity
  8
0
100
AcDbBlockEnd
  0
BLOCK
  5
298
330
242
100
AcDbEntity
  8
0
100
AcDbBlockBegin
  2
TAKACHI-TITLE
 70
     2
 10
0.0
 20
0.0
 30
0.0
  3
TAKACHI-TITLE
  1

  0
LINE
  5
243
330
242
100
AcDbEntity
  8
RAHM2
100
AcDbLine
 10
-195.0
 20
30.00000000000003
 30
0.0
 11
-94.0
 21
30.00000000000003
 31
0.0
  0
LINE
  5
244
330
242
100
AcDbEntity
  8
RAHM2
100
AcDbLine
 10
-195.0
 20
35.00000000000003
 30
0.0
 11
-94.0
 21
35.00000000000003
 31
0.0
  0
LINE
  5
245
330
242
100
AcDbEntity
  8
RAHM2
100
AcDbLine
 10
-195.0
 20
40.00000000000002
 30
0.0
 11
-94.0
 21
40.00000000000002
 31
0.0
  0
LINE
  5
246
330
242
100
AcDbEntity
  8
RAHM2
100
AcDbLine
 10
-195.0
 20
45.00000000000002
 30
0.0
 11
-94.0
 21
45.00000000000002
 31
0.0
  0
LINE
  5
247
330
242
100
AcDbEntity
  8
0
100
AcDbLine
 10
-195.0
 20
7.0
 30
0.0
 11
-94.0
 21
7.0
 31
0.0
  0
LINE
  5
248
330
242
100
AcDbEntity
  8
0
100
AcDbLine
 10
-195.0
 20
19.99999999999997
 30
0.0
 11
-94.0
 21
19.99999999999997
 31
0.0
  0
ATTDEF
  5
249
330
242
100
AcDbEntity
  8
0
100
AcDbText
 10
-183.2438527145607
 20
8.617517191094748
 30
0.0
 40
2.5
  1

 11
-183.2438527145607
 21
8.617517191094748
 31
0.0
100
AcDbAttributeDefinition
  3
サブタイトル
  2
GEN-TITLE-DES2
 70
     0
 74
     1
  0
ATTDEF
  5
24A
330
242
100
AcDbEntity
  8
0
100
AcDbText
 10
-183.2438527145607
 20
1.617517191094748
 30
0.0
 40
3.0
  1

 11
-183.2438527145607
 21
1.617517191094748
 31
0.0
100
AcDbAttributeDefinition
  3
図番
  2
GEN-TITLE-NR
 70
     0
 74
     1
  0
MTEXT
  5
24B
330
242
100
AcDbEntity
  8
RAHM2
100
AcDbMText
 10
-193.8002551371314
 20
5.801035407279641
 30
0.0
 40
2.5
 41
90.0
 71
     1
 72
     5
  1
図番
 73
     1
 44
1.0
1001
ACAD
1000
MTEXTBEGIN
1070
    73
1070
     1
1070
    44
1040
1.0
1070
    74
1070
     0
1000
MTEXTEND
  0
ATTDEF
  5
24C
330
242
100
AcDbEntity
  8
0
100
AcDbText
 10
-183.2438527145607
 20
13.87395286168501
 30
0.0
 40
4.0
  1

 11
-183.2438527145607
 21
13.87395286168501
 31
0.0
100
AcDbAttributeDefinition
  3
品名
  2
GEN-TITLE-DES1
 70
     0
 74
     1
  0
LINE
  5
24D
330
242
100
AcDbEntity
  8
RAHM2
100
AcDbLine
 10
-187.5751288694036
 20
30.40000000000004
 30
0.0
 11
-190.0
 21
34.60000000000003
 31
0.0
  0
LINE
  5
24E
330
242
100
AcDbEntity
  8
RAHM2
100
AcDbLine
 10
-190.0
 20
34.60000000000003
 30
0.0
 11
-192.4248711305964
 21
30.40000000000004
 31
0.0
  0
LINE
  5
24F
330
242
100
AcDbEntity
  8
RAHM2
100
AcDbLine
 10
-185.0
 20
50.00000000000003
 30
0.0
 11
-185.0
 21
19.99999999999994
 31
0.0
  0
LINE
  5
250
330
242
100
AcDbEntity
  8
RAHM2
100
AcDbLine
 10
-192.4248711305964
 20
30.40000000000004
 30
0.0
 11
-187.5751288694036
 21
30.40000000000004
 31
0.0
  0
MTEXT
  5
251
330
242
100
AcDbEntity
  8
RAHM2
100
AcDbMText
 10
-190.0
 20
22.49999999999997
 30
0.0
 40
2.5
 41
10.0
 71
     5
 72
     5
  1
符号
 73
     1
 44
1.0
1001
ACAD
1000
MTEXTBEGIN
1070
    73
1070
     1
1070
    44
1040
1.0
1070
    74
1070
     0
1000
MTEXTEND
  0
MTEXT
  5
252
330
242
100
AcDbEntity
  8
RAHM2
100
AcDbMText
 10
-193.8002551371314
 20
18.80103540727961
 30
0.0
 40
2.5
 41
90.0
 71
     1
 72
     5
  1
品名
 73
     1
 44
1.0
1001
ACAD
1000
MTEXTBEGIN
1070
    73
1070
     1
1070
    44
1040
1.0
1070
    74
1070
     0
1000
MTEXTEND
  0
LINE
  5
253
330
242
100
AcDbEntity
  8
RAHM2
100
AcDbLine
 10
-192.4248711305964
 20
45.40000000000003
 30
0.0
 11
-187.5751288694036
 21
45.40000000000003
 31
0.0
  0
LINE
  5
254
330
242
100
AcDbEntity
  8
RAHM2
100
AcDbLine
 10
-187.5751288694036
 20
45.40000000000003
 30
0.0
 11
-190.0
 21
49.60000000000002
 31
0.0
  0
LINE
  5
255
330
242
100
AcDbEntity
  8
RAHM2
100
AcDbLine
 10
-192.4248711305964
 20
40.40000000000003
 30
0.0
 11
-187.5751288694036
 21
40.40000000000003
 31
0.0
  0
LINE
  5
256
330
242
100
AcDbEntity
  8
RAHM2
100
AcDbLine
 10
-187.5751288694036
 20
40.40000000000003
 30
0.0
 11
-190.0
 21
44.60000000000002
 31
0.0
  0
LINE
  5
257
330
242
100
AcDbEntity
  8
RAHM2
100
AcDbLine
 10
-192.4248711305964
 20
35.40000000000004
 30
0.0
 11
-187.5751288694036
 21
35.40000000000004
 31
0.0
  0
LINE
  5
258
330
242
100
AcDbEntity
  8
RAHM2
100
AcDbLine
 10
-187.5751288694036
 20
35.40000000000004
 30
0.0
 11
-190.0
 21
39.60000000000002
 31
0.0
  0
LINE
  5
259
330
242
100
AcDbEntity
  8
RAHM2
100
AcDbLine
 10
-190.0
 20
39.60000000000002
 30
0.0
 11
-192.4248711305964
 21
35.40000000000004
 31
0.0
  0
LINE
  5
25A
330
242
100
AcDbEntity
  8
RAHM2
100
AcDbLine
 10
-190.0
 20
44.60000000000002
 30
0.0
 11
-192.4248711305964
 21
40.40000000000003
 31
0.0
  0
LINE
  5
25B
330
242
100
AcDbEntity
  8
RAHM2
100
AcDbLine
 10
-190.0
 20
49.60000000000002
 30
0.0
 11
-192.4248711305964
 21
45.40000000000003
 31
0.0
  0
LINE
  5
25C
330
242
100
AcDbEntity
  8
RAHM2
100
AcDbLine
 10
-129.0
 20
50.00000000000003
 30
0.0
 11
-129.0
 21
19.99999999999994
 31
0.0
  0
MTEXT
  5
25D
330
242
100
AcDbEntity
  8
RAHM2
100
AcDbMText
 10
-157.1448171868856
 20
22.49999999999997
 30
0.0
 40
2.5
 41
45.0
 71
     5
 72
     5
  1
変更記事
 73
     1
 44
1.0
1001
ACAD
1000
MTEXTBEGIN
1070
    73
1070
     1
1070
    44
1040
1.0
1070
    74
1070
     0
1000
MTEXTEND
  0
LINE
  5
25E
330
242
100
AcDbEntity
  8
0
100
AcDbLine
 10
-34.0
 20
50.0
 30
0.0
 11
-34.0
 21
0.0
 31
0.0
  0
LINE
  5
25F
330
242
100
AcDbEntity
  8
0
100
AcDbLine
 10
-94.0
 20
50.0
 30
0.0
 11
-94.0
 21
0.0
 31
0.0
  0
MTEXT
  5
260
330
242
100
AcDbEntity
  8
0
100
AcDbMText
 10
-64.0
 20
5.0
 30
0.0
 40
3.5
 41
60.0
 71
     5
 72
     5
  1
\fＭＳ ゴシック|b0|i0|c128|p49;株式会社タカチ電機工業
 73
     1
 44
1.0
1001
ACAD
1000
MTEXTBEGIN
1070
    73
1070
     1
1070
    44
1040
1.0
1070
    74
1070
     0
1000
MTEXTEND
  0
LINE
  5
261
330
242
100
AcDbEntity
  8
0
100
AcDbLine
 10
-94.0
 20
10.0
 30
0.0
 11
-34.0
 21
10.0
 31
0.0
  0
ATTDEF
  5
262
330
242
100
AcDbEntity
  8
0
100
AcDbText
 10
-58.01405119799745
 20
39.25500556178349
 30
0.0
 40
3.0
  1

 72
     2
 11
-58.01405119799745
 21
39.25500556178349
 31
0.0
100
AcDbAttributeDefinition
  3
尺度
  2
GEN-TITLE-SCA
 70
     0
  0
ATTDEF
  5
263
330
242
100
AcDbEntity
  8
0
100
AcDbText
 10
-77.00284966649007
 20
30.62180787943475
 30
0.0
 40
3.0
  1

 11
-77.00284966649007
 21
30.62180787943475
 31
0.0
100
AcDbAttributeDefinition
  3
材質
  2
GEN-TITLE-MAT1
 70
     0
 74
     1
  0
ATTDEF
  5
264
330
242
100
AcDbEntity
  8
0
100
AcDbText
 10
-77.00284966649007
 20
20.62180787943475
 30
0.0
 40
3.0
  1

 11
-77.00284966649007
 21
20.62180787943475
 31
0.0
100
AcDbAttributeDefinition
  3
表面処理
  2
GEN-TITLE-MAT2
 70
     0
 74
     1
  0
ATTDEF
  5
265
330
242
100
AcDbEntity
  8
0
100
AcDbText
 10
-77.00284966649007
 20
11.61751719109475
 30
0.0
 40
3.0
  1

 11
-77.00284966649007
 21
11.61751719109475
 31
0.0
100
AcDbAttributeDefinition
  3
日付
  2
GEN-TITLE-DAT
 70
     0
 74
     1
  0
LINE
  5
266
330
242
100
AcDbEntity
  8
0
100
AcDbLine
 10
-94.0
 20
37.5
 30
0.0
 11
-34.0
 21
37.5
 31
0.0
  0
LINE
  5
267
330
242
100
AcDbEntity
  8
0
100
AcDbLine
 10
-94.0
 20
27.5
 30
0.0
 11
-34.0
 21
27.5
 31
0.0
  0
LINE
  5
268
330
242
100
AcDbEntity
  8
0
100
AcDbLine
 10
-94.0
 20
17.5
 30
0.0
 11
-34.0
 21
17.5
 31
0.0
  0
LINE
  5
269
330
242
100
AcDbEntity
  8
RAHM2
100
AcDbLine
 10
-109.0
 20
50.00000000000003
 30
0.0
 11
-109.0
 21
19.99999999999994
 31
0.0
  0
MTEXT
  5
26A
330
242
100
AcDbEntity
  8
RAHM2
100
AcDbMText
 10
-119.4582894723942
 20
32.50000000000003
 30
0.0
 40
2.5
 41
20.0
 71
     5
 72
     5
  1
・  ・   
 73
     1
 44
1.0
1001
ACAD
1000
MTEXTBEGIN
1070
    73
1070
     1
1070
    44
1040
1.0
1070
    74
1070
     0
1000
MTEXTEND
  0
MTEXT
  5
26B
330
242
100
AcDbEntity
  8
RAHM2
100
AcDbMText
 10
-118.738119805002
 20
22.49999999999997
 30
0.0
 40
2.5
 41
20.0
 71
     5
 72
     5
  1
年・月・日
 73
     1
 44
1.0
1001
ACAD
1000
MTEXTBEGIN
1070
    73
1070
     1
1070
    44
1040
1.0
1070
    74
1070
     0
1000
MTEXTEND
  0
MTEXT
  5
26C
330
242
100
AcDbEntity
  8
RAHM2
100
AcDbMText
 10
-101.5
 20
22.49999999999997
 30
0.0
 40
2.5
 41
15.0
 71
     5
 72
     5
  1
担当
 73
     1
 44
1.0
1001
ACAD
1000
MTEXTBEGIN
1070
    73
1070
     1
1070
    44
1040
1.0
1070
    74
1070
     0
1000
MTEXTEND
  0
MTEXT
  5
26D
330
242
100
AcDbEntity
  8
RAHM2
100
AcDbMText
 10
-119.4582894723942
 20
42.50000000000002
 30
0.0
 40
2.5
 41
20.0
 71
     5
 72
     5
  1
・  ・   
 73
     1
 44
1.0
1001
ACAD
1000
MTEXTBEGIN
1070
    73
1070
     1
1070
    44
1040
1.0
1070
    74
1070
     0
1000
MTEXTEND
  0
MTEXT
  5
26E
330
242
100
AcDbEntity
  8
RAHM2
100
AcDbMText
 10
-119.4582894723942
 20
37.50000000000003
 30
0.0
 40
2.5
 41
20.0
 71
     5
 72
     5
  1
・  ・   
 73
     1
 44
1.0
1001
ACAD
1000
MTEXTBEGIN
1070
    73
1070
     1
1070
    44
1040
1.0
1070
    74
1070
     0
1000
MTEXTEND
  0
MTEXT
  5
26F
330
242
100
AcDbEntity
  8
RAHM2
100
AcDbMText
 10
-119.4582894723942
 20
47.50000000000002
 30
0.0
 40
2.5
 41
20.0
 71
     5
 72
     5
  1
・  ・   
 73
     1
 44
1.0
1001
ACAD
1000
MTEXTBEGIN
1070
    73
1070
     1
1070
    44
1040
1.0
1070
    74
1070
     0
1000
MTEXTEND
  0
MTEXT
  5
270
330
242
100
AcDbEntity
  8
RAHM2
100
AcDbMText
 10
-92.80025513713145
 20
16.30103540727964
 30
0.0
 40
2.5
 41
60.0
 71
     1
 72
     5
  1
日付
 73
     1
 44
1.0
1001
ACAD
1000
MTEXTBEGIN
1070
    73
1070
     1
1070
    44
1040
1.0
1070
    74
1070
     0
1000
MTEXTEND
  0
MTEXT
  5
271
330
242
100
AcDbEntity
  8
RAHM2
100
AcDbMText
 10
-92.80025513713145
 20
26.30103540727964
 30
0.0
 40
2.5
 41
60.0
 71
     1
 72
     5
  1
表面処理
 73
     1
 44
1.0
1001
ACAD
1000
MTEXTBEGIN
1070
    73
1070
     1
1070
    44
1040
1.0
1070
    74
1070
     0
1000
MTEXTEND
  0
LINE
  5
272
330
242
100
AcDbEntity
  8
7A
100
AcDbLine
 10
-89.0
 20
43.75
 30
0.0
 11
-75.2186915997147
 21
43.75
 31
0.0
1001
GENIUS_GENOREF_13
1005
285
  0
LINE
  5
273
330
242
100
AcDbEntity
  8
0
100
AcDbLine
 10
-84.0
 20
45.75
 30
0.0
 11
-76.0
 21
46.74999999999999
 31
0.0
  0
LINE
  5
274
330
242
100
AcDbEntity
  8
0
100
AcDbLine
 10
-76.0
 20
40.75
 30
0.0
 11
-84.0
 21
41.74999999999999
 31
0.0
  0
LINE
  5
275
330
242
100
AcDbEntity
  8
7A
100
AcDbLine
 10
-89.0
 20
43.75
 30
0.0
 11
-89.0
 21
47.32478664473148
 31
0.0
1001
GENIUS_GENOREF_13
1005
285
  0
CIRCLE
  5
276
330
242
100
AcDbEntity
  8
0
100
AcDbCircle
 10
-89.0
 20
43.75
 30
0.0
 40
2.0
  0
CIRCLE
  5
277
330
242
100
AcDbEntity
  8
0
100
AcDbCircle
 10
-89.0
 20
43.75
 30
0.0
 40
3.0
  0
LINE
  5
278
330
242
100
AcDbEntity
  8
0
100
AcDbLine
 10
-84.0
 20
41.74999999999999
 30
0.0
 11
-84.0
 21
45.75
 31
0.0
  0
MTEXT
  5
279
330
242
100
AcDbEntity
  8
RAHM2
100
AcDbMText
 10
-92.80025513713145
 20
36.30103540727964
 30
0.0
 40
2.5
 41
60.0
 71
     1
 72
     5
  1
材質
 73
     1
 44
1.0
1001
ACAD
1000
MTEXTBEGIN
1070
    73
1070
     1
1070
    44
1040
1.0
1070
    74
1070
     0
1000
MTEXTEND
  0
LINE
  5
27A
330
242
100
AcDbEntity
  8
7A
100
AcDbLine
 10
-89.0
 20
43.75
 30
0.0
 11
-92.72303737125117
 21
43.75
 31
0.0
1001
GENIUS_GENOREF_13
1005
285
  0
LINE
  5
27B
330
242
100
AcDbEntity
  8
7A
100
AcDbLine
 10
-89.0
 20
43.75
 30
0.0
 11
-89.0
 21
40.03991724228479
 31
0.0
1001
GENIUS_GENOREF_13
1005
285
  0
LINE
  5
27C
330
242
100
AcDbEntity
  8
0
100
AcDbLine
 10
-76.0
 20
46.74999999999999
 30
0.0
 11
-76.0
 21
40.75
 31
0.0
  0
LINE
  5
27D
330
242
100
AcDbEntity
  8
0
100
AcDbLine
 10
-74.0
 20
50.0
 30
0.0
 11
-74.0
 21
37.5
 31
0.0
  0
MTEXT
  5
27E
330
242
100
AcDbEntity
  8
RAHM2
100
AcDbMText
 10
-72.80025513713145
 20
48.80103540727964
 30
0.0
 40
2.5
 41
20.0
 71
     1
 72
     5
  1
尺度
 73
     1
 44
1.0
1001
ACAD
1000
MTEXTBEGIN
1070
    73
1070
     1
1070
    44
1040
1.0
1070
    74
1070
     0
1000
MTEXTEND
  0
ATTDEF
  5
27F
330
242
100
AcDbEntity
  8
0
100
AcDbText
 10
-37.76317379391503
 20
39.25500556178349
 30
0.0
 40
3.0
  1

 72
     2
 11
-37.76317379391503
 21
39.25500556178349
 31
0.0
100
AcDbAttributeDefinition
  3
数量
  2
GEN-TITLE-QTY
 70
     0
  0
LINE
  5
280
330
242
100
AcDbEntity
  8
0
100
AcDbLine
 10
-34.0
 20
25.0
 30
0.0
 11
0.0
 21
25.0
 31
0.0
  0
LINE
  5
281
330
242
100
AcDbEntity
  8
0
100
AcDbLine
 10
-54.0
 20
50.0
 30
0.0
 11
-54.0
 21
37.5
 31
0.0
  0
MTEXT
  5
282
330
242
100
AcDbEntity
  8
RAHM2
100
AcDbMText
 10
-52.80025513713145
 20
48.80103540727964
 30
0.0
 40
2.5
 41
20.0
 71
     1
 72
     5
  1
数量
 73
     1
 44
1.0
1001
ACAD
1000
MTEXTBEGIN
1070
    73
1070
     1
1070
    44
1040
1.0
1070
    74
1070
     0
1000
MTEXTEND
  0
MTEXT
  5
283
330
242
100
AcDbEntity
  8
RAHM2
100
AcDbMText
 10
-25.5
 20
23.80103540727964
 30
0.0
 40
2.5
 41
17.0
 71
     2
 72
     5
  1
承認
 73
     1
 44
1.0
1001
ACAD
1000
MTEXTBEGIN
1070
    73
1070
     1
1070
    44
1040
1.0
1070
    74
1070
     0
1000
MTEXTEND
  0
MTEXT
  5
284
330
242
100
AcDbEntity
  8
RAHM2
100
AcDbMText
 10
-25.5
 20
48.80103540727964
 30
0.0
 40
2.5
 41
17.0
 71
     2
 72
     5
  1
承認
 73
     1
 44
1.0
1001
ACAD
1000
MTEXTBEGIN
1070
    73
1070
     1
1070
    44
1040
1.0
1070
    74
1070
     0
1000
MTEXTEND
  0
POINT
  5
285
330
242
100
AcDbEntity
  8
0
 60
     1
100
AcDbPoint
 10
-320.5355579819676
 20
-138.1104841268254
 30
0.0
1001
GENIUS_GENODEF_13
1002
{
1000
HIER
1070
    10
1002
}
1002
{
1000
MANEDIT
1070
     0
1002
}
1002
{
1000
NOSEL
1070
     0
1002
}
1002
{
1000
BEHIND
1070
     0
1002
}
1002
{
1000
REACTOR
1002
}
1001
GENIUS_GENOBJ-N-CRS_13
1002
{
1000
OWNER
1000
GEN
1002
}
1001
GENIUS_GENOENT_13
1002
{
1000
MYREF
1005
285
1002
}
1002
{
1000
GRP
1005
0
1002
}
1001
GENIUS_GENOLIS_13
1002
{
1000
ENT
1005
27B
1005
27A
1005
275
1005
272
1002
}
  0
LINE
  5
286
330
242
100
AcDbEntity
  8
RAHM2
100
AcDbLine
 10
-190.0
 20
29.60000000000002
 30
0.0
 11
-192.4248711305964
 21
25.40000000000004
 31
0.0
  0
LINE
  5
287
330
242
100
AcDbEntity
  8
RAHM2
100
AcDbLine
 10
-187.5751288694036
 20
25.40000000000004
 30
0.0
 11
-190.0
 21
29.60000000000002
 31
0.0
  0
LINE
  5
288
330
242
100
AcDbEntity
  8
RAHM2
100
AcDbLine
 10
-192.4248711305964
 20
25.40000000000004
 30
0.0
 11
-187.5751288694036
 21
25.40000000000004
 31
0.0
  0
LINE
  5
289
330
242
100
AcDbEntity
  8
RAHM2
100
AcDbLine
 10
-195.0
 20
25.00000000000003
 30
0.0
 11
-94.0
 21
25.00000000000003
 31
0.0
  0
MTEXT
  5
28A
330
242
100
AcDbEntity
  8
RAHM2
100
AcDbMText
 10
-119.4582894723942
 20
27.50000000000003
 30
0.0
 40
2.5
 41
20.0
 71
     5
 72
     5
  1
・  ・   
 73
     1
 44
1.0
1001
ACAD
1000
MTEXTBEGIN
1070
    73
1070
     1
1070
    44
1040
1.0
1070
    74
1070
     0
1000
MTEXTEND
  0
TEXT
  5
28B
330
242
100
AcDbEntity
  8
RAHM2
100
AcDbText
 10
-190.8155863565801
 20
25.65000000000003
 30
0.0
 40
2.5
  1
1
 72
     1
 11
-190.1905863565802
 21
25.65000000000003
 31
0.0
100
AcDbText
 73
     1
  0
TEXT
  5
28C
330
242
100
AcDbEntity
  8
RAHM2
100
AcDbText
 10
-190.9183316929134
 20
30.65000000000003
 30
0.0
 40
2.5
  1
2
 72
     1
 11
-190.0
 21
30.65000000000003
 31
0.0
100
AcDbText
 73
     1
  0
TEXT
  5
28D
330
242
100
AcDbEntity
  8
RAHM2
100
AcDbText
 10
-190.9267766952966
 20
35.65000000000001
 30
0.0
 40
2.5
  1
3
 72
     1
 11
-190.0
 21
35.65000000000001
 31
0.0
100
AcDbText
 73
     1
  0
TEXT
  5
28E
330
242
100
AcDbEntity
  8
RAHM2
100
AcDbText
 10
-191.0
 20
40.65000000000003
 30
0.0
 40
2.5
  1
4
 72
     1
 11
-190.0
 21
40.65000000000003
 31
0.0
100
AcDbText
 73
     1
  0
TEXT
  5
28F
330
242
100
AcDbEntity
  8
RAHM2
100
AcDbText
 10
-190.9267766952966
 20
45.65000000000003
 30
0.0
 40
2.5
  1
5
 72
     1
 11
-190.0
 21
45.65000000000003
 31
0.0
100
AcDbText
 73
     1
  0
LINE
  5
290
330
242
100
AcDbEntity
  8
0
100
AcDbLine
 10
-17.0
 20
50.0
 30
0.0
 11
-17.0
 21
0.0
 31
0.0
  0
LINE
  5
291
330
242
100
AcDbEntity
  8
0
100
AcDbLine
 10
-195.0
 20
0.0
 30
0.0
 11
0.0
 21
0.0
 31
0.0
1001
GENIUS_GENREC_14
1002
{
1000
PYDIR
1011
-184.0
1021
50.0
1031
0.0
1002
}
1002
{
1000
PXDIR
1011
0.0
1021
0.0
1031
0.0
1002
}
1002
{
1000
PORI
1011
-184.0
1021
0.0
1031
0.0
1002
}
1002
{
1000
PINS
1011
-100.5
1021
25.0
1031
0.0
1002
}
1002
{
1000
HVAL
1000
50
1002
}
1002
{
1000
H
1070
     2
1002
}
1002
{
1000
WVAL
1000
167
1002
}
1002
{
1000
W
1070
     2
1002
}
1002
{
1000
C
1070
     4
1002
}
1001
GENIUS_GENODEF_13
1002
{
1000
HIER
1070
     0
1002
}
1002
{
1000
MANEDIT
1070
     0
1002
}
1002
{
1000
NOSEL
1070
     0
1002
}
1002
{
1000
BEHIND
1070
     0
1002
}
1002
{
1000
REACTOR
1002
}
1001
GENIUS_GENOBJ-N-REC_13
1002
{
1000
OWNER
1000
GEN
1002
}
  0
LINE
  5
292
330
242
100
AcDbEntity
  8
0
100
AcDbLine
 10
0.0
 20
0.0
 30
0.0
 11
0.0
 21
50.0
 31
0.0
1001
GENIUS_GENREC_14
1002
{
1000
PYDIR
1011
-184.0
1021
50.0
1031
0.0
1002
}
1002
{
1000
PXDIR
1011
0.0
1021
0.0
1031
0.0
1002
}
1002
{
1000
PORI
1011
-184.0
1021
0.0
1031
0.0
1002
}
1002
{
1000
PINS
1011
-100.5
1021
25.0
1031
0.0
1002
}
1002
{
1000
HVAL
1000
50
1002
}
1002
{
1000
H
1070
     2
1002
}
1002
{
1000
WVAL
1000
167
1002
}
1002
{
1000
W
1070
     2
1002
}
1002
{
1000
C
1070
     4
1002
}
1001
GENIUS_GENODEF_13
1002
{
1000
HIER
1070
     0
1002
}
1002
{
1000
MANEDIT
1070
     0
1002
}
1002
{
1000
NOSEL
1070
     0
1002
}
1002
{
1000
BEHIND
1070
     0
1002
}
1002
{
1000
REACTOR
1002
}
1001
GENIUS_GENOBJ-N-REC_13
1002
{
1000
OWNER
1000
GEN
1002
}
  0
LINE
  5
293
330
242
100
AcDbEntity
  8
0
100
AcDbLine
 10
0.0
 20
50.0
 30
0.0
 11
-195.0
 21
50.00000000000003
 31
0.0
1001
GENIUS_GENREC_14
1002
{
1000
PYDIR
1011
-184.0
1021
50.0
1031
0.0
1002
}
1002
{
1000
PXDIR
1011
0.0
1021
0.0
1031
0.0
1002
}
1002
{
1000
PORI
1011
-184.0
1021
0.0
1031
0.0
1002
}
1002
{
1000
PINS
1011
-100.5
1021
25.0
1031
0.0
1002
}
1002
{
1000
HVAL
1000
50
1002
}
1002
{
1000
H
1070
     2
1002
}
1002
{
1000
WVAL
1000
167
1002
}
1002
{
1000
W
1070
     2
1002
}
1002
{
1000
C
1070
     4
1002
}
1001
GENIUS_GENODEF_13
1002
{
1000
HIER
1070
     0
1002
}
1002
{
1000
MANEDIT
1070
     0
1002
}
1002
{
1000
NOSEL
1070
     0
1002
}
1002
{
1000
BEHIND
1070
     0
1002
}
1002
{
1000
REACTOR
1002
}
1001
GENIUS_GENOBJ-N-REC_13
1002
{
1000
OWNER
1000
GEN
1002
}
  0
LINE
  5
294
330
242
100
AcDbEntity
  8
0
100
AcDbLine
 10
-195.0
 20
50.00000000000003
 30
0.0
 11
-195.0
 21
0.0
 31
0.0
1001
GENIUS_GENREC_14
1002
{
1000
PYDIR
1011
-195.0
1021
50.0
1031
0.0
1002
}
1002
{
1000
PXDIR
1011
-11.0
1021
0.0
1031
0.0
1002
}
1002
{
1000
PORI
1011
-195.0
1021
0.0
1031
0.0
1002
}
1002
{
1000
PINS
1011
-111.5
1021
25.0
1031
0.0
1002
}
1002
{
1000
HVAL
1000
50
1002
}
1002
{
1000
H
1070
     2
1002
}
1002
{
1000
WVAL
1000
167
1002
}
1002
{
1000
W
1070
     2
1002
}
1002
{
1000
C
1070
     4
1002
}
1001
GENIUS_GENODEF_13
1002
{
1000
HIER
1070
     0
1002
}
1002
{
1000
MANEDIT
1070
     0
1002
}
1002
{
1000
NOSEL
1070
     0
1002
}
1002
{
1000
BEHIND
1070
     0
1002
}
1002
{
1000
REACTOR
1002
}
1001
GENIUS_GENOBJ-N-REC_13
1002
{
1000
OWNER
1000
GEN
1002
}
  0
MTEXT
  5
295
330
242
100
AcDbEntity
  8
RAHM2
100
AcDbMText
 10
-8.5
 20
48.80103540727964
 30
0.0
 40
2.5
 41
17.0
 71
     2
 72
     5
  1
検図
 73
     1
 44
1.0
1001
ACAD
1000
MTEXTBEGIN
1070
    73
1070
     1
1070
    44
1040
1.0
1070
    74
1070
     0
1000
MTEXTEND
  0
MTEXT
  5
296
330
242
100
AcDbEntity
  8
RAHM2
100
AcDbMText
 10
-8.5
 20
23.80103540727964
 30
0.0
 40
2.5
 41
17.0
 71
     2
 72
     5
  1
製図
 73
     1
 44
1.0
1001
ACAD
1000
MTEXTBEGIN
1070
    73
1070
     1
1070
    44
1040
1.0
1070
    74
1070
     0
1000
MTEXTEND
  0
ENDBLK
  5
299
330
242
100
AcDbEntity
  8
0
100
AcDbBlockEnd
  0
BLOCK
  5
A16
330
A0D
100
AcDbEntity
  8
0
100
AcDbBlockBegin
  2
TAKACHI-A3-2
 70
     0
 10
0.0
 20
0.0
 30
0.0
  3
TAKACHI-A3-2
  1

  0
LINE
  5
A0E
330
A0D
100
AcDbEntity
  8
0
100
AcDbLine
 10
359.0
 20
280.0
 30
0.0
 11
359.0
 21
275.0
 31
0.0
  0
MTEXT
  5
A0F
330
A0D
100
AcDbEntity
  8
0
100
AcDbMText
 10
402.3592953827349
 20
276.108542987227
 30
0.0
 40
2.5
 41
43.07840397728298
 71
     9
 72
     5
  1
(文書番号：TY-34)2008.02.08
 73
     1
 44
1.0
1001
ACAD
1000
MTEXTBEGIN
1070
    73
1070
     1
1070
    44
1040
1.0
1070
    74
1070
     0
1000
MTEXTEND
  0
LINE
  5
A10
330
A0D
100
AcDbEntity
  8
0
100
AcDbLine
 10
359.0
 20
275.0
 30
0.0
 11
403.0
 21
275.0
 31
0.0
  0
TEXT
  5
A11
330
A0D
100
AcDbEntity
  8
0
 60
     1
100
AcDbText
 10
403.0
 20
0.0
 30
0.0
 40
2.5
  1
!GENTITLE-INSERT
100
AcDbText
  0
TEXT
  5
A12
330
A0D
100
AcDbEntity
  8
0
 60
     1
100
AcDbText
 10
0.0
 20
0.0
 30
0.0
 40
2.5
  1
!GENTITLE-LL
100
AcDbText
  0
TEXT
  5
A13
330
A0D
100
AcDbEntity
  8
0
 60
     1
100
AcDbText
 10
403.0
 20
280.0
 30
0.0
 40
2.5
  1
!GENTITLE-MAX
100
AcDbText
  0
LWPOLYLINE
  5
A14
330
A0D
100
AcDbEntity
  8
0
100
AcDbPolyline
 90
        4
 70
     1
 43
0.0
 10
0.0
 20
0.0
 10
403.0
 20
0.0
 10
403.0
 20
280.0
 10
0.0
 20
280.0000000000001
1001
GENIUS_GENREC_14
1002
{
1000
PYDIR
1011
0.0000000000000178
1021
280.0
1031
0.0
1002
}
1002
{
1000
PXDIR
1011
403.0
1021
0.0
1031
0.0
1002
}
1002
{
1000
PORI
1011
0.0
1021
0.0
1031
0.0
1002
}
1002
{
1000
PINS
1011
0.0
1021
0.0
1031
0.0
1002
}
1002
{
1000
PINS2
1011
403.0
1021
280.0
1031
0.0
1002
}
1002
{
1000
C
1070
     1
1002
}
1001
GENIUS_GENODEF_13
1002
{
1000
HIER
1070
     0
1002
}
1002
{
1000
MANEDIT
1070
     0
1002
}
1002
{
1000
NOSEL
1070
     0
1002
}
1002
{
1000
BEHIND
1070
     0
1002
}
1002
{
1000
OTHER
1070
     0
1002
}
1002
{
1000
REACTOR
1002
}
1001
GENIUS_GENOBJ-N-REC_13
1002
{
1000
OWNER
1000
GEN
1002
}
  0
ENDBLK
  5
A17
330
A0D
100
AcDbEntity
  8
0
100
AcDbBlockEnd
  0
BLOCK
  5
A7A
330
A20
100
AcDbEntity
  8
0
100
AcDbBlockBegin
  2
TAKACHI-TITLEA3
 70
     2
 10
0.0
 20
0.0
 30
0.0
  3
TAKACHI-TITLEA3
  1

  0
LINE
  5
A21
330
A20
100
AcDbEntity
  8
0
100
AcDbLine
 10
-167.0
 20
12.49999999999996
 30
0.0
 11
-193.0000000000001
 21
12.49999999999996
 31
0.0
  0
LINE
  5
A22
330
A20
100
AcDbEntity
  8
0
100
AcDbLine
 10
-167.0
 20
37.49999999999998
 30
0.0
 11
-193.0000000000001
 21
37.49999999999998
 31
0.0
  0
ATTDEF
  5
A23
330
A20
100
AcDbEntity
  8
0
100
AcDbText
 10
-180.2171951662138
 20
3.588342537610664
 30
0.0
 40
3.0
  1

 72
     1
 11
-180.2171951662138
 21
3.588342537610664
 31
0.0
100
AcDbAttributeDefinition
  3
日付
  2
GEN-TITLE-DAT
 70
     0
 74
     1
  0
MTEXT
  5
A24
330
A20
100
AcDbEntity
  8
RAHM2
100
AcDbMText
 10
-191.8002551371315
 20
11.3010354072796
 30
0.0
 40
2.5
 41
60.0
 71
     1
 72
     5
  1
日付
 73
     1
 44
1.0
1001
ACAD
1000
MTEXTBEGIN
1070
    73
1070
     1
1070
    44
1040
1.0
1070
    74
1070
     0
1000
MTEXTEND
  0
ATTDEF
  5
A25
330
A20
100
AcDbEntity
  8
0
100
AcDbText
 10
-177.824739614424
 20
28.29999999999998
 30
0.0
 40
3.0
  1

 72
     2
 11
-177.824739614424
 21
28.29999999999998
 31
0.0
100
AcDbAttributeDefinition
  3
尺度
  2
GEN-TITLE-SCA
 70
     0
 74
     1
  0
MTEXT
  5
A26
330
A20
100
AcDbEntity
  8
RAHM2
100
AcDbMText
 10
-191.8002551371315
 20
36.30103540727966
 30
0.0
 40
2.5
 41
20.0
 71
     1
 72
     5
  1
尺度
 73
     1
 44
1.0
1001
ACAD
1000
MTEXTBEGIN
1070
    73
1070
     1
1070
    44
1040
1.0
1070
    74
1070
     0
1000
MTEXTEND
  0
MTEXT
  5
A27
330
A20
100
AcDbEntity
  8
RAHM2
100
AcDbMText
 10
-191.8002551371315
 20
23.80103540727963
 30
0.0
 40
2.5
 41
20.0
 71
     1
 72
     5
  1
数量
 73
     1
 44
1.0
1001
ACAD
1000
MTEXTBEGIN
1070
    73
1070
     1
1070
    44
1040
1.0
1070
    74
1070
     0
1000
MTEXTEND
  0
ATTDEF
  5
A28
330
A20
100
AcDbEntity
  8
0
100
AcDbText
 10
-175.6127409126095
 20
15.79999999999994
 30
0.0
 40
3.0
  1

 72
     2
 11
-175.6127409126095
 21
15.79999999999994
 31
0.0
100
AcDbAttributeDefinition
  3
数量
  2
GEN-TITLE-QTY
 70
     0
 74
     1
  0
LINE
  5
A29
330
A20
100
AcDbEntity
  8
0
100
AcDbLine
 10
-193.0000000000001
 20
49.99999999999999
 30
0.0
 11
-193.0000000000001
 21
-0.0000000000000142
 31
0.0
  0
LINE
  5
A2A
330
A20
100
AcDbEntity
  8
7A
100
AcDbLine
 10
-184.7167418745796
 20
43.74999999999995
 30
0.0
 11
-170.9354334742943
 21
43.74999999999995
 31
0.0
1001
GENIUS_GENOREF_13
1005
A78
  0
LINE
  5
A2B
330
A20
100
AcDbEntity
  8
0
100
AcDbLine
 10
-179.7167418745796
 20
45.74999999999994
 30
0.0
 11
-171.7167418745796
 21
46.74999999999995
 31
0.0
  0
LINE
  5
A2C
330
A20
100
AcDbEntity
  8
0
100
AcDbLine
 10
-171.7167418745796
 20
40.74999999999994
 30
0.0
 11
-179.7167418745796
 21
41.74999999999995
 31
0.0
  0
LINE
  5
A2D
330
A20
100
AcDbEntity
  8
7A
100
AcDbLine
 10
-184.7167418745796
 20
43.74999999999995
 30
0.0
 11
-184.7167418745796
 21
47.32478664473144
 31
0.0
1001
GENIUS_GENOREF_13
1005
A78
  0
CIRCLE
  5
A2E
330
A20
100
AcDbEntity
  8
0
100
AcDbCircle
 10
-184.7167418745796
 20
43.74999999999995
 30
0.0
 40
2.0
  0
CIRCLE
  5
A2F
330
A20
100
AcDbEntity
  8
0
100
AcDbCircle
 10
-184.7167418745796
 20
43.74999999999995
 30
0.0
 40
3.0
  0
LINE
  5
A30
330
A20
100
AcDbEntity
  8
0
100
AcDbLine
 10
-179.7167418745796
 20
41.74999999999995
 30
0.0
 11
-179.7167418745796
 21
45.74999999999994
 31
0.0
  0
LINE
  5
A31
330
A20
100
AcDbEntity
  8
7A
100
AcDbLine
 10
-184.7167418745796
 20
43.74999999999995
 30
0.0
 11
-188.4397792458307
 21
43.74999999999995
 31
0.0
1001
GENIUS_GENOREF_13
1005
A78
  0
LINE
  5
A32
330
A20
100
AcDbEntity
  8
7A
100
AcDbLine
 10
-184.7167418745796
 20
43.74999999999995
 30
0.0
 11
-184.7167418745796
 21
40.03991724228473
 31
0.0
1001
GENIUS_GENOREF_13
1005
A78
  0
LINE
  5
A33
330
A20
100
AcDbEntity
  8
0
100
AcDbLine
 10
-171.7167418745796
 20
46.74999999999995
 30
0.0
 11
-171.7167418745796
 21
40.74999999999994
 31
0.0
  0
LINE
  5
A34
330
A20
100
AcDbEntity
  8
0
100
AcDbLine
 10
-167.0
 20
24.99999999999997
 30
0.0
 11
-193.0000000000001
 21
24.99999999999997
 31
0.0
  0
LINE
  5
A35
330
A20
100
AcDbEntity
  8
0
100
AcDbLine
 10
-167.0
 20
39.99999999999991
 30
0.0
 11
-96.0
 21
39.99999999999992
 31
0.0
  0
MTEXT
  5
A36
330
A20
100
AcDbEntity
  8
RAHM2
100
AcDbMText
 10
-165.8002551371314
 20
38.80103540727956
 30
0.0
 40
2.5
 41
60.0
 71
     1
 72
     5
  1
表面処理
 73
     1
 44
1.0
1001
ACAD
1000
MTEXTBEGIN
1070
    73
1070
     1
1070
    44
1040
1.0
1070
    74
1070
     0
1000
MTEXTEND
  0
MTEXT
  5
A37
330
A20
100
AcDbEntity
  8
RAHM2
100
AcDbMText
 10
-165.8002551371314
 20
48.80103540727955
 30
0.0
 40
2.5
 41
60.0
 71
     1
 72
     5
  1
材質
 73
     1
 44
1.0
1001
ACAD
1000
MTEXTBEGIN
1070
    73
1070
     1
1070
    44
1040
1.0
1070
    74
1070
     0
1000
MTEXTEND
  0
ATTDEF
  5
A38
330
A20
100
AcDbEntity
  8
0
100
AcDbText
 10
-148.9618675835291
 20
33.29999999999991
 30
0.0
 40
3.0
  1

100
AcDbAttributeDefinition
  3
表面処理
  2
GEN-TITLE-MAT2
 70
     0
  0
ATTDEF
  5
A39
330
A20
100
AcDbEntity
  8
0
100
AcDbText
 10
-148.9618675835291
 20
43.29999999999991
 30
0.0
 40
3.0
  1

100
AcDbAttributeDefinition
  3
材質
  2
GEN-TITLE-MAT1
 70
     0
  0
MTEXT
  5
A3A
330
A20
100
AcDbEntity
  8
0
100
AcDbMText
 10
-131.5000000000001
 20
24.99999999999992
 30
0.0
 40
3.5
 41
60.0
 71
     5
 72
     5
  1
\fＭＳ ゴシック|b0|i0|c128|p49;株式会社タカチ電機工業
 73
     1
 44
1.0
1001
ACAD
1000
MTEXTBEGIN
1070
    73
1070
     1
1070
    44
1040
1.0
1070
    74
1070
     0
1000
MTEXTEND
  0
LINE
  5
A3B
330
A20
100
AcDbEntity
  8
0
100
AcDbLine
 10
-167.0
 20
29.99999999999992
 30
0.0
 11
-96.0
 21
29.99999999999992
 31
0.0
  0
MTEXT
  5
A3C
330
A20
100
AcDbEntity
  8
RAHM2
100
AcDbMText
 10
-158.1250000000001
 20
18.80103540727956
 30
0.0
 40
2.5
 41
17.0
 71
     2
 72
     5
  1
承認
 73
     1
 44
1.0
1001
ACAD
1000
MTEXTBEGIN
1070
    73
1070
     1
1070
    44
1040
1.0
1070
    74
1070
     0
1000
MTEXTEND
  0
MTEXT
  5
A3D
330
A20
100
AcDbEntity
  8
RAHM2
100
AcDbMText
 10
-140.3750000000001
 20
18.80103540727958
 30
0.0
 40
2.5
 41
17.0
 71
     2
 72
     5
  1
承認
 73
     1
 44
1.0
1001
ACAD
1000
MTEXTBEGIN
1070
    73
1070
     1
1070
    44
1040
1.0
1070
    74
1070
     0
1000
MTEXTEND
  0
LINE
  5
A3E
330
A20
100
AcDbEntity
  8
0
100
AcDbLine
 10
-149.2500000000001
 20
19.99999999999993
 30
0.0
 11
-149.2500000000001
 21
-0.0000000000000462
 31
0.0
  0
LINE
  5
A3F
330
A20
100
AcDbEntity
  8
0
100
AcDbLine
 10
-167.0
 20
49.99999999999995
 30
0.0
 11
-167.0
 21
-0.0000000000000497
 31
0.0
  0
MTEXT
  5
A40
330
A20
100
AcDbEntity
  8
RAHM2
100
AcDbMText
 10
-122.6250000000001
 20
18.80103540727958
 30
0.0
 40
2.5
 41
17.0
 71
     2
 72
     5
  1
検図
 73
     1
 44
1.0
1001
ACAD
1000
MTEXTBEGIN
1070
    73
1070
     1
1070
    44
1040
1.0
1070
    74
1070
     0
1000
MTEXTEND
  0
LINE
  5
A41
330
A20
100
AcDbEntity
  8
0
100
AcDbLine
 10
-131.5000000000001
 20
19.99999999999993
 30
0.0
 11
-131.5000000000001
 21
-0.0000000000000533
 31
0.0
  0
LINE
  5
A42
330
A20
100
AcDbEntity
  8
0
100
AcDbLine
 10
-113.75
 20
19.99999999999993
 30
0.0
 11
-113.75
 21
-0.0000000000000533
 31
0.0
  0
LINE
  5
A43
330
A20
100
AcDbEntity
  8
0
100
AcDbLine
 10
-167.0
 20
19.99999999999993
 30
0.0
 11
-96.0
 21
19.99999999999993
 31
0.0
  0
MTEXT
  5
A44
330
A20
100
AcDbEntity
  8
RAHM2
100
AcDbMText
 10
-104.875
 20
18.80103540727957
 30
0.0
 40
2.5
 41
17.0
 71
     2
 72
     5
  1
製図
 73
     1
 44
1.0
1001
ACAD
1000
MTEXTBEGIN
1070
    73
1070
     1
1070
    44
1040
1.0
1070
    74
1070
     0
1000
MTEXTEND
  0
MTEXT
  5
A45
330
A20
100
AcDbEntity
  8
RAHM2
100
AcDbMText
 10
-16.85742592933491
 20
3.434762466565985
 30
0.0
 40
2.5
 41
7.936478436748416
 71
     5
 72
     5
  1
Rev.
 73
     1
 44
1.0
1001
ACAD
1000
MTEXTBEGIN
1070
    73
1070
     1
1070
    44
1040
1.0
1070
    74
1070
     0
1000
MTEXTEND
  0
LINE
  5
A46
330
A20
100
AcDbEntity
  8
0
100
AcDbLine
 10
-21.17541926625711
 20
0.0
 30
0.0
 11
-21.17541926625734
 21
7.0
 31
0.0
  0
LINE
  5
A47
330
A20
100
AcDbEntity
  8
RAHM2
100
AcDbLine
 10
-96.0
 20
29.99999999999992
 30
0.0
 11
0.0000000000001137
 21
30.00000000000003
 31
0.0
  0
LINE
  5
A48
330
A20
100
AcDbEntity
  8
RAHM2
100
AcDbLine
 10
-96.0
 20
35.00000000000003
 30
0.0
 11
0.0000000000001137
 21
35.00000000000003
 31
0.0
  0
LINE
  5
A49
330
A20
100
AcDbEntity
  8
RAHM2
100
AcDbLine
 10
-96.0
 20
39.99999999999993
 30
0.0
 11
0.0000000000001137
 21
40.00000000000002
 31
0.0
  0
LINE
  5
A4A
330
A20
100
AcDbEntity
  8
RAHM2
100
AcDbLine
 10
-96.0
 20
45.00000000000002
 30
0.0
 11
0.0000000000001137
 21
45.00000000000002
 31
0.0
  0
LINE
  5
A4B
330
A20
100
AcDbEntity
  8
0
100
AcDbLine
 10
-96.0
 20
7.0
 30
0.0
 11
0.0000000000001137
 21
7.0
 31
0.0
  0
LINE
  5
A4C
330
A20
100
AcDbEntity
  8
0
100
AcDbLine
 10
-96.0
 20
19.99999999999997
 30
0.0
 11
0.0000000000001137
 21
19.99999999999997
 31
0.0
  0
MTEXT
  5
A4D
330
A20
100
AcDbEntity
  8
RAHM2
100
AcDbMText
 10
-94.80025513713144
 20
5.801035407279627
 30
0.0
 40
2.5
 41
90.0
 71
     1
 72
     5
  1
図番
 73
     1
 44
1.0
1001
ACAD
1000
MTEXTBEGIN
1070
    73
1070
     1
1070
    44
1040
1.0
1070
    74
1070
     0
1000
MTEXTEND
  0
LINE
  5
A4E
330
A20
100
AcDbEntity
  8
RAHM2
100
AcDbLine
 10
-88.57512886940355
 20
30.40000000000002
 30
0.0
 11
-91.0
 21
34.60000000000001
 31
0.0
  0
LINE
  5
A4F
330
A20
100
AcDbEntity
  8
RAHM2
100
AcDbLine
 10
-91.0
 20
34.60000000000001
 30
0.0
 11
-93.42487113059645
 21
30.40000000000002
 31
0.0
  0
LINE
  5
A50
330
A20
100
AcDbEntity
  8
RAHM2
100
AcDbLine
 10
-86.0
 20
50.00000000000001
 30
0.0
 11
-86.0
 21
19.99999999999993
 31
0.0
  0
LINE
  5
A51
330
A20
100
AcDbEntity
  8
RAHM2
100
AcDbLine
 10
-93.42487113059645
 20
30.40000000000002
 30
0.0
 11
-88.57512886940355
 21
30.40000000000002
 31
0.0
  0
MTEXT
  5
A52
330
A20
100
AcDbEntity
  8
RAHM2
100
AcDbMText
 10
-91.0
 20
22.49999999999996
 30
0.0
 40
2.5
 41
10.0
 71
     5
 72
     5
  1
符号
 73
     1
 44
1.0
1001
ACAD
1000
MTEXTBEGIN
1070
    73
1070
     1
1070
    44
1040
1.0
1070
    74
1070
     0
1000
MTEXTEND
  0
MTEXT
  5
A53
330
A20
100
AcDbEntity
  8
RAHM2
100
AcDbMText
 10
-94.80025513713144
 20
18.8010354072796
 30
0.0
 40
2.5
 41
90.0
 71
     1
 72
     5
  1
品名
 73
     1
 44
1.0
1001
ACAD
1000
MTEXTBEGIN
1070
    73
1070
     1
1070
    44
1040
1.0
1070
    74
1070
     0
1000
MTEXTEND
  0
LINE
  5
A54
330
A20
100
AcDbEntity
  8
RAHM2
100
AcDbLine
 10
-93.42487113059645
 20
45.40000000000001
 30
0.0
 11
-88.57512886940355
 21
45.40000000000001
 31
0.0
  0
LINE
  5
A55
330
A20
100
AcDbEntity
  8
RAHM2
100
AcDbLine
 10
-88.57512886940355
 20
45.40000000000001
 30
0.0
 11
-91.0
 21
49.6
 31
0.0
  0
LINE
  5
A56
330
A20
100
AcDbEntity
  8
RAHM2
100
AcDbLine
 10
-93.42487113059645
 20
40.40000000000001
 30
0.0
 11
-88.57512886940355
 21
40.40000000000001
 31
0.0
  0
LINE
  5
A57
330
A20
100
AcDbEntity
  8
RAHM2
100
AcDbLine
 10
-88.57512886940355
 20
40.40000000000001
 30
0.0
 11
-91.0
 21
44.6
 31
0.0
  0
LINE
  5
A58
330
A20
100
AcDbEntity
  8
RAHM2
100
AcDbLine
 10
-93.42487113059645
 20
35.40000000000002
 30
0.0
 11
-88.57512886940355
 21
35.40000000000002
 31
0.0
  0
LINE
  5
A59
330
A20
100
AcDbEntity
  8
RAHM2
100
AcDbLine
 10
-88.57512886940355
 20
35.40000000000002
 30
0.0
 11
-91.0
 21
39.60000000000001
 31
0.0
  0
LINE
  5
A5A
330
A20
100
AcDbEntity
  8
RAHM2
100
AcDbLine
 10
-91.0
 20
39.60000000000001
 30
0.0
 11
-93.42487113059645
 21
35.40000000000002
 31
0.0
  0
LINE
  5
A5B
330
A20
100
AcDbEntity
  8
RAHM2
100
AcDbLine
 10
-91.0
 20
44.6
 30
0.0
 11
-93.42487113059645
 21
40.40000000000001
 31
0.0
  0
LINE
  5
A5C
330
A20
100
AcDbEntity
  8
RAHM2
100
AcDbLine
 10
-91.0
 20
49.6
 30
0.0
 11
-93.42487113059645
 21
45.40000000000001
 31
0.0
  0
LINE
  5
A5D
330
A20
100
AcDbEntity
  8
RAHM2
100
AcDbLine
 10
-31.82081941068907
 20
50.00000000000003
 30
0.0
 11
-31.82081941068918
 21
19.99999999999994
 31
0.0
  0
MTEXT
  5
A5E
330
A20
100
AcDbEntity
  8
RAHM2
100
AcDbMText
 10
-59.0
 20
22.49999999999996
 30
0.0
 40
2.5
 41
45.0
 71
     5
 72
     5
  1
変更記事
 73
     1
 44
1.0
1001
ACAD
1000
MTEXTBEGIN
1070
    73
1070
     1
1070
    44
1040
1.0
1070
    74
1070
     0
1000
MTEXTEND
  0
LINE
  5
A5F
330
A20
100
AcDbEntity
  8
RAHM2
100
AcDbLine
 10
-11.82081941068907
 20
50.00000000000003
 30
0.0
 11
-11.82081941068907
 21
19.99999999999994
 31
0.0
  0
MTEXT
  5
A60
330
A20
100
AcDbEntity
  8
RAHM2
100
AcDbMText
 10
-22.27910888308327
 20
32.50000000000003
 30
0.0
 40
2.5
 41
20.0
 71
     5
 72
     5
  1
・  ・   
 73
     1
 44
1.0
1001
ACAD
1000
MTEXTBEGIN
1070
    73
1070
     1
1070
    44
1040
1.0
1070
    74
1070
     0
1000
MTEXTEND
  0
MTEXT
  5
A61
330
A20
100
AcDbEntity
  8
RAHM2
100
AcDbMText
 10
-21.55893921569111
 20
22.49999999999997
 30
0.0
 40
2.5
 41
20.0
 71
     5
 72
     5
  1
年・月・日
 73
     1
 44
1.0
1001
ACAD
1000
MTEXTBEGIN
1070
    73
1070
     1
1070
    44
1040
1.0
1070
    74
1070
     0
1000
MTEXTEND
  0
MTEXT
  5
A62
330
A20
100
AcDbEntity
  8
RAHM2
100
AcDbMText
 10
-5.910409705344477
 20
22.49999999999997
 30
0.0
 40
2.5
 41
15.0
 71
     5
 72
     5
  1
担当
 73
     1
 44
1.0
1001
ACAD
1000
MTEXTBEGIN
1070
    73
1070
     1
1070
    44
1040
1.0
1070
    74
1070
     0
1000
MTEXTEND
  0
MTEXT
  5
A63
330
A20
100
AcDbEntity
  8
RAHM2
100
AcDbMText
 10
-22.27910888308327
 20
42.50000000000002
 30
0.0
 40
2.5
 41
20.0
 71
     5
 72
     5
  1
・  ・   
 73
     1
 44
1.0
1001
ACAD
1000
MTEXTBEGIN
1070
    73
1070
     1
1070
    44
1040
1.0
1070
    74
1070
     0
1000
MTEXTEND
  0
MTEXT
  5
A64
330
A20
100
AcDbEntity
  8
RAHM2
100
AcDbMText
 10
-22.27910888308327
 20
37.50000000000003
 30
0.0
 40
2.5
 41
20.0
 71
     5
 72
     5
  1
・  ・   
 73
     1
 44
1.0
1001
ACAD
1000
MTEXTBEGIN
1070
    73
1070
     1
1070
    44
1040
1.0
1070
    74
1070
     0
1000
MTEXTEND
  0
MTEXT
  5
A65
330
A20
100
AcDbEntity
  8
RAHM2
100
AcDbMText
 10
-22.27910888308327
 20
47.50000000000002
 30
0.0
 40
2.5
 41
20.0
 71
     5
 72
     5
  1
・  ・   
 73
     1
 44
1.0
1001
ACAD
1000
MTEXTBEGIN
1070
    73
1070
     1
1070
    44
1040
1.0
1070
    74
1070
     0
1000
MTEXTEND
  0
LINE
  5
A66
330
A20
100
AcDbEntity
  8
RAHM2
100
AcDbLine
 10
-91.0
 20
29.60000000000001
 30
0.0
 11
-93.42487113059645
 21
25.40000000000002
 31
0.0
  0
LINE
  5
A67
330
A20
100
AcDbEntity
  8
RAHM2
100
AcDbLine
 10
-88.57512886940355
 20
25.40000000000002
 30
0.0
 11
-91.0
 21
29.60000000000001
 31
0.0
  0
LINE
  5
A68
330
A20
100
AcDbEntity
  8
RAHM2
100
AcDbLine
 10
-93.42487113059645
 20
25.40000000000002
 30
0.0
 11
-88.57512886940355
 21
25.40000000000002
 31
0.0
  0
LINE
  5
A69
330
A20
100
AcDbEntity
  8
RAHM2
100
AcDbLine
 10
-96.0
 20
25.0
 30
0.0
 11
0.0000000000001137
 21
25.00000000000003
 31
0.0
  0
MTEXT
  5
A6A
330
A20
100
AcDbEntity
  8
RAHM2
100
AcDbMText
 10
-22.27910888308327
 20
27.50000000000003
 30
0.0
 40
2.5
 41
20.0
 71
     5
 72
     5
  1
・  ・   
 73
     1
 44
1.0
1001
ACAD
1000
MTEXTBEGIN
1070
    73
1070
     1
1070
    44
1040
1.0
1070
    74
1070
     0
1000
MTEXTEND
  0
TEXT
  5
A6B
330
A20
100
AcDbEntity
  8
RAHM2
100
AcDbText
 10
-91.81558635658019
 20
25.65000000000002
 30
0.0
 40
2.5
  1
1
 72
     1
 11
-91.19058635658019
 21
25.65000000000002
 31
0.0
100
AcDbText
 73
     1
  0
TEXT
  5
A6C
330
A20
100
AcDbEntity
  8
RAHM2
100
AcDbText
 10
-91.91833169291339
 20
30.65000000000002
 30
0.0
 40
2.5
  1
2
 72
     1
 11
-91.0
 21
30.65000000000002
 31
0.0
100
AcDbText
 73
     1
  0
TEXT
  5
A6D
330
A20
100
AcDbEntity
  8
RAHM2
100
AcDbText
 10
-91.92677669529663
 20
35.64999999999999
 30
0.0
 40
2.5
  1
3
 72
     1
 11
-91.0
 21
35.64999999999999
 31
0.0
100
AcDbText
 73
     1
  0
TEXT
  5
A6E
330
A20
100
AcDbEntity
  8
RAHM2
100
AcDbText
 10
-92.0
 20
40.65000000000002
 30
0.0
 40
2.5
  1
4
 72
     1
 11
-91.0
 21
40.65000000000002
 31
0.0
100
AcDbText
 73
     1
  0
TEXT
  5
A6F
330
A20
100
AcDbEntity
  8
RAHM2
100
AcDbText
 10
-91.92677669529663
 20
45.65000000000002
 30
0.0
 40
2.5
  1
5
 72
     1
 11
-91.0
 21
45.65000000000002
 31
0.0
100
AcDbText
 73
     1
  0
LINE
  5
A70
330
A20
100
AcDbEntity
  8
0
100
AcDbLine
 10
-193.0000000000001
 20
0.0
 30
0.0
 11
0.0
 21
0.0
 31
0.0
1001
GENIUS_GENREC_14
1002
{
1000
PYDIR
1011
-184.0
1021
50.0
1031
0.0
1002
}
1002
{
1000
PXDIR
1011
0.0
1021
0.0
1031
0.0
1002
}
1002
{
1000
PORI
1011
-184.0
1021
0.0
1031
0.0
1002
}
1002
{
1000
PINS
1011
-100.5
1021
25.0
1031
0.0
1002
}
1002
{
1000
HVAL
1000
50
1002
}
1002
{
1000
H
1070
     2
1002
}
1002
{
1000
WVAL
1000
167
1002
}
1002
{
1000
W
1070
     2
1002
}
1002
{
1000
C
1070
     4
1002
}
1001
GENIUS_GENODEF_13
1002
{
1000
HIER
1070
     0
1002
}
1002
{
1000
MANEDIT
1070
     0
1002
}
1002
{
1000
NOSEL
1070
     0
1002
}
1002
{
1000
BEHIND
1070
     0
1002
}
1002
{
1000
REACTOR
1002
}
1001
GENIUS_GENOBJ-N-REC_13
1002
{
1000
OWNER
1000
GEN
1002
}
  0
LINE
  5
A71
330
A20
100
AcDbEntity
  8
0
100
AcDbLine
 10
0.0
 20
50.0
 30
0.0
 11
-193.0000000000001
 21
50.00000000000002
 31
0.0
1001
GENIUS_GENREC_14
1002
{
1000
PYDIR
1011
-184.0
1021
50.0
1031
0.0
1002
}
1002
{
1000
PXDIR
1011
0.0
1021
0.0
1031
0.0
1002
}
1002
{
1000
PORI
1011
-184.0
1021
0.0
1031
0.0
1002
}
1002
{
1000
PINS
1011
-100.5
1021
25.0
1031
0.0
1002
}
1002
{
1000
HVAL
1000
50
1002
}
1002
{
1000
H
1070
     2
1002
}
1002
{
1000
WVAL
1000
167
1002
}
1002
{
1000
W
1070
     2
1002
}
1002
{
1000
C
1070
     4
1002
}
1001
GENIUS_GENODEF_13
1002
{
1000
HIER
1070
     0
1002
}
1002
{
1000
MANEDIT
1070
     0
1002
}
1002
{
1000
NOSEL
1070
     0
1002
}
1002
{
1000
BEHIND
1070
     0
1002
}
1002
{
1000
REACTOR
1002
}
1001
GENIUS_GENOBJ-N-REC_13
1002
{
1000
OWNER
1000
GEN
1002
}
  0
LINE
  5
A72
330
A20
100
AcDbEntity
  8
0
100
AcDbLine
 10
-96.0
 20
50.00000000000001
 30
0.0
 11
-96.0
 21
-0.0000000000000142
 31
0.0
1001
GENIUS_GENREC_14
1002
{
1000
PYDIR
1011
-96.0
1021
49.99999999999999
1031
0.0
1002
}
1002
{
1000
PXDIR
1011
88.0
1021
-0.0000000000000142
1031
0.0
1002
}
1002
{
1000
PORI
1011
-96.0
1021
-0.0000000000000142
1031
0.0
1002
}
1002
{
1000
PINS
1011
-12.5
1021
24.99999999999999
1031
0.0
1002
}
1002
{
1000
HVAL
1000
50
1002
}
1002
{
1000
H
1070
     2
1002
}
1002
{
1000
WVAL
1000
167
1002
}
1002
{
1000
W
1070
     2
1002
}
1002
{
1000
C
1070
     4
1002
}
1001
GENIUS_GENODEF_13
1002
{
1000
HIER
1070
     0
1002
}
1002
{
1000
MANEDIT
1070
     0
1002
}
1002
{
1000
NOSEL
1070
     0
1002
}
1002
{
1000
BEHIND
1070
     0
1002
}
1002
{
1000
REACTOR
1002
}
1001
GENIUS_GENOBJ-N-REC_13
1002
{
1000
OWNER
1000
GEN
1002
}
  0
ATTDEF
  5
A73
330
A20
100
AcDbEntity
  8
0
100
AcDbText
 10
-84.0
 20
1.999999999999957
 30
0.0
 40
3.0
  1

100
AcDbAttributeDefinition
  3
図番
  2
GEN-TITLE-NR1
 70
     0
  0
ATTDEF
  5
A74
330
A20
100
AcDbEntity
  8
0
100
AcDbText
 10
-84.0
 20
9.149999999999948
 30
0.0
 40
2.5
  1

100
AcDbAttributeDefinition
  3
サブタイトル
  2
GEN-TITLE-DES2
 70
     0
  0
LINE
  5
A75
330
A20
100
AcDbEntity
  8
0
100
AcDbLine
 10
0.0
 20
0.0
 30
0.0
 11
0.0
 21
50.0
 31
0.0
1001
GENIUS_GENREC_14
1002
{
1000
PYDIR
1011
-414.0
1021
291.0
1031
0.0
1002
}
1002
{
1000
PXDIR
1011
6.0
1021
-6.0
1031
0.0
1002
}
1002
{
1000
PORI
1011
-414.0
1021
-6.0
1031
0.0
1002
}
1002
{
1000
PINS
1011
-414.0
1021
-6.0
1031
0.0
1002
}
1002
{
1000
HVAL
1000
297
1002
}
1002
{
1000
H
1070
     2
1002
}
1002
{
1000
WVAL
1000
420
1002
}
1002
{
1000
W
1070
     2
1002
}
1002
{
1000
C
1070
     1
1002
}
1001
GENIUS_GENODEF_13
1002
{
1000
HIER
1070
     0
1002
}
1002
{
1000
MANEDIT
1070
     0
1002
}
1002
{
1000
NOSEL
1070
     0
1002
}
1002
{
1000
BEHIND
1070
     0
1002
}
1002
{
1000
OTHER
1070
     0
1002
}
1002
{
1000
REACTOR
1002
}
1001
GENIUS_GENOBJ-N-REC_13
1002
{
1000
OWNER
1000
GEN
1002
}
  0
ATTDEF
  5
A76
330
A20
100
AcDbEntity
  8
0
100
AcDbText
 10
-84.14251901585329
 20
12.82790432564377
 30
0.0
 40
3.5
  1

100
AcDbAttributeDefinition
  3
品名
  2
GEN-TITLE-DES1
 70
     0
  0
ATTDEF
  5
A77
330
A20
100
AcDbEntity
  8
0
100
AcDbText
 10
-8.002309189545826
 20
1.705189434395036
 30
0.0
 40
2.5
  1

100
AcDbAttributeDefinition
  3
Rev.
  2
GEN-TITLE-NR2
 70
     0
  0
POINT
  5
A78
330
A20
100
AcDbEntity
  8
0
 60
     1
100
AcDbPoint
 10
-418.5355579819675
 20
-138.1104841268254
 30
0.0
1001
GENIUS_GENODEF_13
1002
{
1000
HIER
1070
    10
1002
}
1002
{
1000
MANEDIT
1070
     0
1002
}
1002
{
1000
NOSEL
1070
     0
1002
}
1002
{
1000
BEHIND
1070
     0
1002
}
1002
{
1000
REACTOR
1002
}
1001
GENIUS_GENOBJ-N-CRS_13
1002
{
1000
OWNER
1000
GEN
1002
}
1001
GENIUS_GENOENT_13
1002
{
1000
MYREF
1005
A78
1002
}
1002
{
1000
GRP
1005
0
1002
}
1001
GENIUS_GENOLIS_13
1002
{
1000
ENT
1005
A32
1005
A31
1005
A2D
1005
A2A
1002
}
  0
ENDBLK
  5
A7B
330
A20
100
AcDbEntity
  8
0
100
AcDbBlockEnd
  0
BLOCK
  5
AAA
330
AA1
100
AcDbEntity
  8
0
100
AcDbBlockBegin
  2
TAKACHI-A4-2
 70
     0
 10
0.0
 20
0.0
 30
0.0
  3
TAKACHI-A4-2
  1

  0
LINE
  5
AA2
330
AA1
100
AcDbEntity
  8
0
100
AcDbLine
 10
149.0
 20
275.0
 30
0.0
 11
193.0
 21
275.0
 31
0.0
  0
MTEXT
  5
AA3
330
AA1
100
AcDbEntity
  8
0
100
AcDbMText
 10
192.3592953827349
 20
276.1085429872271
 30
0.0
 40
2.5
 41
43.07840397728298
 71
     9
 72
     5
  1
(文書番号：TY-34)2008.02.08
 73
     1
 44
1.0
1001
ACAD
1000
MTEXTBEGIN
1070
    73
1070
     1
1070
    44
1040
1.0
1070
    74
1070
     0
1000
MTEXTEND
  0
LINE
  5
AA4
330
AA1
100
AcDbEntity
  8
0
100
AcDbLine
 10
149.0
 20
280.0000000000001
 30
0.0
 11
149.0
 21
275.0
 31
0.0
  0
LWPOLYLINE
  5
AA5
330
AA1
100
AcDbEntity
  8
0
100
AcDbPolyline
 90
        4
 70
     1
 43
0.0
 10
0.0
 20
0.0
 10
193.0
 20
0.0
 10
193.0
 20
280.0
 10
0.0
 20
280.0
1001
GENIUS_GENREC_14
1002
{
1000
PYDIR
1011
-8.5
1021
288.5
1031
0.0
1002
}
1002
{
1000
PXDIR
1011
201.5
1021
-8.5
1031
0.0
1002
}
1002
{
1000
PORI
1011
-8.5
1021
-8.5
1031
0.0
1002
}
1002
{
1000
PINS
1011
-8.5
1021
-8.5
1031
0.0
1002
}
1002
{
1000
HVAL
1000
297
1002
}
1002
{
1000
H
1070
     2
1002
}
1002
{
1000
WVAL
1000
210
1002
}
1002
{
1000
W
1070
     2
1002
}
1002
{
1000
C
1070
     1
1002
}
1001
GENIUS_GENOBJ-N-REC_13
1002
{
1000
OWNER
1000
GEN
1002
}
1001
GENIUS_GENODEF_13
1002
{
1000
HIER
1070
     0
1002
}
1002
{
1000
MANEDIT
1070
     0
1002
}
1002
{
1000
NOSEL
1070
     0
1002
}
1002
{
1000
BEHIND
1070
     0
1002
}
1002
{
1000
OTHER
1070
     0
1002
}
1002
{
1000
REACTOR
1002
}
  0
TEXT
  5
AA6
330
AA1
100
AcDbEntity
  8
0
 60
     1
100
AcDbText
 10
193.0
 20
0.0
 30
0.0
 40
2.5
  1
!GENTITLE-INSERT
100
AcDbText
  0
TEXT
  5
AA7
330
AA1
100
AcDbEntity
  8
0
 60
     1
100
AcDbText
 10
193.0
 20
280.0
 30
0.0
 40
2.5
  1
!GENTITLE-MAX
100
AcDbText
  0
TEXT
  5
AA8
330
AA1
100
AcDbEntity
  8
0
 60
     1
100
AcDbText
 10
0.0
 20
0.0
 30
0.0
 40
2.5
  1
!GENTITLE-LL
100
AcDbText
  0
ENDBLK
  5
AAB
330
AA1
100
AcDbEntity
  8
0
100
AcDbBlockEnd
  0
BLOCK
  5
AF2
330
AE9
100
AcDbEntity
  8
0
100
AcDbBlockBegin
  2
TK-A3
 70
     0
 10
0.0
 20
0.0
 30
0.0
  3
TK-A3
  1

  0
LINE
  5
AEA
330
AE9
100
AcDbEntity
  8
0
100
AcDbLine
 10
359.0
 20
280.0
 30
0.0
 11
359.0
 21
275.0
 31
0.0
  0
MTEXT
  5
AEB
330
AE9
100
AcDbEntity
  8
0
100
AcDbMText
 10
402.3592953827349
 20
276.108542987227
 30
0.0
 40
2.5
 41
43.07840397728298
 71
     9
 72
     5
  1
(文書番号：TY-34)2008.02.08
 73
     1
 44
1.0
1001
ACAD
1000
MTEXTBEGIN
1070
    73
1070
     1
1070
    44
1040
1.0
1070
    74
1070
     0
1000
MTEXTEND
  0
LINE
  5
AEC
330
AE9
100
AcDbEntity
  8
0
100
AcDbLine
 10
359.0
 20
275.0
 30
0.0
 11
403.0
 21
275.0
 31
0.0
  0
TEXT
  5
AED
330
AE9
100
AcDbEntity
  8
0
 60
     1
100
AcDbText
 10
403.0
 20
0.0
 30
0.0
 40
2.5
  1
!GENTITLE-INSERT
100
AcDbText
  0
TEXT
  5
AEE
330
AE9
100
AcDbEntity
  8
0
 60
     1
100
AcDbText
 10
0.0
 20
0.0
 30
0.0
 40
2.5
  1
!GENTITLE-LL
100
AcDbText
  0
TEXT
  5
AEF
330
AE9
100
AcDbEntity
  8
0
 60
     1
100
AcDbText
 10
403.0
 20
280.0
 30
0.0
 40
2.5
  1
!GENTITLE-MAX
100
AcDbText
  0
LWPOLYLINE
  5
AF0
330
AE9
100
AcDbEntity
  8
0
100
AcDbPolyline
 90
        4
 70
     1
 43
0.0
 10
0.0
 20
0.0
 10
403.0
 20
0.0
 10
403.0
 20
280.0
 10
0.0
 20
280.0000000000001
1001
GENIUS_GENREC_14
1002
{
1000
PYDIR
1011
0.0000000000000178
1021
280.0
1031
0.0
1002
}
1002
{
1000
PXDIR
1011
403.0
1021
0.0
1031
0.0
1002
}
1002
{
1000
PORI
1011
0.0
1021
0.0
1031
0.0
1002
}
1002
{
1000
PINS
1011
0.0
1021
0.0
1031
0.0
1002
}
1002
{
1000
PINS2
1011
403.0
1021
280.0
1031
0.0
1002
}
1002
{
1000
C
1070
     1
1002
}
1001
GENIUS_GENODEF_13
1002
{
1000
HIER
1070
     0
1002
}
1002
{
1000
MANEDIT
1070
     0
1002
}
1002
{
1000
NOSEL
1070
     0
1002
}
1002
{
1000
BEHIND
1070
     0
1002
}
1002
{
1000
OTHER
1070
     0
1002
}
1002
{
1000
REACTOR
1002
}
1001
GENIUS_GENOBJ-N-REC_13
1002
{
1000
OWNER
1000
GEN
1002
}
  0
ENDBLK
  5
AF3
330
AE9
100
AcDbEntity
  8
0
100
AcDbBlockEnd
  0
BLOCK
  5
B56
330
AFC
100
AcDbEntity
  8
0
100
AcDbBlockBegin
  2
TK-TITLE
 70
     2
 10
0.0
 20
0.0
 30
0.0
  3
TK-TITLE
  1

  0
LINE
  5
AFD
330
AFC
100
AcDbEntity
  8
0
100
AcDbLine
 10
-167.0
 20
12.49999999999996
 30
0.0
 11
-193.0000000000001
 21
12.49999999999996
 31
0.0
  0
LINE
  5
AFE
330
AFC
100
AcDbEntity
  8
0
100
AcDbLine
 10
-167.0
 20
37.49999999999998
 30
0.0
 11
-193.0000000000001
 21
37.49999999999998
 31
0.0
  0
ATTDEF
  5
AFF
330
AFC
100
AcDbEntity
  8
0
100
AcDbText
 10
-180.2171951662138
 20
3.588342537610664
 30
0.0
 40
3.0
  1

 72
     1
 11
-180.2171951662138
 21
3.588342537610664
 31
0.0
100
AcDbAttributeDefinition
  3
日付
  2
GEN-TITLE-DAT
 70
     0
 74
     1
  0
MTEXT
  5
B00
330
AFC
100
AcDbEntity
  8
RAHM2
100
AcDbMText
 10
-191.8002551371315
 20
11.3010354072796
 30
0.0
 40
2.5
 41
60.0
 71
     1
 72
     5
  1
日付
 73
     1
 44
1.0
1001
ACAD
1000
MTEXTBEGIN
1070
    73
1070
     1
1070
    44
1040
1.0
1070
    74
1070
     0
1000
MTEXTEND
  0
ATTDEF
  5
B01
330
AFC
100
AcDbEntity
  8
0
100
AcDbText
 10
-177.824739614424
 20
28.29999999999998
 30
0.0
 40
3.0
  1

 72
     2
 11
-177.824739614424
 21
28.29999999999998
 31
0.0
100
AcDbAttributeDefinition
  3
尺度
  2
GEN-TITLE-SCA
 70
     0
 74
     1
  0
MTEXT
  5
B02
330
AFC
100
AcDbEntity
  8
RAHM2
100
AcDbMText
 10
-191.8002551371315
 20
36.30103540727966
 30
0.0
 40
2.5
 41
20.0
 71
     1
 72
     5
  1
尺度
 73
     1
 44
1.0
1001
ACAD
1000
MTEXTBEGIN
1070
    73
1070
     1
1070
    44
1040
1.0
1070
    74
1070
     0
1000
MTEXTEND
  0
MTEXT
  5
B03
330
AFC
100
AcDbEntity
  8
RAHM2
100
AcDbMText
 10
-191.8002551371315
 20
23.80103540727963
 30
0.0
 40
2.5
 41
20.0
 71
     1
 72
     5
  1
数量
 73
     1
 44
1.0
1001
ACAD
1000
MTEXTBEGIN
1070
    73
1070
     1
1070
    44
1040
1.0
1070
    74
1070
     0
1000
MTEXTEND
  0
ATTDEF
  5
B04
330
AFC
100
AcDbEntity
  8
0
100
AcDbText
 10
-175.6127409126095
 20
15.79999999999994
 30
0.0
 40
3.0
  1

 72
     2
 11
-175.6127409126095
 21
15.79999999999994
 31
0.0
100
AcDbAttributeDefinition
  3
数量
  2
GEN-TITLE-QTY
 70
     0
 74
     1
  0
LINE
  5
B05
330
AFC
100
AcDbEntity
  8
0
100
AcDbLine
 10
-193.0000000000001
 20
49.99999999999999
 30
0.0
 11
-193.0000000000001
 21
-0.0000000000000142
 31
0.0
  0
LINE
  5
B06
330
AFC
100
AcDbEntity
  8
7A
100
AcDbLine
 10
-184.7167418745796
 20
43.74999999999995
 30
0.0
 11
-170.9354334742943
 21
43.74999999999995
 31
0.0
1001
GENIUS_GENOREF_13
1005
B54
  0
LINE
  5
B07
330
AFC
100
AcDbEntity
  8
0
100
AcDbLine
 10
-179.7167418745796
 20
45.74999999999994
 30
0.0
 11
-171.7167418745796
 21
46.74999999999995
 31
0.0
  0
LINE
  5
B08
330
AFC
100
AcDbEntity
  8
0
100
AcDbLine
 10
-171.7167418745796
 20
40.74999999999994
 30
0.0
 11
-179.7167418745796
 21
41.74999999999995
 31
0.0
  0
LINE
  5
B09
330
AFC
100
AcDbEntity
  8
7A
100
AcDbLine
 10
-184.7167418745796
 20
43.74999999999995
 30
0.0
 11
-184.7167418745796
 21
47.32478664473144
 31
0.0
1001
GENIUS_GENOREF_13
1005
B54
  0
CIRCLE
  5
B0A
330
AFC
100
AcDbEntity
  8
0
100
AcDbCircle
 10
-184.7167418745796
 20
43.74999999999995
 30
0.0
 40
2.0
  0
CIRCLE
  5
B0B
330
AFC
100
AcDbEntity
  8
0
100
AcDbCircle
 10
-184.7167418745796
 20
43.74999999999995
 30
0.0
 40
3.0
  0
LINE
  5
B0C
330
AFC
100
AcDbEntity
  8
0
100
AcDbLine
 10
-179.7167418745796
 20
41.74999999999995
 30
0.0
 11
-179.7167418745796
 21
45.74999999999994
 31
0.0
  0
LINE
  5
B0D
330
AFC
100
AcDbEntity
  8
7A
100
AcDbLine
 10
-184.7167418745796
 20
43.74999999999995
 30
0.0
 11
-188.4397792458307
 21
43.74999999999995
 31
0.0
1001
GENIUS_GENOREF_13
1005
B54
  0
LINE
  5
B0E
330
AFC
100
AcDbEntity
  8
7A
100
AcDbLine
 10
-184.7167418745796
 20
43.74999999999995
 30
0.0
 11
-184.7167418745796
 21
40.03991724228473
 31
0.0
1001
GENIUS_GENOREF_13
1005
B54
  0
LINE
  5
B0F
330
AFC
100
AcDbEntity
  8
0
100
AcDbLine
 10
-171.7167418745796
 20
46.74999999999995
 30
0.0
 11
-171.7167418745796
 21
40.74999999999994
 31
0.0
  0
LINE
  5
B10
330
AFC
100
AcDbEntity
  8
0
100
AcDbLine
 10
-167.0
 20
24.99999999999997
 30
0.0
 11
-193.0000000000001
 21
24.99999999999997
 31
0.0
  0
LINE
  5
B11
330
AFC
100
AcDbEntity
  8
0
100
AcDbLine
 10
-167.0
 20
39.99999999999991
 30
0.0
 11
-96.0
 21
39.99999999999992
 31
0.0
  0
MTEXT
  5
B12
330
AFC
100
AcDbEntity
  8
RAHM2
100
AcDbMText
 10
-165.8002551371314
 20
38.80103540727956
 30
0.0
 40
2.5
 41
60.0
 71
     1
 72
     5
  1
表面処理
 73
     1
 44
1.0
1001
ACAD
1000
MTEXTBEGIN
1070
    73
1070
     1
1070
    44
1040
1.0
1070
    74
1070
     0
1000
MTEXTEND
  0
MTEXT
  5
B13
330
AFC
100
AcDbEntity
  8
RAHM2
100
AcDbMText
 10
-165.8002551371314
 20
48.80103540727955
 30
0.0
 40
2.5
 41
60.0
 71
     1
 72
     5
  1
材質
 73
     1
 44
1.0
1001
ACAD
1000
MTEXTBEGIN
1070
    73
1070
     1
1070
    44
1040
1.0
1070
    74
1070
     0
1000
MTEXTEND
  0
ATTDEF
  5
B14
330
AFC
100
AcDbEntity
  8
0
100
AcDbText
 10
-148.9618675835291
 20
33.29999999999991
 30
0.0
 40
3.0
  1

100
AcDbAttributeDefinition
  3
表面処理
  2
GEN-TITLE-MAT2
 70
     0
  0
ATTDEF
  5
B15
330
AFC
100
AcDbEntity
  8
0
100
AcDbText
 10
-148.9618675835291
 20
43.29999999999991
 30
0.0
 40
3.0
  1

100
AcDbAttributeDefinition
  3
材質
  2
GEN-TITLE-MAT1
 70
     0
  0
MTEXT
  5
B16
330
AFC
100
AcDbEntity
  8
0
100
AcDbMText
 10
-131.5000000000001
 20
24.99999999999992
 30
0.0
 40
3.5
 41
60.0
 71
     5
 72
     5
  1
\fＭＳ ゴシック|b0|i0|c128|p49;株式会社タカチ電機工業
 73
     1
 44
1.0
1001
ACAD
1000
MTEXTBEGIN
1070
    73
1070
     1
1070
    44
1040
1.0
1070
    74
1070
     0
1000
MTEXTEND
  0
LINE
  5
B17
330
AFC
100
AcDbEntity
  8
0
100
AcDbLine
 10
-167.0
 20
29.99999999999992
 30
0.0
 11
-96.0
 21
29.99999999999992
 31
0.0
  0
MTEXT
  5
B18
330
AFC
100
AcDbEntity
  8
RAHM2
100
AcDbMText
 10
-158.1250000000001
 20
18.80103540727956
 30
0.0
 40
2.5
 41
17.0
 71
     2
 72
     5
  1
承認
 73
     1
 44
1.0
1001
ACAD
1000
MTEXTBEGIN
1070
    73
1070
     1
1070
    44
1040
1.0
1070
    74
1070
     0
1000
MTEXTEND
  0
MTEXT
  5
B19
330
AFC
100
AcDbEntity
  8
RAHM2
100
AcDbMText
 10
-140.3750000000001
 20
18.80103540727958
 30
0.0
 40
2.5
 41
17.0
 71
     2
 72
     5
  1
承認
 73
     1
 44
1.0
1001
ACAD
1000
MTEXTBEGIN
1070
    73
1070
     1
1070
    44
1040
1.0
1070
    74
1070
     0
1000
MTEXTEND
  0
LINE
  5
B1A
330
AFC
100
AcDbEntity
  8
0
100
AcDbLine
 10
-149.2500000000001
 20
19.99999999999993
 30
0.0
 11
-149.2500000000001
 21
-0.0000000000000462
 31
0.0
  0
LINE
  5
B1B
330
AFC
100
AcDbEntity
  8
0
100
AcDbLine
 10
-167.0
 20
49.99999999999995
 30
0.0
 11
-167.0
 21
-0.0000000000000497
 31
0.0
  0
MTEXT
  5
B1C
330
AFC
100
AcDbEntity
  8
RAHM2
100
AcDbMText
 10
-122.6250000000001
 20
18.80103540727958
 30
0.0
 40
2.5
 41
17.0
 71
     2
 72
     5
  1
検図
 73
     1
 44
1.0
1001
ACAD
1000
MTEXTBEGIN
1070
    73
1070
     1
1070
    44
1040
1.0
1070
    74
1070
     0
1000
MTEXTEND
  0
LINE
  5
B1D
330
AFC
100
AcDbEntity
  8
0
100
AcDbLine
 10
-131.5000000000001
 20
19.99999999999993
 30
0.0
 11
-131.5000000000001
 21
-0.0000000000000533
 31
0.0
  0
LINE
  5
B1E
330
AFC
100
AcDbEntity
  8
0
100
AcDbLine
 10
-113.75
 20
19.99999999999993
 30
0.0
 11
-113.75
 21
-0.0000000000000533
 31
0.0
  0
LINE
  5
B1F
330
AFC
100
AcDbEntity
  8
0
100
AcDbLine
 10
-167.0
 20
19.99999999999993
 30
0.0
 11
-96.0
 21
19.99999999999993
 31
0.0
  0
MTEXT
  5
B20
330
AFC
100
AcDbEntity
  8
RAHM2
100
AcDbMText
 10
-104.875
 20
18.80103540727957
 30
0.0
 40
2.5
 41
17.0
 71
     2
 72
     5
  1
製図
 73
     1
 44
1.0
1001
ACAD
1000
MTEXTBEGIN
1070
    73
1070
     1
1070
    44
1040
1.0
1070
    74
1070
     0
1000
MTEXTEND
  0
MTEXT
  5
B21
330
AFC
100
AcDbEntity
  8
RAHM2
100
AcDbMText
 10
-16.85742592933491
 20
3.434762466565985
 30
0.0
 40
2.5
 41
7.936478436748416
 71
     5
 72
     5
  1
Rev.
 73
     1
 44
1.0
1001
ACAD
1000
MTEXTBEGIN
1070
    73
1070
     1
1070
    44
1040
1.0
1070
    74
1070
     0
1000
MTEXTEND
  0
LINE
  5
B22
330
AFC
100
AcDbEntity
  8
0
100
AcDbLine
 10
-21.17541926625711
 20
0.0
 30
0.0
 11
-21.17541926625734
 21
7.0
 31
0.0
  0
LINE
  5
B23
330
AFC
100
AcDbEntity
  8
RAHM2
100
AcDbLine
 10
-96.0
 20
29.99999999999992
 30
0.0
 11
0.0000000000001137
 21
30.00000000000003
 31
0.0
  0
LINE
  5
B24
330
AFC
100
AcDbEntity
  8
RAHM2
100
AcDbLine
 10
-96.0
 20
35.00000000000003
 30
0.0
 11
0.0000000000001137
 21
35.00000000000003
 31
0.0
  0
LINE
  5
B25
330
AFC
100
AcDbEntity
  8
RAHM2
100
AcDbLine
 10
-96.0
 20
39.99999999999993
 30
0.0
 11
0.0000000000001137
 21
40.00000000000002
 31
0.0
  0
LINE
  5
B26
330
AFC
100
AcDbEntity
  8
RAHM2
100
AcDbLine
 10
-96.0
 20
45.00000000000002
 30
0.0
 11
0.0000000000001137
 21
45.00000000000002
 31
0.0
  0
LINE
  5
B27
330
AFC
100
AcDbEntity
  8
0
100
AcDbLine
 10
-96.0
 20
7.0
 30
0.0
 11
0.0000000000001137
 21
7.0
 31
0.0
  0
LINE
  5
B28
330
AFC
100
AcDbEntity
  8
0
100
AcDbLine
 10
-96.0
 20
19.99999999999997
 30
0.0
 11
0.0000000000001137
 21
19.99999999999997
 31
0.0
  0
MTEXT
  5
B29
330
AFC
100
AcDbEntity
  8
RAHM2
100
AcDbMText
 10
-94.80025513713144
 20
5.801035407279627
 30
0.0
 40
2.5
 41
90.0
 71
     1
 72
     5
  1
図番
 73
     1
 44
1.0
1001
ACAD
1000
MTEXTBEGIN
1070
    73
1070
     1
1070
    44
1040
1.0
1070
    74
1070
     0
1000
MTEXTEND
  0
LINE
  5
B2A
330
AFC
100
AcDbEntity
  8
RAHM2
100
AcDbLine
 10
-88.57512886940355
 20
30.40000000000002
 30
0.0
 11
-91.0
 21
34.60000000000001
 31
0.0
  0
LINE
  5
B2B
330
AFC
100
AcDbEntity
  8
RAHM2
100
AcDbLine
 10
-91.0
 20
34.60000000000001
 30
0.0
 11
-93.42487113059645
 21
30.40000000000002
 31
0.0
  0
LINE
  5
B2C
330
AFC
100
AcDbEntity
  8
RAHM2
100
AcDbLine
 10
-86.0
 20
50.00000000000001
 30
0.0
 11
-86.0
 21
19.99999999999993
 31
0.0
  0
LINE
  5
B2D
330
AFC
100
AcDbEntity
  8
RAHM2
100
AcDbLine
 10
-93.42487113059645
 20
30.40000000000002
 30
0.0
 11
-88.57512886940355
 21
30.40000000000002
 31
0.0
  0
MTEXT
  5
B2E
330
AFC
100
AcDbEntity
  8
RAHM2
100
AcDbMText
 10
-91.0
 20
22.49999999999996
 30
0.0
 40
2.5
 41
10.0
 71
     5
 72
     5
  1
符号
 73
     1
 44
1.0
1001
ACAD
1000
MTEXTBEGIN
1070
    73
1070
     1
1070
    44
1040
1.0
1070
    74
1070
     0
1000
MTEXTEND
  0
MTEXT
  5
B2F
330
AFC
100
AcDbEntity
  8
RAHM2
100
AcDbMText
 10
-94.80025513713144
 20
18.8010354072796
 30
0.0
 40
2.5
 41
90.0
 71
     1
 72
     5
  1
品名
 73
     1
 44
1.0
1001
ACAD
1000
MTEXTBEGIN
1070
    73
1070
     1
1070
    44
1040
1.0
1070
    74
1070
     0
1000
MTEXTEND
  0
LINE
  5
B30
330
AFC
100
AcDbEntity
  8
RAHM2
100
AcDbLine
 10
-93.42487113059645
 20
45.40000000000001
 30
0.0
 11
-88.57512886940355
 21
45.40000000000001
 31
0.0
  0
LINE
  5
B31
330
AFC
100
AcDbEntity
  8
RAHM2
100
AcDbLine
 10
-88.57512886940355
 20
45.40000000000001
 30
0.0
 11
-91.0
 21
49.6
 31
0.0
  0
LINE
  5
B32
330
AFC
100
AcDbEntity
  8
RAHM2
100
AcDbLine
 10
-93.42487113059645
 20
40.40000000000001
 30
0.0
 11
-88.57512886940355
 21
40.40000000000001
 31
0.0
  0
LINE
  5
B33
330
AFC
100
AcDbEntity
  8
RAHM2
100
AcDbLine
 10
-88.57512886940355
 20
40.40000000000001
 30
0.0
 11
-91.0
 21
44.6
 31
0.0
  0
LINE
  5
B34
330
AFC
100
AcDbEntity
  8
RAHM2
100
AcDbLine
 10
-93.42487113059645
 20
35.40000000000002
 30
0.0
 11
-88.57512886940355
 21
35.40000000000002
 31
0.0
  0
LINE
  5
B35
330
AFC
100
AcDbEntity
  8
RAHM2
100
AcDbLine
 10
-88.57512886940355
 20
35.40000000000002
 30
0.0
 11
-91.0
 21
39.60000000000001
 31
0.0
  0
LINE
  5
B36
330
AFC
100
AcDbEntity
  8
RAHM2
100
AcDbLine
 10
-91.0
 20
39.60000000000001
 30
0.0
 11
-93.42487113059645
 21
35.40000000000002
 31
0.0
  0
LINE
  5
B37
330
AFC
100
AcDbEntity
  8
RAHM2
100
AcDbLine
 10
-91.0
 20
44.6
 30
0.0
 11
-93.42487113059645
 21
40.40000000000001
 31
0.0
  0
LINE
  5
B38
330
AFC
100
AcDbEntity
  8
RAHM2
100
AcDbLine
 10
-91.0
 20
49.6
 30
0.0
 11
-93.42487113059645
 21
45.40000000000001
 31
0.0
  0
LINE
  5
B39
330
AFC
100
AcDbEntity
  8
RAHM2
100
AcDbLine
 10
-31.82081941068907
 20
50.00000000000003
 30
0.0
 11
-31.82081941068918
 21
19.99999999999994
 31
0.0
  0
MTEXT
  5
B3A
330
AFC
100
AcDbEntity
  8
RAHM2
100
AcDbMText
 10
-59.0
 20
22.49999999999996
 30
0.0
 40
2.5
 41
45.0
 71
     5
 72
     5
  1
変更記事
 73
     1
 44
1.0
1001
ACAD
1000
MTEXTBEGIN
1070
    73
1070
     1
1070
    44
1040
1.0
1070
    74
1070
     0
1000
MTEXTEND
  0
LINE
  5
B3B
330
AFC
100
AcDbEntity
  8
RAHM2
100
AcDbLine
 10
-11.82081941068907
 20
50.00000000000003
 30
0.0
 11
-11.82081941068907
 21
19.99999999999994
 31
0.0
  0
MTEXT
  5
B3C
330
AFC
100
AcDbEntity
  8
RAHM2
100
AcDbMText
 10
-22.27910888308327
 20
32.50000000000003
 30
0.0
 40
2.5
 41
20.0
 71
     5
 72
     5
  1
・  ・   
 73
     1
 44
1.0
1001
ACAD
1000
MTEXTBEGIN
1070
    73
1070
     1
1070
    44
1040
1.0
1070
    74
1070
     0
1000
MTEXTEND
  0
MTEXT
  5
B3D
330
AFC
100
AcDbEntity
  8
RAHM2
100
AcDbMText
 10
-21.55893921569111
 20
22.49999999999997
 30
0.0
 40
2.5
 41
20.0
 71
     5
 72
     5
  1
年・月・日
 73
     1
 44
1.0
1001
ACAD
1000
MTEXTBEGIN
1070
    73
1070
     1
1070
    44
1040
1.0
1070
    74
1070
     0
1000
MTEXTEND
  0
MTEXT
  5
B3E
330
AFC
100
AcDbEntity
  8
RAHM2
100
AcDbMText
 10
-5.910409705344477
 20
22.49999999999997
 30
0.0
 40
2.5
 41
15.0
 71
     5
 72
     5
  1
担当
 73
     1
 44
1.0
1001
ACAD
1000
MTEXTBEGIN
1070
    73
1070
     1
1070
    44
1040
1.0
1070
    74
1070
     0
1000
MTEXTEND
  0
MTEXT
  5
B3F
330
AFC
100
AcDbEntity
  8
RAHM2
100
AcDbMText
 10
-22.27910888308327
 20
42.50000000000002
 30
0.0
 40
2.5
 41
20.0
 71
     5
 72
     5
  1
・  ・   
 73
     1
 44
1.0
1001
ACAD
1000
MTEXTBEGIN
1070
    73
1070
     1
1070
    44
1040
1.0
1070
    74
1070
     0
1000
MTEXTEND
  0
MTEXT
  5
B40
330
AFC
100
AcDbEntity
  8
RAHM2
100
AcDbMText
 10
-22.27910888308327
 20
37.50000000000003
 30
0.0
 40
2.5
 41
20.0
 71
     5
 72
     5
  1
・  ・   
 73
     1
 44
1.0
1001
ACAD
1000
MTEXTBEGIN
1070
    73
1070
     1
1070
    44
1040
1.0
1070
    74
1070
     0
1000
MTEXTEND
  0
MTEXT
  5
B41
330
AFC
100
AcDbEntity
  8
RAHM2
100
AcDbMText
 10
-22.27910888308327
 20
47.50000000000002
 30
0.0
 40
2.5
 41
20.0
 71
     5
 72
     5
  1
・  ・   
 73
     1
 44
1.0
1001
ACAD
1000
MTEXTBEGIN
1070
    73
1070
     1
1070
    44
1040
1.0
1070
    74
1070
     0
1000
MTEXTEND
  0
LINE
  5
B42
330
AFC
100
AcDbEntity
  8
RAHM2
100
AcDbLine
 10
-91.0
 20
29.60000000000001
 30
0.0
 11
-93.42487113059645
 21
25.40000000000002
 31
0.0
  0
LINE
  5
B43
330
AFC
100
AcDbEntity
  8
RAHM2
100
AcDbLine
 10
-88.57512886940355
 20
25.40000000000002
 30
0.0
 11
-91.0
 21
29.60000000000001
 31
0.0
  0
LINE
  5
B44
330
AFC
100
AcDbEntity
  8
RAHM2
100
AcDbLine
 10
-93.42487113059645
 20
25.40000000000002
 30
0.0
 11
-88.57512886940355
 21
25.40000000000002
 31
0.0
  0
LINE
  5
B45
330
AFC
100
AcDbEntity
  8
RAHM2
100
AcDbLine
 10
-96.0
 20
25.0
 30
0.0
 11
0.0000000000001137
 21
25.00000000000003
 31
0.0
  0
MTEXT
  5
B46
330
AFC
100
AcDbEntity
  8
RAHM2
100
AcDbMText
 10
-22.27910888308327
 20
27.50000000000003
 30
0.0
 40
2.5
 41
20.0
 71
     5
 72
     5
  1
・  ・   
 73
     1
 44
1.0
1001
ACAD
1000
MTEXTBEGIN
1070
    73
1070
     1
1070
    44
1040
1.0
1070
    74
1070
     0
1000
MTEXTEND
  0
TEXT
  5
B47
330
AFC
100
AcDbEntity
  8
RAHM2
100
AcDbText
 10
-91.81558635658019
 20
25.65000000000002
 30
0.0
 40
2.5
  1
1
 72
     1
 11
-91.19058635658019
 21
25.65000000000002
 31
0.0
100
AcDbText
 73
     1
  0
TEXT
  5
B48
330
AFC
100
AcDbEntity
  8
RAHM2
100
AcDbText
 10
-91.91833169291339
 20
30.65000000000002
 30
0.0
 40
2.5
  1
2
 72
     1
 11
-91.0
 21
30.65000000000002
 31
0.0
100
AcDbText
 73
     1
  0
TEXT
  5
B49
330
AFC
100
AcDbEntity
  8
RAHM2
100
AcDbText
 10
-91.92677669529663
 20
35.64999999999999
 30
0.0
 40
2.5
  1
3
 72
     1
 11
-91.0
 21
35.64999999999999
 31
0.0
100
AcDbText
 73
     1
  0
TEXT
  5
B4A
330
AFC
100
AcDbEntity
  8
RAHM2
100
AcDbText
 10
-92.0
 20
40.65000000000002
 30
0.0
 40
2.5
  1
4
 72
     1
 11
-91.0
 21
40.65000000000002
 31
0.0
100
AcDbText
 73
     1
  0
TEXT
  5
B4B
330
AFC
100
AcDbEntity
  8
RAHM2
100
AcDbText
 10
-91.92677669529663
 20
45.65000000000002
 30
0.0
 40
2.5
  1
5
 72
     1
 11
-91.0
 21
45.65000000000002
 31
0.0
100
AcDbText
 73
     1
  0
LINE
  5
B4C
330
AFC
100
AcDbEntity
  8
0
100
AcDbLine
 10
-193.0000000000001
 20
0.0
 30
0.0
 11
0.0
 21
0.0
 31
0.0
1001
GENIUS_GENREC_14
1002
{
1000
PYDIR
1011
-184.0
1021
50.0
1031
0.0
1002
}
1002
{
1000
PXDIR
1011
0.0
1021
0.0
1031
0.0
1002
}
1002
{
1000
PORI
1011
-184.0
1021
0.0
1031
0.0
1002
}
1002
{
1000
PINS
1011
-100.5
1021
25.0
1031
0.0
1002
}
1002
{
1000
HVAL
1000
50
1002
}
1002
{
1000
H
1070
     2
1002
}
1002
{
1000
WVAL
1000
167
1002
}
1002
{
1000
W
1070
     2
1002
}
1002
{
1000
C
1070
     4
1002
}
1001
GENIUS_GENODEF_13
1002
{
1000
HIER
1070
     0
1002
}
1002
{
1000
MANEDIT
1070
     0
1002
}
1002
{
1000
NOSEL
1070
     0
1002
}
1002
{
1000
BEHIND
1070
     0
1002
}
1002
{
1000
REACTOR
1002
}
1001
GENIUS_GENOBJ-N-REC_13
1002
{
1000
OWNER
1000
GEN
1002
}
  0
LINE
  5
B4D
330
AFC
100
AcDbEntity
  8
0
100
AcDbLine
 10
0.0
 20
50.0
 30
0.0
 11
-193.0000000000001
 21
50.00000000000002
 31
0.0
1001
GENIUS_GENREC_14
1002
{
1000
PYDIR
1011
-184.0
1021
50.0
1031
0.0
1002
}
1002
{
1000
PXDIR
1011
0.0
1021
0.0
1031
0.0
1002
}
1002
{
1000
PORI
1011
-184.0
1021
0.0
1031
0.0
1002
}
1002
{
1000
PINS
1011
-100.5
1021
25.0
1031
0.0
1002
}
1002
{
1000
HVAL
1000
50
1002
}
1002
{
1000
H
1070
     2
1002
}
1002
{
1000
WVAL
1000
167
1002
}
1002
{
1000
W
1070
     2
1002
}
1002
{
1000
C
1070
     4
1002
}
1001
GENIUS_GENODEF_13
1002
{
1000
HIER
1070
     0
1002
}
1002
{
1000
MANEDIT
1070
     0
1002
}
1002
{
1000
NOSEL
1070
     0
1002
}
1002
{
1000
BEHIND
1070
     0
1002
}
1002
{
1000
REACTOR
1002
}
1001
GENIUS_GENOBJ-N-REC_13
1002
{
1000
OWNER
1000
GEN
1002
}
  0
LINE
  5
B4E
330
AFC
100
AcDbEntity
  8
0
100
AcDbLine
 10
-96.0
 20
50.00000000000001
 30
0.0
 11
-96.0
 21
-0.0000000000000142
 31
0.0
1001
GENIUS_GENREC_14
1002
{
1000
PYDIR
1011
-96.0
1021
49.99999999999999
1031
0.0
1002
}
1002
{
1000
PXDIR
1011
88.0
1021
-0.0000000000000142
1031
0.0
1002
}
1002
{
1000
PORI
1011
-96.0
1021
-0.0000000000000142
1031
0.0
1002
}
1002
{
1000
PINS
1011
-12.5
1021
24.99999999999999
1031
0.0
1002
}
1002
{
1000
HVAL
1000
50
1002
}
1002
{
1000
H
1070
     2
1002
}
1002
{
1000
WVAL
1000
167
1002
}
1002
{
1000
W
1070
     2
1002
}
1002
{
1000
C
1070
     4
1002
}
1001
GENIUS_GENODEF_13
1002
{
1000
HIER
1070
     0
1002
}
1002
{
1000
MANEDIT
1070
     0
1002
}
1002
{
1000
NOSEL
1070
     0
1002
}
1002
{
1000
BEHIND
1070
     0
1002
}
1002
{
1000
REACTOR
1002
}
1001
GENIUS_GENOBJ-N-REC_13
1002
{
1000
OWNER
1000
GEN
1002
}
  0
ATTDEF
  5
B4F
330
AFC
100
AcDbEntity
  8
0
100
AcDbText
 10
-84.0
 20
1.999999999999957
 30
0.0
 40
3.0
  1

100
AcDbAttributeDefinition
  3
図番
  2
GEN-TITLE-NR1
 70
     0
  0
ATTDEF
  5
B50
330
AFC
100
AcDbEntity
  8
0
100
AcDbText
 10
-84.0
 20
9.149999999999948
 30
0.0
 40
2.5
  1

100
AcDbAttributeDefinition
  3
サブタイトル
  2
GEN-TITLE-DES2
 70
     0
  0
LINE
  5
B51
330
AFC
100
AcDbEntity
  8
0
100
AcDbLine
 10
0.0
 20
0.0
 30
0.0
 11
0.0
 21
50.0
 31
0.0
1001
GENIUS_GENREC_14
1002
{
1000
PYDIR
1011
-414.0
1021
291.0
1031
0.0
1002
}
1002
{
1000
PXDIR
1011
6.0
1021
-6.0
1031
0.0
1002
}
1002
{
1000
PORI
1011
-414.0
1021
-6.0
1031
0.0
1002
}
1002
{
1000
PINS
1011
-414.0
1021
-6.0
1031
0.0
1002
}
1002
{
1000
HVAL
1000
297
1002
}
1002
{
1000
H
1070
     2
1002
}
1002
{
1000
WVAL
1000
420
1002
}
1002
{
1000
W
1070
     2
1002
}
1002
{
1000
C
1070
     1
1002
}
1001
GENIUS_GENODEF_13
1002
{
1000
HIER
1070
     0
1002
}
1002
{
1000
MANEDIT
1070
     0
1002
}
1002
{
1000
NOSEL
1070
     0
1002
}
1002
{
1000
BEHIND
1070
     0
1002
}
1002
{
1000
OTHER
1070
     0
1002
}
1002
{
1000
REACTOR
1002
}
1001
GENIUS_GENOBJ-N-REC_13
1002
{
1000
OWNER
1000
GEN
1002
}
  0
ATTDEF
  5
B52
330
AFC
100
AcDbEntity
  8
0
100
AcDbText
 10
-84.14251901585329
 20
12.82790432564377
 30
0.0
 40
3.5
  1

100
AcDbAttributeDefinition
  3
品名
  2
GEN-TITLE-DES1
 70
     0
  0
ATTDEF
  5
B53
330
AFC
100
AcDbEntity
  8
0
100
AcDbText
 10
-8.002309189545826
 20
1.705189434395036
 30
0.0
 40
2.5
  1

100
AcDbAttributeDefinition
  3
Rev.
  2
GEN-TITLE-NR2
 70
     0
  0
POINT
  5
B54
330
AFC
100
AcDbEntity
  8
0
 60
     1
100
AcDbPoint
 10
-418.5355579819675
 20
-138.1104841268254
 30
0.0
1001
GENIUS_GENODEF_13
1002
{
1000
HIER
1070
    10
1002
}
1002
{
1000
MANEDIT
1070
     0
1002
}
1002
{
1000
NOSEL
1070
     0
1002
}
1002
{
1000
BEHIND
1070
     0
1002
}
1002
{
1000
REACTOR
1002
}
1001
GENIUS_GENOBJ-N-CRS_13
1002
{
1000
OWNER
1000
GEN
1002
}
1001
GENIUS_GENOENT_13
1002
{
1000
MYREF
1005
B54
1002
}
1002
{
1000
GRP
1005
0
1002
}
1001
GENIUS_GENOLIS_13
1002
{
1000
ENT
1005
B0E
1005
B0D
1005
B09
1005
B06
1002
}
  0
ENDBLK
  5
B57
330
AFC
100
AcDbEntity
  8
0
100
AcDbBlockEnd
  0
BLOCK
  5
DD4
330
DC3
100
AcDbEntity
  8
0
100
AcDbBlockBegin
  2
A$C0B3205F2
 70
     0
 10
0.0
 20
0.0
 30
0.0
  3
A$C0B3205F2
  1

  0
LINE
  5
DC4
330
DC3
100
AcDbEntity
  8
ﾋﾞｽ
100
AcDbLine
 10
0.0
 20
3.450000000000017
 30
0.0
 11
-0.0000000000001137
 21
-3.450000000000017
 31
0.0
  0
LINE
  5
DC5
330
DC3
100
AcDbEntity
  8
ﾋﾞｽ
100
AcDbLine
 10
5.0
 20
1.499999999999971
 30
0.0
 11
5.0
 21
-1.500000000000028
 31
0.0
  0
ARC
  5
DC6
330
DC3
100
AcDbEntity
  8
ﾋﾞｽ
100
AcDbCircle
 10
0.0999999999999091
 20
1.326839681057379
 30
0.0
 40
0.1
100
AcDbArc
 50
179.9999999999984
 51
283.4957332808008
1001
GENIUS_GENODEF_13
1002
{
1000
HIER
1070
     0
1002
}
1002
{
1000
MANEDIT
1070
     0
1002
}
1002
{
1000
NOSEL
1070
     0
1002
}
1002
{
1000
BEHIND
1070
     0
1002
}
1002
{
1000
OTHER
1070
     0
1002
}
1002
{
1000
REACTOR
1002
}
1001
GENIUS_GENOBJ-N-FIL_13
1002
{
1000
OWNER
1000
GEN
1002
}
  0
ARC
  5
DC7
330
DC3
100
AcDbEntity
  8
ﾋﾞｽ
100
AcDbCircle
 10
0.0999999999999091
 20
-1.326839681057521
 30
0.0
 40
0.1
100
AcDbArc
 50
76.50426671919925
 51
179.9999999999984
1001
GENIUS_GENODEF_13
1002
{
1000
HIER
1070
     0
1002
}
1002
{
1000
MANEDIT
1070
     0
1002
}
1002
{
1000
NOSEL
1070
     0
1002
}
1002
{
1000
BEHIND
1070
     0
1002
}
1002
{
1000
OTHER
1070
     0
1002
}
1002
{
1000
REACTOR
1002
}
1001
GENIUS_GENOBJ-N-FIL_13
1002
{
1000
OWNER
1000
GEN
1002
}
  0
LINE
  5
DC8
330
DC3
100
AcDbEntity
  8
ﾋﾞｽ
100
AcDbLine
 10
0.1233372952474383
 20
1.229600950859321
 30
0.0
 11
1.249999999999658
 21
1.499999999999971
 31
0.0
  0
LINE
  5
DC9
330
DC3
100
AcDbEntity
  8
ﾋﾞｽ
100
AcDbLine
 10
0.1233372952474383
 20
-1.229600950859463
 30
0.0
 11
1.249999999999545
 21
-1.500000000000028
 31
0.0
  0
LINE
  5
DCA
330
DC3
100
AcDbEntity
  8
ﾋﾞｽ
100
AcDbLine
 10
1.249999999999545
 20
-1.500000000000028
 30
0.0
 11
1.249999999999658
 21
1.499999999999971
 31
0.0
  0
LINE
  5
DCB
330
DC3
100
AcDbEntity
  8
ﾋﾞｽ
100
AcDbLine
 10
1.249999999999545
 20
-1.500000000000056
 30
0.0
 11
5.0
 21
-1.500000000000028
 31
0.0
  0
LINE
  5
DCC
330
DC3
100
AcDbEntity
  8
ﾋﾞｽ
100
AcDbLine
 10
5.0
 20
1.499999999999971
 30
0.0
 11
1.249999999999658
 21
1.499999999999971
 31
0.0
  0
LINE
  5
DCD
330
DC3
100
AcDbEntity
  8
ﾋﾞｽ0
100
AcDbLine
 10
-0.0000000000001137
 20
-1.200000000000017
 30
0.0
 11
5.0
 21
-1.200000000000017
 31
0.0
  0
LINE
  5
DCE
330
DC3
100
AcDbEntity
  8
ﾋﾞｽ0
100
AcDbLine
 10
0.0
 20
1.19999999999996
 30
0.0
 11
5.0
 21
1.19999999999996
 31
0.0
  0
LINE
  5
DCF
330
DC3
100
AcDbEntity
  8
ﾋﾞｽ
100
AcDbLine
 10
0.0
 20
3.450000000000017
 30
0.0
 11
-0.3426140077242508
 21
3.450000000000017
 31
0.0
  0
LINE
  5
DD0
330
DC3
100
AcDbEntity
  8
ﾋﾞｽ
100
AcDbLine
 10
-0.0000000000001137
 20
-3.450000000000017
 30
0.0
 11
-0.3426140077242508
 21
-3.450000000000017
 31
0.0
  0
ARC
  5
DD1
330
DC3
100
AcDbEntity
  8
ﾋﾞｽ
100
AcDbCircle
 10
2.700000000000045
 20
0.0
 30
0.0
 40
4.599999999999999
100
AcDbArc
 50
131.4096221092697
 51
228.5903778907302
  0
LINE
  5
DD2
330
DC3
100
AcDbEntity
  8
ﾋﾞｽ
100
AcDbLine
 10
-0.3426140077242508
 20
3.450000000000045
 30
0.0
 11
-0.3426140077242508
 21
-3.450000000000045
 31
0.0
  0
ENDBLK
  5
DD5
330
DC3
100
AcDbEntity
  8
0
100
AcDbBlockEnd
  0
BLOCK
  5
DEC
330
DD9
100
AcDbEntity
  8
0
100
AcDbBlockBegin
  2
A$C143B6173
 70
     0
 10
0.0
 20
0.0
 30
0.0
  3
A$C143B6173
  1

  0
CIRCLE
  5
DDA
330
DD9
100
AcDbEntity
  8
ﾋﾞｽ
100
AcDbCircle
 10
0.0
 20
0.0
 30
0.0
 40
3.450000000000889
  0
LINE
  5
DDB
330
DD9
100
AcDbEntity
  8
ﾋﾞｽ
100
AcDbLine
 10
-1.450000000000045
 20
0.329545454545439
 30
0.0
 11
-1.252272727272725
 21
0.329545454545439
 31
0.0
  0
LINE
  5
DDC
330
DD9
100
AcDbEntity
  8
ﾋﾞｽ
100
AcDbLine
 10
-0.3295454545454959
 20
1.252272727272696
 30
0.0
 11
-0.3295454545454959
 21
1.450000000000017
 31
0.0
  0
ARC
  5
DDD
330
DD9
100
AcDbEntity
  8
ﾋﾞｽ
100
AcDbCircle
 10
-1.252272727272725
 20
1.252272727272696
 30
0.0
 40
0.9227272727272604
100
AcDbArc
 50
270.0
 51
0.0
  0
ARC
  5
DDE
330
DD9
100
AcDbEntity
  8
ﾋﾞｽ
100
AcDbCircle
 10
-1.252272727272725
 20
-1.252272727272696
 30
0.0
 40
0.9227272727272604
100
AcDbArc
 50
0.0
 51
90.0
  0
LINE
  5
DDF
330
DD9
100
AcDbEntity
  8
ﾋﾞｽ
100
AcDbLine
 10
-1.450000000000045
 20
-0.3295454545454675
 30
0.0
 11
-1.450000000000045
 21
0.329545454545439
 31
0.0
  0
LINE
  5
DE0
330
DD9
100
AcDbEntity
  8
ﾋﾞｽ
100
AcDbLine
 10
-1.252272727272725
 20
-0.3295454545454675
 30
0.0
 11
-1.450000000000045
 21
-0.3295454545454675
 31
0.0
  0
LINE
  5
DE1
330
DD9
100
AcDbEntity
  8
ﾋﾞｽ
100
AcDbLine
 10
-0.3295454545454959
 20
-1.44999999999996
 30
0.0
 11
-0.3295454545454959
 21
-1.252272727272696
 31
0.0
  0
ARC
  5
DE2
330
DD9
100
AcDbEntity
  8
ﾋﾞｽ
100
AcDbCircle
 10
1.252272727272725
 20
-1.252272727272696
 30
0.0
 40
0.9227272727272604
100
AcDbArc
 50
90.0
 51
180.0
  0
LINE
  5
DE3
330
DD9
100
AcDbEntity
  8
ﾋﾞｽ
100
AcDbLine
 10
0.3295454545453822
 20
-1.450000000000045
 30
0.0
 11
-0.3295454545454959
 21
-1.450000000000045
 31
0.0
  0
LINE
  5
DE4
330
DD9
100
AcDbEntity
  8
ﾋﾞｽ
100
AcDbLine
 10
0.3295454545453822
 20
-1.252272727272696
 30
0.0
 11
0.3295454545453822
 21
-1.450000000000045
 31
0.0
  0
LINE
  5
DE5
330
DD9
100
AcDbEntity
  8
ﾋﾞｽ
100
AcDbLine
 10
1.449999999999931
 20
-0.3295454545454675
 30
0.0
 11
1.252272727272725
 21
-0.3295454545454675
 31
0.0
  0
LINE
  5
DE6
330
DD9
100
AcDbEntity
  8
ﾋﾞｽ
100
AcDbLine
 10
1.449999999999931
 20
0.3295454545454106
 30
0.0
 11
1.449999999999931
 21
-0.3295454545454675
 31
0.0
  0
ARC
  5
DE7
330
DD9
100
AcDbEntity
  8
ﾋﾞｽ
100
AcDbCircle
 10
1.252272727272611
 20
1.252272727272696
 30
0.0
 40
0.9227272727272604
100
AcDbArc
 50
180.0
 51
270.0
  0
LINE
  5
DE8
330
DD9
100
AcDbEntity
  8
ﾋﾞｽ
100
AcDbLine
 10
1.252272727272611
 20
0.329545454545439
 30
0.0
 11
1.450000000000045
 21
0.329545454545439
 31
0.0
  0
LINE
  5
DE9
330
DD9
100
AcDbEntity
  8
ﾋﾞｽ
100
AcDbLine
 10
0.3295454545453822
 20
1.450000000000017
 30
0.0
 11
0.3295454545453822
 21
1.252272727272782
 31
0.0
  0
LINE
  5
DEA
330
DD9
100
AcDbEntity
  8
ﾋﾞｽ
100
AcDbLine
 10
-0.3295454545454959
 20
1.450000000000017
 30
0.0
 11
0.3295454545453822
 21
1.450000000000017
 31
0.0
  0
ENDBLK
  5
DED
330
DD9
100
AcDbEntity
  8
0
100
AcDbBlockEnd
  0
BLOCK
  5
E03
330
DF1
100
AcDbEntity
  8
0
100
AcDbBlockBegin
  2
A$C767F5274
 70
     0
 10
0.0
 20
0.0
 30
0.0
  3
A$C767F5274
  1

  0
LINE
  5
DF2
330
DF1
100
AcDbEntity
  8
ﾋﾞｽ0
100
AcDbLine
 10
0.0
 20
1.199999999999988
 30
0.0
 11
8.000000000000056
 21
1.199999999999988
 31
0.0
  0
LINE
  5
DF3
330
DF1
100
AcDbEntity
  8
ﾋﾞｽ0
100
AcDbLine
 10
0.0
 20
-1.199999999999988
 30
0.0
 11
8.000000000000056
 21
-1.199999999999988
 31
0.0
  0
LINE
  5
DF4
330
DF1
100
AcDbEntity
  8
ﾋﾞｽ
100
AcDbLine
 10
8.000000000000056
 20
1.5
 30
0.0
 11
1.249999999999715
 21
1.5
 31
0.0
  0
LINE
  5
DF5
330
DF1
100
AcDbEntity
  8
ﾋﾞｽ
100
AcDbLine
 10
1.249999999999602
 20
-1.500000000000028
 30
0.0
 11
8.000000000000056
 21
-1.5
 31
0.0
  0
LINE
  5
DF6
330
DF1
100
AcDbEntity
  8
ﾋﾞｽ
100
AcDbLine
 10
0.0000000000000568
 20
2.749999999995509
 30
0.0
 11
-0.0000000000000568
 21
-2.749999999995509
 31
0.0
  0
LINE
  5
DF7
330
DF1
100
AcDbEntity
  8
ﾋﾞｽ
100
AcDbLine
 10
1.249999999999602
 20
-1.5
 30
0.0
 11
1.249999999999715
 21
1.5
 31
0.0
  0
LINE
  5
DF8
330
DF1
100
AcDbEntity
  8
ﾋﾞｽ
100
AcDbLine
 10
0.1233372952474951
 20
-1.229600950859435
 30
0.0
 11
1.249999999999602
 21
-1.5
 31
0.0
  0
LINE
  5
DF9
330
DF1
100
AcDbEntity
  8
ﾋﾞｽ
100
AcDbLine
 10
0.123337295247552
 20
1.229600950859349
 30
0.0
 11
1.249999999999715
 21
1.5
 31
0.0
  0
LINE
  5
DFA
330
DF1
100
AcDbEntity
  8
ﾋﾞｽ
100
AcDbLine
 10
8.000000000000056
 20
-1.5
 30
0.0
 11
8.000000000000056
 21
1.5
 31
0.0
  0
LINE
  5
DFB
330
DF1
100
AcDbEntity
  8
ﾋﾞｽ
100
AcDbLine
 10
-0.8472488828795121
 20
2.675875327558543
 30
0.0
 11
0.0000000000000568
 21
2.749999999995509
 31
0.0
  0
LINE
  5
DFC
330
DF1
100
AcDbEntity
  8
ﾋﾞｽ
100
AcDbLine
 10
-0.8472488828795121
 20
-2.675875327558571
 30
0.0
 11
-0.0000000000000568
 21
-2.749999999995509
 31
0.0
  0
ARC
  5
DFD
330
DF1
100
AcDbEntity
  8
ﾋﾞｽ
100
AcDbCircle
 10
5.0
 20
0.0
 30
0.0
 40
7.0
100
AcDbArc
 50
163.7429721034431
 51
196.2570278965584
  0
ARC
  5
DFE
330
DF1
100
AcDbEntity
  8
ﾋﾞｽ
100
AcDbCircle
 10
-0.7600931401318576
 20
1.67968062946673
 30
0.0
 40
1.0
100
AcDbArc
 50
94.99999999999975
 51
163.742972103436
1001
GENIUS_GENODEF_13
1002
{
1000
HIER
1070
     0
1002
}
1002
{
1000
MANEDIT
1070
     0
1002
}
1002
{
1000
NOSEL
1070
     0
1002
}
1002
{
1000
BEHIND
1070
     0
1002
}
1002
{
1000
OTHER
1070
     0
1002
}
1002
{
1000
REACTOR
1002
}
1001
GENIUS_GENOBJ-N-FIL_13
1002
{
1000
OWNER
1000
GEN
1002
}
  0
ARC
  5
DFF
330
DF1
100
AcDbEntity
  8
ﾋﾞｽ
100
AcDbCircle
 10
-0.7600931401318576
 20
-1.679680629466787
 30
0.0
 40
1.0
100
AcDbArc
 50
196.25702789656
 51
265.0000000000003
1001
GENIUS_GENOBJ-N-FIL_13
1002
{
1000
OWNER
1000
GEN
1002
}
1001
GENIUS_GENODEF_13
1002
{
1000
HIER
1070
     0
1002
}
1002
{
1000
MANEDIT
1070
     0
1002
}
1002
{
1000
NOSEL
1070
     0
1002
}
1002
{
1000
BEHIND
1070
     0
1002
}
1002
{
1000
OTHER
1070
     0
1002
}
1002
{
1000
REACTOR
1002
}
  0
ARC
  5
E00
330
DF1
100
AcDbEntity
  8
ﾋﾞｽ
100
AcDbCircle
 10
0.0999999999999659
 20
-1.326839681057492
 30
0.0
 40
0.1
100
AcDbArc
 50
76.50426671919925
 51
179.9999999999984
1001
GENIUS_GENODEF_13
1002
{
1000
HIER
1070
     0
1002
}
1002
{
1000
MANEDIT
1070
     0
1002
}
1002
{
1000
NOSEL
1070
     0
1002
}
1002
{
1000
BEHIND
1070
     0
1002
}
1002
{
1000
OTHER
1070
     0
1002
}
1002
{
1000
REACTOR
1002
}
1001
GENIUS_GENOBJ-N-FIL_13
1002
{
1000
OWNER
1000
GEN
1002
}
  0
ARC
  5
E01
330
DF1
100
AcDbEntity
  8
ﾋﾞｽ
100
AcDbCircle
 10
0.1000000000000227
 20
1.326839681057407
 30
0.0
 40
0.1
100
AcDbArc
 50
179.9999999999984
 51
283.4957332808008
1001
GENIUS_GENODEF_13
1002
{
1000
HIER
1070
     0
1002
}
1002
{
1000
MANEDIT
1070
     0
1002
}
1002
{
1000
NOSEL
1070
     0
1002
}
1002
{
1000
BEHIND
1070
     0
1002
}
1002
{
1000
OTHER
1070
     0
1002
}
1002
{
1000
REACTOR
1002
}
1001
GENIUS_GENOBJ-N-FIL_13
1002
{
1000
OWNER
1000
GEN
1002
}
  0
ENDBLK
  5
E04
330
DF1
100
AcDbEntity
  8
0
100
AcDbBlockEnd
  0
BLOCK
  5
E1B
330
E08
100
AcDbEntity
  8
0
100
AcDbBlockBegin
  2
A$C79BC6D1E
 70
     0
 10
0.0
 20
0.0
 30
0.0
  3
A$C79BC6D1E
  1

  0
CIRCLE
  5
E09
330
E08
100
AcDbEntity
  8
ﾋﾞｽ
100
AcDbCircle
 10
0.0
 20
0.0
 30
0.0
 40
2.749999999996779
  0
LINE
  5
E0A
330
E08
100
AcDbEntity
  8
ﾋﾞｽ
100
AcDbLine
 10
-0.4090909090908213
 20
1.800000000000039
 30
0.0
 11
0.409090909090935
 21
1.800000000000039
 31
0.0
  0
ARC
  5
E0B
330
E08
100
AcDbEntity
  8
ﾋﾞｽ
100
AcDbCircle
 10
1.554545454545461
 20
1.554545454545461
 30
0.0
 40
1.145454545454539
100
AcDbArc
 50
180.0
 51
270.0
  0
LINE
  5
E0C
330
E08
100
AcDbEntity
  8
ﾋﾞｽ
100
AcDbLine
 10
0.409090909090935
 20
-1.800000000000039
 30
0.0
 11
-0.4090909090908781
 21
-1.800000000000039
 31
0.0
  0
ARC
  5
E0D
330
E08
100
AcDbEntity
  8
ﾋﾞｽ
100
AcDbCircle
 10
1.554545454545461
 20
-1.554545454545433
 30
0.0
 40
1.145454545454539
100
AcDbArc
 50
90.0
 51
180.0
  0
LINE
  5
E0E
330
E08
100
AcDbEntity
  8
ﾋﾞｽ
100
AcDbLine
 10
-0.4090909090908781
 20
-1.799999999999926
 30
0.0
 11
-0.4090909090908781
 21
-1.554545454545433
 31
0.0
  0
LINE
  5
E0F
330
E08
100
AcDbEntity
  8
ﾋﾞｽ
100
AcDbLine
 10
-1.554545454545404
 20
-0.4090909090909065
 30
0.0
 11
-1.800000000000011
 21
-0.4090909090909065
 31
0.0
  0
LINE
  5
E10
330
E08
100
AcDbEntity
  8
ﾋﾞｽ
100
AcDbLine
 10
-1.800000000000011
 20
-0.4090909090909065
 30
0.0
 11
-1.800000000000068
 21
0.4090909090908781
 31
0.0
  0
ARC
  5
E11
330
E08
100
AcDbEntity
  8
ﾋﾞｽ
100
AcDbCircle
 10
-1.554545454545404
 20
-1.554545454545433
 30
0.0
 40
1.145454545454539
100
AcDbArc
 50
0.0
 51
90.0
  0
ARC
  5
E12
330
E08
100
AcDbEntity
  8
ﾋﾞｽ
100
AcDbCircle
 10
-1.554545454545461
 20
1.554545454545461
 30
0.0
 40
1.145454545454539
100
AcDbArc
 50
270.0
 51
0.0
  0
LINE
  5
E13
330
E08
100
AcDbEntity
  8
ﾋﾞｽ
100
AcDbLine
 10
-0.409090909090935
 20
1.554545454545461
 30
0.0
 11
-0.409090909090935
 21
1.800000000000039
 31
0.0
  0
LINE
  5
E14
330
E08
100
AcDbEntity
  8
ﾋﾞｽ
100
AcDbLine
 10
-1.800000000000011
 20
0.4090909090909065
 30
0.0
 11
-1.554545454545461
 21
0.4090909090909065
 31
0.0
  0
LINE
  5
E15
330
E08
100
AcDbEntity
  8
ﾋﾞｽ
100
AcDbLine
 10
0.409090909090935
 20
1.800000000000039
 30
0.0
 11
0.409090909090935
 21
1.554545454545547
 31
0.0
  0
LINE
  5
E16
330
E08
100
AcDbEntity
  8
ﾋﾞｽ
100
AcDbLine
 10
1.554545454545461
 20
0.4090909090909065
 30
0.0
 11
1.800000000000011
 21
0.4090909090909065
 31
0.0
  0
LINE
  5
E17
330
E08
100
AcDbEntity
  8
ﾋﾞｽ
100
AcDbLine
 10
1.800000000000011
 20
0.409090909090935
 30
0.0
 11
1.800000000000011
 21
-0.4090909090909065
 31
0.0
  0
LINE
  5
E18
330
E08
100
AcDbEntity
  8
ﾋﾞｽ
100
AcDbLine
 10
1.800000000000011
 20
-0.4090909090909065
 30
0.0
 11
1.554545454545461
 21
-0.4090909090909065
 31
0.0
  0
LINE
  5
E19
330
E08
100
AcDbEntity
  8
ﾋﾞｽ
100
AcDbLine
 10
0.409090909090935
 20
-1.554545454545433
 30
0.0
 11
0.409090909090935
 21
-1.800000000000039
 31
0.0
  0
ENDBLK
  5
E1C
330
E08
100
AcDbEntity
  8
0
100
AcDbBlockEnd
  0
BLOCK
  5
1418
330
1406
100
AcDbEntity
  8
0
100
AcDbBlockBegin
  2
A$C06337972
 70
     0
 10
0.0
 20
0.0
 30
0.0
  3
A$C06337972
  1

  0
ARC
  5
1407
330
1406
100
AcDbEntity
  8
ﾋﾞｽ
100
AcDbCircle
 10
-1.326839681057435
 20
0.1000000000000227
 30
0.0
 40
0.1
100
AcDbArc
 50
270.0
 51
13.49573328080113
1001
GENIUS_GENODEF_13
1002
{
1000
HIER
1070
     0
1002
}
1002
{
1000
MANEDIT
1070
     0
1002
}
1002
{
1000
NOSEL
1070
     0
1002
}
1002
{
1000
BEHIND
1070
     0
1002
}
1002
{
1000
OTHER
1070
     0
1002
}
1002
{
1000
REACTOR
1002
}
1001
GENIUS_GENOBJ-N-FIL_13
1002
{
1000
OWNER
1000
GEN
1002
}
  0
ARC
  5
1408
330
1406
100
AcDbEntity
  8
ﾋﾞｽ
100
AcDbCircle
 10
1.326839681057435
 20
0.0999999999999659
 30
0.0
 40
0.1
100
AcDbArc
 50
166.5042667191988
 51
270.0
1001
GENIUS_GENODEF_13
1002
{
1000
HIER
1070
     0
1002
}
1002
{
1000
MANEDIT
1070
     0
1002
}
1002
{
1000
NOSEL
1070
     0
1002
}
1002
{
1000
BEHIND
1070
     0
1002
}
1002
{
1000
OTHER
1070
     0
1002
}
1002
{
1000
REACTOR
1002
}
1001
GENIUS_GENOBJ-N-FIL_13
1002
{
1000
OWNER
1000
GEN
1002
}
  0
ARC
  5
1409
330
1406
100
AcDbEntity
  8
ﾋﾞｽ
100
AcDbCircle
 10
1.679680629466815
 20
-0.7600931401318576
 30
0.0
 40
1.0
100
AcDbArc
 50
286.2570278965568
 51
354.9999999999999
1001
GENIUS_GENOBJ-N-FIL_13
1002
{
1000
OWNER
1000
GEN
1002
}
1001
GENIUS_GENODEF_13
1002
{
1000
HIER
1070
     0
1002
}
1002
{
1000
MANEDIT
1070
     0
1002
}
1002
{
1000
NOSEL
1070
     0
1002
}
1002
{
1000
BEHIND
1070
     0
1002
}
1002
{
1000
OTHER
1070
     0
1002
}
1002
{
1000
REACTOR
1002
}
  0
ARC
  5
140A
330
1406
100
AcDbEntity
  8
ﾋﾞｽ
100
AcDbCircle
 10
-1.679680629466702
 20
-0.7600931401318576
 30
0.0
 40
1.0
100
AcDbArc
 50
185.0
 51
253.7429721034365
1001
GENIUS_GENODEF_13
1002
{
1000
HIER
1070
     0
1002
}
1002
{
1000
MANEDIT
1070
     0
1002
}
1002
{
1000
NOSEL
1070
     0
1002
}
1002
{
1000
BEHIND
1070
     0
1002
}
1002
{
1000
OTHER
1070
     0
1002
}
1002
{
1000
REACTOR
1002
}
1001
GENIUS_GENOBJ-N-FIL_13
1002
{
1000
OWNER
1000
GEN
1002
}
  0
ARC
  5
140B
330
1406
100
AcDbEntity
  8
ﾋﾞｽ
100
AcDbCircle
 10
0.0
 20
5.0
 30
0.0
 40
7.0
100
AcDbArc
 50
253.7429721034431
 51
286.2570278965568
  0
LINE
  5
140C
330
1406
100
AcDbEntity
  8
ﾋﾞｽ
100
AcDbLine
 10
2.675875327558514
 20
-0.8472488828795121
 30
0.0
 11
2.749999999995452
 21
-0.0000000000000568
 31
0.0
  0
LINE
  5
140D
330
1406
100
AcDbEntity
  8
ﾋﾞｽ
100
AcDbLine
 10
-2.675875327558514
 20
-0.8472488828795121
 30
0.0
 11
-2.749999999995452
 21
0.0000000000000568
 31
0.0
  0
LINE
  5
140E
330
1406
100
AcDbEntity
  8
ﾋﾞｽ
100
AcDbLine
 10
-1.229600950859321
 20
0.123337295247552
 30
0.0
 11
-1.5
 21
1.249999999999715
 31
0.0
  0
LINE
  5
140F
330
1406
100
AcDbEntity
  8
ﾋﾞｽ
100
AcDbLine
 10
1.229600950859435
 20
0.1233372952474951
 30
0.0
 11
1.5
 21
1.249999999999602
 31
0.0
  0
LINE
  5
1410
330
1406
100
AcDbEntity
  8
ﾋﾞｽ
100
AcDbLine
 10
1.5
 20
1.249999999999602
 30
0.0
 11
-1.5
 21
1.249999999999715
 31
0.0
  0
LINE
  5
1411
330
1406
100
AcDbEntity
  8
ﾋﾞｽ
100
AcDbLine
 10
-2.749999999995452
 20
0.0000000000000568
 30
0.0
 11
2.749999999995452
 21
-0.0000000000000568
 31
0.0
  0
LINE
  5
1412
330
1406
100
AcDbEntity
  8
ﾋﾞｽ
100
AcDbLine
 10
1.5
 20
1.249999999999602
 30
0.0
 11
1.5
 21
9.999999999999943
 31
0.0
  0
LINE
  5
1413
330
1406
100
AcDbEntity
  8
ﾋﾞｽ
100
AcDbLine
 10
-1.5
 20
10.00000000000003
 30
0.0
 11
-1.5
 21
1.249999999999715
 31
0.0
  0
LINE
  5
1414
330
1406
100
AcDbEntity
  8
ﾋﾞｽ0
100
AcDbLine
 10
1.200000000000045
 20
0.0
 30
0.0
 11
1.200000000000045
 21
9.999999999999971
 31
0.0
  0
LINE
  5
1415
330
1406
100
AcDbEntity
  8
ﾋﾞｽ0
100
AcDbLine
 10
-1.200000000000045
 20
0.0
 30
0.0
 11
-1.199999999999931
 21
10.00000000000003
 31
0.0
  0
LINE
  5
1416
330
1406
100
AcDbEntity
  8
ﾋﾞｽ
100
AcDbLine
 10
1.5
 20
9.999999999999943
 30
0.0
 11
-1.5
 21
10.00000000000003
 31
0.0
  0
ENDBLK
  5
1419
330
1406
100
AcDbEntity
  8
0
100
AcDbBlockEnd
  0
BLOCK
  5
22D0
330
2276
100
AcDbEntity
  8
0
100
AcDbBlockBegin
  2
*D15
 70
     1
 10
0.0
 20
0.0
 30
0.0
  3
*D15
  1

  0
LINE
  5
2CFD
330
2276
100
AcDbEntity
  8
AM_5
  6
ByBlock
100
AcDbLine
 10
167.9088798083058
 20
316.3328201523798
 30
0.0
 11
143.9088798083058
 21
316.3328201523798
 31
0.0
  0
LINE
  5
2CFE
330
2276
100
AcDbEntity
  8
AM_5
  6
ByBlock
100
AcDbLine
 10
168.9088798083058
 20
436.3328201523798
 30
0.0
 11
143.9088798083058
 21
436.3328201523798
 31
0.0
  0
LINE
  5
2CFF
330
2276
100
AcDbEntity
  8
AM_5
  6
ByBlock
100
AcDbLine
 10
145.9088798083058
 20
323.3328201523798
 30
0.0
 11
145.9088798083058
 21
429.3328201523798
 31
0.0
  0
SOLID
  5
2D00
330
2276
100
AcDbEntity
  8
AM_5
100
AcDbTrace
 10
144.7422131416391
 20
323.3328201523798
 30
0.0
 11
147.0755464749725
 21
323.3328201523798
 31
0.0
 12
145.9088798083058
 22
316.3328201523798
 32
0.0
 13
145.9088798083058
 23
316.3328201523798
 33
0.0
  0
SOLID
  5
2D01
330
2276
100
AcDbEntity
  8
AM_5
100
AcDbTrace
 10
144.7422131416391
 20
429.3328201523798
 30
0.0
 11
147.0755464749725
 21
429.3328201523798
 31
0.0
 12
145.9088798083058
 22
436.3328201523798
 32
0.0
 13
145.9088798083058
 23
436.3328201523798
 33
0.0
  0
MTEXT
  5
2D02
330
2276
100
AcDbEntity
  8
AM_5
 62
     2
100
AcDbMText
 10
139.4081908319278
 20
376.3328201523799
 30
0.0
 40
7.0
 41
0.0
 71
     5
 72
     1
  1
120
 11
0.0000000000000001
 21
1.0
 31
0.0
 73
     1
 44
1.0
1001
ACAD
1000
MTEXTBEGIN
1070
    73
1070
     1
1070
    44
1040
1.0
1070
    74
1070
     0
1000
MTEXTEND
  0
POINT
  5
2D03
330
2276
100
AcDbEntity
  8
Defpoints
 62
     0
100
AcDbPoint
 10
169.9088798083058
 20
316.3328201523798
 30
0.0
  0
POINT
  5
2D04
330
2276
100
AcDbEntity
  8
Defpoints
 62
     0
100
AcDbPoint
 10
170.9088798083058
 20
436.3328201523798
 30
0.0
  0
POINT
  5
2D05
330
2276
100
AcDbEntity
  8
Defpoints
 62
     0
100
AcDbPoint
 10
145.9088798083058
 20
436.3328201523798
 30
0.0
  0
ENDBLK
  5
22D1
330
2276
100
AcDbEntity
  8
0
100
AcDbBlockEnd
  0
BLOCK
  5
22D2
330
2298
100
AcDbEntity
  8
0
100
AcDbBlockBegin
  2
*D16
 70
     1
 10
0.0
 20
0.0
 30
0.0
  3
*D16
  1

  0
LINE
  5
2D06
330
2298
100
AcDbEntity
  8
AM_5
  6
ByBlock
100
AcDbLine
 10
169.9088798083058
 20
437.3328201523798
 30
0.0
 11
169.9088798083058
 21
456.9761674719711
 31
0.0
  0
LINE
  5
2D07
330
2298
100
AcDbEntity
  8
AM_5
  6
ByBlock
100
AcDbLine
 10
349.9088798083058
 20
437.3328201523797
 30
0.0
 11
349.9088798083058
 21
456.9761674719711
 31
0.0
  0
LINE
  5
2D08
330
2298
100
AcDbEntity
  8
AM_5
  6
ByBlock
100
AcDbLine
 10
176.9088798083059
 20
454.9761674719711
 30
0.0
 11
342.9088798083058
 21
454.9761674719711
 31
0.0
  0
SOLID
  5
2D09
330
2298
100
AcDbEntity
  8
AM_5
100
AcDbTrace
 10
176.9088798083059
 20
456.1428341386378
 30
0.0
 11
176.9088798083059
 21
453.8095008053044
 31
0.0
 12
169.9088798083058
 22
454.9761674719711
 32
0.0
 13
169.9088798083058
 23
454.9761674719711
 33
0.0
  0
SOLID
  5
2D0A
330
2298
100
AcDbEntity
  8
AM_5
100
AcDbTrace
 10
342.9088798083058
 20
456.1428341386378
 30
0.0
 11
342.9088798083058
 21
453.8095008053044
 31
0.0
 12
349.9088798083058
 22
454.9761674719711
 32
0.0
 13
349.9088798083058
 23
454.9761674719711
 33
0.0
  0
MTEXT
  5
2D0B
330
2298
100
AcDbEntity
  8
AM_5
 62
     2
100
AcDbMText
 10
259.9088798083059
 20
461.4761674719711
 30
0.0
 40
7.0
 41
0.0
 71
     5
 72
     1
  1
180
 73
     1
 44
1.0
1001
ACAD
1000
MTEXTBEGIN
1070
    73
1070
     1
1070
    44
1040
1.0
1070
    74
1070
     0
1000
MTEXTEND
  0
POINT
  5
2D0C
330
2298
100
AcDbEntity
  8
Defpoints
 62
     0
100
AcDbPoint
 10
169.9088798083058
 20
435.3328201523798
 30
0.0
  0
POINT
  5
2D0D
330
2298
100
AcDbEntity
  8
Defpoints
 62
     0
100
AcDbPoint
 10
349.9088798083058
 20
435.3328201523797
 30
0.0
  0
POINT
  5
2D0E
330
2298
100
AcDbEntity
  8
Defpoints
 62
     0
100
AcDbPoint
 10
349.9088798083058
 20
454.9761674719711
 30
0.0
  0
ENDBLK
  5
22D3
330
2298
100
AcDbEntity
  8
0
100
AcDbBlockEnd
  0
BLOCK
  5
22D4
330
22BA
100
AcDbEntity
  8
0
100
AcDbBlockBegin
  2
*D17
 70
     1
 10
0.0
 20
0.0
 30
0.0
  3
*D17
  1

  0
LINE
  5
2D0F
330
22BA
100
AcDbEntity
  8
AM_5
  6
ByBlock
100
AcDbLine
 10
466.0435893819818
 20
438.3328201523798
 30
0.0
 11
466.0435893819818
 21
456.9761674719711
 31
0.0
  0
LINE
  5
2D10
330
22BA
100
AcDbEntity
  8
AM_5
  6
ByBlock
100
AcDbLine
 10
716.0435893819818
 20
438.3328201523799
 30
0.0
 11
716.0435893819818
 21
456.9761674719711
 31
0.0
  0
LINE
  5
2D11
330
22BA
100
AcDbEntity
  8
AM_5
  6
ByBlock
100
AcDbLine
 10
473.0435893819818
 20
454.9761674719711
 30
0.0
 11
709.0435893819818
 21
454.9761674719711
 31
0.0
  0
SOLID
  5
2D12
330
22BA
100
AcDbEntity
  8
AM_5
100
AcDbTrace
 10
473.0435893819818
 20
456.1428341386378
 30
0.0
 11
473.0435893819818
 21
453.8095008053044
 31
0.0
 12
466.0435893819818
 22
454.9761674719711
 32
0.0
 13
466.0435893819818
 23
454.9761674719711
 33
0.0
  0
SOLID
  5
2D13
330
22BA
100
AcDbEntity
  8
AM_5
100
AcDbTrace
 10
709.0435893819818
 20
456.1428341386378
 30
0.0
 11
709.0435893819818
 21
453.8095008053044
 31
0.0
 12
716.0435893819818
 22
454.9761674719711
 32
0.0
 13
716.0435893819818
 23
454.9761674719711
 33
0.0
  0
MTEXT
  5
2D14
330
22BA
100
AcDbEntity
  8
AM_5
 62
     2
100
AcDbMText
 10
591.0435893819818
 20
461.476856448349
 30
0.0
 40
7.0
 41
0.0
 71
     5
 72
     1
  1
250
 73
     1
 44
1.0
1001
ACAD
1000
MTEXTBEGIN
1070
    73
1070
     1
1070
    44
1040
1.0
1070
    74
1070
     0
1000
MTEXTEND
  0
POINT
  5
2D15
330
22BA
100
AcDbEntity
  8
Defpoints
 62
     0
100
AcDbPoint
 10
466.0435893819818
 20
436.3328201523798
 30
0.0
  0
POINT
  5
2D16
330
22BA
100
AcDbEntity
  8
Defpoints
 62
     0
100
AcDbPoint
 10
716.0435893819818
 20
436.3328201523798
 30
0.0
  0
POINT
  5
2D17
330
22BA
100
AcDbEntity
  8
Defpoints
 62
     0
100
AcDbPoint
 10
716.0435893819818
 20
454.9761674719711
 30
0.0
  0
ENDBLK
  5
22D5
330
22BA
100
AcDbEntity
  8
0
100
AcDbBlockEnd
  0
BLOCK
  5
2BB5
330
2BB1
100
AcDbEntity
  8
0
100
AcDbBlockBegin
  2
*S18
 70
     1
 10
0.0
 20
0.0
 30
0.0
  3
*S18
  1

  0
CIRCLE
  5
2BB2
330
2BB1
100
AcDbEntity
  8
AM_12
 62
     4
100
AcDbCircle
 10
472.6202048818358
 20
395.2329092570339
 30
0.0
 40
3.5
  0
LINE
  5
2BB3
330
2BB1
100
AcDbEntity
  8
AM_12
 62
     4
100
AcDbLine
 10
469.1202048818358
 20
391.7329092570339
 30
0.0
 11
476.1202048818359
 21
398.732909257034
 31
0.0
  0
LINE
  5
2BB4
330
2BB1
100
AcDbEntity
  8
AM_12
 62
     4
100
AcDbLine
 10
469.1202048818358
 20
398.732909257034
 30
0.0
 11
476.1202048818359
 21
391.7329092570339
 31
0.0
  0
ENDBLK
  5
2BB6
330
2BB1
100
AcDbEntity
  8
0
100
AcDbBlockEnd
  0
BLOCK
  5
2BBD
330
2BB8
100
AcDbEntity
  8
0
100
AcDbBlockBegin
  2
*S19
 70
     1
 10
0.0
 20
0.0
 30
0.0
  3
*S19
  1

  0
LINE
  5
2BB9
330
2BB8
100
AcDbEntity
  8
AM_5
100
AcDbLine
 10
447.4809297516746
 20
421.6875519518088
 30
0.0
 11
467.7982162005219
 21
400.3071998633434
 31
0.0
  0
TRACE
  5
2BBA
330
2BB8
100
AcDbEntity
  8
AM_5
  6
Continuous
100
AcDbTrace
 10
467.1301731716977
 20
399.6723730129427
 30
0.0
 11
468.4662592293462
 21
400.9420267137441
 31
0.0
 12
472.6202048818358
 22
395.2329092570339
 32
0.0
 13
472.6202048818358
 23
395.2329092570339
 33
0.0
  0
MTEXT
  5
2BBB
330
2BB8
100
AcDbEntity
  8
AM_5
 62
     7
100
AcDbMText
 10
439.0424495593754
 20
430.5675605128503
 30
0.0
 40
7.0
 41
0.0
 71
     5
 72
     5
  1
1
  7
ACISOTS
 73
     1
 44
1.0
1001
ACAD
1000
MTEXTBEGIN
1070
    73
1070
     1
1070
    44
1040
1.0
1070
    74
1070
     0
1000
MTEXTEND
  0
CIRCLE
  5
2BBC
330
2BB8
100
AcDbEntity
  8
AM_5
 62
     3
100
AcDbCircle
 10
439.0424495593754
 20
430.5675605128503
 30
0.0
 40
12.25
  0
ENDBLK
  5
2BBE
330
2BB8
100
AcDbEntity
  8
0
100
AcDbBlockEnd
  0
BLOCK
  5
2BC4
330
2BC0
100
AcDbEntity
  8
0
100
AcDbBlockBegin
  2
*S20
 70
     1
 10
0.0
 20
0.0
 30
0.0
  3
*S20
  1

  0
CIRCLE
  5
2BC1
330
2BC0
100
AcDbEntity
  8
AM_12
 62
     4
100
AcDbCircle
 10
332.4421307705552
 20
336.3842000951381
 30
0.0
 40
3.5
  0
LINE
  5
2BC2
330
2BC0
100
AcDbEntity
  8
AM_12
 62
     4
100
AcDbLine
 10
328.9421307705552
 20
332.8842000951381
 30
0.0
 11
335.9421307705552
 21
339.8842000951381
 31
0.0
  0
LINE
  5
2BC3
330
2BC0
100
AcDbEntity
  8
AM_12
 62
     4
100
AcDbLine
 10
328.9421307705552
 20
339.8842000951381
 30
0.0
 11
335.9421307705552
 21
332.8842000951381
 31
0.0
  0
ENDBLK
  5
2BC5
330
2BC0
100
AcDbEntity
  8
0
100
AcDbBlockEnd
  0
BLOCK
  5
2BCC
330
2BC7
100
AcDbEntity
  8
0
100
AcDbBlockBegin
  2
*S21
 70
     1
 10
0.0
 20
0.0
 30
0.0
  3
*S21
  1

  0
LINE
  5
2BC8
330
2BC7
100
AcDbEntity
  8
AM_5
100
AcDbLine
 10
371.2342396859413
 20
310.5335827572818
 30
0.0
 11
338.2672304329349
 21
332.5024203585554
 31
0.0
  0
TRACE
  5
2BC9
330
2BC7
100
AcDbEntity
  8
AM_5
  6
Continuous
100
AcDbTrace
 10
338.77827642806
 20
333.2693092743816
 30
0.0
 11
337.7561844378098
 21
331.7355314427293
 31
0.0
 12
332.4421307705552
 22
336.3842000951381
 32
0.0
 13
332.4421307705552
 23
336.3842000951381
 33
0.0
  0
MTEXT
  5
2BCA
330
2BC7
100
AcDbEntity
  8
AM_5
 62
     7
100
AcDbMText
 10
381.4281640951058
 20
303.7404682182621
 30
0.0
 40
7.0
 41
0.0
 71
     5
 72
     5
  1
2
  7
ACISOTS
 73
     1
 44
1.0
1001
ACAD
1000
MTEXTBEGIN
1070
    73
1070
     1
1070
    44
1040
1.0
1070
    74
1070
     0
1000
MTEXTEND
  0
CIRCLE
  5
2BCB
330
2BC7
100
AcDbEntity
  8
AM_5
 62
     3
100
AcDbCircle
 10
381.4281640951058
 20
303.7404682182621
 30
0.0
 40
12.25
  0
ENDBLK
  5
2BCD
330
2BC7
100
AcDbEntity
  8
0
100
AcDbBlockEnd
  0
BLOCK
  5
2BD3
330
2BCF
100
AcDbEntity
  8
0
100
AcDbBlockBegin
  2
*S22
 70
     1
 10
0.0
 20
0.0
 30
0.0
  3
*S22
  1

  0
CIRCLE
  5
2BD0
330
2BCF
100
AcDbEntity
  8
AM_12
 62
     4
100
AcDbCircle
 10
562.9399238515454
 20
191.0744173066448
 30
0.0
 40
3.5
  0
LINE
  5
2BD1
330
2BCF
100
AcDbEntity
  8
AM_12
 62
     4
100
AcDbLine
 10
559.4399238515454
 20
187.5744173066448
 30
0.0
 11
566.4399238515454
 21
194.5744173066448
 31
0.0
  0
LINE
  5
2BD2
330
2BCF
100
AcDbEntity
  8
AM_12
 62
     4
100
AcDbLine
 10
559.4399238515454
 20
194.5744173066448
 30
0.0
 11
566.4399238515454
 21
187.5744173066448
 31
0.0
  0
ENDBLK
  5
2BD4
330
2BCF
100
AcDbEntity
  8
0
100
AcDbBlockEnd
  0
BLOCK
  5
2BDB
330
2BD6
100
AcDbEntity
  8
0
100
AcDbBlockBegin
  2
*S23
 70
     1
 10
0.0
 20
0.0
 30
0.0
  3
*S23
  1

  0
LINE
  5
2BD7
330
2BD6
100
AcDbEntity
  8
AM_5
100
AcDbLine
 10
545.4103193938466
 20
219.7219730112875
 30
0.0
 11
559.2863197832551
 21
197.0452779910162
 31
0.0
  0
TRACE
  5
2BD8
330
2BD6
100
AcDbEntity
  8
AM_5
  6
Continuous
100
AcDbTrace
 10
558.5002410649186
 20
196.5642718923764
 30
0.0
 11
560.0723985015918
 21
197.526284089656
 31
0.0
 12
562.9399238515454
 22
191.0744173066448
 32
0.0
 13
562.9399238515454
 23
191.0744173066448
 33
0.0
  0
MTEXT
  5
2BD9
330
2BD6
100
AcDbEntity
  8
AM_5
 62
     7
100
AcDbMText
 10
539.0165122743385
 20
230.1709792089375
 30
0.0
 40
7.0
 41
0.0
 71
     5
 72
     5
  1
3
  7
ACISOTS
 73
     1
 44
1.0
1001
ACAD
1000
MTEXTBEGIN
1070
    73
1070
     1
1070
    44
1040
1.0
1070
    74
1070
     0
1000
MTEXTEND
  0
CIRCLE
  5
2BDA
330
2BD6
100
AcDbEntity
  8
AM_5
 62
     3
100
AcDbCircle
 10
539.0165122743385
 20
230.1709792089375
 30
0.0
 40
12.25
  0
ENDBLK
  5
2BDC
330
2BD6
100
AcDbEntity
  8
0
100
AcDbBlockEnd
  0
BLOCK
  5
2BE2
330
2BDE
100
AcDbEntity
  8
0
100
AcDbBlockBegin
  2
*S24
 70
     1
 10
0.0
 20
0.0
 30
0.0
  3
*S24
  1

  0
CIRCLE
  5
2BDF
330
2BDE
100
AcDbEntity
  8
AM_12
 62
     4
100
AcDbCircle
 10
617.0821024483209
 20
190.891751817792
 30
0.0
 40
3.5
  0
LINE
  5
2BE0
330
2BDE
100
AcDbEntity
  8
AM_12
 62
     4
100
AcDbLine
 10
613.5821024483209
 20
187.391751817792
 30
0.0
 11
620.5821024483209
 21
194.391751817792
 31
0.0
  0
LINE
  5
2BE1
330
2BDE
100
AcDbEntity
  8
AM_12
 62
     4
100
AcDbLine
 10
613.5821024483209
 20
194.391751817792
 30
0.0
 11
620.5821024483209
 21
187.391751817792
 31
0.0
  0
ENDBLK
  5
2BE3
330
2BDE
100
AcDbEntity
  8
0
100
AcDbBlockEnd
  0
BLOCK
  5
2BEA
330
2BE5
100
AcDbEntity
  8
0
100
AcDbBlockBegin
  2
*S25
 70
     1
 10
0.0
 20
0.0
 30
0.0
  3
*S25
  1

  0
LINE
  5
2BE6
330
2BE5
100
AcDbEntity
  8
AM_5
100
AcDbLine
 10
600.0701234838035
 20
220.7394839842125
 30
0.0
 11
613.6158700493645
 21
196.9733003834474
 31
0.0
  0
TRACE
  5
2BE7
330
2BE5
100
AcDbEntity
  8
AM_5
  6
Continuous
100
AcDbTrace
 10
612.8152189950692
 20
196.5169622329425
 30
0.0
 11
614.4165211036598
 21
197.4296385339523
 31
0.0
 12
617.0821024483209
 22
190.891751817792
 32
0.0
 13
617.0821024483209
 23
190.891751817792
 33
0.0
  0
MTEXT
  5
2BE8
330
2BE5
100
AcDbEntity
  8
AM_5
 62
     7
100
AcDbMText
 10
594.0042167856297
 20
231.3821939741095
 30
0.0
 40
7.0
 41
0.0
 71
     5
 72
     5
  1
4
  7
ACISOTS
 73
     1
 44
1.0
1001
ACAD
1000
MTEXTBEGIN
1070
    73
1070
     1
1070
    44
1040
1.0
1070
    74
1070
     0
1000
MTEXTEND
  0
CIRCLE
  5
2BE9
330
2BE5
100
AcDbEntity
  8
AM_5
 62
     3
100
AcDbCircle
 10
594.0042167856297
 20
231.3821939741095
 30
0.0
 40
12.25
  0
ENDBLK
  5
2BEB
330
2BE5
100
AcDbEntity
  8
0
100
AcDbBlockEnd
  0
BLOCK
  5
2BF1
330
2BED
100
AcDbEntity
  8
0
100
AcDbBlockBegin
  2
*S26
 70
     1
 10
0.0
 20
0.0
 30
0.0
  3
*S26
  1

  0
CIRCLE
  5
2BEE
330
2BED
100
AcDbEntity
  8
AM_12
 62
     4
100
AcDbCircle
 10
673.7278265192301
 20
192.5049171876205
 30
0.0
 40
3.5
  0
LINE
  5
2BEF
330
2BED
100
AcDbEntity
  8
AM_12
 62
     4
100
AcDbLine
 10
670.2278265192301
 20
189.0049171876205
 30
0.0
 11
677.2278265192301
 21
196.0049171876205
 31
0.0
  0
LINE
  5
2BF0
330
2BED
100
AcDbEntity
  8
AM_12
 62
     4
100
AcDbLine
 10
670.2278265192301
 20
196.0049171876205
 30
0.0
 11
677.2278265192301
 21
189.0049171876205
 31
0.0
  0
ENDBLK
  5
2BF2
330
2BED
100
AcDbEntity
  8
0
100
AcDbBlockEnd
  0
BLOCK
  5
2BF9
330
2BF4
100
AcDbEntity
  8
0
100
AcDbBlockBegin
  2
*S27
 70
     1
 10
0.0
 20
0.0
 30
0.0
  3
*S27
  1

  0
LINE
  5
2BF5
330
2BF4
100
AcDbEntity
  8
AM_5
100
AcDbLine
 10
656.8124217274829
 20
220.5680779955942
 30
0.0
 11
670.1141885665012
 21
198.5000502759345
 31
0.0
  0
TRACE
  5
2BF6
330
2BF4
100
AcDbEntity
  8
AM_5
  6
Continuous
100
AcDbTrace
 10
669.3249143255773
 20
198.0243058162038
 30
0.0
 11
670.903462807425
 21
198.9757947356652
 31
0.0
 12
673.7278265192301
 22
192.5049171876205
 32
0.0
 13
673.7278265192301
 23
192.5049171876205
 33
0.0
  0
MTEXT
  5
2BF7
330
2BF4
100
AcDbEntity
  8
AM_5
 62
     7
100
AcDbMText
 10
650.4885553102074
 20
231.0595609001437
 30
0.0
 40
7.0
 41
0.0
 71
     5
 72
     5
  1
5
  7
ACISOTS
 73
     1
 44
1.0
1001
ACAD
1000
MTEXTBEGIN
1070
    73
1070
     1
1070
    44
1040
1.0
1070
    74
1070
     0
1000
MTEXTEND
  0
CIRCLE
  5
2BF8
330
2BF4
100
AcDbEntity
  8
AM_5
 62
     3
100
AcDbCircle
 10
650.4885553102074
 20
231.0595609001437
 30
0.0
 40
12.25
  0
ENDBLK
  5
2BFA
330
2BF4
100
AcDbEntity
  8
0
100
AcDbBlockEnd
  0
BLOCK
  5
2C49
330
2BFC
100
AcDbEntity
  8
0
100
AcDbBlockBegin
  2
*S28
 70
     1
 10
0.0
 20
0.0
 30
0.0
  3
*S28
  1

  0
LINE
  5
2BFD
330
2BFC
100
AcDbEntity
  8
0
 62
     1
100
AcDbLine
 10
430.0
 20
532.95
 30
0.0
 11
816.0
 21
532.95
 31
0.0
  0
LINE
  5
2BFE
330
2BFC
100
AcDbEntity
  8
0
 62
     1
100
AcDbLine
 10
430.0
 20
520.6
 30
0.0
 11
816.0
 21
520.6
 31
0.0
  0
LINE
  5
2BFF
330
2BFC
100
AcDbEntity
  8
0
 62
     1
100
AcDbLine
 10
430.0
 20
508.25
 30
0.0
 11
816.0
 21
508.25
 31
0.0
  0
LINE
  5
2C00
330
2BFC
100
AcDbEntity
  8
0
 62
     1
100
AcDbLine
 10
430.0
 20
495.8999999999999
 30
0.0
 11
816.0
 21
495.8999999999999
 31
0.0
  0
LINE
  5
2C01
330
2BFC
100
AcDbEntity
  8
0
 62
     1
100
AcDbLine
 10
430.0
 20
483.55
 30
0.0
 11
816.0
 21
483.55
 31
0.0
  0
MTEXT
  5
2C02
330
2BFC
100
AcDbEntity
  8
0
 62
     2
100
AcDbMText
 10
445.0
 20
542.6
 30
0.0
 40
7.0
 41
26.4
 71
     2
 72
     5
  1
1
  7
ACISOTS
 73
     1
 44
1.0
1001
ACAD
1000
MTEXTBEGIN
1070
    73
1070
     1
1070
    44
1040
1.0
1070
    74
1070
     0
1000
MTEXTEND
  0
LINE
  5
2C03
330
2BFC
100
AcDbEntity
  8
0
 62
     1
100
AcDbLine
 10
460.0
 20
545.2999999999999
 30
0.0
 11
460.0
 21
532.95
 31
0.0
  0
MTEXT
  5
2C04
330
2BFC
100
AcDbEntity
  8
0
 62
     2
100
AcDbMText
 10
461.8
 20
542.6
 30
0.0
 40
7.0
 41
116.4
 71
     1
 72
     5
  1
カバー
  7
ACISOTS
 73
     1
 44
1.0
1001
ACAD
1000
MTEXTBEGIN
1070
    73
1070
     1
1070
    44
1040
1.0
1070
    74
1070
     0
1000
MTEXTEND
  0
LINE
  5
2C05
330
2BFC
100
AcDbEntity
  8
0
 62
     1
100
AcDbLine
 10
580.0
 20
545.2999999999999
 30
0.0
 11
580.0
 21
532.95
 31
0.0
  0
MTEXT
  5
2C06
330
2BFC
100
AcDbEntity
  8
0
 62
     2
100
AcDbMText
 10
595.0
 20
542.6
 30
0.0
 40
7.0
 41
26.4
 71
     2
 72
     5
  1
1
  7
ACISOTS
 73
     1
 44
1.0
1001
ACAD
1000
MTEXTBEGIN
1070
    73
1070
     1
1070
    44
1040
1.0
1070
    74
1070
     0
1000
MTEXTEND
  0
LINE
  5
2C07
330
2BFC
100
AcDbEntity
  8
0
 62
     1
100
AcDbLine
 10
610.0
 20
545.2999999999999
 30
0.0
 11
610.0
 21
532.95
 31
0.0
  0
MTEXT
  5
2C08
330
2BFC
100
AcDbEntity
  8
0
 62
     2
100
AcDbMText
 10
611.7999999999999
 20
542.6
 30
0.0
 40
7.0
 41
76.4
 71
     1
 72
     5
  1
SECC t1.0
  7
ACISOTS
 73
     1
 44
1.0
1001
ACAD
1000
MTEXTBEGIN
1070
    73
1070
     1
1070
    44
1040
1.0
1070
    74
1070
     0
1000
MTEXTEND
  0
LINE
  5
2C09
330
2BFC
100
AcDbEntity
  8
0
 62
     1
100
AcDbLine
 10
690.0
 20
545.2999999999999
 30
0.0
 11
690.0
 21
532.95
 31
0.0
  0
MTEXT
  5
2C0A
330
2BFC
100
AcDbEntity
  8
0
 62
     2
100
AcDbMText
 10
691.7999999999999
 20
542.6
 30
0.0
 40
7.0
 41
122.4
 71
     1
 72
     5
  1
黒塗装(ワントーン塗装)
  7
ACISOTS
 73
     1
 44
1.0
1001
ACAD
1000
MTEXTBEGIN
1070
    73
1070
     1
1070
    44
1040
1.0
1070
    74
1070
     0
1000
MTEXTEND
  0
MTEXT
  5
2C0B
330
2BFC
100
AcDbEntity
  8
0
 62
     2
100
AcDbMText
 10
445.0
 20
530.25
 30
0.0
 40
7.0
 41
26.4
 71
     2
 72
     5
  1
2
  7
ACISOTS
 73
     1
 44
1.0
1001
ACAD
1000
MTEXTBEGIN
1070
    73
1070
     1
1070
    44
1040
1.0
1070
    74
1070
     0
1000
MTEXTEND
  0
LINE
  5
2C0C
330
2BFC
100
AcDbEntity
  8
0
 62
     1
100
AcDbLine
 10
460.0
 20
532.95
 30
0.0
 11
460.0
 21
520.6
 31
0.0
  0
MTEXT
  5
2C0D
330
2BFC
100
AcDbEntity
  8
0
 62
     2
100
AcDbMText
 10
461.8
 20
530.25
 30
0.0
 40
7.0
 41
116.4
 71
     1
 72
     5
  1
シャーシ
  7
ACISOTS
 73
     1
 44
1.0
1001
ACAD
1000
MTEXTBEGIN
1070
    73
1070
     1
1070
    44
1040
1.0
1070
    74
1070
     0
1000
MTEXTEND
  0
LINE
  5
2C0E
330
2BFC
100
AcDbEntity
  8
0
 62
     1
100
AcDbLine
 10
580.0
 20
532.95
 30
0.0
 11
580.0
 21
520.6
 31
0.0
  0
MTEXT
  5
2C0F
330
2BFC
100
AcDbEntity
  8
0
 62
     2
100
AcDbMText
 10
595.0
 20
530.25
 30
0.0
 40
7.0
 41
26.4
 71
     2
 72
     5
  1
1
  7
ACISOTS
 73
     1
 44
1.0
1001
ACAD
1000
MTEXTBEGIN
1070
    73
1070
     1
1070
    44
1040
1.0
1070
    74
1070
     0
1000
MTEXTEND
  0
LINE
  5
2C10
330
2BFC
100
AcDbEntity
  8
0
 62
     1
100
AcDbLine
 10
610.0
 20
532.95
 30
0.0
 11
610.0
 21
520.6
 31
0.0
  0
MTEXT
  5
2C11
330
2BFC
100
AcDbEntity
  8
0
 62
     2
100
AcDbMText
 10
611.7999999999999
 20
530.25
 30
0.0
 40
7.0
 41
76.4
 71
     1
 72
     5
  1
A1100P-H24 t1.2
  7
ACISOTS
 73
     1
 44
1.0
1001
ACAD
1000
MTEXTBEGIN
1070
    73
1070
     1
1070
    44
1040
1.0
1070
    74
1070
     0
1000
MTEXTEND
  0
LINE
  5
2C12
330
2BFC
100
AcDbEntity
  8
0
 62
     1
100
AcDbLine
 10
690.0
 20
532.95
 30
0.0
 11
690.0
 21
520.6
 31
0.0
  0
MTEXT
  5
2C13
330
2BFC
100
AcDbEntity
  8
0
 62
     2
100
AcDbMText
 10
691.7999999999999
 20
530.25
 30
0.0
 40
7.0
 41
122.4
 71
     1
 72
     5
  1
カラーアルミシルバー
  7
ACISOTS
 73
     1
 44
1.0
1001
ACAD
1000
MTEXTBEGIN
1070
    73
1070
     1
1070
    44
1040
1.0
1070
    74
1070
     0
1000
MTEXTEND
  0
MTEXT
  5
2C14
330
2BFC
100
AcDbEntity
  8
0
 62
     2
100
AcDbMText
 10
445.0
 20
517.9
 30
0.0
 40
7.0
 41
26.4
 71
     2
 72
     5
  1
3
  7
ACISOTS
 73
     1
 44
1.0
1001
ACAD
1000
MTEXTBEGIN
1070
    73
1070
     1
1070
    44
1040
1.0
1070
    74
1070
     0
1000
MTEXTEND
  0
LINE
  5
2C15
330
2BFC
100
AcDbEntity
  8
0
 62
     1
100
AcDbLine
 10
460.0
 20
520.6
 30
0.0
 11
460.0
 21
508.25
 31
0.0
  0
MTEXT
  5
2C16
330
2BFC
100
AcDbEntity
  8
0
 62
     2
100
AcDbMText
 10
461.8
 20
517.9
 30
0.0
 40
7.0
 41
116.4
 71
     1
 72
     5
  1
ゴム足(B-P3)
  7
ACISOTS
 73
     1
 44
1.0
1001
ACAD
1000
MTEXTBEGIN
1070
    73
1070
     1
1070
    44
1040
1.0
1070
    74
1070
     0
1000
MTEXTEND
  0
LINE
  5
2C17
330
2BFC
100
AcDbEntity
  8
0
 62
     1
100
AcDbLine
 10
580.0
 20
520.6
 30
0.0
 11
580.0
 21
508.25
 31
0.0
  0
MTEXT
  5
2C18
330
2BFC
100
AcDbEntity
  8
0
 62
     2
100
AcDbMText
 10
595.0
 20
517.9
 30
0.0
 40
7.0
 41
26.4
 71
     2
 72
     5
  1
4
  7
ACISOTS
 73
     1
 44
1.0
1001
ACAD
1000
MTEXTBEGIN
1070
    73
1070
     1
1070
    44
1040
1.0
1070
    74
1070
     0
1000
MTEXTEND
  0
LINE
  5
2C19
330
2BFC
100
AcDbEntity
  8
0
 62
     1
100
AcDbLine
 10
610.0
 20
520.6
 30
0.0
 11
610.0
 21
508.25
 31
0.0
  0
MTEXT
  5
2C1A
330
2BFC
100
AcDbEntity
  8
0
 62
     2
100
AcDbMText
 10
611.7999999999999
 20
517.9
 30
0.0
 40
7.0
 41
76.4
 71
     1
 72
     5
  1
天然ゴム
  7
ACISOTS
 73
     1
 44
1.0
1001
ACAD
1000
MTEXTBEGIN
1070
    73
1070
     1
1070
    44
1040
1.0
1070
    74
1070
     0
1000
MTEXTEND
  0
LINE
  5
2C1B
330
2BFC
100
AcDbEntity
  8
0
 62
     1
100
AcDbLine
 10
690.0
 20
520.6
 30
0.0
 11
690.0
 21
508.25
 31
0.0
  0
MTEXT
  5
2C1C
330
2BFC
100
AcDbEntity
  8
0
 62
     2
100
AcDbMText
 10
691.7999999999999
 20
517.9
 30
0.0
 40
7.0
 41
122.4
 71
     1
 72
     5
  1
黒
  7
ACISOTS
 73
     1
 44
1.0
1001
ACAD
1000
MTEXTBEGIN
1070
    73
1070
     1
1070
    44
1040
1.0
1070
    74
1070
     0
1000
MTEXTEND
  0
MTEXT
  5
2C1D
330
2BFC
100
AcDbEntity
  8
0
 62
     2
100
AcDbMText
 10
445.0
 20
505.55
 30
0.0
 40
7.0
 41
26.4
 71
     2
 72
     5
  1
4
  7
ACISOTS
 73
     1
 44
1.0
1001
ACAD
1000
MTEXTBEGIN
1070
    73
1070
     1
1070
    44
1040
1.0
1070
    74
1070
     0
1000
MTEXTEND
  0
LINE
  5
2C1E
330
2BFC
100
AcDbEntity
  8
0
 62
     1
100
AcDbLine
 10
460.0
 20
508.25
 30
0.0
 11
460.0
 21
495.8999999999999
 31
0.0
  0
MTEXT
  5
2C1F
330
2BFC
100
AcDbEntity
  8
0
 62
     2
100
AcDbMText
 10
461.8
 20
505.55
 30
0.0
 40
7.0
 41
116.4
 71
     1
 72
     5
  1
ゴム足取付ビス(ﾅﾍﾞM3×10)
  7
ACISOTS
 73
     1
 44
1.0
1001
ACAD
1000
MTEXTBEGIN
1070
    73
1070
     1
1070
    44
1040
1.0
1070
    74
1070
     0
1000
MTEXTEND
  0
LINE
  5
2C20
330
2BFC
100
AcDbEntity
  8
0
 62
     1
100
AcDbLine
 10
580.0
 20
508.25
 30
0.0
 11
580.0
 21
495.8999999999999
 31
0.0
  0
MTEXT
  5
2C21
330
2BFC
100
AcDbEntity
  8
0
 62
     2
100
AcDbMText
 10
595.0
 20
505.55
 30
0.0
 40
7.0
 41
26.4
 71
     2
 72
     5
  1
4
  7
ACISOTS
 73
     1
 44
1.0
1001
ACAD
1000
MTEXTBEGIN
1070
    73
1070
     1
1070
    44
1040
1.0
1070
    74
1070
     0
1000
MTEXTEND
  0
LINE
  5
2C22
330
2BFC
100
AcDbEntity
  8
0
 62
     1
100
AcDbLine
 10
610.0
 20
508.25
 30
0.0
 11
610.0
 21
495.8999999999999
 31
0.0
  0
MTEXT
  5
2C23
330
2BFC
100
AcDbEntity
  8
0
 62
     2
100
AcDbMText
 10
611.7999999999999
 20
505.55
 30
0.0
 40
7.0
 41
76.4
 71
     1
 72
     5
  1
鉄
  7
ACISOTS
 73
     1
 44
1.0
1001
ACAD
1000
MTEXTBEGIN
1070
    73
1070
     1
1070
    44
1040
1.0
1070
    74
1070
     0
1000
MTEXTEND
  0
LINE
  5
2C24
330
2BFC
100
AcDbEntity
  8
0
 62
     1
100
AcDbLine
 10
690.0
 20
508.25
 30
0.0
 11
690.0
 21
495.8999999999999
 31
0.0
  0
MTEXT
  5
2C25
330
2BFC
100
AcDbEntity
  8
0
 62
     2
100
AcDbMText
 10
691.7999999999999
 20
505.55
 30
0.0
 40
7.0
 41
122.4
 71
     1
 72
     5
  1
三価クローメイト
  7
ACISOTS
 73
     1
 44
1.0
1001
ACAD
1000
MTEXTBEGIN
1070
    73
1070
     1
1070
    44
1040
1.0
1070
    74
1070
     0
1000
MTEXTEND
  0
MTEXT
  5
2C26
330
2BFC
100
AcDbEntity
  8
0
 62
     2
100
AcDbMText
 10
445.0
 20
493.2
 30
0.0
 40
7.0
 41
26.4
 71
     2
 72
     5
  1
5
  7
ACISOTS
 73
     1
 44
1.0
1001
ACAD
1000
MTEXTBEGIN
1070
    73
1070
     1
1070
    44
1040
1.0
1070
    74
1070
     0
1000
MTEXTEND
  0
LINE
  5
2C27
330
2BFC
100
AcDbEntity
  8
0
 62
     1
100
AcDbLine
 10
460.0
 20
495.8999999999999
 30
0.0
 11
460.0
 21
483.55
 31
0.0
  0
MTEXT
  5
2C28
330
2BFC
100
AcDbEntity
  8
0
 62
     2
100
AcDbMText
 10
461.8
 20
493.2
 30
0.0
 40
7.0
 41
116.4
 71
     1
 72
     5
  1
取付ビス(ﾄﾗｽM3×5)
  7
ACISOTS
 73
     1
 44
1.0
1001
ACAD
1000
MTEXTBEGIN
1070
    73
1070
     1
1070
    44
1040
1.0
1070
    74
1070
     0
1000
MTEXTEND
  0
LINE
  5
2C29
330
2BFC
100
AcDbEntity
  8
0
 62
     1
100
AcDbLine
 10
580.0
 20
495.8999999999999
 30
0.0
 11
580.0
 21
483.55
 31
0.0
  0
MTEXT
  5
2C2A
330
2BFC
100
AcDbEntity
  8
0
 62
     2
100
AcDbMText
 10
595.0
 20
493.2
 30
0.0
 40
7.0
 41
26.4
 71
     2
 72
     5
  1
4
  7
ACISOTS
 73
     1
 44
1.0
1001
ACAD
1000
MTEXTBEGIN
1070
    73
1070
     1
1070
    44
1040
1.0
1070
    74
1070
     0
1000
MTEXTEND
  0
LINE
  5
2C2B
330
2BFC
100
AcDbEntity
  8
0
 62
     1
100
AcDbLine
 10
610.0
 20
495.8999999999999
 30
0.0
 11
610.0
 21
483.55
 31
0.0
  0
MTEXT
  5
2C2C
330
2BFC
100
AcDbEntity
  8
0
 62
     2
100
AcDbMText
 10
611.7999999999999
 20
493.2
 30
0.0
 40
7.0
 41
76.4
 71
     1
 72
     5
  1
真ちゅう
  7
ACISOTS
 73
     1
 44
1.0
1001
ACAD
1000
MTEXTBEGIN
1070
    73
1070
     1
1070
    44
1040
1.0
1070
    74
1070
     0
1000
MTEXTEND
  0
LINE
  5
2C2D
330
2BFC
100
AcDbEntity
  8
0
 62
     1
100
AcDbLine
 10
690.0
 20
495.8999999999999
 30
0.0
 11
690.0
 21
483.55
 31
0.0
  0
MTEXT
  5
2C2E
330
2BFC
100
AcDbEntity
  8
0
 62
     2
100
AcDbMText
 10
691.7999999999999
 20
493.2
 30
0.0
 40
7.0
 41
122.4
 71
     1
 72
     5
  1
ニッケルメッキ
  7
ACISOTS
 73
     1
 44
1.0
1001
ACAD
1000
MTEXTBEGIN
1070
    73
1070
     1
1070
    44
1040
1.0
1070
    74
1070
     0
1000
MTEXTEND
  0
MTEXT
  5
2C2F
330
2BFC
100
AcDbEntity
  8
0
 62
     2
100
AcDbMText
 10
445.0
 20
480.85
 30
0.0
 40
7.0
 41
26.4
 71
     2
 72
     5
  1
6
  7
ACISOTS
 73
     1
 44
1.0
1001
ACAD
1000
MTEXTBEGIN
1070
    73
1070
     1
1070
    44
1040
1.0
1070
    74
1070
     0
1000
MTEXTEND
  0
LINE
  5
2C30
330
2BFC
100
AcDbEntity
  8
0
 62
     1
100
AcDbLine
 10
460.0
 20
483.55
 30
0.0
 11
460.0
 21
471.1999999999999
 31
0.0
  0
MTEXT
  5
2C31
330
2BFC
100
AcDbEntity
  8
0
 62
     2
100
AcDbMText
 10
461.8
 20
480.85
 30
0.0
 40
7.0
 41
116.4
 71
     1
 72
     5
  1
M3用平ワッシャー
  7
ACISOTS
 73
     1
 44
1.0
1001
ACAD
1000
MTEXTBEGIN
1070
    73
1070
     1
1070
    44
1040
1.0
1070
    74
1070
     0
1000
MTEXTEND
  0
LINE
  5
2C32
330
2BFC
100
AcDbEntity
  8
0
 62
     1
100
AcDbLine
 10
580.0
 20
483.55
 30
0.0
 11
580.0
 21
471.1999999999999
 31
0.0
  0
MTEXT
  5
2C33
330
2BFC
100
AcDbEntity
  8
0
 62
     2
100
AcDbMText
 10
595.0
 20
480.85
 30
0.0
 40
7.0
 41
26.4
 71
     2
 72
     5
  1
8
  7
ACISOTS
 73
     1
 44
1.0
1001
ACAD
1000
MTEXTBEGIN
1070
    73
1070
     1
1070
    44
1040
1.0
1070
    74
1070
     0
1000
MTEXTEND
  0
LINE
  5
2C34
330
2BFC
100
AcDbEntity
  8
0
 62
     1
100
AcDbLine
 10
610.0
 20
483.55
 30
0.0
 11
610.0
 21
471.1999999999999
 31
0.0
  0
MTEXT
  5
2C35
330
2BFC
100
AcDbEntity
  8
0
 62
     2
100
AcDbMText
 10
611.7999999999999
 20
480.85
 30
0.0
 40
7.0
 41
76.4
 71
     1
 72
     5
  1
真ちゅう
  7
ACISOTS
 73
     1
 44
1.0
1001
ACAD
1000
MTEXTBEGIN
1070
    73
1070
     1
1070
    44
1040
1.0
1070
    74
1070
     0
1000
MTEXTEND
  0
LINE
  5
2C36
330
2BFC
100
AcDbEntity
  8
0
 62
     1
100
AcDbLine
 10
690.0
 20
483.55
 30
0.0
 11
690.0
 21
471.1999999999999
 31
0.0
  0
MTEXT
  5
2C37
330
2BFC
100
AcDbEntity
  8
0
 62
     2
100
AcDbMText
 10
691.7999999999999
 20
480.85
 30
0.0
 40
7.0
 41
122.4
 71
     1
 72
     5
  1
ニッケルメッキ
  7
ACISOTS
 73
     1
 44
1.0
1001
ACAD
1000
MTEXTBEGIN
1070
    73
1070
     1
1070
    44
1040
1.0
1070
    74
1070
     0
1000
MTEXTEND
  0
LINE
  5
2C38
330
2BFC
100
AcDbEntity
  8
0
 62
     1
100
AcDbLine
 10
430.0
 20
545.2999999999999
 30
0.0
 11
816.0
 21
545.2999999999999
 31
0.0
  0
MTEXT
  5
2C39
330
2BFC
100
AcDbEntity
  8
0
 62
     2
100
AcDbMText
 10
445.0
 20
554.95
 30
0.0
 40
7.0
 41
26.4
 71
     2
 72
     5
  1
照番
  7
ACISOTS
 73
     1
 44
1.0
1001
ACAD
1000
MTEXTBEGIN
1070
    73
1070
     1
1070
    44
1040
1.0
1070
    74
1070
     0
1000
MTEXTEND
  0
LINE
  5
2C3A
330
2BFC
100
AcDbEntity
  8
0
 62
     1
100
AcDbLine
 10
460.0
 20
557.65
 30
0.0
 11
460.0
 21
545.2999999999999
 31
0.0
  0
MTEXT
  5
2C3B
330
2BFC
100
AcDbEntity
  8
0
 62
     2
100
AcDbMText
 10
520.0
 20
554.95
 30
0.0
 40
7.0
 41
116.4
 71
     2
 72
     5
  1
名称
  7
ACISOTS
 73
     1
 44
1.0
1001
ACAD
1000
MTEXTBEGIN
1070
    73
1070
     1
1070
    44
1040
1.0
1070
    74
1070
     0
1000
MTEXTEND
  0
LINE
  5
2C3C
330
2BFC
100
AcDbEntity
  8
0
 62
     1
100
AcDbLine
 10
580.0
 20
557.65
 30
0.0
 11
580.0
 21
545.2999999999999
 31
0.0
  0
MTEXT
  5
2C3D
330
2BFC
100
AcDbEntity
  8
0
 62
     2
100
AcDbMText
 10
595.0
 20
554.95
 30
0.0
 40
7.0
 41
26.4
 71
     2
 72
     5
  1
数量
  7
ACISOTS
 73
     1
 44
1.0
1001
ACAD
1000
MTEXTBEGIN
1070
    73
1070
     1
1070
    44
1040
1.0
1070
    74
1070
     0
1000
MTEXTEND
  0
LINE
  5
2C3E
330
2BFC
100
AcDbEntity
  8
0
 62
     1
100
AcDbLine
 10
610.0
 20
557.65
 30
0.0
 11
610.0
 21
545.2999999999999
 31
0.0
  0
MTEXT
  5
2C3F
330
2BFC
100
AcDbEntity
  8
0
 62
     2
100
AcDbMText
 10
650.0
 20
554.95
 30
0.0
 40
7.0
 41
76.4
 71
     2
 72
     5
  1
材質
  7
ACISOTS
 73
     1
 44
1.0
1001
ACAD
1000
MTEXTBEGIN
1070
    73
1070
     1
1070
    44
1040
1.0
1070
    74
1070
     0
1000
MTEXTEND
  0
LINE
  5
2C40
330
2BFC
100
AcDbEntity
  8
0
 62
     1
100
AcDbLine
 10
690.0
 20
557.65
 30
0.0
 11
690.0
 21
545.2999999999999
 31
0.0
  0
MTEXT
  5
2C41
330
2BFC
100
AcDbEntity
  8
0
 62
     2
100
AcDbMText
 10
753.0
 20
554.95
 30
0.0
 40
7.0
 41
122.4
 71
     2
 72
     5
  1
色・表面処理
  7
ACISOTS
 73
     1
 44
1.0
1001
ACAD
1000
MTEXTBEGIN
1070
    73
1070
     1
1070
    44
1040
1.0
1070
    74
1070
     0
1000
MTEXTEND
  0
MTEXT
  5
2C42
330
2BFC
100
AcDbEntity
  8
0
 62
     2
100
AcDbMText
 10
623.0
 20
563.825
 30
0.0
 40
7.0
 41
0.0
 71
     5
 72
     5
  1
構成内容
  7
ACISOTS
 73
     1
 44
1.0
1001
ACAD
1000
MTEXTBEGIN
1070
    73
1070
     1
1070
    44
1040
1.0
1070
    74
1070
     0
1000
MTEXTEND
  0
LINE
  5
2C43
330
2BFC
100
AcDbEntity
  8
0
 62
     1
100
AcDbLine
 10
430.0
 20
557.65
 30
0.0
 11
816.0
 21
557.65
 31
0.0
  0
LINE
  5
2C44
330
2BFC
100
AcDbEntity
  8
0
 62
     1
100
AcDbLine
 10
430.0
 20
570.0
 30
0.0
 11
816.0
 21
570.0
 31
0.0
  0
LINE
  5
2C45
330
2BFC
100
AcDbEntity
  8
0
 62
     7
100
AcDbLine
 10
430.0
 20
471.1999999999999
 30
0.0
 11
430.0
 21
570.0
 31
0.0
  0
LINE
  5
2C46
330
2BFC
100
AcDbEntity
  8
0
 62
     7
100
AcDbLine
 10
430.0
 20
570.0
 30
0.0
 11
816.0
 21
570.0
 31
0.0
  0
LINE
  5
2C47
330
2BFC
100
AcDbEntity
  8
0
 62
     7
100
AcDbLine
 10
816.0
 20
570.0
 30
0.0
 11
816.0
 21
471.1999999999999
 31
0.0
  0
LINE
  5
2C48
330
2BFC
100
AcDbEntity
  8
0
 62
     7
100
AcDbLine
 10
430.0
 20
471.1999999999999
 30
0.0
 11
816.0
 21
471.1999999999999
 31
0.0
  0
ENDBLK
  5
2C4A
330
2BFC
100
AcDbEntity
  8
0
100
AcDbBlockEnd
  0
BLOCK
  5
2C50
330
2C4C
100
AcDbEntity
  8
0
100
AcDbBlockBegin
  2
*S29
 70
     1
 10
0.0
 20
0.0
 30
0.0
  3
*S29
  1

  0
CIRCLE
  5
2C4D
330
2C4C
100
AcDbEntity
  8
AM_12
 62
     4
100
AcDbCircle
 10
719.7970936910385
 20
194.1968917955612
 30
0.0
 40
3.5
  0
LINE
  5
2C4E
330
2C4C
100
AcDbEntity
  8
AM_12
 62
     4
100
AcDbLine
 10
716.2970936910385
 20
190.6968917955612
 30
0.0
 11
723.2970936910385
 21
197.6968917955612
 31
0.0
  0
LINE
  5
2C4F
330
2C4C
100
AcDbEntity
  8
AM_12
 62
     4
100
AcDbLine
 10
716.2970936910385
 20
197.6968917955612
 30
0.0
 11
723.2970936910385
 21
190.6968917955612
 31
0.0
  0
ENDBLK
  5
2C51
330
2C4C
100
AcDbEntity
  8
0
100
AcDbBlockEnd
  0
BLOCK
  5
2C58
330
2C53
100
AcDbEntity
  8
0
100
AcDbBlockBegin
  2
*S30
 70
     1
 10
0.0
 20
0.0
 30
0.0
  3
*S30
  1

  0
LINE
  5
2C54
330
2C53
100
AcDbEntity
  8
AM_5
100
AcDbLine
 10
703.9214113666348
 20
220.8473636372191
 30
0.0
 11
716.2146564098904
 21
200.2107211185999
 31
0.0
  0
TRACE
  5
2C55
330
2C53
100
AcDbEntity
  8
AM_5
  6
Continuous
100
AcDbTrace
 10
715.4229207629805
 20
199.7390843051908
 30
0.0
 11
717.0063920568002
 21
200.6823579320089
 31
0.0
 12
719.7970936910385
 22
194.1968917955612
 32
0.0
 13
719.7970936910385
 23
194.1968917955612
 33
0.0
  0
MTEXT
  5
2C56
330
2C53
100
AcDbEntity
  8
AM_5
 62
     7
100
AcDbMText
 10
697.6521461246254
 20
231.3715649525368
 30
0.0
 40
7.0
 41
0.0
 71
     5
 72
     5
  1
6
  7
ACISOTS
 73
     1
 44
1.0
1001
ACAD
1000
MTEXTBEGIN
1070
    73
1070
     1
1070
    44
1040
1.0
1070
    74
1070
     0
1000
MTEXTEND
  0
CIRCLE
  5
2C57
330
2C53
100
AcDbEntity
  8
AM_5
 62
     3
100
AcDbCircle
 10
697.6521461246254
 20
231.3715649525368
 30
0.0
 40
12.25
  0
ENDBLK
  5
2C59
330
2C53
100
AcDbEntity
  8
0
100
AcDbBlockEnd
  0
ENDSEC
  0
SECTION
  2
ENTITIES
  0
INSERT
  5
BC6
330
1F
100
AcDbEntity
  8
0
370
     0
100
AcDbBlockReference
  2
TK-A3
 10
10.0
 20
10.0
 30
0.0
 41
2.0
 42
2.0
 43
2.0
1001
GENIUS_GENOREF_13
1005
BD3
1001
GENIUS_GENOBJ-N-SDF_13
1002
{
1000
OWNER
1000
GEN
1002
}
1001
GENIUS_GENODEF_13
1002
{
1000
HIER
1070
     0
1002
}
1002
{
1000
MANEDIT
1070
     0
1002
}
1002
{
1000
NOSEL
1070
     0
1002
}
1002
{
1000
BEHIND
1070
     0
1002
}
1002
{
1000
OTHER
1070
     0
1002
}
1002
{
1000
REACTOR
1002
}
1001
GENIUS_GENSCREG_15
1040
2.0
1040
1.0
1011
10.0
1021
10.0
1031
0.0
1011
816.0
1021
570.0000000000001
1031
0.0
1070
     3
  0
INSERT
  5
BC8
330
1F
100
AcDbEntity
  8
0
370
     0
100
AcDbBlockReference
 66
     1
  2
TK-TITLE
 10
816.0
 20
10.0
 30
0.0
 41
2.0
 42
2.0
 43
2.0
1001
GENIUS_GENOREF_13
1005
BD3
  0
ATTRIB
  5
BCA
330
BC8
100
AcDbEntity
  8
0
100
AcDbText
 10
435.6616136045802
 20
17.17668507522133
 30
0.0
 40
6.0
  1
2010/10/22
 72
     1
 11
455.5656096675723
 21
17.17668507522133
 31
0.0
100
AcDbAttribute
  2
GEN-TITLE-DAT
 70
     0
 74
     1
  0
ATTRIB
  5
BCB
330
BC8
100
AcDbEntity
  8
0
100
AcDbText
 10
451.8901664404432
 20
66.59999999999995
 30
0.0
 40
6.0
  1
1:2
 72
     2
 11
460.3505207711519
 21
66.59999999999995
 31
0.0
100
AcDbAttribute
  2
GEN-TITLE-SCA
 70
     0
 74
     1
  0
ATTRIB
  5
BCC
330
BC8
100
AcDbEntity
  8
0
100
AcDbText
 10
464.7745181747809
 20
41.59999999999988
 30
0.0
 40
6.0
  1

 72
     2
 11
464.7745181747809
 21
41.59999999999988
 31
0.0
100
AcDbAttribute
  2
GEN-TITLE-QTY
 70
     0
 74
     1
  0
ATTRIB
  5
BCD
330
BC8
100
AcDbEntity
  8
0
100
AcDbText
 10
518.0762648329416
 20
76.59999999999982
 30
0.0
 40
6.0
  1

100
AcDbAttribute
  2
GEN-TITLE-MAT2
 70
     0
  0
ATTRIB
  5
BCE
330
BC8
100
AcDbEntity
  8
0
100
AcDbText
 10
518.0762648329416
 20
96.59999999999982
 30
0.0
 40
6.0
  1

100
AcDbAttribute
  2
GEN-TITLE-MAT1
 70
     0
  0
ATTRIB
  5
BCF
330
BC8
100
AcDbEntity
  8
0
100
AcDbText
 10
648.0
 20
13.99999999999991
 30
0.0
 40
6.0
  1

100
AcDbAttribute
  2
GEN-TITLE-NR1
 70
     0
  0
ATTRIB
  5
BD0
330
BC8
100
AcDbEntity
  8
0
100
AcDbText
 10
648.0
 20
28.2999999999999
 30
0.0
 40
5.0
  1
CU-N型万能ケース
100
AcDbAttribute
  2
GEN-TITLE-DES2
 70
     0
  0
ATTRIB
  5
BD1
330
BC8
100
AcDbEntity
  8
0
100
AcDbText
 10
647.7149619682934
 20
35.65580865128755
 30
0.0
 40
7.0
  1
CU-23N
100
AcDbAttribute
  2
GEN-TITLE-DES1
 70
     0
  0
ATTRIB
  5
BD2
330
BC8
100
AcDbEntity
  8
0
100
AcDbText
 10
799.9953816209083
 20
13.41037886879007
 30
0.0
 40
5.0
  1

100
AcDbAttribute
  2
GEN-TITLE-NR2
 70
     0
  0
SEQEND
  5
BC9
330
BC8
100
AcDbEntity
  8
0
370
     0
  0
POINT
  5
BD3
330
1F
100
AcDbEntity
  8
0
 60
     1
100
AcDbPoint
 10
0.0
 20
0.0
 30
0.0
1001
GENIUS_GENODEF_13
1002
{
1000
HIER
1070
     1
1002
}
1002
{
1000
MANEDIT
1070
     0
1002
}
1002
{
1000
NOSEL
1070
     0
1002
}
1002
{
1000
BEHIND
1070
     0
1002
}
1002
{
1000
OTHER
1070
     0
1002
}
1002
{
1000
REACTOR
1002
}
1001
GENIUS_GENOENT_13
1002
{
1000
MYREF
1005
BD3
1002
}
1002
{
1000
GRP
1005
0
1002
}
1001
GENIUS_GENOBJ-N-TIT_13
1002
{
1000
OWNER
1000
GEN
1002
}
1001
GENIUS_GENOLIS_13
1002
{
1000
ENT
1005
BC8
1005
BC6
1002
}
1001
GENIUS_GENTITLE_13
1002
{
1000
BORDER
1000
TK-A3
1002
}
1002
{
1000
TITLE
1000
TK-TITLE
1002
}
1002
{
1000
ADDITIONAL1
1000

1002
}
1002
{
1000
ADDITIONAL2
1000

1002
}
1002
{
1000
SCALE
1000
1:2
1002
}
1002
{
1000
TITLESTD
1000
ISO
1002
}
1002
{
1000
HRA
1005
BC6
1002
}
1002
{
1000
HTIT
1005
BC8
1002
}
1002
{
1000
GENIUSID
1005
BD3
1002
}
1002
{
1000
INVTXTID
1005
0
1002
}
1002
{
1000
UNCHG
1002
{
1000
GEN-TITLE-SIZ
1000
GEN-TITLE-SCA
1002
}
1002
}
  0
INSERT
  5
DEE
330
1F
100
AcDbEntity
  8
0
100
AcDbBlockReference
  2
A$C143B6173
 10
673.6347386623687
 20
162.8280128926291
 30
0.0
  0
INSERT
  5
E1D
330
1F
100
AcDbEntity
  8
0
100
AcDbBlockReference
  2
A$C79BC6D1E
 10
616.9545673946061
 20
162.8280128926291
 30
0.0
  0
INSERT
  5
E22
330
1F
100
AcDbEntity
  8
0
100
AcDbBlockReference
  2
A$C0B3205F2
 10
673.6347386623688
 20
189.328012892629
 30
0.0
 50
89.99999999999998
  0
INSERT
  5
ED1
330
1F
100
AcDbEntity
  8
AM_12
100
AcDbBlockReference
  2
*S18
 10
0.0
 20
0.0
 30
0.0
  0
INSERT
  5
ED6
330
1F
100
AcDbEntity
  8
AM_5
100
AcDbBlockReference
  2
*S19
 10
0.0
 20
0.0
 30
0.0
  0
INSERT
  5
ED8
330
1F
100
AcDbEntity
  8
AM_12
100
AcDbBlockReference
  2
*S20
 10
0.0
 20
0.0
 30
0.0
  0
INSERT
  5
EDB
330
1F
100
AcDbEntity
  8
AM_5
100
AcDbBlockReference
  2
*S21
 10
0.0
 20
0.0
 30
0.0
  0
INSERT
  5
EDD
330
1F
100
AcDbEntity
  8
AM_12
100
AcDbBlockReference
  2
*S22
 10
0.0
 20
0.0
 30
0.0
  0
INSERT
  5
EE0
330
1F
100
AcDbEntity
  8
AM_5
100
AcDbBlockReference
  2
*S23
 10
0.0
 20
0.0
 30
0.0
  0
INSERT
  5
EE2
330
1F
100
AcDbEntity
  8
AM_12
100
AcDbBlockReference
  2
*S24
 10
0.0
 20
0.0
 30
0.0
  0
INSERT
  5
EE5
330
1F
100
AcDbEntity
  8
AM_5
100
AcDbBlockReference
  2
*S25
 10
0.0
 20
0.0
 30
0.0
  0
INSERT
  5
EE7
330
1F
100
AcDbEntity
  8
AM_12
100
AcDbBlockReference
  2
*S26
 10
0.0
 20
0.0
 30
0.0
  0
INSERT
  5
EFE
330
1F
100
AcDbEntity
  8
AM_5
100
AcDbBlockReference
  2
*S27
 10
0.0
 20
0.0
 30
0.0
  0
INSERT
  5
F00
330
1F
100
AcDbEntity
  8
0
100
AcDbBlockReference
  2
*S28
 10
0.0
 20
0.0
 30
0.0
  0
CIRCLE
  5
F2B
330
1F
100
AcDbEntity
  8
ﾋﾞｽ
100
AcDbCircle
 10
719.8285833103634
 20
162.8280128926291
 30
0.0
 40
1.649999999999999
  0
CIRCLE
  5
F2C
330
1F
100
AcDbEntity
  8
ﾋﾞｽ
100
AcDbCircle
 10
719.8285833103634
 20
162.8280128926291
 30
0.0
 40
3.85
  0
LINE
  5
F41
330
1F
100
AcDbEntity
  8
ﾋﾞｽ
100
AcDbLine
 10
715.9785833103634
 20
194.028012892629
 30
0.0
 11
723.6785833103635
 21
194.028012892629
 31
0.0
  0
LINE
  5
F48
330
1F
100
AcDbEntity
  8
ﾋﾞｽ
100
AcDbLine
 10
715.9785833103634
 20
194.328012892629
 30
0.0
 11
715.9785833103634
 21
194.028012892629
 31
0.0
  0
LINE
  5
F4E
330
1F
100
AcDbEntity
  8
ﾋﾞｽ
100
AcDbLine
 10
723.6785833103635
 20
194.328012892629
 30
0.0
 11
723.6785833103635
 21
194.028012892629
 31
0.0
  0
LINE
  5
F53
330
1F
100
AcDbEntity
  8
ﾋﾞｽ
100
AcDbLine
 10
715.9785833103634
 20
194.328012892629
 30
0.0
 11
723.6785833103635
 21
194.328012892629
 31
0.0
  0
INSERT
  5
F58
330
1F
100
AcDbEntity
  8
AM_12
100
AcDbBlockReference
  2
*S29
 10
0.0
 20
0.0
 30
0.0
  0
INSERT
  5
F5B
330
1F
100
AcDbEntity
  8
AM_5
100
AcDbBlockReference
  2
*S30
 10
0.0
 20
0.0
 30
0.0
  0
INSERT
  5
141A
330
1F
100
AcDbEntity
  8
0
100
AcDbBlockReference
  2
A$C06337972
 10
616.9545673946061
 20
186.328012892629
 30
0.0
  0
LINE
  5
1BBC
330
1F
100
AcDbEntity
  8
ｺﾞﾑ足
100
AcDbLine
 10
551.7648087195513
 20
199.7864917478857
 30
0.0
 11
573.7648087195513
 21
199.7864917478857
 31
0.0
  0
LINE
  5
1BBD
330
1F
100
AcDbEntity
  8
ｺﾞﾑ足
100
AcDbLine
 10
554.7198321192301
 20
186.7864917478857
 30
0.0
 11
570.8097853198723
 21
186.7864917478857
 31
0.0
  0
LINE
  5
1BBE
330
1F
100
AcDbEntity
  8
ｺﾞﾑ足
100
AcDbLine
 10
551.7648087195513
 20
198.7864917478857
 30
0.0
 11
573.7648087195513
 21
198.7864917478857
 31
0.0
  0
LINE
  5
1BBF
330
1F
100
AcDbEntity
  8
ｺﾞﾑ足
100
AcDbLine
 10
551.7648087195513
 20
199.7864917478857
 30
0.0
 11
551.7648087195513
 21
198.7864917478857
 31
0.0
  0
LINE
  5
1BC0
330
1F
100
AcDbEntity
  8
ｺﾞﾑ足
100
AcDbLine
 10
573.7648087195513
 20
199.7864917478857
 30
0.0
 11
573.7648087195513
 21
198.7864917478857
 31
0.0
  0
LINE
  5
1BC1
330
1F
100
AcDbEntity
  8
ｺﾞﾑ足
100
AcDbLine
 10
553.735024366218
 20
187.6128435702187
 30
0.0
 11
551.7648087195513
 21
198.7864917478857
 31
0.0
  0
LINE
  5
1BC2
330
1F
100
AcDbEntity
  8
ｺﾞﾑ足
100
AcDbLine
 10
571.7945930728846
 20
187.6128435702187
 30
0.0
 11
573.7648087195513
 21
198.7864917478857
 31
0.0
  0
ARC
  5
1BC3
330
1F
100
AcDbEntity
  8
ｺﾞﾑ足
100
AcDbCircle
 10
554.7198321192301
 20
187.7864917478857
 30
0.0
 40
1.0
100
AcDbArc
 50
190.0000000000002
 51
270.0
1001
GENIUS_GENOBJ-N-FIL_13
1002
{
1000
OWNER
1000
GEN
1002
}
1001
GENIUS_GENODEF_13
1002
{
1000
HIER
1070
     0
1002
}
1002
{
1000
MANEDIT
1070
     0
1002
}
1002
{
1000
NOSEL
1070
     0
1002
}
1002
{
1000
BEHIND
1070
     0
1002
}
1002
{
1000
OTHER
1070
     0
1002
}
1002
{
1000
REACTOR
1002
}
  0
ARC
  5
1BC4
330
1F
100
AcDbEntity
  8
ｺﾞﾑ足
100
AcDbCircle
 10
570.8097853198723
 20
187.7864917478857
 30
0.0
 40
1.0
100
AcDbArc
 50
270.0
 51
349.9999999999982
1001
GENIUS_GENODEF_13
1002
{
1000
HIER
1070
     0
1002
}
1002
{
1000
MANEDIT
1070
     0
1002
}
1002
{
1000
NOSEL
1070
     0
1002
}
1002
{
1000
BEHIND
1070
     0
1002
}
1002
{
1000
OTHER
1070
     0
1002
}
1002
{
1000
REACTOR
1002
}
1001
GENIUS_GENOBJ-N-FIL_13
1002
{
1000
OWNER
1000
GEN
1002
}
  0
CIRCLE
  5
1BC5
330
1F
100
AcDbEntity
  8
ｺﾞﾑ足
100
AcDbCircle
 10
562.7648087195512
 20
160.2864917478856
 30
0.0
 40
11.0
  0
CIRCLE
  5
1BC6
330
1F
100
AcDbEntity
  8
ｺﾞﾑ足
100
AcDbCircle
 10
562.7648087195512
 20
160.2864917478856
 30
0.0
 40
1.5
  0
CIRCLE
  5
1BC7
330
1F
100
AcDbEntity
  8
ｺﾞﾑ足
100
AcDbCircle
 10
562.7648087195512
 20
160.2864917478856
 30
0.0
 40
3.5
  0
LINE
  5
2165
330
1F
100
AcDbEntity
  8
ｶﾊﾞｰ0
100
AcDbLine
 10
169.908879808306
 20
94.84699633079351
 30
0.0
 11
187.188879808306
 21
94.84699633079346
 31
0.0
  0
LINE
  5
2166
330
1F
100
AcDbEntity
  8
ｶﾊﾞｰ0
100
AcDbLine
 10
169.9088798083059
 20
92.34699633079351
 30
0.0
 11
187.1888798083059
 21
92.34699633079346
 31
0.0
  0
LINE
  5
216A
330
1F
100
AcDbEntity
  8
ｶﾊﾞｰ0
100
AcDbLine
 10
169.908879808306
 20
101.8469963307935
 30
0.0
 11
187.188879808306
 21
101.8469963307934
 31
0.0
  0
LINE
  5
216B
330
1F
100
AcDbEntity
  8
ｶﾊﾞｰ0
100
AcDbLine
 10
169.908879808306
 20
99.34699633079352
 30
0.0
 11
187.188879808306
 21
99.34699633079347
 31
0.0
  0
LINE
  5
216F
330
1F
100
AcDbEntity
  8
ｶﾊﾞｰ0
100
AcDbLine
 10
169.908879808306
 20
108.8469963307935
 30
0.0
 11
187.188879808306
 21
108.8469963307934
 31
0.0
  0
LINE
  5
2170
330
1F
100
AcDbEntity
  8
ｶﾊﾞｰ0
100
AcDbLine
 10
169.908879808306
 20
106.3469963307935
 30
0.0
 11
187.188879808306
 21
106.3469963307934
 31
0.0
  0
LINE
  5
2174
330
1F
100
AcDbEntity
  8
ｶﾊﾞｰ0
100
AcDbLine
 10
169.9088798083061
 20
115.8469963307935
 30
0.0
 11
187.1888798083061
 21
115.8469963307934
 31
0.0
  0
LINE
  5
2175
330
1F
100
AcDbEntity
  8
ｶﾊﾞｰ0
100
AcDbLine
 10
169.9088798083061
 20
113.3469963307935
 30
0.0
 11
187.1888798083061
 21
113.3469963307934
 31
0.0
  0
LINE
  5
2179
330
1F
100
AcDbEntity
  8
ｶﾊﾞｰ0
100
AcDbLine
 10
169.9088798083061
 20
122.8469963307935
 30
0.0
 11
187.1888798083061
 21
122.8469963307934
 31
0.0
  0
LINE
  5
217A
330
1F
100
AcDbEntity
  8
ｶﾊﾞｰ0
100
AcDbLine
 10
169.9088798083061
 20
120.3469963307935
 30
0.0
 11
187.1888798083061
 21
120.3469963307934
 31
0.0
  0
LINE
  5
217E
330
1F
100
AcDbEntity
  8
ｶﾊﾞｰ0
100
AcDbLine
 10
169.9088798083061
 20
129.8469963307935
 30
0.0
 11
187.1888798083061
 21
129.8469963307934
 31
0.0
  0
LINE
  5
217F
330
1F
100
AcDbEntity
  8
ｶﾊﾞｰ0
100
AcDbLine
 10
169.9088798083061
 20
127.3469963307935
 30
0.0
 11
187.1888798083061
 21
127.3469963307934
 31
0.0
  0
LINE
  5
2183
330
1F
100
AcDbEntity
  8
ｶﾊﾞｰ0
100
AcDbLine
 10
169.9088798083061
 20
136.8469963307935
 30
0.0
 11
187.1888798083061
 21
136.8469963307934
 31
0.0
  0
LINE
  5
2184
330
1F
100
AcDbEntity
  8
ｶﾊﾞｰ0
100
AcDbLine
 10
169.9088798083061
 20
134.3469963307935
 30
0.0
 11
187.1888798083061
 21
134.3469963307934
 31
0.0
  0
LINE
  5
2188
330
1F
100
AcDbEntity
  8
ｶﾊﾞｰ0
100
AcDbLine
 10
169.9088798083061
 20
143.8469963307935
 30
0.0
 11
187.1888798083061
 21
143.8469963307934
 31
0.0
  0
LINE
  5
2189
330
1F
100
AcDbEntity
  8
ｶﾊﾞｰ0
100
AcDbLine
 10
169.9088798083061
 20
141.3469963307935
 30
0.0
 11
187.1888798083061
 21
141.3469963307934
 31
0.0
  0
LINE
  5
218D
330
1F
100
AcDbEntity
  8
ｶﾊﾞｰ0
100
AcDbLine
 10
169.9088798083062
 20
150.8469963307935
 30
0.0
 11
187.1888798083062
 21
150.8469963307934
 31
0.0
  0
LINE
  5
218E
330
1F
100
AcDbEntity
  8
ｶﾊﾞｰ0
100
AcDbLine
 10
169.9088798083062
 20
148.3469963307935
 30
0.0
 11
187.1888798083062
 21
148.3469963307934
 31
0.0
  0
LINE
  5
2192
330
1F
100
AcDbEntity
  8
ｶﾊﾞｰ0
100
AcDbLine
 10
169.9088798083062
 20
157.8469963307935
 30
0.0
 11
187.1888798083062
 21
157.8469963307934
 31
0.0
  0
LINE
  5
2193
330
1F
100
AcDbEntity
  8
ｶﾊﾞｰ0
100
AcDbLine
 10
169.9088798083062
 20
155.3469963307935
 30
0.0
 11
187.1888798083062
 21
155.3469963307934
 31
0.0
  0
LINE
  5
219B
330
1F
100
AcDbEntity
  8
ｶﾊﾞｰ0
100
AcDbLine
 10
187.1888798083059
 20
87.84699633079346
 30
0.0
 11
169.9088798083059
 21
87.84699633079352
 31
0.0
  0
LINE
  5
219C
330
1F
100
AcDbEntity
  8
ｶﾊﾞｰ0
100
AcDbLine
 10
187.1888798083059
 20
85.34699633079346
 30
0.0
 11
169.9088798083059
 21
85.34699633079352
 31
0.0
  0
LINE
  5
219D
330
1F
100
AcDbEntity
  8
ｶﾊﾞｰ0
100
AcDbLine
 10
169.9088798083062
 20
162.3469963307935
 30
0.0
 11
187.1888798083062
 21
162.3469963307934
 31
0.0
  0
LINE
  5
219E
330
1F
100
AcDbEntity
  8
ｶﾊﾞｰ0
100
AcDbLine
 10
169.9088798083062
 20
164.8469963307935
 30
0.0
 11
187.1888798083062
 21
164.8469963307934
 31
0.0
  0
LINE
  5
21A1
330
1F
100
AcDbEntity
  8
ｶﾊﾞｰ0
100
AcDbLine
 10
349.9088798083059
 20
164.8469963307932
 30
0.0
 11
332.6288798083059
 21
164.8469963307932
 31
0.0
  0
LINE
  5
21A2
330
1F
100
AcDbEntity
  8
ｶﾊﾞｰ0
100
AcDbLine
 10
349.9088798083059
 20
162.3469963307932
 30
0.0
 11
332.6288798083059
 21
162.3469963307932
 31
0.0
  0
LINE
  5
21A3
330
1F
100
AcDbEntity
  8
ｶﾊﾞｰ0
100
AcDbLine
 10
332.6288798083059
 20
85.34699633079322
 30
0.0
 11
349.9088798083059
 21
85.34699633079322
 31
0.0
  0
LINE
  5
21A4
330
1F
100
AcDbEntity
  8
ｶﾊﾞｰ0
100
AcDbLine
 10
332.6288798083059
 20
87.84699633079322
 30
0.0
 11
349.9088798083059
 21
87.84699633079322
 31
0.0
  0
ARC
  5
21A8
330
1F
100
AcDbEntity
  8
ｶﾊﾞｰ0
100
AcDbCircle
 10
332.628879808306
 20
163.5969963307932
 30
0.0
 40
1.25
100
AcDbArc
 50
90.0
 51
270.0
1001
GENIUS_GENODEF_13
1002
{
1000
HIER
1070
     0
1002
}
1002
{
1000
MANEDIT
1070
     0
1002
}
1002
{
1000
NOSEL
1070
     0
1002
}
1002
{
1000
BEHIND
1070
     0
1002
}
1002
{
1000
OTHER
1070
     0
1002
}
1002
{
1000
REACTOR
1002
}
1001
GENIUS_GENOBJ-N-FIL_13
1002
{
1000
OWNER
1000
GEN
1002
}
  0
LINE
  5
21AC
330
1F
100
AcDbEntity
  8
ｶﾊﾞｰ0
100
AcDbLine
 10
349.9088798083059
 20
155.3469963307932
 30
0.0
 11
332.6288798083059
 21
155.3469963307932
 31
0.0
  0
LINE
  5
21AD
330
1F
100
AcDbEntity
  8
ｶﾊﾞｰ0
100
AcDbLine
 10
349.9088798083059
 20
157.8469963307932
 30
0.0
 11
332.6288798083059
 21
157.8469963307932
 31
0.0
  0
LINE
  5
21B1
330
1F
100
AcDbEntity
  8
ｶﾊﾞｰ0
100
AcDbLine
 10
349.9088798083059
 20
148.3469963307932
 30
0.0
 11
332.6288798083059
 21
148.3469963307932
 31
0.0
  0
LINE
  5
21B2
330
1F
100
AcDbEntity
  8
ｶﾊﾞｰ0
100
AcDbLine
 10
349.9088798083059
 20
150.8469963307932
 30
0.0
 11
332.6288798083059
 21
150.8469963307932
 31
0.0
  0
LINE
  5
21B6
330
1F
100
AcDbEntity
  8
ｶﾊﾞｰ0
100
AcDbLine
 10
349.9088798083059
 20
141.3469963307932
 30
0.0
 11
332.6288798083059
 21
141.3469963307932
 31
0.0
  0
LINE
  5
21B7
330
1F
100
AcDbEntity
  8
ｶﾊﾞｰ0
100
AcDbLine
 10
349.9088798083059
 20
143.8469963307932
 30
0.0
 11
332.6288798083059
 21
143.8469963307932
 31
0.0
  0
LINE
  5
21BB
330
1F
100
AcDbEntity
  8
ｶﾊﾞｰ0
100
AcDbLine
 10
349.9088798083059
 20
134.3469963307932
 30
0.0
 11
332.6288798083059
 21
134.3469963307932
 31
0.0
  0
LINE
  5
21BC
330
1F
100
AcDbEntity
  8
ｶﾊﾞｰ0
100
AcDbLine
 10
349.9088798083059
 20
136.8469963307932
 30
0.0
 11
332.6288798083059
 21
136.8469963307932
 31
0.0
  0
LINE
  5
21C0
330
1F
100
AcDbEntity
  8
ｶﾊﾞｰ0
100
AcDbLine
 10
349.9088798083059
 20
127.3469963307932
 30
0.0
 11
332.6288798083059
 21
127.3469963307932
 31
0.0
  0
LINE
  5
21C1
330
1F
100
AcDbEntity
  8
ｶﾊﾞｰ0
100
AcDbLine
 10
349.9088798083059
 20
129.8469963307932
 30
0.0
 11
332.6288798083059
 21
129.8469963307932
 31
0.0
  0
LINE
  5
21C5
330
1F
100
AcDbEntity
  8
ｶﾊﾞｰ0
100
AcDbLine
 10
349.9088798083059
 20
120.3469963307932
 30
0.0
 11
332.6288798083059
 21
120.3469963307932
 31
0.0
  0
LINE
  5
21C6
330
1F
100
AcDbEntity
  8
ｶﾊﾞｰ0
100
AcDbLine
 10
349.9088798083059
 20
122.8469963307932
 30
0.0
 11
332.6288798083059
 21
122.8469963307932
 31
0.0
  0
LINE
  5
21CA
330
1F
100
AcDbEntity
  8
ｶﾊﾞｰ0
100
AcDbLine
 10
349.9088798083059
 20
113.3469963307932
 30
0.0
 11
332.6288798083059
 21
113.3469963307932
 31
0.0
  0
LINE
  5
21CB
330
1F
100
AcDbEntity
  8
ｶﾊﾞｰ0
100
AcDbLine
 10
349.9088798083059
 20
115.8469963307932
 30
0.0
 11
332.6288798083059
 21
115.8469963307932
 31
0.0
  0
LINE
  5
21CF
330
1F
100
AcDbEntity
  8
ｶﾊﾞｰ0
100
AcDbLine
 10
349.9088798083059
 20
106.3469963307932
 30
0.0
 11
332.6288798083059
 21
106.3469963307932
 31
0.0
  0
LINE
  5
21D0
330
1F
100
AcDbEntity
  8
ｶﾊﾞｰ0
100
AcDbLine
 10
349.9088798083059
 20
108.8469963307932
 30
0.0
 11
332.6288798083059
 21
108.8469963307932
 31
0.0
  0
LINE
  5
21D4
330
1F
100
AcDbEntity
  8
ｶﾊﾞｰ0
100
AcDbLine
 10
349.9088798083059
 20
99.34699633079322
 30
0.0
 11
332.6288798083059
 21
99.34699633079322
 31
0.0
  0
LINE
  5
21D5
330
1F
100
AcDbEntity
  8
ｶﾊﾞｰ0
100
AcDbLine
 10
349.9088798083059
 20
101.8469963307932
 30
0.0
 11
332.6288798083059
 21
101.8469963307932
 31
0.0
  0
LINE
  5
21D9
330
1F
100
AcDbEntity
  8
ｶﾊﾞｰ0
100
AcDbLine
 10
349.9088798083059
 20
92.34699633079321
 30
0.0
 11
332.6288798083059
 21
92.34699633079321
 31
0.0
  0
LINE
  5
21DA
330
1F
100
AcDbEntity
  8
ｶﾊﾞｰ0
100
AcDbLine
 10
349.9088798083059
 20
94.84699633079321
 30
0.0
 11
332.6288798083059
 21
94.84699633079321
 31
0.0
  0
LINE
  5
21DC
330
1F
100
AcDbEntity
  8
ｶﾊﾞｰ0
100
AcDbLine
 10
174.9088798083061
 20
37.89699633079318
 30
0.0
 11
344.9088798083061
 21
37.89699633079318
 31
0.0
1001
GENIUS_GENREC_14
1002
{
1000
PYDIR
1011
214.908879808306
1021
47.89699633079317
1031
0.0
1002
}
1002
{
1000
PXDIR
1011
344.9088798083061
1021
37.89699633079318
1031
0.0
1002
}
1002
{
1000
PORI
1011
214.908879808306
1021
37.89699633079318
1031
0.0
1002
}
1002
{
1000
PINS
1011
214.908879808306
1021
37.89699633079318
1031
0.0
1002
}
1002
{
1000
PINS2
1011
344.9088798083061
1021
47.89699633079317
1031
0.0
1002
}
1002
{
1000
C
1070
     1
1002
}
1001
GENIUS_GENODEF_13
1002
{
1000
HIER
1070
     0
1002
}
1002
{
1000
MANEDIT
1070
     0
1002
}
1002
{
1000
NOSEL
1070
     0
1002
}
1002
{
1000
BEHIND
1070
     0
1002
}
1002
{
1000
REACTOR
1002
}
1001
GENIUS_GENOBJ-N-REC_13
1002
{
1000
OWNER
1000
GEN
1002
}
  0
LINE
  5
21DD
330
1F
100
AcDbEntity
  8
ｶﾊﾞｰ0
100
AcDbLine
 10
344.9088798083061
 20
48.89699633079317
 30
0.0
 11
174.9088798083061
 21
48.89699633079317
 31
0.0
1001
GENIUS_GENREC_14
1002
{
1000
PYDIR
1011
214.908879808306
1021
48.89699633079317
1031
0.0
1002
}
1002
{
1000
PXDIR
1011
344.9088798083061
1021
38.89699633079317
1031
0.0
1002
}
1002
{
1000
PORI
1011
214.908879808306
1021
38.89699633079317
1031
0.0
1002
}
1002
{
1000
PINS
1011
214.908879808306
1021
38.89699633079317
1031
0.0
1002
}
1002
{
1000
PINS2
1011
344.9088798083061
1021
48.89699633079317
1031
0.0
1002
}
1002
{
1000
C
1070
     1
1002
}
1001
GENIUS_GENODEF_13
1002
{
1000
HIER
1070
     0
1002
}
1002
{
1000
MANEDIT
1070
     0
1002
}
1002
{
1000
NOSEL
1070
     0
1002
}
1002
{
1000
BEHIND
1070
     0
1002
}
1002
{
1000
REACTOR
1002
}
1001
GENIUS_GENOBJ-N-REC_13
1002
{
1000
OWNER
1000
GEN
1002
}
  0
LINE
  5
21DE
330
1F
100
AcDbEntity
  8
ｶﾊﾞｰ0
100
AcDbLine
 10
344.9088798083061
 20
37.89699633079318
 30
0.0
 11
344.9088798083061
 21
48.89699633079317
 31
0.0
1001
GENIUS_GENREC_14
1002
{
1000
PYDIR
1011
284.9088798083061
1021
47.89699633079317
1031
0.0
1002
}
1002
{
1000
PXDIR
1011
344.9088798083061
1021
37.89699633079318
1031
0.0
1002
}
1002
{
1000
PORI
1011
284.9088798083061
1021
37.89699633079318
1031
0.0
1002
}
1002
{
1000
PINS
1011
284.9088798083061
1021
37.89699633079318
1031
0.0
1002
}
1002
{
1000
PINS2
1011
344.9088798083061
1021
48.89699633079317
1031
0.0
1002
}
1002
{
1000
C
1070
     1
1002
}
1001
GENIUS_GENODEF_13
1002
{
1000
HIER
1070
     0
1002
}
1002
{
1000
MANEDIT
1070
     0
1002
}
1002
{
1000
NOSEL
1070
     0
1002
}
1002
{
1000
BEHIND
1070
     0
1002
}
1002
{
1000
REACTOR
1002
}
1001
GENIUS_GENOBJ-N-REC_13
1002
{
1000
OWNER
1000
GEN
1002
}
  0
LINE
  5
21DF
330
1F
100
AcDbEntity
  8
ｶﾊﾞｰ0
100
AcDbLine
 10
174.9088798083061
 20
38.89699633079317
 30
0.0
 11
344.9088798083061
 21
38.89699633079317
 31
0.0
  0
CIRCLE
  5
21E0
330
1F
100
AcDbEntity
  8
ｼｬｰｼ0
100
AcDbCircle
 10
328.9088798083061
 20
61.59699633079327
 30
0.0
 40
1.5
  0
CIRCLE
  5
21E1
330
1F
100
AcDbEntity
  8
ｼｬｰｼ0
100
AcDbCircle
 10
328.9088798083062
 20
241.5969963307933
 30
0.0
 40
1.5
  0
LINE
  5
21E2
330
1F
100
AcDbEntity
  8
ｼｬｰｼ0
100
AcDbLine
 10
172.1088798083064
 20
37.79699633079331
 30
0.0
 11
347.7088798083058
 21
37.79699633079321
 31
0.0
  0
LINE
  5
21E3
330
1F
100
AcDbEntity
  8
ｼｬｰｼ0
100
AcDbLine
 10
347.7088798083058
 20
37.79699633079321
 30
0.0
 11
347.7088798083062
 21
265.3969963307932
 31
0.0
  0
LINE
  5
21E4
330
1F
100
AcDbEntity
  8
ｼｬｰｼ0
100
AcDbLine
 10
347.7088798083062
 20
265.3969963307932
 30
0.0
 11
172.108879808306
 21
265.3969963307932
 31
0.0
  0
LINE
  5
21E5
330
1F
100
AcDbEntity
  8
ｼｬｰｼ0
100
AcDbLine
 10
347.7088798083059
 20
435.1328201523798
 30
0.0
 11
347.7088798083059
 21
318.5328201523798
 31
0.0
  0
LINE
  5
21E6
330
1F
100
AcDbEntity
  8
ｼｬｰｼ0
100
AcDbLine
 10
172.1088798083063
 20
318.5328201523798
 30
0.0
 11
347.7088798083059
 21
318.5328201523798
 31
0.0
  0
ARC
  5
21E7
330
1F
100
AcDbEntity
  8
ｼｬｰｼ
100
AcDbCircle
 10
347.7088798083059
 20
318.5328201523798
 30
0.0
 40
1.199999999999999
100
AcDbArc
 50
270.0
 51
0.0
1001
GENIUS_GENODEF_13
1002
{
1000
HIER
1070
     0
1002
}
1002
{
1000
MANEDIT
1070
     0
1002
}
1002
{
1000
NOSEL
1070
     0
1002
}
1002
{
1000
BEHIND
1070
     0
1002
}
1002
{
1000
OTHER
1070
     0
1002
}
1002
{
1000
REACTOR
1002
}
1001
GENIUS_GENOBJ-N-FIL_13
1002
{
1000
OWNER
1000
GEN
1002
}
  0
ARC
  5
21E8
330
1F
100
AcDbEntity
  8
ｼｬｰｼ
100
AcDbCircle
 10
347.7088798083058
 20
37.79699633079321
 30
0.0
 40
1.199999999999999
100
AcDbArc
 50
270.0
 51
0.0
1001
GENIUS_GENODEF_13
1002
{
1000
HIER
1070
     0
1002
}
1002
{
1000
MANEDIT
1070
     0
1002
}
1002
{
1000
NOSEL
1070
     0
1002
}
1002
{
1000
BEHIND
1070
     0
1002
}
1002
{
1000
OTHER
1070
     0
1002
}
1002
{
1000
REACTOR
1002
}
1001
GENIUS_GENOBJ-N-FIL_13
1002
{
1000
OWNER
1000
GEN
1002
}
  0
ARC
  5
21E9
330
1F
100
AcDbEntity
  8
ｼｬｰｼ
100
AcDbCircle
 10
347.7088798083062
 20
265.3969963307932
 30
0.0
 40
1.199999999999999
100
AcDbArc
 50
359.9999999999998
 51
90.0
1001
GENIUS_GENOBJ-N-FIL_13
1002
{
1000
OWNER
1000
GEN
1002
}
1001
GENIUS_GENODEF_13
1002
{
1000
HIER
1070
     0
1002
}
1002
{
1000
MANEDIT
1070
     0
1002
}
1002
{
1000
NOSEL
1070
     0
1002
}
1002
{
1000
BEHIND
1070
     0
1002
}
1002
{
1000
OTHER
1070
     0
1002
}
1002
{
1000
REACTOR
1002
}
  0
LINE
  5
21EF
330
1F
100
AcDbEntity
  8
ｶﾊﾞｰ0
100
AcDbLine
 10
174.908879808306
 20
264.2969963307933
 30
0.0
 11
344.9088798083062
 21
264.2969963307933
 31
0.0
  0
LINE
  5
21F0
330
1F
100
AcDbEntity
  8
ｶﾊﾞｰ0
100
AcDbLine
 10
174.908879808306
 20
265.2969963307932
 30
0.0
 11
344.9088798083062
 21
265.2969963307933
 31
0.0
1001
GENIUS_GENREC_14
1002
{
1000
PYDIR
1011
214.9088798083061
1021
255.2969963307933
1031
0.0
1002
}
1002
{
1000
PXDIR
1011
344.9088798083062
1021
265.2969963307933
1031
0.0
1002
}
1002
{
1000
PORI
1011
214.9088798083061
1021
265.2969963307933
1031
0.0
1002
}
1002
{
1000
PINS
1011
214.9088798083061
1021
265.2969963307933
1031
0.0
1002
}
1002
{
1000
PINS2
1011
344.9088798083062
1021
255.2969963307933
1031
0.0
1002
}
1002
{
1000
C
1070
     1
1002
}
1001
GENIUS_GENODEF_13
1002
{
1000
HIER
1070
     0
1002
}
1002
{
1000
MANEDIT
1070
     0
1002
}
1002
{
1000
NOSEL
1070
     0
1002
}
1002
{
1000
BEHIND
1070
     0
1002
}
1002
{
1000
REACTOR
1002
}
1001
GENIUS_GENOBJ-N-REC_13
1002
{
1000
OWNER
1000
GEN
1002
}
  0
LINE
  5
21F1
330
1F
100
AcDbEntity
  8
ｶﾊﾞｰ0
100
AcDbLine
 10
344.9088798083062
 20
265.2969963307933
 30
0.0
 11
344.9088798083062
 21
254.2969963307933
 31
0.0
1001
GENIUS_GENREC_14
1002
{
1000
PYDIR
1011
284.9088798083062
1021
255.2969963307933
1031
0.0
1002
}
1002
{
1000
PXDIR
1011
344.9088798083062
1021
265.2969963307933
1031
0.0
1002
}
1002
{
1000
PORI
1011
284.9088798083062
1021
265.2969963307933
1031
0.0
1002
}
1002
{
1000
PINS
1011
284.9088798083062
1021
265.2969963307933
1031
0.0
1002
}
1002
{
1000
PINS2
1011
344.9088798083062
1021
254.2969963307933
1031
0.0
1002
}
1002
{
1000
C
1070
     1
1002
}
1001
GENIUS_GENODEF_13
1002
{
1000
HIER
1070
     0
1002
}
1002
{
1000
MANEDIT
1070
     0
1002
}
1002
{
1000
NOSEL
1070
     0
1002
}
1002
{
1000
BEHIND
1070
     0
1002
}
1002
{
1000
REACTOR
1002
}
1001
GENIUS_GENOBJ-N-REC_13
1002
{
1000
OWNER
1000
GEN
1002
}
  0
LINE
  5
21F2
330
1F
100
AcDbEntity
  8
ｶﾊﾞｰ0
100
AcDbLine
 10
344.9088798083062
 20
254.2969963307933
 30
0.0
 11
174.908879808306
 21
254.2969963307932
 31
0.0
1001
GENIUS_GENREC_14
1002
{
1000
PYDIR
1011
214.9088798083061
1021
254.2969963307933
1031
0.0
1002
}
1002
{
1000
PXDIR
1011
344.9088798083062
1021
264.2969963307933
1031
0.0
1002
}
1002
{
1000
PORI
1011
214.9088798083061
1021
264.2969963307933
1031
0.0
1002
}
1002
{
1000
PINS
1011
214.9088798083061
1021
264.2969963307933
1031
0.0
1002
}
1002
{
1000
PINS2
1011
344.9088798083062
1021
254.2969963307933
1031
0.0
1002
}
1002
{
1000
C
1070
     1
1002
}
1001
GENIUS_GENODEF_13
1002
{
1000
HIER
1070
     0
1002
}
1002
{
1000
MANEDIT
1070
     0
1002
}
1002
{
1000
NOSEL
1070
     0
1002
}
1002
{
1000
BEHIND
1070
     0
1002
}
1002
{
1000
REACTOR
1002
}
1001
GENIUS_GENOBJ-N-REC_13
1002
{
1000
OWNER
1000
GEN
1002
}
  0
LINE
  5
21F3
330
1F
100
AcDbEntity
  8
ｶﾊﾞｰ0
100
AcDbLine
 10
174.9088798083063
 20
434.33282015238
 30
0.0
 11
344.9088798083059
 21
434.3328201523796
 31
0.0
  0
LINE
  5
21F4
330
1F
100
AcDbEntity
  8
ｶﾊﾞｰ0
100
AcDbLine
 10
344.9088798083059
 20
435.3328201523798
 30
0.0
 11
344.9088798083059
 21
428.3328201523798
 31
0.0
1001
GENIUS_GENREC_14
1002
{
1000
PYDIR
1011
214.908879808306
1021
428.3328201523799
1031
0.0
1002
}
1002
{
1000
PXDIR
1011
344.9088798083059
1021
435.3328201523798
1031
0.0
1002
}
1002
{
1000
PORI
1011
214.908879808306
1021
435.3328201523799
1031
0.0
1002
}
1002
{
1000
PINS
1011
214.908879808306
1021
435.3328201523799
1031
0.0
1002
}
1002
{
1000
PINS2
1011
344.9088798083059
1021
428.3328201523798
1031
0.0
1002
}
1002
{
1000
C
1070
     1
1002
}
1001
GENIUS_GENODEF_13
1002
{
1000
HIER
1070
     0
1002
}
1002
{
1000
MANEDIT
1070
     0
1002
}
1002
{
1000
NOSEL
1070
     0
1002
}
1002
{
1000
BEHIND
1070
     0
1002
}
1002
{
1000
REACTOR
1002
}
1001
GENIUS_GENOBJ-N-REC_13
1002
{
1000
OWNER
1000
GEN
1002
}
  0
LINE
  5
21F5
330
1F
100
AcDbEntity
  8
ｶﾊﾞｰ0
100
AcDbLine
 10
344.9088798083059
 20
428.3328201523798
 30
0.0
 11
174.9088798083063
 21
428.33282015238
 31
0.0
1001
GENIUS_GENREC_14
1002
{
1000
PYDIR
1011
214.908879808306
1021
428.3328201523799
1031
0.0
1002
}
1002
{
1000
PXDIR
1011
344.9088798083059
1021
435.3328201523798
1031
0.0
1002
}
1002
{
1000
PORI
1011
214.908879808306
1021
435.3328201523799
1031
0.0
1002
}
1002
{
1000
PINS
1011
214.908879808306
1021
435.3328201523799
1031
0.0
1002
}
1002
{
1000
PINS2
1011
344.9088798083059
1021
428.3328201523798
1031
0.0
1002
}
1002
{
1000
C
1070
     1
1002
}
1001
GENIUS_GENODEF_13
1002
{
1000
HIER
1070
     0
1002
}
1002
{
1000
MANEDIT
1070
     0
1002
}
1002
{
1000
NOSEL
1070
     0
1002
}
1002
{
1000
BEHIND
1070
     0
1002
}
1002
{
1000
REACTOR
1002
}
1001
GENIUS_GENOBJ-N-REC_13
1002
{
1000
OWNER
1000
GEN
1002
}
  0
CIRCLE
  5
21F6
330
1F
100
AcDbEntity
  8
ｼｬｰｼ
100
AcDbCircle
 10
328.908879808306
 20
61.59699633079316
 30
0.0
 40
1.199999999999999
  0
LINE
  5
21F7
330
1F
100
AcDbEntity
  8
ｶﾊﾞｰ0
100
AcDbLine
 10
174.9088798083063
 20
435.33282015238
 30
0.0
 11
344.9088798083059
 21
435.3328201523798
 31
0.0
1001
GENIUS_GENREC_14
1002
{
1000
PYDIR
1011
189.908879808306
1021
428.3328201523799
1031
0.0
1002
}
1002
{
1000
PXDIR
1011
344.9088798083059
1021
435.3328201523798
1031
0.0
1002
}
1002
{
1000
PORI
1011
259.9088798083059
1021
435.3328201523799
1031
0.0
1002
}
1002
{
1000
PINS
1011
259.9088798083059
1021
435.3328201523799
1031
0.0
1002
}
1002
{
1000
PINS2
1011
344.9088798083059
1021
428.3328201523798
1031
0.0
1002
}
1002
{
1000
C
1070
     1
1002
}
1001
GENIUS_GENODEF_13
1002
{
1000
HIER
1070
     0
1002
}
1002
{
1000
MANEDIT
1070
     0
1002
}
1002
{
1000
NOSEL
1070
     0
1002
}
1002
{
1000
BEHIND
1070
     0
1002
}
1002
{
1000
REACTOR
1002
}
1001
GENIUS_GENOBJ-N-REC_13
1002
{
1000
OWNER
1000
GEN
1002
}
  0
LINE
  5
21F8
330
1F
100
AcDbEntity
  8
ｼｬｰｼ
100
AcDbLine
 10
347.7088798083062
 20
266.5969963307932
 30
0.0
 11
172.1088798083062
 21
266.5969963307933
 31
0.0
  0
LINE
  5
21F9
330
1F
100
AcDbEntity
  8
ｼｬｰｼ
100
AcDbLine
 10
172.1088798083057
 20
36.59699633079322
 30
0.0
 11
347.7088798083058
 21
36.59699633079322
 31
0.0
  0
LINE
  5
21FA
330
1F
100
AcDbEntity
  8
ｼｬｰｼ
100
AcDbLine
 10
348.9088798083058
 20
37.79699633079321
 30
0.0
 11
348.9088798083061
 21
265.3969963307932
 31
0.0
  0
LINE
  5
21FC
330
1F
100
AcDbEntity
  8
ｼｬｰｼ
100
AcDbLine
 10
348.9088798083059
 20
435.1328201523798
 30
0.0
 11
348.9088798083059
 21
318.5328201523798
 31
0.0
  0
LINE
  5
21FE
330
1F
100
AcDbEntity
  8
ｼｬｰｼ
100
AcDbLine
 10
170.9088798083058
 20
435.1328201523798
 30
0.0
 11
348.9088798083059
 21
435.1328201523798
 31
0.0
  0
LINE
  5
21FF
330
1F
100
AcDbEntity
  8
ｼｬｰｼ
100
AcDbLine
 10
172.1088798083058
 20
317.3328201523798
 30
0.0
 11
347.7088798083059
 21
317.3328201523798
 31
0.0
  0
CIRCLE
  5
2200
330
1F
100
AcDbEntity
  8
ｼｬｰｼ
100
AcDbCircle
 10
328.9088798083062
 20
241.5969963307933
 30
0.0
 40
1.199999999999999
  0
LINE
  5
2201
330
1F
100
AcDbEntity
  8
ｶﾊﾞｰ
100
AcDbLine
 10
169.9088798083062
 20
276.5969963307932
 30
0.0
 11
349.9088798083062
 21
276.5969963307932
 31
0.0
  0
LINE
  5
2202
330
1F
100
AcDbEntity
  8
ｶﾊﾞｰ
100
AcDbLine
 10
348.9088798083059
 20
436.3328201523798
 30
0.0
 11
170.9088798083058
 21
436.3328201523798
 31
0.0
  0
LINE
  5
2203
330
1F
100
AcDbEntity
  8
ｶﾊﾞｰ
100
AcDbLine
 10
170.9088798083058
 20
435.3328201523799
 30
0.0
 11
348.9088798083059
 21
435.3328201523798
 31
0.0
  0
LINE
  5
2204
330
1F
100
AcDbEntity
  8
ｶﾊﾞｰ
100
AcDbLine
 10
169.9088798083058
 20
435.3328201523798
 30
0.0
 11
169.9088798083058
 21
316.3328201523798
 31
0.0
  0
LINE
  5
2205
330
1F
100
AcDbEntity
  8
ｶﾊﾞｰ
100
AcDbLine
 10
170.9088798083058
 20
316.3328201523798
 30
0.0
 11
170.9088798083058
 21
435.3328201523799
 31
0.0
  0
LINE
  5
2206
330
1F
100
AcDbEntity
  8
ｶﾊﾞｰ
100
AcDbLine
 10
169.9088798083058
 20
316.3328201523798
 30
0.0
 11
170.9088798083058
 21
316.3328201523798
 31
0.0
  0
ARC
  5
2207
330
1F
100
AcDbEntity
  8
ｶﾊﾞｰ
100
AcDbCircle
 10
170.9088798083058
 20
435.3328201523798
 30
0.0
 40
1.0
100
AcDbArc
 50
90.0
 51
180.0
  0
LINE
  5
2208
330
1F
100
AcDbEntity
  8
ｶﾊﾞｰ
100
AcDbLine
 10
349.9088798083059
 20
316.3328201523798
 30
0.0
 11
349.9088798083059
 21
435.3328201523798
 31
0.0
  0
LINE
  5
2209
330
1F
100
AcDbEntity
  8
ｶﾊﾞｰ
100
AcDbLine
 10
348.9088798083059
 20
435.3328201523798
 30
0.0
 11
348.9088798083059
 21
316.3328201523798
 31
0.0
  0
LINE
  5
220A
330
1F
100
AcDbEntity
  8
ｶﾊﾞｰ
100
AcDbLine
 10
348.9088798083059
 20
316.3328201523798
 30
0.0
 11
349.9088798083059
 21
316.3328201523798
 31
0.0
  0
ARC
  5
220B
330
1F
100
AcDbEntity
  8
ｶﾊﾞｰ
100
AcDbCircle
 10
348.9088798083059
 20
435.3328201523798
 30
0.0
 40
1.0
100
AcDbArc
 50
0.0
 51
90.0
  0
LINE
  5
220C
330
1F
100
AcDbEntity
  8
ｶﾊﾞｰ
100
AcDbLine
 10
170.9088798083062
 20
276.5969963307932
 30
0.0
 11
170.9088798083058
 21
26.59699633079322
 31
0.0
  0
LINE
  5
220D
330
1F
100
AcDbEntity
  8
ｶﾊﾞｰ
100
AcDbLine
 10
348.9088798083058
 20
26.59699633079322
 30
0.0
 11
348.9088798083062
 21
276.5969963307932
 31
0.0
  0
LINE
  5
220E
330
1F
100
AcDbEntity
  8
ｶﾊﾞｰ
100
AcDbLine
 10
169.9088798083058
 20
26.59699633079322
 30
0.0
 11
169.9088798083062
 21
276.5969963307932
 31
0.0
  0
LINE
  5
220F
330
1F
100
AcDbEntity
  8
ｶﾊﾞｰ
100
AcDbLine
 10
349.9088798083062
 20
276.5969963307932
 30
0.0
 11
349.9088798083058
 21
26.59699633079322
 31
0.0
  0
LINE
  5
2210
330
1F
100
AcDbEntity
  8
ｶﾊﾞｰ
100
AcDbLine
 10
349.9088798083058
 20
26.59699633079322
 30
0.0
 11
169.9088798083058
 21
26.59699633079322
 31
0.0
  0
LINE
  5
2212
330
1F
100
AcDbEntity
  8
ｶﾊﾞｰ
100
AcDbLine
 10
647.7935893819818
 20
436.3328201523798
 30
0.0
 11
647.7935893819818
 21
419.0528201523799
 31
0.0
  0
LINE
  5
2213
330
1F
100
AcDbEntity
  8
ｶﾊﾞｰ
100
AcDbLine
 10
650.2935893819818
 20
436.3328201523798
 30
0.0
 11
650.2935893819818
 21
419.0528201523799
 31
0.0
  0
LINE
  5
2217
330
1F
100
AcDbEntity
  8
ｶﾊﾞｰ
100
AcDbLine
 10
640.7935893819818
 20
436.3328201523798
 30
0.0
 11
640.7935893819818
 21
419.0528201523799
 31
0.0
  0
LINE
  5
2218
330
1F
100
AcDbEntity
  8
ｶﾊﾞｰ
100
AcDbLine
 10
643.2935893819818
 20
436.3328201523798
 30
0.0
 11
643.2935893819818
 21
419.0528201523799
 31
0.0
  0
LINE
  5
221C
330
1F
100
AcDbEntity
  8
ｶﾊﾞｰ
100
AcDbLine
 10
633.7935893819818
 20
436.3328201523798
 30
0.0
 11
633.7935893819818
 21
419.0528201523799
 31
0.0
  0
LINE
  5
221D
330
1F
100
AcDbEntity
  8
ｶﾊﾞｰ
100
AcDbLine
 10
636.2935893819818
 20
436.3328201523798
 30
0.0
 11
636.2935893819818
 21
419.0528201523799
 31
0.0
  0
LINE
  5
2221
330
1F
100
AcDbEntity
  8
ｶﾊﾞｰ
100
AcDbLine
 10
626.7935893819818
 20
436.3328201523798
 30
0.0
 11
626.7935893819818
 21
419.0528201523799
 31
0.0
  0
LINE
  5
2222
330
1F
100
AcDbEntity
  8
ｶﾊﾞｰ
100
AcDbLine
 10
629.2935893819818
 20
436.3328201523798
 30
0.0
 11
629.2935893819818
 21
419.0528201523799
 31
0.0
  0
LINE
  5
2226
330
1F
100
AcDbEntity
  8
ｶﾊﾞｰ
100
AcDbLine
 10
619.7935893819818
 20
436.3328201523798
 30
0.0
 11
619.7935893819818
 21
419.0528201523799
 31
0.0
  0
LINE
  5
2227
330
1F
100
AcDbEntity
  8
ｶﾊﾞｰ
100
AcDbLine
 10
622.2935893819818
 20
436.3328201523798
 30
0.0
 11
622.2935893819818
 21
419.0528201523799
 31
0.0
  0
LINE
  5
222B
330
1F
100
AcDbEntity
  8
ｶﾊﾞｰ
100
AcDbLine
 10
612.7935893819818
 20
436.3328201523798
 30
0.0
 11
612.7935893819818
 21
419.0528201523799
 31
0.0
  0
LINE
  5
222C
330
1F
100
AcDbEntity
  8
ｶﾊﾞｰ
100
AcDbLine
 10
615.2935893819818
 20
436.3328201523798
 30
0.0
 11
615.2935893819818
 21
419.0528201523799
 31
0.0
  0
LINE
  5
2230
330
1F
100
AcDbEntity
  8
ｶﾊﾞｰ
100
AcDbLine
 10
605.7935893819818
 20
436.3328201523798
 30
0.0
 11
605.7935893819818
 21
419.0528201523799
 31
0.0
  0
LINE
  5
2231
330
1F
100
AcDbEntity
  8
ｶﾊﾞｰ
100
AcDbLine
 10
608.2935893819819
 20
436.3328201523798
 30
0.0
 11
608.2935893819819
 21
419.0528201523799
 31
0.0
  0
LINE
  5
2235
330
1F
100
AcDbEntity
  8
ｶﾊﾞｰ
100
AcDbLine
 10
598.7935893819818
 20
436.3328201523798
 30
0.0
 11
598.7935893819818
 21
419.0528201523799
 31
0.0
  0
LINE
  5
2236
330
1F
100
AcDbEntity
  8
ｶﾊﾞｰ
100
AcDbLine
 10
601.2935893819818
 20
436.3328201523798
 30
0.0
 11
601.2935893819818
 21
419.0528201523799
 31
0.0
  0
LINE
  5
223A
330
1F
100
AcDbEntity
  8
ｶﾊﾞｰ
100
AcDbLine
 10
591.7935893819818
 20
436.3328201523798
 30
0.0
 11
591.7935893819818
 21
419.0528201523799
 31
0.0
  0
LINE
  5
223B
330
1F
100
AcDbEntity
  8
ｶﾊﾞｰ
100
AcDbLine
 10
594.2935893819818
 20
436.3328201523798
 30
0.0
 11
594.2935893819818
 21
419.0528201523799
 31
0.0
  0
LINE
  5
223F
330
1F
100
AcDbEntity
  8
ｶﾊﾞｰ
100
AcDbLine
 10
584.7935893819818
 20
436.3328201523798
 30
0.0
 11
584.7935893819818
 21
419.0528201523799
 31
0.0
  0
LINE
  5
2240
330
1F
100
AcDbEntity
  8
ｶﾊﾞｰ
100
AcDbLine
 10
587.2935893819819
 20
436.3328201523798
 30
0.0
 11
587.2935893819819
 21
419.0528201523799
 31
0.0
  0
ARC
  5
2245
330
1F
100
AcDbEntity
  8
ｶﾊﾞｰ
100
AcDbCircle
 10
656.0435893819819
 20
419.0528201523799
 30
0.0
 40
1.25
100
AcDbArc
 50
180.0
 51
0.0
1001
GENIUS_GENOBJ-N-FIL_13
1002
{
1000
OWNER
1000
GEN
1002
}
1001
GENIUS_GENODEF_13
1002
{
1000
HIER
1070
     0
1002
}
1002
{
1000
MANEDIT
1070
     0
1002
}
1002
{
1000
NOSEL
1070
     0
1002
}
1002
{
1000
BEHIND
1070
     0
1002
}
1002
{
1000
OTHER
1070
     0
1002
}
1002
{
1000
REACTOR
1002
}
  0
LINE
  5
2248
330
1F
100
AcDbEntity
  8
ｶﾊﾞｰ
100
AcDbLine
 10
654.7935893819818
 20
419.0528201523799
 30
0.0
 11
654.7935893819818
 21
436.3328201523798
 31
0.0
  0
LINE
  5
2249
330
1F
100
AcDbEntity
  8
ｶﾊﾞｰ
100
AcDbLine
 10
657.2935893819818
 20
419.0528201523799
 30
0.0
 11
657.2935893819818
 21
436.3328201523798
 31
0.0
  0
LINE
  5
224A
330
1F
100
AcDbEntity
  8
ｶﾊﾞｰ
100
AcDbLine
 10
580.2935893819818
 20
436.3328201523798
 30
0.0
 11
580.2935893819818
 21
419.0528201523799
 31
0.0
  0
LINE
  5
224B
330
1F
100
AcDbEntity
  8
ｶﾊﾞｰ
100
AcDbLine
 10
577.7935893819818
 20
436.3328201523798
 30
0.0
 11
577.7935893819818
 21
419.0528201523799
 31
0.0
  0
LINE
  5
224D
330
1F
100
AcDbEntity
  8
ｼｬｰｼ0
100
AcDbLine
 10
477.2435893819817
 20
318.5328201523796
 30
0.0
 11
704.8435893819816
 21
318.5328201523797
 31
0.0
  0
LINE
  5
224E
330
1F
100
AcDbEntity
  8
ｼｬｰｼ0
100
AcDbLine
 10
704.8435893819816
 20
318.5328201523797
 30
0.0
 11
704.8435893819818
 21
435.1328201523798
 31
0.0
  0
ARC
  5
224F
330
1F
100
AcDbEntity
  8
ｼｬｰｼ0
100
AcDbCircle
 10
704.8435893819816
 20
318.5328201523797
 30
0.0
 40
1.199999999999999
100
AcDbArc
 50
270.0
 51
0.0
1001
GENIUS_GENOBJ-N-FIL_13
1002
{
1000
OWNER
1000
GEN
1002
}
1001
GENIUS_GENODEF_13
1002
{
1000
HIER
1070
     0
1002
}
1002
{
1000
MANEDIT
1070
     0
1002
}
1002
{
1000
NOSEL
1070
     0
1002
}
1002
{
1000
BEHIND
1070
     0
1002
}
1002
{
1000
OTHER
1070
     0
1002
}
1002
{
1000
REACTOR
1002
}
  0
LINE
  5
2251
330
1F
100
AcDbEntity
  8
ｶﾊﾞｰ0
100
AcDbLine
 10
693.7435893819817
 20
434.3328201523798
 30
0.0
 11
693.7435893819817
 21
435.3328201523798
 31
0.0
  0
LINE
  5
2252
330
1F
100
AcDbEntity
  8
ｶﾊﾞｰ0
100
AcDbLine
 10
703.7435893819818
 20
434.3328201523798
 30
0.0
 11
693.7435893819817
 21
434.3328201523798
 31
0.0
  0
LINE
  5
2253
330
1F
100
AcDbEntity
  8
ｶﾊﾞｰ0
100
AcDbLine
 10
704.7435893819818
 20
428.3328201523798
 30
0.0
 11
703.7435893819818
 21
428.3328201523798
 31
0.0
  0
LINE
  5
2254
330
1F
100
AcDbEntity
  8
ｶﾊﾞｰ0
100
AcDbLine
 10
704.7435893819818
 20
434.3328201523798
 30
0.0
 11
704.7435893819818
 21
428.3328201523798
 31
0.0
  0
LINE
  5
2255
330
1F
100
AcDbEntity
  8
ｶﾊﾞｰ0
100
AcDbLine
 10
703.7435893819818
 20
428.3328201523798
 30
0.0
 11
703.7435893819816
 21
434.3328201523798
 31
0.0
  0
LINE
  5
2256
330
1F
100
AcDbEntity
  8
ｼｬｰｼ0
100
AcDbLine
 10
477.243589381982
 20
317.3328201523797
 30
0.0
 11
704.8435893819816
 21
317.3328201523797
 31
0.0
  0
LINE
  5
2257
330
1F
100
AcDbEntity
  8
ｶﾊﾞｰ0
100
AcDbLine
 10
466.0435893819818
 20
435.3328201523798
 30
0.0
 11
716.0435893819818
 21
435.3328201523798
 31
0.0
  0
CIRCLE
  5
2258
330
1F
100
AcDbEntity
  8
ｼｬｰｼ0
100
AcDbCircle
 10
676.0435893819818
 20
322.3328201523797
 30
0.0
 40
1.5
  0
LINE
  5
2259
330
1F
100
AcDbEntity
  8
ｼｬｰｼ0
100
AcDbLine
 10
696.0435893819818
 20
435.1328201523798
 30
0.0
 11
706.0435893819819
 21
435.1328201523798
 31
0.0
  0
LINE
  5
225A
330
1F
100
AcDbEntity
  8
ｼｬｰｼ0
100
AcDbLine
 10
696.0435893819818
 20
327.3328201523798
 30
0.0
 11
705.6921175194056
 21
317.6842920149559
 31
0.0
  0
LINE
  5
225B
330
1F
100
AcDbEntity
  8
ｼｬｰｼ0
100
AcDbLine
 10
706.0435893819817
 20
318.5328201523797
 30
0.0
 11
706.0435893819819
 21
435.1328201523798
 31
0.0
  0
LINE
  5
225C
330
1F
100
AcDbEntity
  8
ｼｬｰｼ0
100
AcDbLine
 10
696.0435893819818
 20
327.3328201523798
 30
0.0
 11
696.0435893819818
 21
435.1328201523798
 31
0.0
  0
LINE
  5
225D
330
1F
100
AcDbEntity
  8
ｼｬｰｼ0
100
AcDbLine
 10
486.0435893819818
 20
327.3328201523798
 30
0.0
 11
696.0435893819818
 21
327.3328201523798
 31
0.0
  0
CIRCLE
  5
225E
330
1F
100
AcDbEntity
  8
ｼｬｰｼ
100
AcDbCircle
 10
676.0435893819818
 20
322.3328201523797
 30
0.0
 40
1.199999999999999
  0
LINE
  5
225F
330
1F
100
AcDbEntity
  8
ｶﾊﾞｰ
100
AcDbLine
 10
469.0435893819818
 20
316.3328201523798
 30
0.0
 11
713.0435893819818
 21
316.3328201523798
 31
0.0
  0
LINE
  5
2260
330
1F
100
AcDbEntity
  8
ｶﾊﾞｰ
100
AcDbLine
 10
716.0435893819818
 20
436.3328201523798
 30
0.0
 11
466.0435893819818
 21
436.3328201523798
 31
0.0
  0
LINE
  5
2261
330
1F
100
AcDbEntity
  8
ｶﾊﾞｰ
100
AcDbLine
 10
466.0435893819818
 20
436.3328201523798
 30
0.0
 11
466.0435893819818
 21
319.3328201523798
 31
0.0
  0
LINE
  5
2262
330
1F
100
AcDbEntity
  8
ｶﾊﾞｰ
100
AcDbLine
 10
716.0435893819818
 20
319.3328201523798
 30
0.0
 11
716.0435893819818
 21
436.3328201523798
 31
0.0
  0
ARC
  5
2263
330
1F
100
AcDbEntity
  8
ｶﾊﾞｰ
100
AcDbCircle
 10
469.0435893819818
 20
319.3328201523798
 30
0.0
 40
3.0
100
AcDbArc
 50
180.0
 51
270.0
1001
GENIUS_GENODEF_13
1002
{
1000
HIER
1070
     0
1002
}
1002
{
1000
MANEDIT
1070
     0
1002
}
1002
{
1000
NOSEL
1070
     0
1002
}
1002
{
1000
BEHIND
1070
     0
1002
}
1002
{
1000
REACTOR
1002
}
1001
GENIUS_GENOBJ-N-FIL_13
1002
{
1000
OWNER
1000
GEN
1002
}
  0
ARC
  5
2264
330
1F
100
AcDbEntity
  8
ｶﾊﾞｰ
100
AcDbCircle
 10
713.0435893819818
 20
319.3328201523798
 30
0.0
 40
3.0
100
AcDbArc
 50
270.0
 51
0.0
1001
GENIUS_GENODEF_13
1002
{
1000
HIER
1070
     0
1002
}
1002
{
1000
MANEDIT
1070
     0
1002
}
1002
{
1000
NOSEL
1070
     0
1002
}
1002
{
1000
BEHIND
1070
     0
1002
}
1002
{
1000
REACTOR
1002
}
1001
GENIUS_GENOBJ-N-FIL_13
1002
{
1000
OWNER
1000
GEN
1002
}
  0
CIRCLE
  5
2265
330
1F
100
AcDbEntity
  8
ｶﾊﾞｰ
100
AcDbCircle
 10
676.0435893819818
 20
322.3328201523797
 30
0.0
 40
2.0
  0
DIMENSION
  5
2275
330
1F
100
AcDbEntity
  8
AM_5
100
AcDbDimension
  2
*D15
 10
145.9088798083058
 20
436.3328201523798
 30
0.0
 11
139.4081908319278
 21
376.3328201523799
 31
0.0
 70
    32
 71
     5
 42
120.0
  3
AM_ISO
100
AcDbAlignedDimension
 13
169.9088798083058
 23
316.3328201523798
 33
0.0
 14
170.9088798083058
 24
436.3328201523798
 34
0.0
 50
90.00000000000003
100
AcDbRotatedDimension
1001
ACAD
1000
DSTYLE
1002
{
1070
    40
1040
2.0
1002
}
  0
DIMENSION
  5
2297
330
1F
100
AcDbEntity
  8
AM_5
100
AcDbDimension
  2
*D16
 10
349.9088798083058
 20
454.9761674719711
 30
0.0
 11
259.9088798083059
 21
461.4761674719711
 31
0.0
 70
    32
 71
     5
 42
179.9999999999999
  3
AM_ISO
100
AcDbAlignedDimension
 13
169.9088798083058
 23
435.3328201523798
 33
0.0
 14
349.9088798083058
 24
435.3328201523797
 34
0.0
100
AcDbRotatedDimension
1001
ACAD
1000
DSTYLE
1002
{
1070
    40
1040
2.0
1002
}
  0
DIMENSION
  5
22B9
330
1F
100
AcDbEntity
  8
AM_5
100
AcDbDimension
  2
*D17
 10
716.0435893819818
 20
454.9761674719711
 30
0.0
 11
591.0435893819818
 21
461.476856448349
 31
0.0
 70
    32
 71
     5
 42
250.0
  3
AM_ISO
100
AcDbAlignedDimension
 13
466.0435893819818
 23
436.3328201523798
 33
0.0
 14
716.0435893819818
 24
436.3328201523798
 34
0.0
100
AcDbRotatedDimension
1001
ACAD
1000
DSTYLE
1002
{
1070
    40
1040
2.0
1002
}
  0
LINE
  5
22E8
330
1F
100
AcDbEntity
  8
ｶﾊﾞｰ0
100
AcDbLine
 10
478.3435893819819
 20
428.3328201523798
 30
0.0
 11
478.3435893819819
 21
434.3328201523798
 31
0.0
  0
LINE
  5
22E9
330
1F
100
AcDbEntity
  8
ｶﾊﾞｰ0
100
AcDbLine
 10
477.3435893819819
 20
434.3328201523798
 30
0.0
 11
477.3435893819819
 21
428.3328201523798
 31
0.0
  0
LINE
  5
22EA
330
1F
100
AcDbEntity
  8
ｶﾊﾞｰ0
100
AcDbLine
 10
477.3435893819819
 20
428.3328201523798
 30
0.0
 11
478.3435893819819
 21
428.3328201523798
 31
0.0
  0
LINE
  5
22EB
330
1F
100
AcDbEntity
  8
ｶﾊﾞｰ0
100
AcDbLine
 10
478.3435893819819
 20
434.3328201523798
 30
0.0
 11
488.3435893819819
 21
434.3328201523798
 31
0.0
  0
LINE
  5
22EC
330
1F
100
AcDbEntity
  8
ｶﾊﾞｰ0
100
AcDbLine
 10
488.3435893819819
 20
434.3328201523798
 30
0.0
 11
488.3435893819819
 21
435.3328201523798
 31
0.0
  0
CIRCLE
  5
22ED
330
1F
100
AcDbEntity
  8
ｶﾊﾞｰ
100
AcDbCircle
 10
506.0435893819819
 20
322.3328201523797
 30
0.0
 40
2.0
  0
ARC
  5
2362
330
1F
100
AcDbEntity
  8
ｶﾊﾞｰ
100
AcDbCircle
 10
649.0435893819818
 20
419.0528201523799
 30
0.0
 40
1.25
100
AcDbArc
 50
180.0
 51
0.0
1001
GENIUS_GENOBJ-N-FIL_13
1002
{
1000
OWNER
1000
GEN
1002
}
1001
GENIUS_GENODEF_13
1002
{
1000
HIER
1070
     0
1002
}
1002
{
1000
MANEDIT
1070
     0
1002
}
1002
{
1000
NOSEL
1070
     0
1002
}
1002
{
1000
BEHIND
1070
     0
1002
}
1002
{
1000
OTHER
1070
     0
1002
}
1002
{
1000
REACTOR
1002
}
  0
ARC
  5
2364
330
1F
100
AcDbEntity
  8
ｶﾊﾞｰ
100
AcDbCircle
 10
642.0435893819818
 20
419.0528201523799
 30
0.0
 40
1.25
100
AcDbArc
 50
180.0
 51
0.0
1001
GENIUS_GENOBJ-N-FIL_13
1002
{
1000
OWNER
1000
GEN
1002
}
1001
GENIUS_GENODEF_13
1002
{
1000
HIER
1070
     0
1002
}
1002
{
1000
MANEDIT
1070
     0
1002
}
1002
{
1000
NOSEL
1070
     0
1002
}
1002
{
1000
BEHIND
1070
     0
1002
}
1002
{
1000
OTHER
1070
     0
1002
}
1002
{
1000
REACTOR
1002
}
  0
ARC
  5
2366
330
1F
100
AcDbEntity
  8
ｶﾊﾞｰ
100
AcDbCircle
 10
635.0435893819819
 20
419.0528201523799
 30
0.0
 40
1.25
100
AcDbArc
 50
180.0
 51
0.0
1001
GENIUS_GENOBJ-N-FIL_13
1002
{
1000
OWNER
1000
GEN
1002
}
1001
GENIUS_GENODEF_13
1002
{
1000
HIER
1070
     0
1002
}
1002
{
1000
MANEDIT
1070
     0
1002
}
1002
{
1000
NOSEL
1070
     0
1002
}
1002
{
1000
BEHIND
1070
     0
1002
}
1002
{
1000
OTHER
1070
     0
1002
}
1002
{
1000
REACTOR
1002
}
  0
ARC
  5
2368
330
1F
100
AcDbEntity
  8
ｶﾊﾞｰ
100
AcDbCircle
 10
628.0435893819818
 20
419.0528201523799
 30
0.0
 40
1.25
100
AcDbArc
 50
180.0
 51
0.0
1001
GENIUS_GENOBJ-N-FIL_13
1002
{
1000
OWNER
1000
GEN
1002
}
1001
GENIUS_GENODEF_13
1002
{
1000
HIER
1070
     0
1002
}
1002
{
1000
MANEDIT
1070
     0
1002
}
1002
{
1000
NOSEL
1070
     0
1002
}
1002
{
1000
BEHIND
1070
     0
1002
}
1002
{
1000
OTHER
1070
     0
1002
}
1002
{
1000
REACTOR
1002
}
  0
ARC
  5
236A
330
1F
100
AcDbEntity
  8
ｶﾊﾞｰ
100
AcDbCircle
 10
621.0435893819818
 20
419.0528201523799
 30
0.0
 40
1.25
100
AcDbArc
 50
180.0
 51
0.0
1001
GENIUS_GENOBJ-N-FIL_13
1002
{
1000
OWNER
1000
GEN
1002
}
1001
GENIUS_GENODEF_13
1002
{
1000
HIER
1070
     0
1002
}
1002
{
1000
MANEDIT
1070
     0
1002
}
1002
{
1000
NOSEL
1070
     0
1002
}
1002
{
1000
BEHIND
1070
     0
1002
}
1002
{
1000
OTHER
1070
     0
1002
}
1002
{
1000
REACTOR
1002
}
  0
ARC
  5
236C
330
1F
100
AcDbEntity
  8
ｶﾊﾞｰ
100
AcDbCircle
 10
614.0435893819819
 20
419.0528201523799
 30
0.0
 40
1.25
100
AcDbArc
 50
180.0
 51
0.0
1001
GENIUS_GENOBJ-N-FIL_13
1002
{
1000
OWNER
1000
GEN
1002
}
1001
GENIUS_GENODEF_13
1002
{
1000
HIER
1070
     0
1002
}
1002
{
1000
MANEDIT
1070
     0
1002
}
1002
{
1000
NOSEL
1070
     0
1002
}
1002
{
1000
BEHIND
1070
     0
1002
}
1002
{
1000
OTHER
1070
     0
1002
}
1002
{
1000
REACTOR
1002
}
  0
ARC
  5
236E
330
1F
100
AcDbEntity
  8
ｶﾊﾞｰ
100
AcDbCircle
 10
607.0435893819818
 20
419.0528201523799
 30
0.0
 40
1.25
100
AcDbArc
 50
180.0
 51
0.0
1001
GENIUS_GENOBJ-N-FIL_13
1002
{
1000
OWNER
1000
GEN
1002
}
1001
GENIUS_GENODEF_13
1002
{
1000
HIER
1070
     0
1002
}
1002
{
1000
MANEDIT
1070
     0
1002
}
1002
{
1000
NOSEL
1070
     0
1002
}
1002
{
1000
BEHIND
1070
     0
1002
}
1002
{
1000
OTHER
1070
     0
1002
}
1002
{
1000
REACTOR
1002
}
  0
ARC
  5
2370
330
1F
100
AcDbEntity
  8
ｶﾊﾞｰ
100
AcDbCircle
 10
600.0435893819818
 20
419.0528201523799
 30
0.0
 40
1.25
100
AcDbArc
 50
180.0
 51
0.0
1001
GENIUS_GENOBJ-N-FIL_13
1002
{
1000
OWNER
1000
GEN
1002
}
1001
GENIUS_GENODEF_13
1002
{
1000
HIER
1070
     0
1002
}
1002
{
1000
MANEDIT
1070
     0
1002
}
1002
{
1000
NOSEL
1070
     0
1002
}
1002
{
1000
BEHIND
1070
     0
1002
}
1002
{
1000
OTHER
1070
     0
1002
}
1002
{
1000
REACTOR
1002
}
  0
ARC
  5
2372
330
1F
100
AcDbEntity
  8
ｶﾊﾞｰ
100
AcDbCircle
 10
593.0435893819818
 20
419.0528201523799
 30
0.0
 40
1.25
100
AcDbArc
 50
180.0
 51
0.0
1001
GENIUS_GENOBJ-N-FIL_13
1002
{
1000
OWNER
1000
GEN
1002
}
1001
GENIUS_GENODEF_13
1002
{
1000
HIER
1070
     0
1002
}
1002
{
1000
MANEDIT
1070
     0
1002
}
1002
{
1000
NOSEL
1070
     0
1002
}
1002
{
1000
BEHIND
1070
     0
1002
}
1002
{
1000
OTHER
1070
     0
1002
}
1002
{
1000
REACTOR
1002
}
  0
ARC
  5
2374
330
1F
100
AcDbEntity
  8
ｶﾊﾞｰ
100
AcDbCircle
 10
586.0435893819818
 20
419.0528201523799
 30
0.0
 40
1.25
100
AcDbArc
 50
180.0
 51
0.0
1001
GENIUS_GENOBJ-N-FIL_13
1002
{
1000
OWNER
1000
GEN
1002
}
1001
GENIUS_GENODEF_13
1002
{
1000
HIER
1070
     0
1002
}
1002
{
1000
MANEDIT
1070
     0
1002
}
1002
{
1000
NOSEL
1070
     0
1002
}
1002
{
1000
BEHIND
1070
     0
1002
}
1002
{
1000
OTHER
1070
     0
1002
}
1002
{
1000
REACTOR
1002
}
  0
ARC
  5
2376
330
1F
100
AcDbEntity
  8
ｶﾊﾞｰ
100
AcDbCircle
 10
579.0435893819818
 20
419.0528201523799
 30
0.0
 40
1.25
100
AcDbArc
 50
180.0
 51
0.0
1001
GENIUS_GENOBJ-N-FIL_13
1002
{
1000
OWNER
1000
GEN
1002
}
1001
GENIUS_GENODEF_13
1002
{
1000
HIER
1070
     0
1002
}
1002
{
1000
MANEDIT
1070
     0
1002
}
1002
{
1000
NOSEL
1070
     0
1002
}
1002
{
1000
BEHIND
1070
     0
1002
}
1002
{
1000
OTHER
1070
     0
1002
}
1002
{
1000
REACTOR
1002
}
  0
ARC
  5
2377
330
1F
100
AcDbEntity
  8
ｶﾊﾞｰ0
100
AcDbCircle
 10
332.628879808306
 20
156.5969963307932
 30
0.0
 40
1.25
100
AcDbArc
 50
90.0
 51
270.0
1001
GENIUS_GENODEF_13
1002
{
1000
HIER
1070
     0
1002
}
1002
{
1000
MANEDIT
1070
     0
1002
}
1002
{
1000
NOSEL
1070
     0
1002
}
1002
{
1000
BEHIND
1070
     0
1002
}
1002
{
1000
OTHER
1070
     0
1002
}
1002
{
1000
REACTOR
1002
}
1001
GENIUS_GENOBJ-N-FIL_13
1002
{
1000
OWNER
1000
GEN
1002
}
  0
ARC
  5
2378
330
1F
100
AcDbEntity
  8
ｶﾊﾞｰ0
100
AcDbCircle
 10
332.628879808306
 20
149.5969963307932
 30
0.0
 40
1.25
100
AcDbArc
 50
90.0
 51
270.0
1001
GENIUS_GENODEF_13
1002
{
1000
HIER
1070
     0
1002
}
1002
{
1000
MANEDIT
1070
     0
1002
}
1002
{
1000
NOSEL
1070
     0
1002
}
1002
{
1000
BEHIND
1070
     0
1002
}
1002
{
1000
OTHER
1070
     0
1002
}
1002
{
1000
REACTOR
1002
}
1001
GENIUS_GENOBJ-N-FIL_13
1002
{
1000
OWNER
1000
GEN
1002
}
  0
ARC
  5
2379
330
1F
100
AcDbEntity
  8
ｶﾊﾞｰ0
100
AcDbCircle
 10
332.628879808306
 20
142.5969963307932
 30
0.0
 40
1.25
100
AcDbArc
 50
90.0
 51
270.0
1001
GENIUS_GENODEF_13
1002
{
1000
HIER
1070
     0
1002
}
1002
{
1000
MANEDIT
1070
     0
1002
}
1002
{
1000
NOSEL
1070
     0
1002
}
1002
{
1000
BEHIND
1070
     0
1002
}
1002
{
1000
OTHER
1070
     0
1002
}
1002
{
1000
REACTOR
1002
}
1001
GENIUS_GENOBJ-N-FIL_13
1002
{
1000
OWNER
1000
GEN
1002
}
  0
ARC
  5
237A
330
1F
100
AcDbEntity
  8
ｶﾊﾞｰ0
100
AcDbCircle
 10
332.628879808306
 20
135.5969963307932
 30
0.0
 40
1.25
100
AcDbArc
 50
90.0
 51
270.0
1001
GENIUS_GENODEF_13
1002
{
1000
HIER
1070
     0
1002
}
1002
{
1000
MANEDIT
1070
     0
1002
}
1002
{
1000
NOSEL
1070
     0
1002
}
1002
{
1000
BEHIND
1070
     0
1002
}
1002
{
1000
OTHER
1070
     0
1002
}
1002
{
1000
REACTOR
1002
}
1001
GENIUS_GENOBJ-N-FIL_13
1002
{
1000
OWNER
1000
GEN
1002
}
  0
ARC
  5
237B
330
1F
100
AcDbEntity
  8
ｶﾊﾞｰ0
100
AcDbCircle
 10
332.628879808306
 20
128.5969963307932
 30
0.0
 40
1.25
100
AcDbArc
 50
90.0
 51
270.0
1001
GENIUS_GENODEF_13
1002
{
1000
HIER
1070
     0
1002
}
1002
{
1000
MANEDIT
1070
     0
1002
}
1002
{
1000
NOSEL
1070
     0
1002
}
1002
{
1000
BEHIND
1070
     0
1002
}
1002
{
1000
OTHER
1070
     0
1002
}
1002
{
1000
REACTOR
1002
}
1001
GENIUS_GENOBJ-N-FIL_13
1002
{
1000
OWNER
1000
GEN
1002
}
  0
ARC
  5
237C
330
1F
100
AcDbEntity
  8
ｶﾊﾞｰ0
100
AcDbCircle
 10
332.628879808306
 20
121.5969963307932
 30
0.0
 40
1.25
100
AcDbArc
 50
90.0
 51
270.0
1001
GENIUS_GENODEF_13
1002
{
1000
HIER
1070
     0
1002
}
1002
{
1000
MANEDIT
1070
     0
1002
}
1002
{
1000
NOSEL
1070
     0
1002
}
1002
{
1000
BEHIND
1070
     0
1002
}
1002
{
1000
OTHER
1070
     0
1002
}
1002
{
1000
REACTOR
1002
}
1001
GENIUS_GENOBJ-N-FIL_13
1002
{
1000
OWNER
1000
GEN
1002
}
  0
ARC
  5
237D
330
1F
100
AcDbEntity
  8
ｶﾊﾞｰ0
100
AcDbCircle
 10
332.628879808306
 20
114.5969963307932
 30
0.0
 40
1.25
100
AcDbArc
 50
90.0
 51
270.0
1001
GENIUS_GENODEF_13
1002
{
1000
HIER
1070
     0
1002
}
1002
{
1000
MANEDIT
1070
     0
1002
}
1002
{
1000
NOSEL
1070
     0
1002
}
1002
{
1000
BEHIND
1070
     0
1002
}
1002
{
1000
OTHER
1070
     0
1002
}
1002
{
1000
REACTOR
1002
}
1001
GENIUS_GENOBJ-N-FIL_13
1002
{
1000
OWNER
1000
GEN
1002
}
  0
ARC
  5
237E
330
1F
100
AcDbEntity
  8
ｶﾊﾞｰ0
100
AcDbCircle
 10
332.628879808306
 20
107.5969963307932
 30
0.0
 40
1.25
100
AcDbArc
 50
90.0
 51
270.0
1001
GENIUS_GENODEF_13
1002
{
1000
HIER
1070
     0
1002
}
1002
{
1000
MANEDIT
1070
     0
1002
}
1002
{
1000
NOSEL
1070
     0
1002
}
1002
{
1000
BEHIND
1070
     0
1002
}
1002
{
1000
OTHER
1070
     0
1002
}
1002
{
1000
REACTOR
1002
}
1001
GENIUS_GENOBJ-N-FIL_13
1002
{
1000
OWNER
1000
GEN
1002
}
  0
ARC
  5
237F
330
1F
100
AcDbEntity
  8
ｶﾊﾞｰ0
100
AcDbCircle
 10
332.628879808306
 20
100.5969963307932
 30
0.0
 40
1.25
100
AcDbArc
 50
90.0
 51
270.0
1001
GENIUS_GENODEF_13
1002
{
1000
HIER
1070
     0
1002
}
1002
{
1000
MANEDIT
1070
     0
1002
}
1002
{
1000
NOSEL
1070
     0
1002
}
1002
{
1000
BEHIND
1070
     0
1002
}
1002
{
1000
OTHER
1070
     0
1002
}
1002
{
1000
REACTOR
1002
}
1001
GENIUS_GENOBJ-N-FIL_13
1002
{
1000
OWNER
1000
GEN
1002
}
  0
ARC
  5
2380
330
1F
100
AcDbEntity
  8
ｶﾊﾞｰ0
100
AcDbCircle
 10
332.628879808306
 20
93.59699633079321
 30
0.0
 40
1.25
100
AcDbArc
 50
90.0
 51
270.0
1001
GENIUS_GENODEF_13
1002
{
1000
HIER
1070
     0
1002
}
1002
{
1000
MANEDIT
1070
     0
1002
}
1002
{
1000
NOSEL
1070
     0
1002
}
1002
{
1000
BEHIND
1070
     0
1002
}
1002
{
1000
OTHER
1070
     0
1002
}
1002
{
1000
REACTOR
1002
}
1001
GENIUS_GENOBJ-N-FIL_13
1002
{
1000
OWNER
1000
GEN
1002
}
  0
ARC
  5
2381
330
1F
100
AcDbEntity
  8
ｶﾊﾞｰ0
100
AcDbCircle
 10
332.628879808306
 20
86.59699633079322
 30
0.0
 40
1.25
100
AcDbArc
 50
90.0
 51
270.0
1001
GENIUS_GENODEF_13
1002
{
1000
HIER
1070
     0
1002
}
1002
{
1000
MANEDIT
1070
     0
1002
}
1002
{
1000
NOSEL
1070
     0
1002
}
1002
{
1000
BEHIND
1070
     0
1002
}
1002
{
1000
OTHER
1070
     0
1002
}
1002
{
1000
REACTOR
1002
}
1001
GENIUS_GENOBJ-N-FIL_13
1002
{
1000
OWNER
1000
GEN
1002
}
  0
ARC
  5
2382
330
1F
100
AcDbEntity
  8
ｶﾊﾞｰ0
100
AcDbCircle
 10
187.1888798083062
 20
86.59699633079322
 30
0.0
 40
1.25
100
AcDbArc
 50
270.0
 51
90.0
1001
GENIUS_GENODEF_13
1002
{
1000
HIER
1070
     0
1002
}
1002
{
1000
MANEDIT
1070
     0
1002
}
1002
{
1000
NOSEL
1070
     0
1002
}
1002
{
1000
BEHIND
1070
     0
1002
}
1002
{
1000
OTHER
1070
     0
1002
}
1002
{
1000
REACTOR
1002
}
1001
GENIUS_GENOBJ-N-FIL_13
1002
{
1000
OWNER
1000
GEN
1002
}
  0
ARC
  5
2383
330
1F
100
AcDbEntity
  8
ｶﾊﾞｰ0
100
AcDbCircle
 10
187.1888798083062
 20
93.59699633079321
 30
0.0
 40
1.25
100
AcDbArc
 50
270.0
 51
90.0
1001
GENIUS_GENODEF_13
1002
{
1000
HIER
1070
     0
1002
}
1002
{
1000
MANEDIT
1070
     0
1002
}
1002
{
1000
NOSEL
1070
     0
1002
}
1002
{
1000
BEHIND
1070
     0
1002
}
1002
{
1000
OTHER
1070
     0
1002
}
1002
{
1000
REACTOR
1002
}
1001
GENIUS_GENOBJ-N-FIL_13
1002
{
1000
OWNER
1000
GEN
1002
}
  0
ARC
  5
2384
330
1F
100
AcDbEntity
  8
ｶﾊﾞｰ0
100
AcDbCircle
 10
187.1888798083062
 20
100.5969963307932
 30
0.0
 40
1.25
100
AcDbArc
 50
270.0
 51
90.0
1001
GENIUS_GENODEF_13
1002
{
1000
HIER
1070
     0
1002
}
1002
{
1000
MANEDIT
1070
     0
1002
}
1002
{
1000
NOSEL
1070
     0
1002
}
1002
{
1000
BEHIND
1070
     0
1002
}
1002
{
1000
OTHER
1070
     0
1002
}
1002
{
1000
REACTOR
1002
}
1001
GENIUS_GENOBJ-N-FIL_13
1002
{
1000
OWNER
1000
GEN
1002
}
  0
ARC
  5
2385
330
1F
100
AcDbEntity
  8
ｶﾊﾞｰ0
100
AcDbCircle
 10
187.1888798083062
 20
107.5969963307932
 30
0.0
 40
1.25
100
AcDbArc
 50
270.0
 51
90.0
1001
GENIUS_GENODEF_13
1002
{
1000
HIER
1070
     0
1002
}
1002
{
1000
MANEDIT
1070
     0
1002
}
1002
{
1000
NOSEL
1070
     0
1002
}
1002
{
1000
BEHIND
1070
     0
1002
}
1002
{
1000
OTHER
1070
     0
1002
}
1002
{
1000
REACTOR
1002
}
1001
GENIUS_GENOBJ-N-FIL_13
1002
{
1000
OWNER
1000
GEN
1002
}
  0
ARC
  5
2386
330
1F
100
AcDbEntity
  8
ｶﾊﾞｰ0
100
AcDbCircle
 10
187.1888798083062
 20
114.5969963307932
 30
0.0
 40
1.25
100
AcDbArc
 50
270.0
 51
90.0
1001
GENIUS_GENODEF_13
1002
{
1000
HIER
1070
     0
1002
}
1002
{
1000
MANEDIT
1070
     0
1002
}
1002
{
1000
NOSEL
1070
     0
1002
}
1002
{
1000
BEHIND
1070
     0
1002
}
1002
{
1000
OTHER
1070
     0
1002
}
1002
{
1000
REACTOR
1002
}
1001
GENIUS_GENOBJ-N-FIL_13
1002
{
1000
OWNER
1000
GEN
1002
}
  0
ARC
  5
2387
330
1F
100
AcDbEntity
  8
ｶﾊﾞｰ0
100
AcDbCircle
 10
187.1888798083062
 20
121.5969963307932
 30
0.0
 40
1.25
100
AcDbArc
 50
270.0
 51
90.0
1001
GENIUS_GENODEF_13
1002
{
1000
HIER
1070
     0
1002
}
1002
{
1000
MANEDIT
1070
     0
1002
}
1002
{
1000
NOSEL
1070
     0
1002
}
1002
{
1000
BEHIND
1070
     0
1002
}
1002
{
1000
OTHER
1070
     0
1002
}
1002
{
1000
REACTOR
1002
}
1001
GENIUS_GENOBJ-N-FIL_13
1002
{
1000
OWNER
1000
GEN
1002
}
  0
ARC
  5
2388
330
1F
100
AcDbEntity
  8
ｶﾊﾞｰ0
100
AcDbCircle
 10
187.1888798083062
 20
128.5969963307932
 30
0.0
 40
1.25
100
AcDbArc
 50
270.0
 51
90.0
1001
GENIUS_GENODEF_13
1002
{
1000
HIER
1070
     0
1002
}
1002
{
1000
MANEDIT
1070
     0
1002
}
1002
{
1000
NOSEL
1070
     0
1002
}
1002
{
1000
BEHIND
1070
     0
1002
}
1002
{
1000
OTHER
1070
     0
1002
}
1002
{
1000
REACTOR
1002
}
1001
GENIUS_GENOBJ-N-FIL_13
1002
{
1000
OWNER
1000
GEN
1002
}
  0
ARC
  5
2389
330
1F
100
AcDbEntity
  8
ｶﾊﾞｰ0
100
AcDbCircle
 10
187.1888798083062
 20
135.5969963307932
 30
0.0
 40
1.25
100
AcDbArc
 50
270.0
 51
90.0
1001
GENIUS_GENODEF_13
1002
{
1000
HIER
1070
     0
1002
}
1002
{
1000
MANEDIT
1070
     0
1002
}
1002
{
1000
NOSEL
1070
     0
1002
}
1002
{
1000
BEHIND
1070
     0
1002
}
1002
{
1000
OTHER
1070
     0
1002
}
1002
{
1000
REACTOR
1002
}
1001
GENIUS_GENOBJ-N-FIL_13
1002
{
1000
OWNER
1000
GEN
1002
}
  0
ARC
  5
238A
330
1F
100
AcDbEntity
  8
ｶﾊﾞｰ0
100
AcDbCircle
 10
187.1888798083062
 20
142.5969963307932
 30
0.0
 40
1.25
100
AcDbArc
 50
270.0
 51
90.0
1001
GENIUS_GENODEF_13
1002
{
1000
HIER
1070
     0
1002
}
1002
{
1000
MANEDIT
1070
     0
1002
}
1002
{
1000
NOSEL
1070
     0
1002
}
1002
{
1000
BEHIND
1070
     0
1002
}
1002
{
1000
OTHER
1070
     0
1002
}
1002
{
1000
REACTOR
1002
}
1001
GENIUS_GENOBJ-N-FIL_13
1002
{
1000
OWNER
1000
GEN
1002
}
  0
ARC
  5
238B
330
1F
100
AcDbEntity
  8
ｶﾊﾞｰ0
100
AcDbCircle
 10
187.1888798083062
 20
149.5969963307932
 30
0.0
 40
1.25
100
AcDbArc
 50
270.0
 51
90.0
1001
GENIUS_GENODEF_13
1002
{
1000
HIER
1070
     0
1002
}
1002
{
1000
MANEDIT
1070
     0
1002
}
1002
{
1000
NOSEL
1070
     0
1002
}
1002
{
1000
BEHIND
1070
     0
1002
}
1002
{
1000
OTHER
1070
     0
1002
}
1002
{
1000
REACTOR
1002
}
1001
GENIUS_GENOBJ-N-FIL_13
1002
{
1000
OWNER
1000
GEN
1002
}
  0
ARC
  5
238C
330
1F
100
AcDbEntity
  8
ｶﾊﾞｰ0
100
AcDbCircle
 10
187.1888798083062
 20
156.5969963307932
 30
0.0
 40
1.25
100
AcDbArc
 50
270.0
 51
90.0
1001
GENIUS_GENODEF_13
1002
{
1000
HIER
1070
     0
1002
}
1002
{
1000
MANEDIT
1070
     0
1002
}
1002
{
1000
NOSEL
1070
     0
1002
}
1002
{
1000
BEHIND
1070
     0
1002
}
1002
{
1000
OTHER
1070
     0
1002
}
1002
{
1000
REACTOR
1002
}
1001
GENIUS_GENOBJ-N-FIL_13
1002
{
1000
OWNER
1000
GEN
1002
}
  0
ARC
  5
238D
330
1F
100
AcDbEntity
  8
ｶﾊﾞｰ0
100
AcDbCircle
 10
187.1888798083062
 20
163.5969963307932
 30
0.0
 40
1.25
100
AcDbArc
 50
270.0
 51
90.0
1001
GENIUS_GENODEF_13
1002
{
1000
HIER
1070
     0
1002
}
1002
{
1000
MANEDIT
1070
     0
1002
}
1002
{
1000
NOSEL
1070
     0
1002
}
1002
{
1000
BEHIND
1070
     0
1002
}
1002
{
1000
OTHER
1070
     0
1002
}
1002
{
1000
REACTOR
1002
}
1001
GENIUS_GENOBJ-N-FIL_13
1002
{
1000
OWNER
1000
GEN
1002
}
  0
LINE
  5
238E
330
1F
100
AcDbEntity
  8
ｶﾊﾞｰ0
100
AcDbLine
 10
174.9088798083063
 20
435.3328201523798
 30
0.0
 11
174.9088798083063
 21
428.3328201523798
 31
0.0
1001
GENIUS_GENREC_14
1002
{
1000
PYDIR
1011
304.9088798083062
1021
428.3328201523799
1031
0.0
1002
}
1002
{
1000
PXDIR
1011
174.9088798083063
1021
435.3328201523798
1031
0.0
1002
}
1002
{
1000
PORI
1011
304.9088798083062
1021
435.3328201523799
1031
0.0
1002
}
1002
{
1000
PINS
1011
304.9088798083062
1021
435.3328201523799
1031
0.0
1002
}
1002
{
1000
PINS2
1011
174.9088798083063
1021
428.3328201523798
1031
0.0
1002
}
1002
{
1000
C
1070
     1
1002
}
1001
GENIUS_GENODEF_13
1002
{
1000
HIER
1070
     0
1002
}
1002
{
1000
MANEDIT
1070
     0
1002
}
1002
{
1000
NOSEL
1070
     0
1002
}
1002
{
1000
BEHIND
1070
     0
1002
}
1002
{
1000
REACTOR
1002
}
1001
GENIUS_GENOBJ-N-REC_13
1002
{
1000
OWNER
1000
GEN
1002
}
  0
LINE
  5
238F
330
1F
100
AcDbEntity
  8
ｶﾊﾞｰ0
100
AcDbLine
 10
174.908879808306
 20
265.2969963307933
 30
0.0
 11
174.908879808306
 21
254.2969963307932
 31
0.0
1001
GENIUS_GENREC_14
1002
{
1000
PYDIR
1011
234.908879808306
1021
255.2969963307933
1031
0.0
1002
}
1002
{
1000
PXDIR
1011
174.908879808306
1021
265.2969963307933
1031
0.0
1002
}
1002
{
1000
PORI
1011
234.908879808306
1021
265.2969963307933
1031
0.0
1002
}
1002
{
1000
PINS
1011
234.908879808306
1021
265.2969963307933
1031
0.0
1002
}
1002
{
1000
PINS2
1011
174.908879808306
1021
254.2969963307932
1031
0.0
1002
}
1002
{
1000
C
1070
     1
1002
}
1001
GENIUS_GENODEF_13
1002
{
1000
HIER
1070
     0
1002
}
1002
{
1000
MANEDIT
1070
     0
1002
}
1002
{
1000
NOSEL
1070
     0
1002
}
1002
{
1000
BEHIND
1070
     0
1002
}
1002
{
1000
REACTOR
1002
}
1001
GENIUS_GENOBJ-N-REC_13
1002
{
1000
OWNER
1000
GEN
1002
}
  0
LINE
  5
2390
330
1F
100
AcDbEntity
  8
ｶﾊﾞｰ0
100
AcDbLine
 10
174.9088798083061
 20
37.89699633079318
 30
0.0
 11
174.9088798083061
 21
48.89699633079317
 31
0.0
1001
GENIUS_GENREC_14
1002
{
1000
PYDIR
1011
234.9088798083061
1021
47.89699633079317
1031
0.0
1002
}
1002
{
1000
PXDIR
1011
174.9088798083061
1021
37.89699633079318
1031
0.0
1002
}
1002
{
1000
PORI
1011
234.9088798083061
1021
37.89699633079318
1031
0.0
1002
}
1002
{
1000
PINS
1011
234.9088798083061
1021
37.89699633079318
1031
0.0
1002
}
1002
{
1000
PINS2
1011
174.9088798083061
1021
48.89699633079317
1031
0.0
1002
}
1002
{
1000
C
1070
     1
1002
}
1001
GENIUS_GENODEF_13
1002
{
1000
HIER
1070
     0
1002
}
1002
{
1000
MANEDIT
1070
     0
1002
}
1002
{
1000
NOSEL
1070
     0
1002
}
1002
{
1000
BEHIND
1070
     0
1002
}
1002
{
1000
REACTOR
1002
}
1001
GENIUS_GENOBJ-N-REC_13
1002
{
1000
OWNER
1000
GEN
1002
}
  0
CIRCLE
  5
2391
330
1F
100
AcDbEntity
  8
ｼｬｰｼ
100
AcDbCircle
 10
506.0435893819819
 20
322.3328201523797
 30
0.0
 40
1.199999999999999
  0
LINE
  5
2392
330
1F
100
AcDbEntity
  8
ｼｬｰｼ0
100
AcDbLine
 10
486.0435893819818
 20
327.3328201523798
 30
0.0
 11
486.0435893819818
 21
435.1328201523798
 31
0.0
  0
LINE
  5
2393
330
1F
100
AcDbEntity
  8
ｼｬｰｼ0
100
AcDbLine
 10
476.043589381982
 20
318.5328201523797
 30
0.0
 11
476.0435893819818
 21
435.1328201523798
 31
0.0
  0
LINE
  5
2394
330
1F
100
AcDbEntity
  8
ｼｬｰｼ0
100
AcDbLine
 10
486.0435893819818
 20
327.3328201523798
 30
0.0
 11
476.395061244558
 21
317.6842920149559
 31
0.0
  0
LINE
  5
2395
330
1F
100
AcDbEntity
  8
ｼｬｰｼ0
100
AcDbLine
 10
486.0435893819818
 20
435.1328201523798
 30
0.0
 11
476.0435893819818
 21
435.1328201523798
 31
0.0
  0
CIRCLE
  5
2396
330
1F
100
AcDbEntity
  8
ｼｬｰｼ0
100
AcDbCircle
 10
506.0435893819819
 20
322.3328201523797
 30
0.0
 40
1.5
  0
ARC
  5
2397
330
1F
100
AcDbEntity
  8
ｼｬｰｼ0
100
AcDbCircle
 10
477.243589381982
 20
318.5328201523797
 30
0.0
 40
1.199999999999999
100
AcDbArc
 50
180.0
 51
270.0
1001
GENIUS_GENOBJ-N-FIL_13
1002
{
1000
OWNER
1000
GEN
1002
}
1001
GENIUS_GENODEF_13
1002
{
1000
HIER
1070
     0
1002
}
1002
{
1000
MANEDIT
1070
     0
1002
}
1002
{
1000
NOSEL
1070
     0
1002
}
1002
{
1000
BEHIND
1070
     0
1002
}
1002
{
1000
OTHER
1070
     0
1002
}
1002
{
1000
REACTOR
1002
}
  0
LINE
  5
2398
330
1F
100
AcDbEntity
  8
ｼｬｰｼ0
100
AcDbLine
 10
477.243589381982
 20
318.5328201523797
 30
0.0
 11
477.2435893819818
 21
435.1328201523798
 31
0.0
  0
CIRCLE
  5
2399
330
1F
100
AcDbEntity
  8
ｼｬｰｼ
100
AcDbCircle
 10
190.9088798083059
 20
241.5969963307933
 30
0.0
 40
1.199999999999999
  0
LINE
  5
239A
330
1F
100
AcDbEntity
  8
ｼｬｰｼ
100
AcDbLine
 10
170.9088798083063
 20
435.1328201523798
 30
0.0
 11
170.9088798083063
 21
318.5328201523798
 31
0.0
  0
LINE
  5
239B
330
1F
100
AcDbEntity
  8
ｼｬｰｼ
100
AcDbLine
 10
170.9088798083064
 20
37.79699633079321
 30
0.0
 11
170.9088798083061
 21
265.3969963307932
 31
0.0
  0
CIRCLE
  5
239C
330
1F
100
AcDbEntity
  8
ｼｬｰｼ
100
AcDbCircle
 10
190.9088798083062
 20
61.59699633079316
 30
0.0
 40
1.199999999999999
  0
ARC
  5
239D
330
1F
100
AcDbEntity
  8
ｼｬｰｼ
100
AcDbCircle
 10
172.108879808306
 20
265.3969963307932
 30
0.0
 40
1.199999999999999
100
AcDbArc
 50
90.0
 51
180.0000000000002
1001
GENIUS_GENOBJ-N-FIL_13
1002
{
1000
OWNER
1000
GEN
1002
}
1001
GENIUS_GENODEF_13
1002
{
1000
HIER
1070
     0
1002
}
1002
{
1000
MANEDIT
1070
     0
1002
}
1002
{
1000
NOSEL
1070
     0
1002
}
1002
{
1000
BEHIND
1070
     0
1002
}
1002
{
1000
OTHER
1070
     0
1002
}
1002
{
1000
REACTOR
1002
}
  0
ARC
  5
239E
330
1F
100
AcDbEntity
  8
ｼｬｰｼ
100
AcDbCircle
 10
172.1088798083064
 20
37.79699633079321
 30
0.0
 40
1.199999999999999
100
AcDbArc
 50
180.0
 51
270.0
1001
GENIUS_GENODEF_13
1002
{
1000
HIER
1070
     0
1002
}
1002
{
1000
MANEDIT
1070
     0
1002
}
1002
{
1000
NOSEL
1070
     0
1002
}
1002
{
1000
BEHIND
1070
     0
1002
}
1002
{
1000
OTHER
1070
     0
1002
}
1002
{
1000
REACTOR
1002
}
1001
GENIUS_GENOBJ-N-FIL_13
1002
{
1000
OWNER
1000
GEN
1002
}
  0
ARC
  5
239F
330
1F
100
AcDbEntity
  8
ｼｬｰｼ
100
AcDbCircle
 10
172.1088798083063
 20
318.5328201523798
 30
0.0
 40
1.199999999999999
100
AcDbArc
 50
180.0
 51
270.0
1001
GENIUS_GENODEF_13
1002
{
1000
HIER
1070
     0
1002
}
1002
{
1000
MANEDIT
1070
     0
1002
}
1002
{
1000
NOSEL
1070
     0
1002
}
1002
{
1000
BEHIND
1070
     0
1002
}
1002
{
1000
OTHER
1070
     0
1002
}
1002
{
1000
REACTOR
1002
}
1001
GENIUS_GENOBJ-N-FIL_13
1002
{
1000
OWNER
1000
GEN
1002
}
  0
LINE
  5
23A0
330
1F
100
AcDbEntity
  8
ｼｬｰｼ0
100
AcDbLine
 10
172.1088798083063
 20
435.1328201523798
 30
0.0
 11
172.1088798083063
 21
318.5328201523798
 31
0.0
  0
LINE
  5
23A1
330
1F
100
AcDbEntity
  8
ｼｬｰｼ0
100
AcDbLine
 10
172.1088798083064
 20
37.79699633079321
 30
0.0
 11
172.108879808306
 21
265.3969963307932
 31
0.0
  0
CIRCLE
  5
23A2
330
1F
100
AcDbEntity
  8
ｼｬｰｼ0
100
AcDbCircle
 10
190.9088798083059
 20
241.5969963307933
 30
0.0
 40
1.5
  0
CIRCLE
  5
23A3
330
1F
100
AcDbEntity
  8
ｼｬｰｼ0
100
AcDbCircle
 10
190.908879808306
 20
61.59699633079327
 30
0.0
 40
1.5
  0
ARC
  5
2965
330
1F
100
AcDbEntity
  8
ｶﾊﾞｰ0
100
AcDbCircle
 10
703.7435893819818
 20
434.3328201523798
 30
0.0
 40
1.0
100
AcDbArc
 50
0.0
 51
90.0
1001
GENIUS_GENOBJ-N-FIL_13
1002
{
1000
OWNER
1000
GEN
1002
}
1001
GENIUS_GENODEF_13
1002
{
1000
HIER
1070
     0
1002
}
1002
{
1000
MANEDIT
1070
     0
1002
}
1002
{
1000
NOSEL
1070
     0
1002
}
1002
{
1000
BEHIND
1070
     0
1002
}
1002
{
1000
OTHER
1070
     0
1002
}
1002
{
1000
REACTOR
1002
}
  0
ARC
  5
2967
330
1F
100
AcDbEntity
  8
ｶﾊﾞｰ0
100
AcDbCircle
 10
478.3435893819819
 20
434.3328201523798
 30
0.0
 40
1.0
100
AcDbArc
 50
90.0
 51
180.0
1001
GENIUS_GENODEF_13
1002
{
1000
HIER
1070
     0
1002
}
1002
{
1000
MANEDIT
1070
     0
1002
}
1002
{
1000
NOSEL
1070
     0
1002
}
1002
{
1000
BEHIND
1070
     0
1002
}
1002
{
1000
OTHER
1070
     0
1002
}
1002
{
1000
REACTOR
1002
}
1001
GENIUS_GENOBJ-N-FIL_13
1002
{
1000
OWNER
1000
GEN
1002
}
  0
MTEXT
  5
2D29
330
1F
100
AcDbEntity
  8
0
100
AcDbMText
 10
598.6529917314051
 20
32.47685344769411
 30
0.0
 40
6.0
 41
16.23862881114201
 71
     1
 72
     5
  1
{\fMS Gothic|b0|i0|c128|p49;大江}
  7
takachi1
 73
     1
 44
1.0
1001
ACAD
1000
MTEXTBEGIN
1070
    73
1070
     1
1070
    44
1040
1.0
1070
    74
1070
     0
1000
MTEXTEND
1000
ACAD_MTEXT_DEFINED_HEIGHT_BEGIN
1070
    46
1040
6.719520257531889
1000
ACAD_MTEXT_DEFINED_HEIGHT_END
  0
MTEXT
  5
2D2A
330
1F
100
AcDbEntity
  8
0
100
AcDbMText
 10
563.152991731405
 20
32.47685344769411
 30
0.0
 40
6.0
 41
16.23862881114201
 71
     1
 72
     5
  1
{\fMS Gothic|b0|i0|c128|p49;横田}
  7
takachi1
 73
     1
 44
1.0
1001
ACAD
1000
MTEXTBEGIN
1070
    73
1070
     1
1070
    44
1040
1.0
1070
    74
1070
     0
1000
MTEXTEND
1000
ACAD_MTEXT_DEFINED_HEIGHT_BEGIN
1070
    46
1040
6.719520257531889
1000
ACAD_MTEXT_DEFINED_HEIGHT_END
  0
MTEXT
  5
2D2B
330
1F
100
AcDbEntity
  8
0
100
AcDbMText
 10
529.0383448130064
 20
35.02197603844343
 30
0.0
 40
6.0
 41
16.23862881114201
 71
     1
 72
     5
  1
{\fMS Gothic|b0|i0|c128|p49;高地\P（一）}
  7
takachi1
 73
     1
 44
1.0
1001
ACAD
1000
MTEXTBEGIN
1070
    73
1070
     1
1070
    44
1040
1.0
1070
    74
1070
     0
1000
MTEXTEND
1000
ACAD_MTEXT_DEFINED_HEIGHT_BEGIN
1070
    46
1040
6.719520257531889
1000
ACAD_MTEXT_DEFINED_HEIGHT_END
  0
VIEWPORT
  5
186
102
{ACAD_XDICTIONARY
360
2EE9
102
}
330
23
100
AcDbEntity
 67
     1
  8
0
100
AcDbViewport
 10
5.249999639556163
 20
3.999999883606677
 30
0.0
 40
14.57585398793907
 41
8.992999745766947
 68
     1
 69
     1
 12
5.249999639556163
 22
3.999999883606677
 13
0.0
 23
0.0
 14
10.0
 24
10.0
 15
10.0
 25
10.0
 16
0.0
 26
0.0
 36
1.0
 17
0.0
 27
0.0
 37
0.0
 42
50.0
 43
0.0
 44
0.0
 45
8.992999745766947
 50
0.0
 51
0.0
 72
   100
 90
    32800
  1

281
     0
 71
     1
 74
     0
110
0.0
120
0.0
130
0.0
111
1.0
121
0.0
131
0.0
112
0.0
122
1.0
132
0.0
 79
     0
146
0.0
1001
GENIUS_GENSCREG_15
1000
PF
1040
1.0
1000
DF
1040
1.0
1000
MIN
1011
-2.037927354413371
1021
-0.4964999892767957
1031
0.0
1000
MAX
1011
12.5379266335257
1021
8.496499756490152
1031
0.0
1000
FLAGS
1070
     4
1001
GENIUS_GENODEF_13
1002
{
1000
HIER
1070
     0
1002
}
1002
{
1000
MANEDIT
1070
     0
1002
}
1002
{
1000
NOSEL
1070
     0
1002
}
1002
{
1000
BEHIND
1070
     0
1002
}
1002
{
1000
OTHER
1070
     0
1002
}
1002
{
1000
REACTOR
1002
}
1001
GENIUS_GENOBJ-N-SDF_13
1002
{
1000
OWNER
1000
GEN
1002
}
  0
ENDSEC
  0
SECTION
  2
OBJECTS
  0
DICTIONARY
  5
C
330
0
100
AcDbDictionary
281
     1
  3
ACAD_2007HEADERVARS_RT
350
2EDC
  3
ACAD_COLOR
350
C9
  3
ACAD_GROUP
350
D
  3
ACAD_LAYOUT
350
1A
  3
ACAD_MATERIAL
350
C8
  3
ACAD_MLEADERSTYLE
350
23DE
  3
ACAD_MLINESTYLE
350
17
  3
ACAD_PLOTSETTINGS
350
19
  3
ACAD_PLOTSTYLENAME
350
E
  3
ACAD_SCALELIST
350
23CC
  3
ACAD_TABLESTYLE
350
23CA
  3
ACAD_VISUALSTYLE
350
23B9
  3
ACDB_RECOMPOSE_DATA
350
2C5D
  3
AcDbVariableDictionary
350
9E
  3
AcmDictionary
350
63
  3
AcmSystemVariableManager
350
2EEB
  3
AMG
350
49
  3
AMGSNAPSETTINGS
350
234
  3
DWGPROPS
350
2EDB
  0
DICTIONARY
  5
2C60
330
8
100
AcDbDictionary
280
     1
281
     1
  0
DICTIONARY
  5
2C1
330
2
100
AcDbDictionary
280
     1
281
     1
  3
ACAD_LAYERFILTERS
360
782
  3
ACAD_LAYERSTATES
360
2C2
  0
DICTIONARY
  5
2B95
330
10
100
AcDbDictionary
280
     1
281
     1
  3
ADSK_XREC_LAYER_RECONCILED
360
2B96
  0
DICTIONARY
  5
2B97
330
1F0
100
AcDbDictionary
280
     1
281
     1
  3
ADSK_XREC_LAYER_RECONCILED
360
2B98
  0
DICTIONARY
  5
2B99
330
23E
100
AcDbDictionary
280
     1
281
     1
  3
ADSK_XREC_LAYER_RECONCILED
360
2B9A
  0
DICTIONARY
  5
2B9B
330
23F
100
AcDbDictionary
280
     1
281
     1
  3
ADSK_XREC_LAYER_RECONCILED
360
2B9C
  0
DICTIONARY
  5
2B9D
330
BDC
100
AcDbDictionary
280
     1
281
     1
  3
ADSK_XREC_LAYER_RECONCILED
360
2B9E
  0
DICTIONARY
  5
2B9F
330
BDF
100
AcDbDictionary
280
     1
281
     1
  3
ADSK_XREC_LAYER_RECONCILED
360
2BA0
  0
DICTIONARY
  5
2BA1
330
BE2
100
AcDbDictionary
280
     1
281
     1
  3
ADSK_XREC_LAYER_RECONCILED
360
2BA2
  0
DICTIONARY
  5
2BA3
330
BE5
100
AcDbDictionary
280
     1
281
     1
  3
ADSK_XREC_LAYER_RECONCILED
360
2BA4
  0
DICTIONARY
  5
2BA5
330
CFD
100
AcDbDictionary
280
     1
281
     1
  3
ADSK_XREC_LAYER_RECONCILED
360
2BA6
  0
DICTIONARY
  5
2BA7
330
D1C
100
AcDbDictionary
280
     1
281
     1
  3
ADSK_XREC_LAYER_RECONCILED
360
2BA8
  0
DICTIONARY
  5
2BA9
330
D1D
100
AcDbDictionary
280
     1
281
     1
  3
ADSK_XREC_LAYER_RECONCILED
360
2BAA
  0
DICTIONARY
  5
2BAB
330
ECF
100
AcDbDictionary
280
     1
281
     1
  3
ADSK_XREC_LAYER_RECONCILED
360
2BAC
  0
DICTIONARY
  5
2BAD
330
ED0
100
AcDbDictionary
280
     1
281
     1
  3
ADSK_XREC_LAYER_RECONCILED
360
2BAE
  0
DICTIONARY
  5
2BAF
330
2896
100
AcDbDictionary
280
     1
281
     1
  3
ADSK_XREC_LAYER_RECONCILED
360
2BB0
  0
DICTIONARY
  5
99
330
1F
100
AcDbDictionary
280
     1
281
     1
  3
ACAD_SORTENTS
360
2966
  0
DICTIONARY
  5
22D
330
224
100
AcDbDictionary
280
     1
281
     1
  0
DICTIONARY
  5
297
330
242
100
AcDbDictionary
280
     1
281
     1
  0
DICTIONARY
  5
A15
330
A0D
100
AcDbDictionary
280
     1
281
     1
  0
DICTIONARY
  5
A79
330
A20
100
AcDbDictionary
280
     1
281
     1
  0
DICTIONARY
  5
AA9
330
AA1
100
AcDbDictionary
280
     1
281
     1
  0
DICTIONARY
  5
AF1
330
AE9
100
AcDbDictionary
280
     1
281
     1
  0
DICTIONARY
  5
B55
330
AFC
100
AcDbDictionary
280
     1
281
     1
  0
DICTIONARY
  5
DD3
330
DC3
100
AcDbDictionary
280
     1
281
     1
  0
DICTIONARY
  5
DEB
330
DD9
100
AcDbDictionary
280
     1
281
     1
  0
DICTIONARY
  5
E02
330
DF1
100
AcDbDictionary
280
     1
281
     1
  0
DICTIONARY
  5
E1A
330
E08
100
AcDbDictionary
280
     1
281
     1
  0
DICTIONARY
  5
1417
330
1406
100
AcDbDictionary
280
     1
281
     1
  0
DICTIONARY
  5
2EE7
330
182
100
AcDbDictionary
280
     1
281
     1
  3
ACAD_XREC_ROUNDTRIP
360
2EE8
  0
DICTIONARY
  5
2EE9
330
186
100
AcDbDictionary
280
     1
281
     1
  3
ACAD_XREC_ROUNDTRIP
360
2EEA
  0
DICTIONARY
  5
2EDC
102
{ACAD_REACTORS
330
C
102
}
330
C
100
AcDbDictionary
281
     1
  3
DIMARCSYM
350
2EDD
  3
DIMLTEX1
350
2EDF
  3
DIMLTEX2
350
2EE0
  3
DIMLTYPE
350
2EDE
  0
DICTIONARY
  5
C9
102
{ACAD_REACTORS
330
C
102
}
330
C
100
AcDbDictionary
281
     1
  0
DICTIONARY
  5
D
102
{ACAD_REACTORS
330
C
102
}
330
C
100
AcDbDictionary
281
     1
  0
DICTIONARY
  5
1A
102
{ACAD_REACTORS
330
C
102
}
330
C
100
AcDbDictionary
281
     1
  3
Model
350
22
  3
レイアウト1
350
1E
  3
レイアウト2
350
26
  0
DICTIONARY
  5
C8
102
{ACAD_REACTORS
330
C
102
}
330
C
100
AcDbDictionary
281
     1
  3
ByBlock
350
23B1
  3
ByLayer
350
23A9
  3
Global
350
BF4
  0
DICTIONARY
  5
23DE
102
{ACAD_REACTORS
330
C
102
}
330
C
100
AcDbDictionary
281
     1
  3
Standard
350
23DF
  0
DICTIONARY
  5
17
102
{ACAD_REACTORS
330
C
102
}
330
C
100
AcDbDictionary
281
     1
  3
Standard
350
18
  0
DICTIONARY
  5
19
102
{ACAD_REACTORS
330
C
102
}
330
C
100
AcDbDictionary
281
     1
  0
ACDBDICTIONARYWDFLT
  5
E
102
{ACAD_REACTORS
330
C
102
}
330
C
100
AcDbDictionary
281
     1
  3
Normal
350
F
100
AcDbDictionaryWithDefault
340
F
  0
DICTIONARY
  5
23CC
102
{ACAD_REACTORS
330
C
102
}
330
C
100
AcDbDictionary
281
     1
  3
A0
350
23CD
  3
A1
350
23CE
  3
A2
350
23CF
  3
A3
350
23D0
  3
A4
350
23D1
  3
A5
350
23D2
  3
A6
350
23D3
  3
A7
350
23D4
  3
A8
350
23D5
  3
A9
350
23D6
  3
B0
350
23D7
  3
B1
350
23D8
  3
B2
350
23D9
  3
B3
350
23DA
  3
B4
350
23DB
  3
B5
350
23DC
  3
B6
350
23DD
  0
DICTIONARY
  5
23CA
102
{ACAD_REACTORS
330
C
102
}
330
C
100
AcDbDictionary
281
     1
  3
Standard
350
23CB
  0
DICTIONARY
  5
23B9
102
{ACAD_REACTORS
330
C
102
}
330
C
100
AcDbDictionary
281
     1
  3
2dWireframe
350
23BF
  3
3D Hidden
350
23C1
  3
3dWireframe
350
23C0
  3
Basic
350
23BE
  3
Brighten
350
23C5
  3
ColorChange
350
23C9
  3
Conceptual
350
23C2
  3
Dim
350
23C4
  3
Facepattern
350
23C8
  3
Flat
350
23BA
  3
FlatWithEdges
350
23BB
  3
Gouraud
350
23BC
  3
GouraudWithEdges
350
23BD
  3
Linepattern
350
23C7
  3
Realistic
350
23C3
  3
Thicken
350
23C6
  0
XRECORD
  5
2C5D
102
{ACAD_REACTORS
330
C
102
}
330
C
100
AcDbXrecord
280
     1
 90
        1
330
23CB
  0
DICTIONARY
  5
9E
102
{ACAD_REACTORS
330
C
102
}
330
C
100
AcDbDictionary
281
     1
  3
CANNOSCALE
350
2C79
  3
CMLEADERSTYLE
350
2C78
  3
CTABLESTYLE
350
2C77
  3
DIMASSOC
350
A0
  3
INDEXCTL
350
9F
  3
SORTENTS
350
2ED9
  0
DICTIONARY
  5
63
102
{ACAD_REACTORS
330
C
102
}
330
C
100
AcDbDictionary
281
     1
  3
AcmBOM
350
9A7
  3
AcmStdDictionary
350
69
  3
AMDTSECTSYM_ARROWCOLOR
350
2408
  0
DICTIONARY
  5
49
102
{ACAD_REACTORS
330
C
102
}
330
C
100
AcDbDictionary
281
     1
  0
DICTIONARY
  5
234
102
{ACAD_REACTORS
330
C
102
}
330
C
100
AcDbDictionary
281
     1
  0
XRECORD
  5
2EDB
102
{ACAD_REACTORS
330
C
102
}
330
C
100
AcDbXrecord
280
     1
  1
DWGPROPS COOKIE
  2

  3

  4

  6

  7

  8
Administrator
  9

300
AmdtFileType=84
301
=
302
=
303
=
304
=
305
=
306
=
307
=
308
=
309
=
 40
0.1956722106481482
 41
2454538.617823345
 42
2455491.545884329
  1

 90
        1
  0
DICTIONARY
  5
782
102
{ACAD_REACTORS
330
2C1
102
}
330
2C1
100
AcDbDictionary
281
     1
  0
DICTIONARY
  5
2C2
102
{ACAD_REACTORS
330
2C1
102
}
330
2C1
100
AcDbDictionary
281
     1
  0
XRECORD
  5
2B96
102
{ACAD_REACTORS
330
2B95
102
}
330
2B95
100
AcDbXrecord
280
     1
290
     1
  0
XRECORD
  5
2B98
102
{ACAD_REACTORS
330
2B97
102
}
330
2B97
100
AcDbXrecord
280
     1
290
     1
  0
XRECORD
  5
2B9A
102
{ACAD_REACTORS
330
2B99
102
}
330
2B99
100
AcDbXrecord
280
     1
290
     1
  0
XRECORD
  5
2B9C
102
{ACAD_REACTORS
330
2B9B
102
}
330
2B9B
100
AcDbXrecord
280
     1
290
     1
  0
XRECORD
  5
2B9E
102
{ACAD_REACTORS
330
2B9D
102
}
330
2B9D
100
AcDbXrecord
280
     1
290
     1
  0
XRECORD
  5
2BA0
102
{ACAD_REACTORS
330
2B9F
102
}
330
2B9F
100
AcDbXrecord
280
     1
290
     1
  0
XRECORD
  5
2BA2
102
{ACAD_REACTORS
330
2BA1
102
}
330
2BA1
100
AcDbXrecord
280
     1
290
     1
  0
XRECORD
  5
2BA4
102
{ACAD_REACTORS
330
2BA3
102
}
330
2BA3
100
AcDbXrecord
280
     1
290
     1
  0
XRECORD
  5
2BA6
102
{ACAD_REACTORS
330
2BA5
102
}
330
2BA5
100
AcDbXrecord
280
     1
290
     1
  0
XRECORD
  5
2BA8
102
{ACAD_REACTORS
330
2BA7
102
}
330
2BA7
100
AcDbXrecord
280
     1
290
     1
  0
XRECORD
  5
2BAA
102
{ACAD_REACTORS
330
2BA9
102
}
330
2BA9
100
AcDbXrecord
280
     1
290
     1
  0
XRECORD
  5
2BAC
102
{ACAD_REACTORS
330
2BAB
102
}
330
2BAB
100
AcDbXrecord
280
     1
290
     1
  0
XRECORD
  5
2BAE
102
{ACAD_REACTORS
330
2BAD
102
}
330
2BAD
100
AcDbXrecord
280
     1
290
     1
  0
XRECORD
  5
2BB0
102
{ACAD_REACTORS
330
2BAF
102
}
330
2BAF
100
AcDbXrecord
280
     1
290
     1
  0
SORTENTSTABLE
  5
2966
102
{ACAD_REACTORS
330
99
102
}
330
99
100
AcDbSortentsTable
330
1F
331
21DA
  5
21DA
331
21A3
  5
21A3
331
2396
  5
2398
331
2221
  5
2221
331
21E2
  5
21E2
331
2258
  5
2259
331
EFE
  5
EFE
331
239E
  5
23A0
331
2260
  5
2261
331
2174
  5
2174
331
21F2
  5
21F2
331
2231
  5
2231
331
21BB
  5
21BB
331
21FA
  5
21FA
331
2184
  5
2184
331
2377
  5
2379
331
2202
  5
2202
331
F4E
  5
F4E
331
237F
  5
2381
331
220A
  5
220A
331
21CB
  5
21CB
331
1BBD
  5
1BBD
331
2387
  5
2389
331
2212
  5
2212
331
2249
  5
2249
331
219C
  5
219C
331
1BC5
  5
1BC5
331
238F
  5
2391
331
22E8
  5
22E9
331
2251
  5
2251
331
21A4
  5
21A4
331
2165
  5
2165
331
EE7
  5
EE7
331
2397
  5
2399
331
2259
  5
225A
331
2222
  5
2222
331
21E3
  5
21E3
331
21AC
  5
21AC
331
2965
  5
2255
331
2368
  5
236C
331
239F
  5
23A1
331
2261
  5
2262
331
2175
  5
2175
331
21F3
  5
21F3
331
2370
  5
2374
331
21BC
  5
21BC
331
2378
  5
237A
331
223A
  5
223A
331
2203
  5
2203
331
218D
  5
218D
331
2380
  5
2382
331
22B9
  5
22E8
331
220B
  5
220B
331
1BBE
  5
1BBE
331
ED8
  5
ED8
331
2388
  5
238A
331
224A
  5
224A
331
2213
  5
2213
331
21D4
  5
21D4
331
219D
  5
219D
331
1BC6
  5
1BC6
331
EE0
  5
EE0
331
22E9
  5
22EA
331
2390
  5
2392
331
21DC
  5
21DC
331
2252
  5
2252
331
2166
  5
2166
331
2398
  5
239A
331
21E4
  5
21E4
331
225A
  5
225B
331
21AD
  5
21AD
331
F00
  5
F00
331
23A0
  5
23A2
331
2262
  5
2263
331
222B
  5
222B
331
21F4
  5
21F4
331
217E
  5
217E
331
21FC
  5
21FC
331
F48
  5
F48
331
2379
  5
237B
331
223B
  5
223B
331
2204
  5
2204
331
21C5
  5
21C5
331
218E
  5
218E
331
ED1
  5
ED1
331
2381
  5
2383
331
220C
  5
220C
331
1BBF
  5
1BBF
331
F58
  5
F58
331
2389
  5
238B
331
21D5
  5
21D5
331
224B
  5
224B
331
219E
  5
219E
331
1BC7
  5
1BC7
331
22EA
  5
22EC
331
2391
  5
2393
331
2253
  5
2253
331
21DD
  5
21DD
331
221C
  5
221C
331
2362
  5
2366
331
2399
  5
239B
331
225B
  5
225C
331
21E5
  5
21E5
331
216F
  5
216F
331
2967
  5
22EB
331
236A
  5
236E
331
23A1
  5
23A3
331
222C
  5
222C
331
2263
  5
2264
331
21B6
  5
21B6
331
21F5
  5
21F5
331
217F
  5
217F
331
E22
  5
E22
331
F41
  5
F41
331
2372
  5
2376
331
237A
  5
237C
331
21C6
  5
21C6
331
2205
  5
2205
331
2382
  5
2384
331
220D
  5
220D
331
1BC0
  5
1BC0
331
238A
  5
238C
331
EE2
  5
EE2
331
22EB
  5
22ED
331
2392
  5
2394
331
221D
  5
221D
331
21DE
  5
21DE
331
2254
  5
2254
331
239A
  5
239C
331
21E6
  5
21E6
331
225C
  5
225D
331
2170
  5
2170
331
23A2
  5
24DC
331
2264
  5
2265
331
21B7
  5
21B7
331
21F6
  5
21F6
331
2235
  5
2235
331
21FE
  5
21FE
331
2188
  5
2188
331
BC6
  5
BC6
331
237B
  5
237D
331
2206
  5
2206
331
2383
  5
2385
331
220E
  5
220E
331
21CF
  5
21CF
331
2245
  5
2245
331
1BC1
  5
1BC1
331
EDB
  5
EDB
331
238B
  5
238D
331
224D
  5
224D
331
22EC
  5
2362
331
2393
  5
2395
331
21DF
  5
21DF
331
2255
  5
2256
331
21A8
  5
21A8
331
2364
  5
2368
331
239B
  5
239D
331
225D
  5
225E
331
2226
  5
2226
331
21E7
  5
21E7
331
236C
  5
2370
331
23A3
  5
2505
331
21EF
  5
21EF
331
2265
  5
2275
331
F2B
  5
F2B
331
2179
  5
2179
331
21F7
  5
21F7
331
2275
  5
2297
331
21FF
  5
21FF
331
21C0
  5
21C0
331
2236
  5
2236
331
141A
  5
141A
331
2189
  5
2189
331
2374
  5
2377
331
2207
  5
2207
331
F53
  5
F53
331
237C
  5
237E
331
220F
  5
220F
331
21D0
  5
21D0
331
F5B
  5
F5B
331
1BC2
  5
1BC2
331
2384
  5
2386
331
224E
  5
224E
331
2217
  5
2217
331
238C
  5
238E
331
21A1
  5
21A1
331
22ED
  5
2364
331
2394
  5
2396
331
21E0
  5
21E0
331
2256
  5
2257
331
216A
  5
216A
331
239C
  5
239E
331
225E
  5
225F
331
21E8
  5
21E8
331
2227
  5
2227
331
E1D
  5
E1D
331
21B1
  5
21B1
331
21F0
  5
21F0
331
F2C
  5
F2C
331
217A
  5
217A
331
21F8
  5
21F8
331
DEE
  5
DEE
331
2200
  5
2200
331
21C1
  5
21C1
331
BC8
  5
BC8
331
237D
  5
237F
331
2208
  5
2208
331
223F
  5
223F
331
2192
  5
2192
331
2385
  5
2387
331
2210
  5
2210
331
EDD
  5
EDD
331
1BC3
  5
1BC3
331
238D
  5
238F
331
224F
  5
224F
331
21D9
  5
21D9
331
2218
  5
2218
331
21A2
  5
21A2
331
EE5
  5
EE5
331
2395
  5
2397
331
2257
  5
2258
331
21E1
  5
21E1
331
216B
  5
216B
331
2366
  5
236A
331
239D
  5
239F
331
225F
  5
2260
331
21E9
  5
21E9
331
21B2
  5
21B2
331
236E
  5
2372
331
21F1
  5
21F1
331
21F9
  5
21F9
331
2230
  5
2230
331
2183
  5
2183
331
2376
  5
2378
331
2297
  5
22B9
331
2201
  5
2201
331
237E
  5
2380
331
2240
  5
2240
331
21CA
  5
21CA
331
2209
  5
2209
331
2193
  5
2193
331
1BBC
  5
1BBC
331
ED6
  5
ED6
331
2386
  5
2388
331
2248
  5
2248
331
219B
  5
219B
331
1BC4
  5
1BC4
331
238E
  5
2390
  0
XRECORD
  5
2EE8
102
{ACAD_REACTORS
330
2EE7
102
}
330
2EE7
100
AcDbXrecord
280
     1
102
SHADEPLOT
 70
     0
  0
XRECORD
  5
2EEA
102
{ACAD_REACTORS
330
2EE9
102
}
330
2EE9
100
AcDbXrecord
280
     1
102
SHADEPLOT
 70
     0
  0
XRECORD
  5
2EDD
102
{ACAD_REACTORS
330
2EDC
102
}
330
2EDC
100
AcDbXrecord
280
     1
 70
     1
  0
XRECORD
  5
2EDF
102
{ACAD_REACTORS
330
2EDC
102
}
330
2EDC
100
AcDbXrecord
280
     1
340
14
  0
XRECORD
  5
2EE0
102
{ACAD_REACTORS
330
2EDC
102
}
330
2EDC
100
AcDbXrecord
280
     1
340
14
  0
XRECORD
  5
2EDE
102
{ACAD_REACTORS
330
2EDC
102
}
330
2EDC
100
AcDbXrecord
280
     1
340
14
  0
LAYOUT
  5
22
102
{ACAD_XDICTIONARY
360
2EE3
102
}
102
{ACAD_REACTORS
330
1A
102
}
330
1A
100
AcDbPlotSettings
  1

  2
RICOH IPSiO CX7200 RPCS
  4
A3
  6
AM_VIEW1
 40
5.873749732971191
 41
5.873747825622558
 42
5.873748779296875
 43
5.873748779296875
 44
296.9259948730469
 45
419.9466552734374
 46
2.589999999999999
 47
4.099999999999999
 48
10.00000000000003
 49
0.0
140
410.0
141
280.0
142
1.0
143
1.0
 70
 11956
 72
     1
 73
     1
 74
     4
  7
takachi-2.ctb
 75
    16
147
1.0
148
-10.00000000000003
149
0.0
100
AcDbLayout
  1
Model
 70
     1
 71
     0
 10
0.0
 20
0.0
 11
12.0
 21
9.0
 12
0.0
 22
0.0
 32
0.0
 14
0.0
 24
0.0
 34
0.0
 15
0.0
 25
0.0
 35
0.0
146
0.0
 13
0.0
 23
0.0
 33
0.0
 16
1.0
 26
0.0
 36
0.0
 17
0.0
 27
1.0
 37
0.0
 76
     0
330
1F
331
23A7
  0
LAYOUT
  5
1E
102
{ACAD_XDICTIONARY
360
2EE1
102
}
102
{ACAD_REACTORS
330
1A
102
}
330
1A
100
AcDbPlotSettings
  1

  2
none_device
  4
Letter_(8.50_x_11.00_Inches)
  6

 40
6.349999904632568
 41
6.349999904632568
 42
6.350006103515625
 43
6.350006103515625
 44
215.8999938964844
 45
279.3999938964844
 46
0.0
 47
0.0
 48
0.0
 49
0.0
140
0.0
141
0.0
142
1.0
143
1.0
 70
   688
 72
     0
 73
     1
 74
     5
  7
takachi-2.ctb
 75
    16
147
1.0
148
0.0
149
0.0
100
AcDbLayout
  1
レイアウト1
 70
     1
 71
     1
 10
-0.2500002402958907
 20
-0.2499999962453767
 11
10.74999951940821
 21
8.249999763458731
 12
0.0
 22
0.0
 32
0.0
 14
1.000000000000000E+20
 24
1.000000000000000E+20
 34
1.000000000000000E+20
 15
-1.000000000000000E+20
 25
-1.000000000000000E+20
 35
-1.000000000000000E+20
146
0.0
 13
0.0
 23
0.0
 33
0.0
 16
1.0
 26
0.0
 36
0.0
 17
0.0
 27
1.0
 37
0.0
 76
     0
330
1B
331
182
  0
LAYOUT
  5
26
102
{ACAD_XDICTIONARY
360
2EE5
102
}
102
{ACAD_REACTORS
330
1A
102
}
330
1A
100
AcDbPlotSettings
  1

  2
none_device
  4
Letter_(8.50_x_11.00_Inches)
  6

 40
6.349999904632568
 41
6.349999904632568
 42
6.350006103515625
 43
6.350006103515625
 44
215.8999938964844
 45
279.3999938964844
 46
0.0
 47
0.0
 48
0.0
 49
0.0
140
0.0
141
0.0
142
1.0
143
1.0
 70
   688
 72
     0
 73
     1
 74
     5
  7
takachi-2.ctb
 75
    16
147
1.0
148
0.0
149
0.0
100
AcDbLayout
  1
レイアウト2
 70
     1
 71
     2
 10
-0.2500002402958907
 20
-0.2499999962453767
 11
10.74999951940821
 21
8.249999763458731
 12
0.0
 22
0.0
 32
0.0
 14
1.000000000000000E+20
 24
1.000000000000000E+20
 34
1.000000000000000E+20
 15
-1.000000000000000E+20
 25
-1.000000000000000E+20
 35
-1.000000000000000E+20
146
0.0
 13
0.0
 23
0.0
 33
0.0
 16
1.0
 26
0.0
 36
0.0
 17
0.0
 27
1.0
 37
0.0
 76
     0
330
23
331
186
  0
MATERIAL
  5
23B1
102
{ACAD_XDICTIONARY
360
23B2
102
}
102
{ACAD_REACTORS
330
C8
102
}
330
C8
100
AcDbMaterial
  1
ByBlock
 72
     0
 43
0.0008202099737533
 43
0.0
 43
0.0
 43
0.0
 43
0.0
 43
0.0008202099737533
 43
0.0
 43
0.0
 43
0.0
 43
0.0
 43
1.0
 43
0.0
 43
0.0
 43
0.0
 43
0.0
 43
1.0
 77
     0
 47
0.0008202099737533
 47
0.0
 47
0.0
 47
0.0
 47
0.0
 47
0.0008202099737533
 47
0.0
 47
0.0
 47
0.0
 47
0.0
 47
1.0
 47
0.0
 47
0.0
 47
0.0
 47
0.0
 47
1.0
171
     0
 49
0.0008202099737533
 49
0.0
 49
0.0
 49
0.0
 49
0.0
 49
0.0008202099737533
 49
0.0
 49
0.0
 49
0.0
 49
0.0
 49
1.0
 49
0.0
 49
0.0
 49
0.0
 49
0.0
 49
1.0
175
     0
142
0.0008202099737533
142
0.0
142
0.0
142
0.0
142
0.0
142
0.0008202099737533
142
0.0
142
0.0
142
0.0
142
0.0
142
1.0
142
0.0
142
0.0
142
0.0
142
0.0
142
1.0
179
     0
144
0.0008202099737533
144
0.0
144
0.0
144
0.0
144
0.0
144
0.0008202099737533
144
0.0
144
0.0
144
0.0
144
0.0
144
1.0
144
0.0
144
0.0
144
0.0
144
0.0
144
1.0
147
0.0008202099737533
147
0.0
147
0.0
147
0.0
147
0.0
147
0.0008202099737533
147
0.0
147
0.0
147
0.0
147
0.0
147
1.0
147
0.0
147
0.0
147
0.0
147
0.0
147
1.0
  0
MATERIAL
  5
23A9
102
{ACAD_XDICTIONARY
360
23AA
102
}
102
{ACAD_REACTORS
330
C8
102
}
330
C8
100
AcDbMaterial
  1
ByLayer
 72
     0
 43
0.0008202099737533
 43
0.0
 43
0.0
 43
0.0
 43
0.0
 43
0.0008202099737533
 43
0.0
 43
0.0
 43
0.0
 43
0.0
 43
1.0
 43
0.0
 43
0.0
 43
0.0
 43
0.0
 43
1.0
 77
     0
 47
0.0008202099737533
 47
0.0
 47
0.0
 47
0.0
 47
0.0
 47
0.0008202099737533
 47
0.0
 47
0.0
 47
0.0
 47
0.0
 47
1.0
 47
0.0
 47
0.0
 47
0.0
 47
0.0
 47
1.0
171
     0
 49
0.0008202099737533
 49
0.0
 49
0.0
 49
0.0
 49
0.0
 49
0.0008202099737533
 49
0.0
 49
0.0
 49
0.0
 49
0.0
 49
1.0
 49
0.0
 49
0.0
 49
0.0
 49
0.0
 49
1.0
175
     0
142
0.0008202099737533
142
0.0
142
0.0
142
0.0
142
0.0
142
0.0008202099737533
142
0.0
142
0.0
142
0.0
142
0.0
142
1.0
142
0.0
142
0.0
142
0.0
142
0.0
142
1.0
179
     0
144
0.0008202099737533
144
0.0
144
0.0
144
0.0
144
0.0
144
0.0008202099737533
144
0.0
144
0.0
144
0.0
144
0.0
144
1.0
144
0.0
144
0.0
144
0.0
144
0.0
144
1.0
147
0.0008202099737533
147
0.0
147
0.0
147
0.0
147
0.0
147
0.0008202099737533
147
0.0
147
0.0
147
0.0
147
0.0
147
1.0
147
0.0
147
0.0
147
0.0
147
0.0
147
1.0
  0
MATERIAL
  5
BF4
102
{ACAD_XDICTIONARY
360
2EED
102
}
102
{ACAD_REACTORS
330
C8
102
}
330
C8
100
AcDbMaterial
  1
Global
 73
     1
 78
     1
172
     1
176
     1
270
     1
274
     1
  0
MLEADERSTYLE
  5
23DF
102
{ACAD_REACTORS
330
23DE
102
}
330
23DE
100
AcDbMLeaderStyle
170
     2
171
     1
172
     0
 90
        2
 40
0.0
 41
0.0
173
     1
 91
-1056964608
340
14
 92
       -2
290
     1
 42
2.0
291
     1
 43
0.36
  3
Standard
 44
4.0
300

342
11
174
     1
178
     6
175
     1
176
     0
 93
-1056964608
 45
4.0
292
     0
297
     0
 46
4.0
 94
-1056964608
 47
1.0
 49
1.0
140
1.0
293
     1
141
0.0
294
     1
177
     0
142
1.0
295
     0
296
     0
143
0.125
1001
ACAD_MLEADERVER
1070
     2
  0
MLINESTYLE
  5
18
102
{ACAD_REACTORS
330
17
102
}
330
17
100
AcDbMlineStyle
  2
STANDARD
 70
     0
  3

 62
   256
 51
90.0
 52
90.0
 71
     2
 49
0.5
 62
   256
  6
BYLAYER
 49
-0.5
 62
   256
  6
BYLAYER
  0
ACDBPLACEHOLDER
  5
F
102
{ACAD_REACTORS
330
E
102
}
330
E
  0
SCALE
  5
23CD
102
{ACAD_REACTORS
330
23CC
102
}
330
23CC
100
AcDbScale
 70
     0
300
1:1
140
1.0
141
1.0
290
     1
  0
SCALE
  5
23CE
102
{ACAD_REACTORS
330
23CC
102
}
330
23CC
100
AcDbScale
 70
     0
300
1:2
140
1.0
141
2.0
290
     0
  0
SCALE
  5
23CF
102
{ACAD_REACTORS
330
23CC
102
}
330
23CC
100
AcDbScale
 70
     0
300
1:4
140
1.0
141
4.0
290
     0
  0
SCALE
  5
23D0
102
{ACAD_REACTORS
330
23CC
102
}
330
23CC
100
AcDbScale
 70
     0
300
1:5
140
1.0
141
5.0
290
     0
  0
SCALE
  5
23D1
102
{ACAD_REACTORS
330
23CC
102
}
330
23CC
100
AcDbScale
 70
     0
300
1:8
140
1.0
141
8.0
290
     0
  0
SCALE
  5
23D2
102
{ACAD_REACTORS
330
23CC
102
}
330
23CC
100
AcDbScale
 70
     0
300
1:10
140
1.0
141
10.0
290
     0
  0
SCALE
  5
23D3
102
{ACAD_REACTORS
330
23CC
102
}
330
23CC
100
AcDbScale
 70
     0
300
1:16
140
1.0
141
16.0
290
     0
  0
SCALE
  5
23D4
102
{ACAD_REACTORS
330
23CC
102
}
330
23CC
100
AcDbScale
 70
     0
300
1:20
140
1.0
141
20.0
290
     0
  0
SCALE
  5
23D5
102
{ACAD_REACTORS
330
23CC
102
}
330
23CC
100
AcDbScale
 70
     0
300
1:30
140
1.0
141
30.0
290
     0
  0
SCALE
  5
23D6
102
{ACAD_REACTORS
330
23CC
102
}
330
23CC
100
AcDbScale
 70
     0
300
1:40
140
1.0
141
40.0
290
     0
  0
SCALE
  5
23D7
102
{ACAD_REACTORS
330
23CC
102
}
330
23CC
100
AcDbScale
 70
     0
300
1:50
140
1.0
141
50.0
290
     0
  0
SCALE
  5
23D8
102
{ACAD_REACTORS
330
23CC
102
}
330
23CC
100
AcDbScale
 70
     0
300
1:100
140
1.0
141
100.0
290
     0
  0
SCALE
  5
23D9
102
{ACAD_REACTORS
330
23CC
102
}
330
23CC
100
AcDbScale
 70
     0
300
2:1
140
2.0
141
1.0
290
     0
  0
SCALE
  5
23DA
102
{ACAD_REACTORS
330
23CC
102
}
330
23CC
100
AcDbScale
 70
     0
300
4:1
140
4.0
141
1.0
290
     0
  0
SCALE
  5
23DB
102
{ACAD_REACTORS
330
23CC
102
}
330
23CC
100
AcDbScale
 70
     0
300
8:1
140
8.0
141
1.0
290
     0
  0
SCALE
  5
23DC
102
{ACAD_REACTORS
330
23CC
102
}
330
23CC
100
AcDbScale
 70
     0
300
10:1
140
10.0
141
1.0
290
     0
  0
SCALE
  5
23DD
102
{ACAD_REACTORS
330
23CC
102
}
330
23CC
100
AcDbScale
 70
     0
300
100:1
140
100.0
141
1.0
290
     0
  0
TABLESTYLE
  5
23CB
102
{ACAD_XDICTIONARY
360
2C5B
102
}
102
{ACAD_REACTORS
330
23CA
102
}
330
23CA
100
AcDbTableStyle
  3
Standard
 70
     0
 71
     0
 40
1.5
 41
1.5
280
     0
281
     0
  7
STANDARD
140
4.5
170
     2
 62
     0
 63
     7
283
     0
274
    -2
284
     1
 64
     0
275
    -2
285
     1
 65
     0
276
    -2
286
     1
 66
     0
277
    -2
287
     1
 67
     0
278
    -2
288
     1
 68
     0
279
    -2
289
     1
 69
     0
  7
STANDARD
140
6.0
170
     5
 62
     0
 63
     7
283
     0
274
    -2
284
     1
 64
     0
275
    -2
285
     1
 65
     0
276
    -2
286
     1
 66
     0
277
    -2
287
     1
 67
     0
278
    -2
288
     1
 68
     0
279
    -2
289
     1
 69
     0
  7
STANDARD
140
4.5
170
     5
 62
     0
 63
     7
283
     0
274
    -2
284
     1
 64
     0
275
    -2
285
     1
 65
     0
276
    -2
286
     1
 66
     0
277
    -2
287
     1
 67
     0
278
    -2
288
     1
 68
     0
279
    -2
289
     1
 69
     0
  0
VISUALSTYLE
  5
23BF
102
{ACAD_REACTORS
330
23B9
102
}
330
23B9
100
AcDbVisualStyle
  2
2dWireframe
 70
     4
 71
     0
 72
     2
 73
     0
 90
        0
 40
-0.6
 41
-30.0
 62
     5
 63
     7
 74
     1
 91
        4
 64
     7
 65
   257
 75
     1
175
     1
 42
1.0
 92
        0
 66
   257
 43
1.0
 76
     1
 77
     6
 78
     2
 67
     7
 79
     5
170
     0
171
     0
290
     0
174
     0
 93
        1
 44
0.0
173
     0
291
     0
 45
0.0
1001
ACAD
1000
AcDbSavedByObjectVersion
1070
     0
  0
VISUALSTYLE
  5
23C1
102
{ACAD_REACTORS
330
23B9
102
}
330
23B9
100
AcDbVisualStyle
  2
3D Hidden
 70
     6
 71
     1
 72
     2
 73
     2
 90
        0
 40
-0.6
 41
-30.0
 62
     5
 63
     7
 74
     2
 91
        2
 64
     7
 65
   257
 75
     2
175
     1
 42
40.0
 92
        0
 66
   257
 43
1.0
 76
     1
 77
     6
 78
     2
 67
     7
 79
     3
170
     0
171
     0
290
     0
174
     0
 93
        1
 44
0.0
173
     0
291
     0
 45
0.0
1001
ACAD
1000
AcDbSavedByObjectVersion
1070
     0
  0
VISUALSTYLE
  5
23C0
102
{ACAD_REACTORS
330
23B9
102
}
330
23B9
100
AcDbVisualStyle
  2
3dWireframe
 70
     5
 71
     0
 72
     2
 73
     0
 90
        0
 40
-0.6
 41
-30.0
 62
     5
 63
     7
 74
     1
 91
        4
 64
     7
 65
   257
 75
     1
175
     1
 42
1.0
 92
        0
 66
   257
 43
1.0
 76
     1
 77
     6
 78
     2
 67
     7
 79
     5
170
     0
171
     0
290
     0
174
     0
 93
        1
 44
0.0
173
     0
291
     0
 45
0.0
1001
ACAD
1000
AcDbSavedByObjectVersion
1070
     0
  0
VISUALSTYLE
  5
23BE
102
{ACAD_REACTORS
330
23B9
102
}
330
23B9
100
AcDbVisualStyle
  2
Basic
 70
     7
 71
     1
 72
     0
 73
     1
 90
        0
 40
-0.6
 41
-30.0
 62
     5
 63
     7
 74
     0
 91
        4
 64
     7
 65
   257
 75
     1
175
     1
 42
1.0
 92
        8
 66
     7
 43
1.0
 76
     1
 77
     6
 78
     2
 67
     7
 79
     5
170
     0
171
     0
290
     0
174
     0
 93
        1
 44
0.0
173
     0
291
     1
 45
0.0
1001
ACAD
1000
AcDbSavedByObjectVersion
1070
     0
  0
VISUALSTYLE
  5
23C5
102
{ACAD_REACTORS
330
23B9
102
}
330
23B9
100
AcDbVisualStyle
  2
Brighten
 70
    12
 71
     2
 72
     2
 73
     0
 90
        0
 40
-0.6
 41
-30.0
 62
     5
 63
     7
 74
     1
 91
        4
 64
     7
 65
   257
 75
     1
175
     1
 42
1.0
 92
        8
 66
     7
 43
1.0
 76
     1
 77
     6
 78
     2
 67
     7
 79
     5
170
     0
171
     0
290
     0
174
     0
 93
        1
 44
50.0
173
     0
291
     1
 45
0.0
1001
ACAD
1000
AcDbSavedByObjectVersion
1070
     0
  0
VISUALSTYLE
  5
23C9
102
{ACAD_REACTORS
330
23B9
102
}
330
23B9
100
AcDbVisualStyle
  2
ColorChange
 70
    16
 71
     2
 72
     2
 73
     3
 90
        0
 40
-0.6
 41
-30.0
 62
     5
 63
     8
 74
     1
 91
        4
 64
     7
 65
   257
 75
     1
175
     1
 42
1.0
 92
        8
 66
     8
 43
1.0
 76
     1
 77
     6
 78
     2
 67
     7
 79
     5
170
     0
171
     0
290
     0
174
     0
 93
        1
 44
0.0
173
     0
291
     1
 45
0.0
1001
ACAD
1000
AcDbSavedByObjectVersion
1070
     0
  0
VISUALSTYLE
  5
23C2
102
{ACAD_REACTORS
330
23B9
102
}
330
23B9
100
AcDbVisualStyle
  2
Conceptual
 70
     9
 71
     3
 72
     2
 73
     0
 90
        0
 40
-0.6
 41
-30.0
 62
     5
 63
     7
 74
     2
 91
        2
 64
     7
 65
   257
 75
     1
175
     1
 42
40.0
 92
        8
 66
     7
 43
1.0
 76
     1
 77
     6
 78
     2
 67
     7
 79
     3
170
     0
171
     0
290
     0
174
     0
 93
        1
 44
0.0
173
     0
291
     0
 45
0.0
1001
ACAD
1000
AcDbSavedByObjectVersion
1070
     0
  0
VISUALSTYLE
  5
23C4
102
{ACAD_REACTORS
330
23B9
102
}
330
23B9
100
AcDbVisualStyle
  2
Dim
 70
    11
 71
     2
 72
     2
 73
     0
 90
        0
 40
-0.6
 41
-30.0
 62
     5
 63
     7
 74
     1
 91
        4
 64
     7
 65
   257
 75
     1
175
     1
 42
1.0
 92
        8
 66
     7
 43
1.0
 76
     1
 77
     6
 78
     2
 67
     7
 79
     5
170
     0
171
     0
290
     0
174
     0
 93
        1
 44
-50.0
173
     0
291
     1
 45
0.0
1001
ACAD
1000
AcDbSavedByObjectVersion
1070
     0
  0
VISUALSTYLE
  5
23C8
102
{ACAD_REACTORS
330
23B9
102
}
330
23B9
100
AcDbVisualStyle
  2
Facepattern
 70
    15
 71
     2
 72
     2
 73
     0
 90
        0
 40
-0.6
 41
-30.0
 62
     5
 63
     7
 74
     1
 91
        4
 64
     7
 65
   257
 75
     1
175
     1
 42
1.0
 92
        8
 66
     7
 43
1.0
 76
     1
 77
     6
 78
     2
 67
     7
 79
     5
170
     0
171
     0
290
     0
174
     0
 93
        1
 44
0.0
173
     0
291
     1
 45
0.0
1001
ACAD
1000
AcDbSavedByObjectVersion
1070
     0
  0
VISUALSTYLE
  5
23BA
102
{ACAD_REACTORS
330
23B9
102
}
330
23B9
100
AcDbVisualStyle
  2
Flat
 70
     0
 71
     2
 72
     1
 73
     1
 90
        2
 40
-0.6
 41
30.0
 62
     5
 63
     7
 74
     0
 91
        4
 64
     7
 65
   257
 75
     1
175
     1
 42
1.0
 92
        8
 66
     7
 43
1.0
 76
     1
 77
     6
 78
     2
 67
     7
 79
     5
170
     0
171
     0
290
     0
174
     0
 93
       13
 44
0.0
173
     0
291
     1
 45
0.0
1001
ACAD
1000
AcDbSavedByObjectVersion
1070
     0
  0
VISUALSTYLE
  5
23BB
102
{ACAD_REACTORS
330
23B9
102
}
330
23B9
100
AcDbVisualStyle
  2
FlatWithEdges
 70
     1
 71
     2
 72
     1
 73
     1
 90
        2
 40
-0.6
 41
30.0
 62
     5
 63
     7
 74
     1
 91
        4
 64
     7
 65
   257
 75
     1
175
     1
 42
1.0
 92
        0
 66
   257
 43
1.0
 76
     1
 77
     6
 78
     2
 67
     7
 79
     5
170
     0
171
     0
290
     0
174
     0
 93
       13
 44
0.0
173
     0
291
     1
 45
0.0
1001
ACAD
1000
AcDbSavedByObjectVersion
1070
     0
  0
VISUALSTYLE
  5
23BC
102
{ACAD_REACTORS
330
23B9
102
}
330
23B9
100
AcDbVisualStyle
  2
Gouraud
 70
     2
 71
     2
 72
     2
 73
     1
 90
        2
 40
-0.6
 41
30.0
 62
     5
 63
     7
 74
     0
 91
        4
 64
     7
 65
   257
 75
     1
175
     1
 42
1.0
 92
        0
 66
     7
 43
1.0
 76
     1
 77
     6
 78
     2
 67
     7
 79
     5
170
     0
171
     0
290
     0
174
     0
 93
       13
 44
0.0
173
     0
291
     1
 45
0.0
1001
ACAD
1000
AcDbSavedByObjectVersion
1070
     0
  0
VISUALSTYLE
  5
23BD
102
{ACAD_REACTORS
330
23B9
102
}
330
23B9
100
AcDbVisualStyle
  2
GouraudWithEdges
 70
     3
 71
     2
 72
     2
 73
     1
 90
        2
 40
-0.6
 41
30.0
 62
     5
 63
     7
 74
     1
 91
        4
 64
     7
 65
   257
 75
     1
175
     1
 42
1.0
 92
        0
 66
   257
 43
1.0
 76
     1
 77
     6
 78
     2
 67
     7
 79
     5
170
     0
171
     0
290
     0
174
     0
 93
       13
 44
0.0
173
     0
291
     1
 45
0.0
1001
ACAD
1000
AcDbSavedByObjectVersion
1070
     0
  0
VISUALSTYLE
  5
23C7
102
{ACAD_REACTORS
330
23B9
102
}
330
23B9
100
AcDbVisualStyle
  2
Linepattern
 70
    14
 71
     2
 72
     2
 73
     0
 90
        0
 40
-0.6
 41
-30.0
 62
     5
 63
     7
 74
     1
 91
        4
 64
     7
 65
   257
 75
     7
175
     7
 42
1.0
 92
        8
 66
     7
 43
1.0
 76
     1
 77
     6
 78
     2
 67
     7
 79
     5
170
     0
171
     0
290
     0
174
     0
 93
        1
 44
0.0
173
     0
291
     1
 45
0.0
1001
ACAD
1000
AcDbSavedByObjectVersion
1070
     0
  0
VISUALSTYLE
  5
23C3
102
{ACAD_REACTORS
330
23B9
102
}
330
23B9
100
AcDbVisualStyle
  2
Realistic
 70
     8
 71
     2
 72
     2
 73
     0
 90
        0
 40
-0.6
 41
-30.0
 62
     5
 63
     7
 74
     1
 91
        0
 64
     7
 65
   257
 75
     1
175
     1
 42
1.0
 92
        8
 66
     8
 43
1.0
 76
     1
 77
     6
 78
     2
 67
     7
 79
     5
170
     0
171
     0
290
     0
174
     0
 93
       13
 44
0.0
173
     0
291
     0
 45
0.0
1001
ACAD
1000
AcDbSavedByObjectVersion
1070
     0
  0
VISUALSTYLE
  5
23C6
102
{ACAD_REACTORS
330
23B9
102
}
330
23B9
100
AcDbVisualStyle
  2
Thicken
 70
    13
 71
     2
 72
     2
 73
     0
 90
        0
 40
-0.6
 41
-30.0
 62
     5
 63
     7
 74
     1
 91
        4
 64
     7
 65
   257
 75
     1
175
     1
 42
1.0
 92
       12
 66
     7
 43
1.0
 76
     1
 77
     6
 78
     2
 67
     7
 79
     5
170
     0
171
     0
290
     0
174
     0
 93
        1
 44
0.0
173
     0
291
     1
 45
0.0
1001
ACAD
1000
AcDbSavedByObjectVersion
1070
     0
  0
DICTIONARYVAR
  5
2C79
102
{ACAD_REACTORS
330
9E
102
}
330
9E
100
DictionaryVariables
280
     0
  1
1:1
  0
DICTIONARYVAR
  5
2C78
102
{ACAD_REACTORS
330
9E
102
}
330
9E
100
DictionaryVariables
280
     0
  1
STANDARD
  0
DICTIONARYVAR
  5
2C77
102
{ACAD_REACTORS
330
9E
102
}
330
9E
100
DictionaryVariables
280
     0
  1
STANDARD
  0
DICTIONARYVAR
  5
A0
102
{ACAD_REACTORS
330
9E
102
}
330
9E
100
DictionaryVariables
280
     0
  1
1
  0
DICTIONARYVAR
  5
9F
102
{ACAD_REACTORS
330
9E
102
}
330
9E
100
DictionaryVariables
280
     0
  1
0
  0
DICTIONARYVAR
  5
2ED9
102
{ACAD_REACTORS
330
9E
102
}
330
9E
100
DictionaryVariables
280
     0
  1
127
  0
DICTIONARY
  5
9A7
102
{ACAD_REACTORS
330
63
102
}
330
63
100
AcDbDictionary
281
     1
  0
DICTIONARY
  5
69
102
{ACAD_REACTORS
330
63
102
}
330
63
100
AcDbDictionary
281
     1
  0
XRECORD
  5
2408
102
{ACAD_REACTORS
330
63
102
}
330
63
100
AcDbXrecord
280
     1
 90
-1023410169
  0
DICTIONARY
  5
2EE3
330
22
100
AcDbDictionary
280
     1
281
     1
  3
ACAD_XREC_ROUNDTRIP
360
2EE4
  0
DICTIONARY
  5
2EE1
330
1E
100
AcDbDictionary
280
     1
281
     1
  3
ACAD_XREC_ROUNDTRIP
360
2EE2
  0
DICTIONARY
  5
2EE5
330
26
100
AcDbDictionary
280
     1
281
     1
  3
ACAD_XREC_ROUNDTRIP
360
2EE6
  0
DICTIONARY
  5
23B2
330
23B1
100
AcDbDictionary
280
     1
281
     1
  3
ACAD_XREC_ROUNDTRIP
360
2EF0
  3
BUMPTILE
360
23B4
  3
DIFFUSETILE
360
23B3
  3
OPACITYTILE
360
23B7
  3
REFLECTIONTILE
360
23B6
  3
REFRACTIONTILE
360
23B8
  3
SPECULARTILE
360
23B5
  0
DICTIONARY
  5
23AA
330
23A9
100
AcDbDictionary
280
     1
281
     1
  3
ACAD_XREC_ROUNDTRIP
360
2EEF
  3
BUMPTILE
360
23AC
  3
DIFFUSETILE
360
23AB
  3
OPACITYTILE
360
23AF
  3
REFLECTIONTILE
360
23AE
  3
REFRACTIONTILE
360
23B0
  3
SPECULARTILE
360
23AD
  0
DICTIONARY
  5
2EED
330
BF4
100
AcDbDictionary
280
     1
281
     1
  3
ACAD_XREC_ROUNDTRIP
360
2EEE
  0
DICTIONARY
  5
2C5B
330
23CB
100
AcDbDictionary
280
     1
281
     1
  3
ACAD_ROUNDTRIP_2008_TABLESTYLE_CELLSTYLEMAP
360
2EDA
  3
ACAD_XREC_ROUNDTRIP
360
2EF1
  0
XRECORD
  5
2EE4
102
{ACAD_REACTORS
330
2EE3
102
}
330
2EE3
100
AcDbXrecord
280
     1
102
SHADEPLOT
 70
     0
102
SHADEPLOTRESLEVEL
 70
     2
102
SHADEPLOTCUSTOMDPI
 70
   300
  0
XRECORD
  5
2EE2
102
{ACAD_REACTORS
330
2EE1
102
}
330
2EE1
100
AcDbXrecord
280
     1
102
SHADEPLOT
 70
     1
102
SHADEPLOTRESLEVEL
 70
     2
102
SHADEPLOTCUSTOMDPI
 70
   300
  0
XRECORD
  5
2EE6
102
{ACAD_REACTORS
330
2EE5
102
}
330
2EE5
100
AcDbXrecord
280
     1
102
SHADEPLOT
 70
     1
102
SHADEPLOTRESLEVEL
 70
     2
102
SHADEPLOTCUSTOMDPI
 70
   300
  0
XRECORD
  5
2EF0
102
{ACAD_REACTORS
330
23B2
102
}
330
23B2
100
AcDbXrecord
280
     1
102
MATERIAL
148
0.0
149
0.0
149
0.0
 93
        0
 94
      127
282
     0
 72
     0
 77
     0
171
     0
175
     0
179
     0
273
     0
  0
XRECORD
  5
23B4
102
{ACAD_REACTORS
330
23B2
102
}
330
23B2
100
AcDbXrecord
280
     1
270
     1
271
     1
  0
XRECORD
  5
23B3
102
{ACAD_REACTORS
330
23B2
102
}
330
23B2
100
AcDbXrecord
280
     1
270
     1
271
     1
  0
XRECORD
  5
23B7
102
{ACAD_REACTORS
330
23B2
102
}
330
23B2
100
AcDbXrecord
280
     1
270
     1
271
     1
  0
XRECORD
  5
23B6
102
{ACAD_REACTORS
330
23B2
102
}
330
23B2
100
AcDbXrecord
280
     1
270
     1
271
     1
  0
XRECORD
  5
23B8
102
{ACAD_REACTORS
330
23B2
102
}
330
23B2
100
AcDbXrecord
280
     1
270
     1
271
     1
  0
XRECORD
  5
23B5
102
{ACAD_REACTORS
330
23B2
102
}
330
23B2
100
AcDbXrecord
280
     1
270
     1
271
     1
  0
XRECORD
  5
2EEF
102
{ACAD_REACTORS
330
23AA
102
}
330
23AA
100
AcDbXrecord
280
     1
102
MATERIAL
148
0.0
149
0.0
149
0.0
 93
        0
 94
      127
282
     0
 72
     0
 77
     0
171
     0
175
     0
179
     0
273
     0
  0
XRECORD
  5
23AC
102
{ACAD_REACTORS
330
23AA
102
}
330
23AA
100
AcDbXrecord
280
     1
270
     1
271
     1
  0
XRECORD
  5
23AB
102
{ACAD_REACTORS
330
23AA
102
}
330
23AA
100
AcDbXrecord
280
     1
270
     1
271
     1
  0
XRECORD
  5
23AF
102
{ACAD_REACTORS
330
23AA
102
}
330
23AA
100
AcDbXrecord
280
     1
270
     1
271
     1
  0
XRECORD
  5
23AE
102
{ACAD_REACTORS
330
23AA
102
}
330
23AA
100
AcDbXrecord
280
     1
270
     1
271
     1
  0
XRECORD
  5
23B0
102
{ACAD_REACTORS
330
23AA
102
}
330
23AA
100
AcDbXrecord
280
     1
270
     1
271
     1
  0
XRECORD
  5
23AD
102
{ACAD_REACTORS
330
23AA
102
}
330
23AA
100
AcDbXrecord
280
     1
270
     1
271
     1
  0
XRECORD
  5
2EEE
102
{ACAD_REACTORS
330
2EED
102
}
330
2EED
100
AcDbXrecord
280
     1
102
MATERIAL
148
0.0
149
0.0
149
0.0
 93
        0
 94
       63
282
     0
 72
     1
 77
     1
171
     1
175
     1
179
     1
273
     0
  0
CELLSTYLEMAP
  5
2EDA
102
{ACAD_REACTORS
330
2C5B
102
}
330
2C5B
100
AcDbCellStyleMap
 90
        3
300
CELLSTYLE
  1
TABLEFORMAT_BEGIN
 90
        5
170
     1
 91
        0
 92
    32768
 62
   257
 93
        1
300
CONTENTFORMAT
  1
CONTENTFORMAT_BEGIN
 90
        0
 91
        0
 92
      512
 93
        0
300

 40
0.0
140
1.0
 94
        5
 62
     0
340
11
144
6.0
309
CONTENTFORMAT_END
171
     1
301
MARGIN
  1
CELLMARGIN_BEGIN
 40
1.5
 40
1.5
 40
1.5
 40
1.5
 40
4.5
 40
4.5
309
CELLMARGIN_END
 94
        6
 95
        1
302
GRIDFORMAT
  1
GRIDFORMAT_BEGIN
 90
        0
 91
        1
 62
     0
 92
       -2
340
0
 93
        0
 40
1.125
309
GRIDFORMAT_END
 95
        2
302
GRIDFORMAT
  1
GRIDFORMAT_BEGIN
 90
        0
 91
        1
 62
     0
 92
       -2
340
0
 93
        0
 40
1.125
309
GRIDFORMAT_END
 95
        4
302
GRIDFORMAT
  1
GRIDFORMAT_BEGIN
 90
        0
 91
        1
 62
     0
 92
       -2
340
0
 93
        0
 40
1.125
309
GRIDFORMAT_END
 95
        8
302
GRIDFORMAT
  1
GRIDFORMAT_BEGIN
 90
        0
 91
        1
 62
     0
 92
       -2
340
0
 93
        0
 40
1.125
309
GRIDFORMAT_END
 95
       16
302
GRIDFORMAT
  1
GRIDFORMAT_BEGIN
 90
        0
 91
        1
 62
     0
 92
       -2
340
0
 93
        0
 40
1.125
309
GRIDFORMAT_END
 95
       32
302
GRIDFORMAT
  1
GRIDFORMAT_BEGIN
 90
        0
 91
        1
 62
     0
 92
       -2
340
0
 93
        0
 40
1.125
309
GRIDFORMAT_END
309
TABLEFORMAT_END
  1
CELLSTYLE_BEGIN
 90
        1
 91
        1
300
_TITLE
309
CELLSTYLE_END
300
CELLSTYLE
  1
TABLEFORMAT_BEGIN
 90
        5
170
     1
 91
        0
 92
        0
 62
   257
 93
        1
300
CONTENTFORMAT
  1
CONTENTFORMAT_BEGIN
 90
        0
 91
        0
 92
      512
 93
        0
300

 40
0.0
140
1.0
 94
        5
 62
     0
340
11
144
4.5
309
CONTENTFORMAT_END
171
     1
301
MARGIN
  1
CELLMARGIN_BEGIN
 40
1.5
 40
1.5
 40
1.5
 40
1.5
 40
4.5
 40
4.5
309
CELLMARGIN_END
 94
        6
 95
        1
302
GRIDFORMAT
  1
GRIDFORMAT_BEGIN
 90
        0
 91
        1
 62
     0
 92
       -2
340
0
 93
        0
 40
1.125
309
GRIDFORMAT_END
 95
        2
302
GRIDFORMAT
  1
GRIDFORMAT_BEGIN
 90
        0
 91
        1
 62
     0
 92
       -2
340
0
 93
        0
 40
1.125
309
GRIDFORMAT_END
 95
        4
302
GRIDFORMAT
  1
GRIDFORMAT_BEGIN
 90
        0
 91
        1
 62
     0
 92
       -2
340
0
 93
        0
 40
1.125
309
GRIDFORMAT_END
 95
        8
302
GRIDFORMAT
  1
GRIDFORMAT_BEGIN
 90
        0
 91
        1
 62
     0
 92
       -2
340
0
 93
        0
 40
1.125
309
GRIDFORMAT_END
 95
       16
302
GRIDFORMAT
  1
GRIDFORMAT_BEGIN
 90
        0
 91
        1
 62
     0
 92
       -2
340
0
 93
        0
 40
1.125
309
GRIDFORMAT_END
 95
       32
302
GRIDFORMAT
  1
GRIDFORMAT_BEGIN
 90
        0
 91
        1
 62
     0
 92
       -2
340
0
 93
        0
 40
1.125
309
GRIDFORMAT_END
309
TABLEFORMAT_END
  1
CELLSTYLE_BEGIN
 90
        2
 91
        1
300
_HEADER
309
CELLSTYLE_END
300
CELLSTYLE
  1
TABLEFORMAT_BEGIN
 90
        5
170
     1
 91
        0
 92
        0
 62
   257
 93
        1
300
CONTENTFORMAT
  1
CONTENTFORMAT_BEGIN
 90
        0
 91
        0
 92
      512
 93
        0
300

 40
0.0
140
1.0
 94
        2
 62
     0
340
11
144
4.5
309
CONTENTFORMAT_END
171
     1
301
MARGIN
  1
CELLMARGIN_BEGIN
 40
1.5
 40
1.5
 40
1.5
 40
1.5
 40
4.5
 40
4.5
309
CELLMARGIN_END
 94
        6
 95
        1
302
GRIDFORMAT
  1
GRIDFORMAT_BEGIN
 90
        0
 91
        1
 62
     0
 92
       -2
340
0
 93
        0
 40
1.125
309
GRIDFORMAT_END
 95
        2
302
GRIDFORMAT
  1
GRIDFORMAT_BEGIN
 90
        0
 91
        1
 62
     0
 92
       -2
340
0
 93
        0
 40
1.125
309
GRIDFORMAT_END
 95
        4
302
GRIDFORMAT
  1
GRIDFORMAT_BEGIN
 90
        0
 91
        1
 62
     0
 92
       -2
340
0
 93
        0
 40
1.125
309
GRIDFORMAT_END
 95
        8
302
GRIDFORMAT
  1
GRIDFORMAT_BEGIN
 90
        0
 91
        1
 62
     0
 92
       -2
340
0
 93
        0
 40
1.125
309
GRIDFORMAT_END
 95
       16
302
GRIDFORMAT
  1
GRIDFORMAT_BEGIN
 90
        0
 91
        1
 62
     0
 92
       -2
340
0
 93
        0
 40
1.125
309
GRIDFORMAT_END
 95
       32
302
GRIDFORMAT
  1
GRIDFORMAT_BEGIN
 90
        0
 91
        1
 62
     0
 92
       -2
340
0
 93
        0
 40
1.125
309
GRIDFORMAT_END
309
TABLEFORMAT_END
  1
CELLSTYLE_BEGIN
 90
        3
 91
        2
300
_DATA
309
CELLSTYLE_END
  0
XRECORD
  5
2EF1
102
{ACAD_REACTORS
330
2C5B
102
}
330
2C5B
100
AcDbXrecord
280
     1
102
ACAD_ROUNDTRIP_PRE2007_TABLESTYLE
 90
      512
 91
        0
  1

 92
      512
 93
        0
  2

 94
      512
 95
        0
  3

  0
ENDSEC
  0
EOF
