  0
SECTION
  2
HEADER
  9
$ACADVER
  1
AC1009
  9
$INSBASE
 10
0.0
 20
0.0
 30
0.0
  9
$EXTMIN
 10
19.988937901785789
 20
14.988931879053659
 30
-0.0000000000000153
  9
$EXTMAX
 10
215.00656177989049
 20
290.01304303944693
 30
0.0
  9
$LIMMIN
 10
0.0
 20
0.0
  9
$LIMMAX
 10
195.00000000000011
 20
275.0
  9
$ORTHOMODE
 70
     0
  9
$REGENMODE
 70
     1
  9
$FILLMODE
 70
     1
  9
$QTEXTMODE
 70
     0
  9
$MIRRTEXT
 70
     1
  9
$DRAGMODE
 70
     2
  9
$LTSCALE
 40
1.0
  9
$OSMODE
 70
  3071
  9
$ATTMODE
 70
     1
  9
$TEXTSIZE
 40
73.985717453579113
  9
$TRACEWID
 40
1.0
  9
$TEXTSTYLE
  7
STANDARD
  9
$CLAYER
  8
0
  9
$CELTYPE
  6
BYLAYER
  9
$CECOLOR
 62
   256
  9
$DIMSCALE
 40
1.0
  9
$DIMASZ
 40
2.5
  9
$DIMEXO
 40
1.0
  9
$DIMDLI
 40
10.0
  9
$DIMRND
 40
0.0
  9
$DIMDLE
 40
0.0
  9
$DIMEXE
 40
1.0
  9
$DIMTP
 40
0.1
  9
$DIMTM
 40
0.1
  9
$DIMTXT
 40
3.5
  9
$DIMCEN
 40
0.0
  9
$DIMTSZ
 40
0.0
  9
$DIMTOL
 70
     0
  9
$DIMLIM
 70
     0
  9
$DIMTIH
 70
     0
  9
$DIMTOH
 70
     0
  9
$DIMSE1
 70
     0
  9
$DIMSE2
 70
     0
  9
$DIMTAD
 70
     1
  9
$DIMZIN
 70
     8
  9
$DIMBLK
  1
OPEN30
  9
$DIMASO
 70
     1
  9
$DIMSHO
 70
     1
  9
$DIMPOST
  1

  9
$DIMAPOST
  1
"
  9
$DIMALT
 70
     0
  9
$DIMALTD
 70
     2
  9
$DIMALTF
 40
0.0393701
  9
$DIMLFAC
 40
1.0
  9
$DIMTOFL
 70
     1
  9
$DIMTVP
 40
0.0
  9
$DIMTIX
 70
     0
  9
$DIMSOXD
 70
     0
  9
$DIMSAH
 70
     0
  9
$DIMBLK1
  1

  9
$DIMBLK2
  1

  9
$DIMSTYLE
  2
AM_ISO
  9
$DIMCLRD
 70
   256
  9
$DIMCLRE
 70
   256
  9
$DIMCLRT
 70
     2
  9
$DIMTFAC
 40
0.71
  9
$DIMGAP
 40
1.5
  9
$LUNITS
 70
     2
  9
$LUPREC
 70
     2
  9
$SKETCHINC
 40
1.0
  9
$FILLETRAD
 40
2.5
  9
$AUNITS
 70
     0
  9
$AUPREC
 70
     0
  9
$MENU
  1
.
  9
$ELEVATION
 40
0.0
  9
$PELEVATION
 40
0.0
  9
$THICKNESS
 40
0.0
  9
$LIMCHECK
 70
     0
  9
$BLIPMODE
 70
     0
  9
$CHAMFERA
 40
0.5
  9
$CHAMFERB
 40
0.5
  9
$SKPOLY
 70
     0
  9
$TDCREATE
 40
2454238.7582705789
  9
$TDUPDATE
 40
2454939.427476482
  9
$TDINDWG
 40
0.172562037
  9
$TDUSRTIMER
 40
0.172562037
  9
$USRTIMER
 70
     1
  9
$ANGBASE
 50
0.0
  9
$ANGDIR
 70
     0
  9
$PDMODE
 70
     0
  9
$PDSIZE
 40
0.0
  9
$PLINEWID
 40
0.0
  9
$COORDS
 70
     2
  9
$SPLFRAME
 70
     0
  9
$SPLINETYPE
 70
     6
  9
$SPLINESEGS
 70
     8
  9
$ATTDIA
 70
     1
  9
$ATTREQ
 70
     1
  9
$HANDLING
 70
     1
  9
$HANDSEED
  5
25A1
  9
$SURFTAB1
 70
     6
  9
$SURFTAB2
 70
     6
  9
$SURFTYPE
 70
     6
  9
$SURFU
 70
     6
  9
$SURFV
 70
     6
  9
$UCSNAME
  2

  9
$UCSORG
 10
0.0
 20
0.0
 30
0.0
  9
$UCSXDIR
 10
1.0
 20
0.0
 30
0.0
  9
$UCSYDIR
 10
0.0
 20
1.0
 30
0.0
  9
$PUCSNAME
  2

  9
$PUCSORG
 10
0.0
 20
0.0
 30
0.0
  9
$PUCSXDIR
 10
1.0
 20
0.0
 30
0.0
  9
$PUCSYDIR
 10
0.0
 20
1.0
 30
0.0
  9
$USERI1
 70
     0
  9
$USERI2
 70
     0
  9
$USERI3
 70
     0
  9
$USERI4
 70
     0
  9
$USERI5
 70
     0
  9
$USERR1
 40
0.0
  9
$USERR2
 40
0.0
  9
$USERR3
 40
0.0
  9
$USERR4
 40
0.0
  9
$USERR5
 40
0.0
  9
$WORLDVIEW
 70
     1
  9
$SHADEDGE
 70
     3
  9
$SHADEDIF
 70
    70
  9
$TILEMODE
 70
     1
  9
$MAXACTVP
 70
    64
  9
$PLIMCHECK
 70
     0
  9
$PEXTMIN
 10
1.0000000000000000E+020
 20
1.0000000000000000E+020
 30
1.0000000000000000E+020
  9
$PEXTMAX
 10
-1.0000000000000000E+020
 20
-1.0000000000000000E+020
 30
-1.0000000000000000E+020
  9
$PLIMMIN
 10
-6.350006103515625
 20
-6.3499999046325684
  9
$PLIMMAX
 10
273.04998779296881
 20
209.54999399185181
  9
$UNITMODE
 70
     0
  9
$VISRETAIN
 70
     1
  9
$PLINEGEN
 70
     0
  9
$PSLTSCALE
 70
     1
  0
ENDSEC
  0
SECTION
  2
TABLES
  0
TABLE
  2
VPORT
 70
     3
  0
VPORT
  2
*ACTIVE
 70
     0
 10
0.0
 20
0.0
 11
1.0
 21
1.0
 12
117.4977498408381
 22
152.50098745925021
 13
0.0
 23
0.0
 14
2.5
 24
2.5
 15
10.0
 25
10.0
 16
0.0
 26
0.0
 36
1.0
 17
0.0
 27
0.0
 37
0.0
 40
277.01944933084349
 41
1.4612590799031471
 42
50.0
 43
0.0
 44
0.0
 50
0.0
 51
0.0
 71
    16
 72
   100
 73
     1
 74
     3
 75
     0
 76
     0
 77
     0
 78
     0
  0
ENDTAB
  0
TABLE
  2
LTYPE
 70
    27
  0
LTYPE
  2
CONTINUOUS
 70
     0
  3
Solid line
 72
    65
 73
     0
 40
0.0
  0
LTYPE
  2
AM_ISO02W050
 70
     0
  3
__ __ __ __ __ __ __ __ __ __ __ __ __ __ __
 72
    65
 73
     2
 40
7.5
 49
6.0
 49
-1.5
  0
LTYPE
  2
AM_ISO08W050
 70
     0
  3
____ . ____ . ____ . ____ . ____ . ____ . ____
 72
    65
 73
     4
 40
18.0
 49
12.0
 49
-1.5
 49
3.0
 49
-1.5
  0
LTYPE
  2
AM_ISO09W050
 70
     0
  3
_____ . . _____ . . _____ . . ____ .. ____
 72
    65
 73
     6
 40
22.5
 49
12.0
 49
-1.5
 49
3.0
 49
-1.5
 49
3.0
 49
-1.5
  0
LTYPE
  2
AMCONSTR
 70
     0
  3
_______________________
 72
    65
 73
     2
 40
9999.0
 49
9999.0
 49
0.0
  0
LTYPE
  2
AM_ISO08W050X2
 70
     0
  3
__ . __ . __ . __ . __ . __
 72
    65
 73
     4
 40
9.0
 49
6.0
 49
-0.75
 49
1.5
 49
-0.75
  0
LTYPE
  2
AM_ISO02W050X2
 70
     0
  3
 _ _ _ _ _ _ _ _ _ _ _ _
 72
    65
 73
     2
 40
3.75
 49
3.0
 49
-0.75
  0
LTYPE
  2
AMZIGZAG
 70
     0
  3
/\/-/\/-/\/-/\/-/\/-/\/
 72
    65
 73
     2
 40
11.0001
 49
0.0001
 49
-11.0
  0
LTYPE
  2
ACISOWELD
 70
     0
  3
_ _ _ _ _
 72
    65
 73
     2
 40
2.0
 49
2.0
 49
-1.0
  0
LTYPE
  2
ACISOTGB
 70
     0
  3
__ . . __ . .
 72
    65
 73
     6
 40
9.0
 49
4.0
 49
-1.0
 49
1.0
 49
-1.0
 49
1.0
 49
-1.0
  0
LTYPE
  2
ACISOTGL
 70
     0
  3
_ _ _ _ _
 72
    65
 73
     2
 40
3.0
 49
2.0
 49
-1.0
  0
LTYPE
  2
CENTER
 70
     0
  3
__ . __
 72
    65
 73
     4
 40
7.0
 49
4.0
 49
-1.0
 49
1.0
 49
-1.0
  0
LTYPE
  2
HIDDEN
 70
     0
  3
Hidden __ __ __ __ __ __ __ __ __ __ __ __ __ _
 72
    65
 73
     2
 40
9.5249999999999986
 49
6.3499999999999988
 49
-3.1749999999999989
  0
LTYPE
  2
PHANTOM2
 70
     0
  3
Phantom (.5x) ___ _ _ ___ _ _ ___ _ _ ___ _ _
 72
    65
 73
     6
 40
31.75
 49
15.875
 49
-3.1749999999999989
 49
3.1749999999999989
 49
-3.1749999999999989
 49
3.1749999999999989
 49
-3.1749999999999989
  0
LTYPE
  2
GEN3
 70
     0
  3
-- -- -- -- -- -- -- -- -- -- -- -- -- -- --
 72
    65
 73
     2
 40
6.25
 49
4.75
 49
-1.5
  0
LTYPE
  2
GEN7
 70
     0
  3
____ . ____ . ____ . ____ . ____ . ____ . ____
 72
    65
 73
     4
 40
13.75
 49
9.75
 49
-1.5
 49
1.0
 49
-1.5
  0
LTYPE
  2
GEN3A
 70
     0
  3
 - - - - -
 72
    65
 73
     2
 40
3.125
 49
2.25
 49
-0.875
  0
LTYPE
  2
GEN7A
 70
     0
  3
__ . __ . __
 72
    65
 73
     4
 40
6.875
 49
4.75
 49
-0.875
 49
0.375
 49
-0.875
  0
LTYPE
  2
GEN4A
 70
     0
  3
_____ . . _____ . . _____ . . ____ .. ____
 72
    65
 73
     6
 40
16.25
 49
9.75
 49
-1.5
 49
1.0
 49
-1.5
 49
1.0
 49
-1.5
  0
LTYPE
  2
GENZIGZAG
 70
     0
  3
/\/-/\/-/\/-/\/-/\/-/\/
 72
    65
 73
     2
 40
12.0001
 49
0.0001
 49
-12.0
  0
LTYPE
  2
CENS
 70
     0
  3
(一点鎖線１)---- - ---- - ---- - ---- - ---- - 
 72
    65
 73
     4
 40
13.0
 49
10.0
 49
-1.0
 49
1.0
 49
-1.0
  0
LTYPE
  2
HIDS
 70
     0
  3
(破線１)- - - - - - - - - - - - - - - - - - - -
 72
    65
 73
     2
 40
2.5
 49
1.5
 49
-1.0
  0
LTYPE
  2
CENTER2
 70
     0
  3
Center (.5x) ___ _ ___ _ ___ _ ___ _ ___ _ ___
 72
    65
 73
     4
 40
1.125
 49
0.75
 49
-0.125
 49
0.125
 49
-0.125
  0
LTYPE
  2
HIDDEN2
 70
     0
  3
Hidden (.5x) _ _ _ _ _ _ _ _ _ _ _ _ _ _ _ _ _
 72
    65
 73
     2
 40
0.1875
 49
0.125
 49
-0.0625
  0
LTYPE
  2
AMZIGZAG2
 70
     0
  3
/\/-/\/-/\/-/\/-/\/-/\/
 72
    65
 73
     2
 40
0.4401
 49
0.0001
 49
-0.4400000000000001
  0
LTYPE
  2
ACANSTGB
 70
     0
  3
__ . . __ . .
 72
    65
 73
     6
 40
0.35433070866
 49
0.15748031496
 49
-0.03937007874
 49
0.03937007874
 49
-0.03937007874
 49
0.03937007874
 49
-0.03937007874
  0
LTYPE
  2
ACANSTGL
 70
     0
  3
_ _ _ _ _
 72
    65
 73
     2
 40
0.11811023622
 49
0.07874015748
 49
-0.03937007874
  0
ENDTAB
  0
TABLE
  2
LAYER
 70
     9
  0
LAYER
  2
0
 70
     0
 62
     7
  6
CONTINUOUS
  0
LAYER
  2
DEFPOINTS
 70
     0
 62
     7
  6
CONTINUOUS
  0
LAYER
  2
TK1
 70
     0
 62
     7
  6
CONTINUOUS
  0
LAYER
  2
TK10
 70
     0
 62
     7
  6
AM_ISO02W050X2
  0
LAYER
  2
7A
 70
     0
 62
     4
  6
GEN7A
  0
LAYER
  2
RAHM2
 70
     0
 62
     1
  6
CONTINUOUS
  0
LAYER
  2
AM_7
 70
     0
 62
     4
  6
AM_ISO08W050
  0
LAYER
  2
AM_5
 70
     0
 62
     3
  6
CONTINUOUS
  0
LAYER
  2
AM_8
 70
     0
 62
     1
  6
CONTINUOUS
  0
ENDTAB
  0
TABLE
  2
STYLE
 70
     8
  0
STYLE
  2
STANDARD
 70
     0
 40
0.0
 41
1.0
 50
0.0
 71
     0
 42
73.985717453579113
  3
ISOCP.SHX
  4
bigfont.shx
  0
STYLE
  2

 70
     1
 40
0.0
 41
1.0
 50
0.0
 71
     0
 42
2.5
  3
ltypeshp.shx
  4

  0
STYLE
  2
ACISOTS
 70
     0
 40
1.0
 41
1.0
 50
0.0
 71
     0
 42
2.5
  3
isocp.shx
  4
extfont.shx
  0
STYLE
  2
ACISOGDT
 70
     0
 40
0.0
 41
1.0
 50
0.0
 71
     0
 42
2.5
  3
amgdt.shx
  4

  0
STYLE
  2

 70
     1
 40
0.0
 41
1.0
 50
0.0
 71
     0
 42
3.0
  3
genltshp.shx
  4

  0
STYLE
  2
STD
 70
     0
 40
0.0
 41
1.0
 50
0.0
 71
     0
 42
2.5
  3
TXT
  4
BIGFONT
  0
STYLE
  2
ACANSTS
 70
     0
 40
1.0
 41
1.0
 50
0.0
 71
     0
 42
2.5
  3
romans.shx
  4
extfont.shx
  0
STYLE
  2
ACANSGDT
 70
     0
 40
0.0
 41
1.0
 50
0.0
 71
     0
 42
2.5
  3
amgdtans.shx
  4

  0
ENDTAB
  0
TABLE
  2
VIEW
 70
     6
  0
VIEW
  2
AM_VIEW1
 70
     0
 40
137.5
 10
102.5308641975309
 20
206.25
 41
205.06172839506181
 11
0.0
 21
0.0
 31
1.0
 12
0.0
 22
0.0
 32
0.0
 42
50.0
 43
0.0
 44
0.0
 50
0.0
 71
    16
  0
VIEW
  2
AM_VIEW2
 70
     0
 40
137.5
 10
92.469135802469225
 20
206.25
 41
205.06172839506181
 11
0.0
 21
0.0
 31
1.0
 12
0.0
 22
0.0
 32
0.0
 42
50.0
 43
0.0
 44
0.0
 50
0.0
 71
    16
  0
VIEW
  2
AM_VIEW3
 70
     0
 40
137.5
 10
102.5308641975309
 20
68.750000000000014
 41
205.06172839506181
 11
0.0
 21
0.0
 31
1.0
 12
0.0
 22
0.0
 32
0.0
 42
50.0
 43
0.0
 44
0.0
 50
0.0
 71
    16
  0
VIEW
  2
AM_VIEW4
 70
     0
 40
137.5
 10
92.469135802469225
 20
68.750000000000014
 41
205.06172839506181
 11
0.0
 21
0.0
 31
1.0
 12
0.0
 22
0.0
 32
0.0
 42
50.0
 43
0.0
 44
0.0
 50
0.0
 71
    16
  0
VIEW
  2
AM_VIEW5
 70
     0
 40
137.5
 10
97.500000000000071
 20
137.5
 41
205.06172839506181
 11
0.0
 21
0.0
 31
1.0
 12
0.0
 22
0.0
 32
0.0
 42
50.0
 43
0.0
 44
0.0
 50
0.0
 71
    16
  0
VIEW
  2
AM_VIEW6
 70
     0
 40
274.99725000000012
 10
97.500000000000071
 20
137.5
 41
410.11935555555561
 11
0.0
 21
0.0
 31
1.0
 12
0.0
 22
0.0
 32
0.0
 42
50.0
 43
0.0
 44
0.0
 50
0.0
 71
    16
  0
ENDTAB
  0
TABLE
  2
UCS
 70
     0
  0
ENDTAB
  0
TABLE
  2
APPID
 70
    37
  0
APPID
  2
ACAD
 70
     0
  0
APPID
  2
MCAD_NO_VIS
 70
     0
  0
APPID
  2
ACAD_TEMP_GRAPHIC
 70
     0
  0
APPID
  2
ACATTRIBSERVICES
 70
     0
  0
APPID
  2
AD_DRAW
 70
     0
  0
APPID
  2
DESIGNERASSEMBLIES
 70
     0
  0
APPID
  2
ACADM_DIM_EDIT
 70
     0
  0
APPID
  2
AMDT_DM_ADJ
 70
     0
  0
APPID
  2
GENIUS_GENREC_14
 70
     0
  0
APPID
  2
GENIUS_GENODEF_13
 70
     0
  0
APPID
  2
GENIUS_GENOBJ-N-REC_13
 70
     0
  0
APPID
  2
GENIUS_GENDIMSH_14
 70
     0
  0
APPID
  2
GENIUS_GENCFG_13
 70
     0
  0
APPID
  2
GENIUS_GENCFG0_13
 70
     0
  0
APPID
  2
GENIUS_GENCFG1_13
 70
     0
  0
APPID
  2
GENIUS_GENCFG2_13
 70
     0
  0
APPID
  2
GENIUS_GENCFG3_13
 70
     0
  0
APPID
  2
GENIUS_GENCFG4_13
 70
     0
  0
APPID
  2
GENIUS_GEVCFG0_13
 70
     0
  0
APPID
  2
GENIUS_GENOENT_13
 70
     0
  0
APPID
  2
GENIUS_GENOBJ-N-CRS_13
 70
     0
  0
APPID
  2
GENIUS_GENOREF_13
 70
     0
  0
APPID
  2
GENIUS_GENOLIS_13
 70
     0
  0
APPID
  2
GENIUS_GENOBJ-N-TIT_13
 70
     0
  0
APPID
  2
GENIUS_GENTITLE_13
 70
     0
  0
APPID
  2
GENIUS_GENSCREG_15
 70
     0
  0
APPID
  2
GENIUS_GENOBJ-N-SDF_13
 70
     0
  0
APPID
  2
GENIUS_GENOBJ-N-CEN_13
 70
     0
  0
APPID
  2
GENIUS_GENOBJ-N-HTC_13
 70
     0
  0
APPID
  2
GENIUS_GENHATCH_13
 70
     0
  0
APPID
  2
GENIUS_GENOBJ-N-ZOO_13
 70
     0
  0
APPID
  2
GENIUS_GENZOO_17
 70
     0
  0
APPID
  2
GENIUS_GENFIL_13
 70
     0
  0
APPID
  2
GENIUS_GENOBJ-N-CHA_13
 70
     0
  0
APPID
  2
GEV_VCCNULL_SWITCH_OFF
 70
     0
  0
APPID
  2
GENIUS_GENDTOL_13
 70
     0
  0
APPID
  2
GENIUS_GENSCREG_13
 70
     0
  0
ENDTAB
  0
TABLE
  2
DIMSTYLE
 70
    22
  0
DIMSTYLE
  2
AM_ISO
 70
     0
  3

  4
"
  5
OPEN30
  6

  7

 40
1.0
 41
2.5
 42
1.0
 43
10.0
 44
1.0
 45
0.0
 46
0.0
 47
0.1
 48
0.1
140
3.5
141
0.0
142
0.0
143
0.0393701
144
1.0
145
0.0
146
0.71
147
1.5
 71
     0
 72
     0
 73
     0
 74
     0
 75
     0
 76
     0
 77
     1
 78
     8
170
     0
171
     2
172
     1
173
     0
174
     0
175
     0
176
   256
177
   256
178
     2
  0
DIMSTYLE
  2
AM_ISO$3
 70
     0
  3

  4
"
  5
OPEN30
  6

  7

 40
1.0
 41
2.5
 42
1.0
 43
10.0
 44
1.0
 45
0.0
 46
0.0
 47
0.1
 48
0.1
140
3.5
141
0.0
142
0.0
143
0.0393701
144
1.0
145
0.0
146
0.71
147
1.5
 71
     0
 72
     0
 73
     0
 74
     1
 75
     0
 76
     0
 77
     1
 78
     8
170
     0
171
     2
172
     0
173
     0
174
     0
175
     0
176
   256
177
   256
178
     2
  0
DIMSTYLE
  2
AM_ISO$4
 70
     0
  3

  4
"
  5
OPEN30
  6

  7

 40
1.0
 41
2.5
 42
1.0
 43
10.0
 44
1.0
 45
0.0
 46
0.0
 47
0.1
 48
0.1
140
3.5
141
0.0
142
0.0
143
0.0393701
144
1.0
145
0.0
146
0.71
147
1.5
 71
     0
 72
     0
 73
     0
 74
     1
 75
     0
 76
     0
 77
     1
 78
     8
170
     0
171
     2
172
     0
173
     0
174
     0
175
     0
176
   256
177
   256
178
     2
  0
DIMSTYLE
  2
AM_ISO$6
 70
     0
  3

  4
"
  5
OPEN30
  6

  7

 40
1.0
 41
2.5
 42
1.0
 43
10.0
 44
1.0
 45
0.0
 46
0.0
 47
0.1
 48
0.1
140
3.5
141
0.0
142
0.0
143
0.0393701
144
1.0
145
0.0
146
0.71
147
1.5
 71
     0
 72
     0
 73
     0
 74
     0
 75
     0
 76
     0
 77
     0
 78
     8
170
     0
171
     2
172
     1
173
     0
174
     0
175
     0
176
   256
177
   256
178
     2
  0
DIMSTYLE
  2
AM_ISO$7
 70
     0
  3

  4
"
  5
OPEN30
  6

  7

 40
1.0
 41
2.5
 42
1.0
 43
10.0
 44
1.0
 45
0.0
 46
0.0
 47
0.1
 48
0.1
140
5.0
141
0.0
142
0.0
143
0.0393701
144
1.0
145
0.0
146
0.71
147
1.5
 71
     0
 72
     0
 73
     0
 74
     0
 75
     0
 76
     0
 77
     1
 78
     8
170
     0
171
     2
172
     1
173
     0
174
     0
175
     0
176
   256
177
   256
178
     2
  0
DIMSTYLE
  2
AM_ISO$SF
 70
     0
  3

  4
"
  5
OPEN30
  6

  7

 40
1.0
 41
2.5
 42
1.0
 43
10.0
 44
1.0
 45
0.0
 46
0.0
 47
0.1
 48
0.1
140
3.5
141
0.0
142
0.0
143
0.0393701
144
1.0
145
0.0
146
0.71
147
1.5
 71
     0
 72
     0
 73
     0
 74
     0
 75
     1
 76
     1
 77
     1
 78
     8
170
     0
171
     2
172
     1
173
     0
174
     0
175
     0
176
   256
177
   256
178
     2
  0
DIMSTYLE
  2
AM_ISO$SH
 70
     0
  3

  4
"
  5

  6
GENAXEH
  7
OPEN30
 40
1.0
 41
2.5
 42
1.0
 43
10.0
 44
1.0
 45
0.0
 46
0.0
 47
0.1
 48
0.1
140
3.5
141
0.0
142
0.0
143
0.0393701
144
2.0
145
0.0
146
0.71
147
1.5
 71
     0
 72
     0
 73
     0
 74
     0
 75
     1
 76
     1
 77
     1
 78
     8
170
     0
171
     2
172
     1
173
     1
174
     0
175
     0
176
   256
177
   256
178
     2
  0
DIMSTYLE
  2
GEN-ISO
 70
     0
  3

  4
"
  5

  6

  7

 40
1.0
 41
2.5
 42
1.0
 43
10.0
 44
1.0
 45
0.0
 46
0.0
 47
0.1
 48
0.1
140
3.5
141
0.0
142
0.0
143
0.0393701
144
1.0
145
0.0
146
0.71
147
1.5
 71
     0
 72
     0
 73
     0
 74
     0
 75
     0
 76
     0
 77
     1
 78
     8
170
     0
171
     2
172
     1
173
     0
174
     0
175
     0
176
   256
177
   256
178
     2
  0
DIMSTYLE
  2
GEN-ISO$3
 70
     0
  3

  4
"
  5

  6

  7

 40
1.0
 41
2.5
 42
1.0
 43
10.0
 44
1.0
 45
0.0
 46
0.0
 47
0.1
 48
0.1
140
3.5
141
0.0
142
0.0
143
0.0393701
144
1.0
145
0.0
146
0.71
147
1.5
 71
     0
 72
     0
 73
     0
 74
     1
 75
     0
 76
     0
 77
     1
 78
     8
170
     0
171
     2
172
     0
173
     0
174
     0
175
     0
176
   256
177
   256
178
     2
  0
DIMSTYLE
  2
GEN-ISO$4
 70
     0
  3

  4
"
  5

  6

  7

 40
1.0
 41
2.5
 42
1.0
 43
10.0
 44
1.0
 45
0.0
 46
0.0
 47
0.1
 48
0.1
140
3.5
141
0.0
142
0.0
143
0.0393701
144
1.0
145
0.0
146
0.71
147
1.5
 71
     0
 72
     0
 73
     0
 74
     1
 75
     0
 76
     0
 77
     1
 78
     8
170
     0
171
     2
172
     0
173
     0
174
     0
175
     0
176
   256
177
   256
178
     2
  0
DIMSTYLE
  2
GEN-ISO$6
 70
     0
  3

  4
"
  5

  6

  7

 40
1.0
 41
2.5
 42
1.0
 43
10.0
 44
1.0
 45
0.0
 46
0.0
 47
0.1
 48
0.1
140
3.5
141
0.0
142
0.0
143
0.0393701
144
1.0
145
0.0
146
0.71
147
1.5
 71
     0
 72
     0
 73
     0
 74
     0
 75
     0
 76
     0
 77
     0
 78
     8
170
     0
171
     2
172
     0
173
     0
174
     0
175
     0
176
   256
177
   256
178
     2
  0
DIMSTYLE
  2
GEN-ISO-POS
 70
     0
  3

  4
"
  5

  6

  7

 40
1.0
 41
2.5
 42
1.0
 43
10.0
 44
1.0
 45
0.0
 46
0.0
 47
0.1
 48
0.1
140
5.0
141
0.0
142
0.0
143
0.0393701
144
1.0
145
0.0
146
0.71
147
1.5
 71
     0
 72
     0
 73
     0
 74
     0
 75
     0
 76
     0
 77
     0
 78
     8
170
     0
171
     2
172
     0
173
     0
174
     0
175
     0
176
   256
177
   256
178
     2
  0
DIMSTYLE
  2
GEN-ISO-AXE-F
 70
     0
  3

  4
"
  5

  6

  7

 40
1.0
 41
2.5
 42
1.0
 43
10.0
 44
1.0
 45
0.0
 46
0.0
 47
0.1
 48
0.1
140
3.5
141
0.0
142
0.0
143
0.0393701
144
1.0
145
0.0
146
0.71
147
1.5
 71
     0
 72
     0
 73
     0
 74
     0
 75
     1
 76
     1
 77
     1
 78
     8
170
     0
171
     2
172
     1
173
     0
174
     0
175
     0
176
   256
177
   256
178
     2
  0
DIMSTYLE
  2
GEN-ISO-AXE-H
 70
     0
  3

  4
"
  5

  6

  7

 40
1.0
 41
2.5
 42
1.0
 43
10.0
 44
1.0
 45
0.0
 46
0.0
 47
0.1
 48
0.1
140
3.5
141
0.0
142
0.0
143
0.0393701
144
2.0
145
0.0
146
0.71
147
1.5
 71
     0
 72
     0
 73
     0
 74
     0
 75
     1
 76
     1
 77
     1
 78
     8
170
     0
171
     2
172
     1
173
     1
174
     0
175
     0
176
   256
177
   256
178
     2
  0
DIMSTYLE
  2
STANDARD
 70
     0
  3

  4

  5

  6

  7

 40
1.0
 41
0.18
 42
0.0625
 43
0.38
 44
0.18
 45
0.0
 46
0.0
 47
0.0
 48
0.0
140
0.18
141
0.09
142
0.0
143
25.399999999999999
144
1.0
145
0.0
146
1.0
147
0.09
 71
     0
 72
     0
 73
     1
 74
     1
 75
     0
 76
     0
 77
     0
 78
     0
170
     0
171
     2
172
     0
173
     0
174
     0
175
     0
176
     0
177
     0
178
     0
  0
DIMSTYLE
  2
AM_ANSI
 70
     0
  3

  4
mm
  5

  6

  7

 40
1.0
 41
0.1
 42
0.05
 43
0.5
 44
0.1
 45
0.0
 46
0.0
 47
0.1
 48
0.1
140
0.12
141
0.0
142
0.0
143
25.399999999999999
144
1.0
145
0.0
146
0.71
147
0.06
 71
     0
 72
     0
 73
     1
 74
     1
 75
     0
 76
     0
 77
     0
 78
     7
170
     0
171
     2
172
     0
173
     0
174
     0
175
     0
176
   256
177
   256
178
     2
  0
DIMSTYLE
  2
AM_ANSI$3
 70
     0
  3

  4
mm
  5

  6

  7

 40
1.0
 41
0.1
 42
0.05
 43
0.5
 44
0.1
 45
0.0
 46
0.0
 47
0.1
 48
0.1
140
0.12
141
0.0
142
0.0
143
25.399999999999999
144
1.0
145
0.0
146
0.71
147
0.06
 71
     0
 72
     0
 73
     1
 74
     1
 75
     0
 76
     0
 77
     0
 78
     7
170
     0
171
     2
172
     0
173
     0
174
     0
175
     0
176
   256
177
   256
178
     2
  0
DIMSTYLE
  2
AM_ANSI$4
 70
     0
  3

  4
mm
  5

  6

  7

 40
1.0
 41
0.1
 42
0.05
 43
0.5
 44
0.1
 45
0.0
 46
0.0
 47
0.1
 48
0.1
140
0.12
141
0.0
142
0.0
143
25.399999999999999
144
1.0
145
0.0
146
0.71
147
0.06
 71
     0
 72
     0
 73
     1
 74
     1
 75
     0
 76
     0
 77
     0
 78
     7
170
     0
171
     2
172
     0
173
     0
174
     0
175
     0
176
   256
177
   256
178
     2
  0
DIMSTYLE
  2
AM_ANSI$7
 70
     0
  3

  4
mm
  5

  6

  7

 40
1.0
 41
0.1
 42
0.05
 43
0.5
 44
0.1
 45
0.0
 46
0.0
 47
0.1
 48
0.1
140
0.24
141
0.0
142
0.0
143
25.399999999999999
144
1.0
145
0.0
146
0.71
147
0.06
 71
     0
 72
     0
 73
     1
 74
     1
 75
     0
 76
     0
 77
     0
 78
     7
170
     0
171
     2
172
     0
173
     0
174
     0
175
     0
176
   256
177
   256
178
     2
  0
DIMSTYLE
  2
AM_ANSI$SF
 70
     0
  3

  4
mm
  5

  6

  7

 40
1.0
 41
0.1
 42
0.05
 43
0.5
 44
0.1
 45
0.0
 46
0.0
 47
0.1
 48
0.1
140
0.12
141
0.0
142
0.0
143
25.399999999999999
144
1.0
145
0.0
146
0.71
147
0.06
 71
     0
 72
     0
 73
     1
 74
     1
 75
     1
 76
     1
 77
     0
 78
     7
170
     0
171
     2
172
     0
173
     0
174
     0
175
     0
176
   256
177
   256
178
     2
  0
DIMSTYLE
  2
AM_ANSI$SH
 70
     0
  3

  4
mm
  5

  6
GENAXEH
  7

 40
1.0
 41
0.1
 42
0.05
 43
0.5
 44
0.1
 45
0.0
 46
0.0
 47
0.1
 48
0.1
140
0.12
141
0.0
142
0.0
143
25.399999999999999
144
1.0
145
0.0
146
0.71
147
0.06
 71
     0
 72
     0
 73
     1
 74
     1
 75
     1
 76
     1
 77
     0
 78
     7
170
     0
171
     2
172
     0
173
     1
174
     0
175
     0
176
   256
177
   256
178
     2
  0
DIMSTYLE
  2
ISO-25
 70
     0
  3

  4

  5

  6

  7

 40
1.0
 41
2.5
 42
0.625
 43
3.75
 44
1.25
 45
0.0
 46
0.0
 47
0.0
 48
0.0
140
2.5
141
2.5
142
0.0
143
0.0394
144
1.0
145
1.0
146
1.0
147
0.625
 71
     0
 72
     0
 73
     1
 74
     0
 75
     0
 76
     0
 77
     1
 78
     8
170
     0
171
     2
172
     1
173
     0
174
     0
175
     0
176
     0
177
     0
178
     0
  0
ENDTAB
  0
ENDSEC
  0
SECTION
  2
BLOCKS
  0
BLOCK
  8
0
  2
$MODEL_SPACE
 70
     0
 10
0.0
 20
0.0
 30
0.0
  3
$MODEL_SPACE
  1

  0
ENDBLK
  5
21
  8
0
  0
BLOCK
 67
     1
  8
0
  2
$PAPER_SPACE
 70
     0
 10
0.0
 20
0.0
 30
0.0
  3
$PAPER_SPACE
  1

  0
ENDBLK
  5
25
 67
     1
  8
0
  0
BLOCK
  8
0
  2
GENAXEH
 70
     0
 10
0.0
 20
0.0
 30
0.0
  3
GENAXEH
  1

  0
LINE
  5
88
  8
0
 10
-1.0
 20
0.0
 30
0.0
 11
1.0
 21
0.0
 31
0.0
  0
ENDBLK
  5
8A
  8
0
  0
BLOCK
  8
0
  2
_OPEN30
 70
     0
 10
0.0
 20
0.0
 30
0.0
  3
_OPEN30
  1

  0
LINE
  5
408
  8
0
  6
BYBLOCK
 62
     0
 10
-1.0
 20
0.26794919
 30
0.0
 11
0.0
 21
0.0
 31
0.0
  0
LINE
  5
409
  8
0
  6
BYBLOCK
 62
     0
 10
0.0
 20
0.0
 30
0.0
 11
-1.0
 21
-0.26794919
 31
0.0
  0
LINE
  5
40A
  8
0
  6
BYBLOCK
 62
     0
 10
0.0
 20
0.0
 30
0.0
 11
-1.0
 21
0.0
 31
0.0
  0
ENDBLK
  5
40C
  8
0
  0
BLOCK
  8
0
  2
TAKACHI-A3
 70
     0
 10
0.0
 20
0.0
 30
0.0
  3
TAKACHI-A3
  1

  0
POLYLINE
  5
5FB
  8
0
 66
     1
 10
0.0
 20
0.0
 30
0.0
 70
     1
1001
GENIUS_GENREC_14
1002
{
1000
PYDIR
1011
10.000000000000011
1021
0.0
1031
9.5843747758113120E+015
1021
280.0
1031
0.0
1002
}
1002
{
1000
PXDIR
1011
410.0
1021
0.0
1031
9.5843747758113120E+015
1021
0.0
1031
0.0
1002
}
1002
{
1000
PORI
1011
10.0
1021
0.0
1031
9.5843747758113120E+015
1021
0.0
1031
0.0
1002
}
1002
{
1000
PINS
1011
210.0
1021
0.0
1031
9.5843747758113120E+015
1021
139.99999999999989
1031
0.0
1002
}
1002
{
1000
HVAL
1000
280
1002
}
1002
{
1000
H
1070
     2
1002
}
1002
{
1000
WVAL
1000
400
1002
}
1002
{
1000
W
1070
     2
1002
}
1002
{
1000
C
1070
     4
1002
}
1001
GENIUS_GENODEF_13
1002
{
1000
HIER
1070
     0
1002
}
1002
{
1000
MANEDIT
1070
     0
1002
}
1002
{
1000
NOSEL
1070
     0
1002
}
1002
{
1000
BEHIND
1070
     0
1002
}
1002
{
1000
REACTOR
1002
}
1001
GENIUS_GENOBJ-N-REC_13
1002
{
1000
OWNER
1000
GEN
1002
}
  0
VERTEX
  5
1E8D
  8
0
 10
10.0
 20
0.0
 30
0.0
  0
VERTEX
  5
1E8E
  8
0
 10
410.0
 20
0.0
 30
0.0
  0
VERTEX
  5
1E8F
  8
0
 10
410.0
 20
280.0
 30
0.0
  0
VERTEX
  5
1E90
  8
0
 10
10.00000000000003
 20
280.0
 30
0.0
  0
SEQEND
  5
1E91
  8
0
  0
TEXT
  5
5FC
  8
0
 10
15.00000000000003
 20
50.0
 30
0.0
 40
2.5
  1
!GENTITLE-LL
  0
TEXT
  5
5FD
  8
0
 10
410.0
 20
0.0
 30
0.0
 40
2.5
  1
!GENTITLE-INSERT
  0
TEXT
  5
5FE
  8
0
 10
405.0
 20
275.0
 30
0.0
 40
2.5
  1
!GENTITLE-RU
  0
TEXT
  5
5FF
  8
0
 10
410.0
 20
280.0
 30
0.0
 40
2.5
  1
!GENTITLE-MAX
  0
LINE
  5
600
  8
0
 10
366.0
 20
275.0
 30
0.0
 11
410.0
 21
275.0
 31
0.0
  0
INSERT
  5
601
  8
0
  2
*U29
 10
0.0
 20
0.0
 30
0.0
  0
LINE
  5
602
  8
0
 10
366.0
 20
280.0
 30
0.0
 11
366.0
 21
275.0
 31
0.0
  0
ENDBLK
  5
605
  8
0
  0
BLOCK
  8
0
  2
TAKACHI-TITLE
 70
     2
 10
0.0
 20
0.0
 30
0.0
  3
TAKACHI-TITLE
  1

  0
LINE
  5
614
  8
RAHM2
 10
-195.0
 20
30.000000000000028
 30
0.0
 11
-94.0
 21
30.000000000000028
 31
0.0
  0
LINE
  5
615
  8
RAHM2
 10
-195.0
 20
35.000000000000028
 30
0.0
 11
-94.0
 21
35.000000000000028
 31
0.0
  0
LINE
  5
616
  8
RAHM2
 10
-195.0
 20
40.000000000000021
 30
0.0
 11
-94.0
 21
40.000000000000021
 31
0.0
  0
LINE
  5
617
  8
RAHM2
 10
-195.0
 20
45.000000000000021
 30
0.0
 11
-94.0
 21
45.000000000000021
 31
0.0
  0
LINE
  5
618
  8
0
 10
-195.0
 20
7.0
 30
0.0
 11
-94.0
 21
7.0
 31
0.0
  0
LINE
  5
619
  8
0
 10
-195.0
 20
19.999999999999972
 30
0.0
 11
-94.0
 21
19.999999999999972
 31
0.0
  0
ATTDEF
  5
61A
  8
0
 10
-183.24385271456069
 20
8.9508505244280823
 30
0.0
 40
2.5
  1

 11
-183.24385271456069
 21
8.6175171910947483
 31
0.0
  3
サブタイトル
  2
GEN-TITLE-DES2
 70
     0
 74
     1
  0
ATTDEF
  5
61B
  8
0
 10
-183.24385271456069
 20
2.0175171910947478
 30
0.0
 40
3.0
  1

 11
-183.24385271456069
 21
1.6175171910947479
 31
0.0
  3
図番
  2
GEN-TITLE-NR
 70
     0
 74
     1
  0
INSERT
  5
61C
  8
0
  2
*U30
 10
0.0
 20
0.0
 30
0.0
  0
ATTDEF
  5
61D
  8
0
 10
-183.24385271456069
 20
14.40728619501834
 30
0.0
 40
4.0
  1

 11
-183.24385271456069
 21
13.873952861685011
 31
0.0
  3
品名
  2
GEN-TITLE-DES1
 70
     0
 74
     1
  0
LINE
  5
61E
  8
RAHM2
 10
-187.57512886940361
 20
30.400000000000041
 30
0.0
 11
-190.0
 21
34.60000000000003
 31
0.0
  0
LINE
  5
61F
  8
RAHM2
 10
-190.0
 20
34.60000000000003
 30
0.0
 11
-192.42487113059639
 21
30.400000000000041
 31
0.0
  0
LINE
  5
620
  8
RAHM2
 10
-185.0
 20
50.000000000000028
 30
0.0
 11
-185.0
 21
19.99999999999994
 31
0.0
  0
LINE
  5
621
  8
RAHM2
 10
-192.42487113059639
 20
30.400000000000041
 30
0.0
 11
-187.57512886940361
 21
30.400000000000041
 31
0.0
  0
INSERT
  5
622
  8
0
  2
*U31
 10
0.0
 20
0.0
 30
0.0
  0
INSERT
  5
623
  8
0
  2
*U32
 10
0.0
 20
0.0
 30
0.0
  0
LINE
  5
624
  8
RAHM2
 10
-192.42487113059639
 20
45.400000000000027
 30
0.0
 11
-187.57512886940361
 21
45.400000000000027
 31
0.0
  0
LINE
  5
625
  8
RAHM2
 10
-187.57512886940361
 20
45.400000000000027
 30
0.0
 11
-190.0
 21
49.600000000000023
 31
0.0
  0
LINE
  5
626
  8
RAHM2
 10
-192.42487113059639
 20
40.400000000000027
 30
0.0
 11
-187.57512886940361
 21
40.400000000000027
 31
0.0
  0
LINE
  5
627
  8
RAHM2
 10
-187.57512886940361
 20
40.400000000000027
 30
0.0
 11
-190.0
 21
44.600000000000023
 31
0.0
  0
LINE
  5
628
  8
RAHM2
 10
-192.42487113059639
 20
35.400000000000041
 30
0.0
 11
-187.57512886940361
 21
35.400000000000041
 31
0.0
  0
LINE
  5
629
  8
RAHM2
 10
-187.57512886940361
 20
35.400000000000041
 30
0.0
 11
-190.0
 21
39.600000000000023
 31
0.0
  0
LINE
  5
62A
  8
RAHM2
 10
-190.0
 20
39.600000000000023
 30
0.0
 11
-192.42487113059639
 21
35.400000000000041
 31
0.0
  0
LINE
  5
62B
  8
RAHM2
 10
-190.0
 20
44.600000000000023
 30
0.0
 11
-192.42487113059639
 21
40.400000000000027
 31
0.0
  0
LINE
  5
62C
  8
RAHM2
 10
-190.0
 20
49.600000000000023
 30
0.0
 11
-192.42487113059639
 21
45.400000000000027
 31
0.0
  0
LINE
  5
62D
  8
RAHM2
 10
-129.0
 20
50.000000000000028
 30
0.0
 11
-129.0
 21
19.99999999999994
 31
0.0
  0
INSERT
  5
62E
  8
0
  2
*U33
 10
0.0
 20
0.0
 30
0.0
  0
LINE
  5
62F
  8
0
 10
-34.0
 20
50.0
 30
0.0
 11
-34.0
 21
0.0
 31
0.0
  0
LINE
  5
630
  8
0
 10
-94.0
 20
50.0
 30
0.0
 11
-94.0
 21
0.0
 31
0.0
  0
INSERT
  5
631
  8
0
  2
*U34
 10
0.0
 20
0.0
 30
0.0
  0
LINE
  5
632
  8
0
 10
-94.0
 20
10.0
 30
0.0
 11
-34.0
 21
10.0
 31
0.0
  0
ATTDEF
  5
633
  8
0
 10
-58.014051197997453
 20
39.255005561783491
 30
0.0
 40
3.0
  1

 72
     2
 11
-58.014051197997453
 21
39.255005561783491
 31
0.0
  3
尺度
  2
GEN-TITLE-SCA
 70
     0
  0
ATTDEF
  5
634
  8
0
 10
-77.002849666490064
 20
31.02180787943475
 30
0.0
 40
3.0
  1

 11
-77.002849666490064
 21
30.621807879434751
 31
0.0
  3
材質
  2
GEN-TITLE-MAT1
 70
     0
 74
     1
  0
ATTDEF
  5
635
  8
0
 10
-77.002849666490064
 20
21.02180787943475
 30
0.0
 40
3.0
  1

 11
-77.002849666490064
 21
20.621807879434751
 31
0.0
  3
表面処理
  2
GEN-TITLE-MAT2
 70
     0
 74
     1
  0
ATTDEF
  5
636
  8
0
 10
-77.002849666490064
 20
12.01751719109475
 30
0.0
 40
3.0
  1

 11
-77.002849666490064
 21
11.61751719109475
 31
0.0
  3
日付
  2
GEN-TITLE-DAT
 70
     0
 74
     1
  0
LINE
  5
637
  8
0
 10
-94.0
 20
37.5
 30
0.0
 11
-34.0
 21
37.5
 31
0.0
  0
LINE
  5
638
  8
0
 10
-94.0
 20
27.5
 30
0.0
 11
-34.0
 21
27.5
 31
0.0
  0
LINE
  5
639
  8
0
 10
-94.0
 20
17.5
 30
0.0
 11
-34.0
 21
17.5
 31
0.0
  0
LINE
  5
63A
  8
RAHM2
 10
-109.0
 20
50.000000000000028
 30
0.0
 11
-109.0
 21
19.99999999999994
 31
0.0
  0
INSERT
  5
63B
  8
0
  2
*U35
 10
0.0
 20
0.0
 30
0.0
  0
INSERT
  5
63C
  8
0
  2
*U36
 10
0.0
 20
0.0
 30
0.0
  0
INSERT
  5
63D
  8
0
  2
*U37
 10
0.0
 20
0.0
 30
0.0
  0
INSERT
  5
63E
  8
0
  2
*U38
 10
0.0
 20
0.0
 30
0.0
  0
INSERT
  5
63F
  8
0
  2
*U39
 10
0.0
 20
0.0
 30
0.0
  0
INSERT
  5
640
  8
0
  2
*U40
 10
0.0
 20
0.0
 30
0.0
  0
INSERT
  5
641
  8
0
  2
*U41
 10
0.0
 20
0.0
 30
0.0
  0
INSERT
  5
642
  8
0
  2
*U42
 10
0.0
 20
0.0
 30
0.0
  0
LINE
  5
643
  8
7A
 10
-89.0
 20
43.75
 30
0.0
 11
-75.218691599714703
 21
43.75
 31
0.0
1001
GENIUS_GENOREF_13
1005
656
  0
LINE
  5
644
  8
0
 10
-84.0
 20
45.75
 30
0.0
 11
-76.0
 21
46.749999999999993
 31
0.0
  0
LINE
  5
645
  8
0
 10
-76.0
 20
40.75
 30
0.0
 11
-84.0
 21
41.749999999999993
 31
0.0
  0
LINE
  5
646
  8
7A
 10
-89.0
 20
43.75
 30
0.0
 11
-89.0
 21
47.324786644731482
 31
0.0
1001
GENIUS_GENOREF_13
1005
656
  0
CIRCLE
  5
647
  8
0
 10
-89.0
 20
43.75
 30
0.0
 40
2.0
  0
CIRCLE
  5
648
  8
0
 10
-89.0
 20
43.75
 30
0.0
 40
3.0
  0
LINE
  5
649
  8
0
 10
-84.0
 20
41.749999999999993
 30
0.0
 11
-84.0
 21
45.75
 31
0.0
  0
INSERT
  5
64A
  8
0
  2
*U43
 10
0.0
 20
0.0
 30
0.0
  0
LINE
  5
64B
  8
7A
 10
-89.0
 20
43.75
 30
0.0
 11
-92.723037371251166
 21
43.75
 31
0.0
1001
GENIUS_GENOREF_13
1005
656
  0
LINE
  5
64C
  8
7A
 10
-89.0
 20
43.75
 30
0.0
 11
-89.0
 21
40.039917242284787
 31
0.0
1001
GENIUS_GENOREF_13
1005
656
  0
LINE
  5
64D
  8
0
 10
-76.0
 20
46.749999999999993
 30
0.0
 11
-76.0
 21
40.75
 31
0.0
  0
LINE
  5
64E
  8
0
 10
-74.0
 20
50.0
 30
0.0
 11
-74.0
 21
37.5
 31
0.0
  0
INSERT
  5
64F
  8
0
  2
*U44
 10
0.0
 20
0.0
 30
0.0
  0
ATTDEF
  5
650
  8
0
 10
-37.76317379391503
 20
39.255005561783491
 30
0.0
 40
3.0
  1

 72
     2
 11
-37.76317379391503
 21
39.255005561783491
 31
0.0
  3
数量
  2
GEN-TITLE-QTY
 70
     0
  0
LINE
  5
651
  8
0
 10
-34.0
 20
25.0
 30
0.0
 11
0.0
 21
25.0
 31
0.0
  0
LINE
  5
652
  8
0
 10
-54.0
 20
50.0
 30
0.0
 11
-54.0
 21
37.5
 31
0.0
  0
INSERT
  5
653
  8
0
  2
*U45
 10
0.0
 20
0.0
 30
0.0
  0
INSERT
  5
654
  8
0
  2
*U46
 10
0.0
 20
0.0
 30
0.0
  0
INSERT
  5
655
  8
0
  2
*U47
 10
0.0
 20
0.0
 30
0.0
  0
POINT
  5
656
  8
0
 10
-320.5355579819676
 20
-138.11048412682541
 30
0.0
1001
GENIUS_GENODEF_13
1002
{
1000
HIER
1070
    10
1002
}
1002
{
1000
MANEDIT
1070
     0
1002
}
1002
{
1000
NOSEL
1070
     0
1002
}
1002
{
1000
BEHIND
1070
     0
1002
}
1002
{
1000
REACTOR
1002
}
1001
GENIUS_GENOBJ-N-CRS_13
1002
{
1000
OWNER
1000
GEN
1002
}
1001
GENIUS_GENOENT_13
1002
{
1000
MYREF
1005
656
1002
}
1002
{
1000
GRP
1005
0
1002
}
1001
GENIUS_GENOLIS_13
1002
{
1000
ENT
1005
64C
1005
64B
1005
646
1005
643
1002
}
  0
LINE
  5
657
  8
RAHM2
 10
-190.0
 20
29.600000000000019
 30
0.0
 11
-192.42487113059639
 21
25.400000000000041
 31
0.0
  0
LINE
  5
658
  8
RAHM2
 10
-187.57512886940361
 20
25.400000000000041
 30
0.0
 11
-190.0
 21
29.600000000000019
 31
0.0
  0
LINE
  5
659
  8
RAHM2
 10
-192.42487113059639
 20
25.400000000000041
 30
0.0
 11
-187.57512886940361
 21
25.400000000000041
 31
0.0
  0
LINE
  5
65A
  8
RAHM2
 10
-195.0
 20
25.000000000000028
 30
0.0
 11
-94.0
 21
25.000000000000028
 31
0.0
  0
INSERT
  5
65B
  8
0
  2
*U48
 10
0.0
 20
0.0
 30
0.0
  0
TEXT
  5
65C
  8
RAHM2
 10
-190.8155863565801
 20
25.98333333333337
 30
0.0
 40
2.5
  1
1
 72
     1
 11
-190.19058635658021
 21
25.650000000000031
 31
0.0
 73
     1
  0
TEXT
  5
65D
  8
RAHM2
 10
-190.9183316929134
 20
30.98333333333337
 30
0.0
 40
2.5
  1
2
 72
     1
 11
-190.0
 21
30.650000000000031
 31
0.0
 73
     1
  0
TEXT
  5
65E
  8
RAHM2
 10
-190.92677669529661
 20
35.983333333333341
 30
0.0
 40
2.5
  1
3
 72
     1
 11
-190.0
 21
35.650000000000013
 31
0.0
 73
     1
  0
TEXT
  5
65F
  8
RAHM2
 10
-191.0
 20
40.98333333333337
 30
0.0
 40
2.5
  1
4
 72
     1
 11
-190.0
 21
40.650000000000027
 31
0.0
 73
     1
  0
TEXT
  5
660
  8
RAHM2
 10
-190.92677669529661
 20
45.98333333333337
 30
0.0
 40
2.5
  1
5
 72
     1
 11
-190.0
 21
45.650000000000027
 31
0.0
 73
     1
  0
LINE
  5
661
  8
0
 10
-17.0
 20
50.0
 30
0.0
 11
-17.0
 21
0.0
 31
0.0
  0
LINE
  5
662
  8
0
 10
-195.0
 20
0.0
 30
0.0
 11
0.0
 21
0.0
 31
0.0
1001
GENIUS_GENREC_14
1002
{
1000
PYDIR
1011
-184.0
1021
0.0
1031
9.5843747758113120E+015
1021
50.0
1031
0.0
1002
}
1002
{
1000
PXDIR
1011
0.0
1021
0.0
1031
9.5843747758113120E+015
1021
0.0
1031
0.0
1002
}
1002
{
1000
PORI
1011
-184.0
1021
0.0
1031
9.5843747758113120E+015
1021
0.0
1031
0.0
1002
}
1002
{
1000
PINS
1011
-100.5
1021
0.0
1031
9.5843747758113120E+015
1021
25.0
1031
0.0
1002
}
1002
{
1000
HVAL
1000
50
1002
}
1002
{
1000
H
1070
     2
1002
}
1002
{
1000
WVAL
1000
167
1002
}
1002
{
1000
W
1070
     2
1002
}
1002
{
1000
C
1070
     4
1002
}
1001
GENIUS_GENODEF_13
1002
{
1000
HIER
1070
     0
1002
}
1002
{
1000
MANEDIT
1070
     0
1002
}
1002
{
1000
NOSEL
1070
     0
1002
}
1002
{
1000
BEHIND
1070
     0
1002
}
1002
{
1000
REACTOR
1002
}
1001
GENIUS_GENOBJ-N-REC_13
1002
{
1000
OWNER
1000
GEN
1002
}
  0
LINE
  5
663
  8
0
 10
0.0
 20
0.0
 30
0.0
 11
0.0
 21
50.0
 31
0.0
1001
GENIUS_GENREC_14
1002
{
1000
PYDIR
1011
-184.0
1021
0.0
1031
9.5843747758113120E+015
1021
50.0
1031
0.0
1002
}
1002
{
1000
PXDIR
1011
0.0
1021
0.0
1031
9.5843747758113120E+015
1021
0.0
1031
0.0
1002
}
1002
{
1000
PORI
1011
-184.0
1021
0.0
1031
9.5843747758113120E+015
1021
0.0
1031
0.0
1002
}
1002
{
1000
PINS
1011
-100.5
1021
0.0
1031
9.5843747758113120E+015
1021
25.0
1031
0.0
1002
}
1002
{
1000
HVAL
1000
50
1002
}
1002
{
1000
H
1070
     2
1002
}
1002
{
1000
WVAL
1000
167
1002
}
1002
{
1000
W
1070
     2
1002
}
1002
{
1000
C
1070
     4
1002
}
1001
GENIUS_GENODEF_13
1002
{
1000
HIER
1070
     0
1002
}
1002
{
1000
MANEDIT
1070
     0
1002
}
1002
{
1000
NOSEL
1070
     0
1002
}
1002
{
1000
BEHIND
1070
     0
1002
}
1002
{
1000
REACTOR
1002
}
1001
GENIUS_GENOBJ-N-REC_13
1002
{
1000
OWNER
1000
GEN
1002
}
  0
LINE
  5
664
  8
0
 10
0.0
 20
50.0
 30
0.0
 11
-195.0
 21
50.000000000000028
 31
0.0
1001
GENIUS_GENREC_14
1002
{
1000
PYDIR
1011
-184.0
1021
0.0
1031
9.5843747758113120E+015
1021
50.0
1031
0.0
1002
}
1002
{
1000
PXDIR
1011
0.0
1021
0.0
1031
9.5843747758113120E+015
1021
0.0
1031
0.0
1002
}
1002
{
1000
PORI
1011
-184.0
1021
0.0
1031
9.5843747758113120E+015
1021
0.0
1031
0.0
1002
}
1002
{
1000
PINS
1011
-100.5
1021
0.0
1031
9.5843747758113120E+015
1021
25.0
1031
0.0
1002
}
1002
{
1000
HVAL
1000
50
1002
}
1002
{
1000
H
1070
     2
1002
}
1002
{
1000
WVAL
1000
167
1002
}
1002
{
1000
W
1070
     2
1002
}
1002
{
1000
C
1070
     4
1002
}
1001
GENIUS_GENODEF_13
1002
{
1000
HIER
1070
     0
1002
}
1002
{
1000
MANEDIT
1070
     0
1002
}
1002
{
1000
NOSEL
1070
     0
1002
}
1002
{
1000
BEHIND
1070
     0
1002
}
1002
{
1000
REACTOR
1002
}
1001
GENIUS_GENOBJ-N-REC_13
1002
{
1000
OWNER
1000
GEN
1002
}
  0
LINE
  5
665
  8
0
 10
-195.0
 20
50.000000000000028
 30
0.0
 11
-195.0
 21
0.0
 31
0.0
1001
GENIUS_GENREC_14
1002
{
1000
PYDIR
1011
-195.0
1021
0.0
1031
9.5843747758113120E+015
1021
50.0
1031
0.0
1002
}
1002
{
1000
PXDIR
1011
-11.0
1021
0.0
1031
9.5843747758113120E+015
1021
0.0
1031
0.0
1002
}
1002
{
1000
PORI
1011
-195.0
1021
0.0
1031
9.5843747758113120E+015
1021
0.0
1031
0.0
1002
}
1002
{
1000
PINS
1011
-111.5
1021
0.0
1031
9.5843747758113120E+015
1021
25.0
1031
0.0
1002
}
1002
{
1000
HVAL
1000
50
1002
}
1002
{
1000
H
1070
     2
1002
}
1002
{
1000
WVAL
1000
167
1002
}
1002
{
1000
W
1070
     2
1002
}
1002
{
1000
C
1070
     4
1002
}
1001
GENIUS_GENODEF_13
1002
{
1000
HIER
1070
     0
1002
}
1002
{
1000
MANEDIT
1070
     0
1002
}
1002
{
1000
NOSEL
1070
     0
1002
}
1002
{
1000
BEHIND
1070
     0
1002
}
1002
{
1000
REACTOR
1002
}
1001
GENIUS_GENOBJ-N-REC_13
1002
{
1000
OWNER
1000
GEN
1002
}
  0
INSERT
  5
666
  8
0
  2
*U49
 10
0.0
 20
0.0
 30
0.0
  0
INSERT
  5
667
  8
0
  2
*U50
 10
0.0
 20
0.0
 30
0.0
  0
ENDBLK
  5
66A
  8
0
  0
BLOCK
  8
0
  6
HIDS
 62
     5
  2
ARRI
 70
     0
 10
0.0
 20
0.0
 30
0.0
  3
ARRI
  1

  0
LINE
  5
69F
  8
0
  6
BYBLOCK
 62
     0
 10
-0.9999999999995168
 20
-0.2125565616699987
 30
0.0
 11
0.0000000000005826
 21
0.0000000000000142
 31
0.0
  0
LINE
  5
6A0
  8
0
  6
BYBLOCK
 62
     0
 10
0.0000000000005826
 20
0.0000000000000142
 30
0.0
 11
-0.9999999999995168
 21
0.2125565616699276
 31
0.0
  0
LINE
  5
6A1
  8
0
  6
BYBLOCK
 62
     0
 10
0.0000000000004832
 20
0.0
 30
0.0
 11
-0.9999999999995168
 21
0.0000000000000284
 31
0.0
  0
ENDBLK
  5
6A2
  8
0
  6
HIDS
 62
     5
  0
BLOCK
  8
0
  2
GENDOT
 70
     0
 10
0.0
 20
0.0
 30
0.0
  3
GENDOT
  1

  0
LINE
  5
DE5
  8
0
 10
0.0
 20
0.0
 30
0.0
 11
-1.0
 21
0.0
 31
0.0
  0
POLYLINE
  5
DE6
  8
0
 66
     1
 10
0.0
 20
0.0
 30
0.0
 70
     1
 40
0.25
 41
0.25
  0
VERTEX
  5
1EEA
  8
0
 10
-0.125
 20
0.0
 30
0.0
 42
1.0
  0
VERTEX
  5
1EEB
  8
0
 10
0.125
 20
0.0
 30
0.0
 42
1.0
  0
SEQEND
  5
1EEC
  8
0
  0
ENDBLK
  5
DE8
  8
0
  0
BLOCK
  8
0
  2
*D8
 70
     1
 10
0.0
 20
0.0
 30
0.0
  3
*D8
  1

  0
LINE
  5
252F
  8
AM_5
 10
90.086921185292454
 20
128.29705090816751
 30
0.0
 11
90.086921185292454
 21
137.29705191816751
 31
0.0
  0
LINE
  5
2530
  8
AM_5
 10
110.0869211852924
 20
128.29705090816751
 30
0.0
 11
110.0869211852924
 21
137.29705191816751
 31
0.0
  0
LINE
  5
2531
  8
AM_5
 10
92.586921185292454
 20
136.29705191816751
 30
0.0
 11
107.5869211852924
 21
136.29705191816751
 31
0.0
  0
INSERT
  5
2532
  8
AM_5
  2
GENDOT
 10
90.086921185292454
 20
136.29705191816751
 30
0.0
 41
2.5
 42
2.5
 43
2.5
 50
180.0
  0
INSERT
  5
2533
  8
AM_5
  2
_OPEN30
 10
110.0869211852924
 20
136.29705191816751
 30
0.0
 41
2.5
 42
2.5
 43
2.5
  0
TEXT
  8
AM_5
  40
3.5
  5
2599
  62
2
  72
0
  71
0
 10
100.087
 20
134.997
 30
0.000000
  1
20
  0
POINT
  5
2535
  8
DEFPOINTS
 62
     0
 10
90.086921185292454
 20
127.29705090816751
 30
0.0
  0
POINT
  5
2536
  8
DEFPOINTS
 62
     0
 10
110.0869211852924
 20
127.29705090816751
 30
0.0
  0
POINT
  5
2537
  8
DEFPOINTS
 62
     0
 10
110.0869211852924
 20
136.29705191816751
 30
0.0
  0
ENDBLK
  5
17BC
  8
0
  0
BLOCK
  8
0
  2
*D9
 70
     1
 10
0.0
 20
0.0
 30
0.0
  3
*D9
  1

  0
LINE
  5
2538
  8
AM_5
 10
90.086921185292454
 20
128.29705090816751
 30
0.0
 11
90.086921185292454
 21
137.29705191816751
 31
0.0
  0
LINE
  5
2539
  8
AM_5
 10
84.086921185292454
 20
122.29705090816751
 30
0.0
 11
84.086921185292454
 21
137.29705191816751
 31
0.0
  0
LINE
  5
253A
  8
AM_5
 10
92.586921185292454
 20
136.29705191816751
 30
0.0
 11
95.086921185292454
 21
136.29705191816751
 31
0.0
  0
LINE
  5
253B
  8
AM_5
 10
81.586921185292454
 20
136.29705191816751
 30
0.0
 11
79.086921185292454
 21
136.29705191816751
 31
0.0
  0
LINE
  5
253C
  8
AM_5
 10
90.086921185292454
 20
136.29705191816751
 30
0.0
 11
84.086921185292454
 21
136.29705191816751
 31
0.0
  0
INSERT
  5
253D
  8
AM_5
  2
GENDOT
 10
90.086921185292454
 20
136.29705191816751
 30
0.0
 41
2.5
 42
2.5
 43
2.5
 50
180.0
  0
INSERT
  5
253E
  8
AM_5
  2
_OPEN30
 10
84.086921185292454
 20
136.29705191816751
 30
0.0
 41
2.5
 42
2.5
 43
2.5
  0
TEXT
  8
AM_5
  40
3.5
  5
259A
  62
2
  72
0
  71
0
 10
87.0869
 20
134.997
 30
0.000000
  1
6
  0
POINT
  5
2540
  8
DEFPOINTS
 62
     0
 10
90.086921185292454
 20
127.29705090816751
 30
0.0
  0
POINT
  5
2541
  8
DEFPOINTS
 62
     0
 10
84.086921185292454
 20
121.29705090816751
 30
0.0
  0
POINT
  5
2542
  8
DEFPOINTS
 62
     0
 10
84.086921185292454
 20
136.29705191816751
 30
0.0
  0
ENDBLK
  5
17FA
  8
0
  0
BLOCK
  8
0
  2
*D10
 70
     1
 10
0.0
 20
0.0
 30
0.0
  3
*D10
  1

  0
LINE
  5
1DC6
  8
AM_5
 10
84.086921185292454
 20
122.29705090816751
 30
0.0
 11
84.086921185292454
 21
147.29705191816751
 31
0.0
  0
LINE
  5
1DC7
  8
AM_5
 10
116.0869211852924
 20
119.29705090816751
 30
0.0
 11
116.0869211852924
 21
147.29705191816751
 31
0.0
  0
LINE
  5
1DC8
  8
AM_5
 10
86.586921185292454
 20
146.29705191816751
 30
0.0
 11
113.5869211852924
 21
146.29705191816751
 31
0.0
  0
INSERT
  5
1DC9
  8
AM_5
  2
_OPEN30
 10
84.086921185292454
 20
146.29705191816751
 30
0.0
 41
2.5
 42
2.5
 43
2.5
 50
180.0
  0
INSERT
  5
1DCA
  8
AM_5
  2
_OPEN30
 10
116.0869211852924
 20
146.29705191816751
 30
0.0
 41
2.5
 42
2.5
 43
2.5
  0
INSERT
  5
1DCB
  8
0
  2
*U64
 10
0.0
 20
0.0
 30
0.0
  0
POINT
  5
1DCC
  8
DEFPOINTS
 62
     0
 10
84.086921185292454
 20
121.29705090816751
 30
0.0
  0
POINT
  5
1DCD
  8
DEFPOINTS
 62
     0
 10
116.0869211852924
 20
118.29705090816751
 30
0.0
  0
POINT
  5
1DCE
  8
DEFPOINTS
 62
     0
 10
116.0869211852924
 20
146.29705191816751
 30
0.0
  0
ENDBLK
  5
1850
  8
0
  0
BLOCK
  8
0
  2
*D11
 70
     1
 10
0.0
 20
0.0
 30
0.0
  3
*D11
  1

  0
LINE
  5
1D88
  8
AM_5
 10
86.086921185292454
 20
124.29705090816751
 30
0.0
 11
74.086921185292439
 21
124.29705090816751
 31
0.0
  0
LINE
  5
1D89
  8
AM_5
 10
86.086921185292454
 20
112.29705090816751
 30
0.0
 11
74.086921185292439
 21
112.29705090816751
 31
0.0
  0
LINE
  5
1D8A
  8
AM_5
 10
75.086921185292439
 20
121.79705090816751
 30
0.0
 11
75.086921185292439
 21
114.79705090816751
 31
0.0
  0
INSERT
  5
1D8B
  8
AM_5
  2
_OPEN30
 10
75.086921185292439
 20
124.29705090816751
 30
0.0
 41
2.5
 42
2.5
 43
2.5
 50
90.0
  0
INSERT
  5
1D8C
  8
AM_5
  2
_OPEN30
 10
75.086921185292439
 20
112.29705090816751
 30
0.0
 41
2.5
 42
2.5
 43
2.5
 50
270.0
  0
INSERT
  5
1D8D
  8
0
  2
*U59
 10
0.0
 20
0.0
 30
0.0
  0
POINT
  5
1D8E
  8
DEFPOINTS
 62
     0
 10
87.086921185292454
 20
124.29705090816751
 30
0.0
  0
POINT
  5
1D8F
  8
DEFPOINTS
 62
     0
 10
87.086921185292454
 20
112.29705090816751
 30
0.0
  0
POINT
  5
1D90
  8
DEFPOINTS
 62
     0
 10
75.086921185292439
 20
112.29705090816751
 30
0.0
  0
ENDBLK
  5
188C
  8
0
  0
BLOCK
  8
0
  2
*D12
 70
     1
 10
0.0
 20
0.0
 30
0.0
  3
*D12
  1

  0
LINE
  5
2543
  8
AM_5
 10
65.569658536740462
 20
140.00708468406151
 30
0.0
 11
82.936530700947344
 21
124.9059647097784
 31
0.0
  0
TEXT
  8
AM_5
  40
3.5
  5
259B
  62
2
  72
0
  71
0
 10
70.4735
 20
135.500
 30
0.000000
  1
R3
  0
INSERT
  5
2545
  8
AM_5
  2
_OPEN30
 10
84.823071830195119
 20
123.2655493454098
 30
0.0
 41
2.5
 42
2.5
 43
2.5
 50
318.99186744553919
  0
POINT
  5
2546
  8
DEFPOINTS
 62
     0
 10
84.823071830195119
 20
123.2655493454098
 30
0.0
  0
POINT
  5
2547
  8
DEFPOINTS
 62
     0
 10
87.086921185292425
 20
121.29705090816751
 30
0.0
  0
ENDBLK
  5
18D7
  8
0
  0
BLOCK
  8
0
  2
*D13
 70
     1
 10
0.0
 20
0.0
 30
0.0
  3
*D13
  1

  0
LINE
  5
2548
  8
AM_5
 10
133.74821902004101
 20
139.83534074274689
 30
0.0
 11
116.3727056003585
 21
124.0188438341054
 31
0.0
  0
TEXT
  8
AM_5
  40
3.5
  5
259C
  62
2
  72
0
  71
0
 10
128.834
 20
135.207
 30
0.000000
  1
R6
  0
INSERT
  5
254A
  8
AM_5
  2
_OPEN30
 10
114.5239454782802
 20
122.3359635617708
 30
0.0
 41
2.5
 42
2.5
 43
2.5
 50
222.31081473677361
  0
POINT
  5
254B
  8
DEFPOINTS
 62
     0
 10
114.5239454782802
 20
122.3359635617708
 30
0.0
  0
POINT
  5
254C
  8
DEFPOINTS
 62
     0
 10
110.0869211852925
 20
118.29705090816751
 30
0.0
  0
ENDBLK
  5
1902
  8
0
  0
BLOCK
  8
0
  2
*D14
 70
     1
 10
0.0
 20
0.0
 30
0.0
  3
*D14
  1

  0
LINE
  5
1D73
  8
AM_5
 10
146.0869211852924
 20
211.29705090816751
 30
0.0
 11
146.0869211852924
 21
225.29705090816751
 31
0.0
  0
LINE
  5
1D74
  8
AM_5
 10
152.0869211852924
 20
213.29705090816751
 30
0.0
 11
152.0869211852924
 21
225.29705090816751
 31
0.0
  0
LINE
  5
1D75
  8
AM_5
 10
143.5869211852924
 20
224.29705090816759
 30
0.0
 11
141.0869211852924
 21
224.29705090816759
 31
0.0
  0
LINE
  5
1D76
  8
AM_5
 10
154.5869211852924
 20
224.29705090816759
 30
0.0
 11
157.0869211852924
 21
224.29705090816759
 31
0.0
  0
LINE
  5
1D77
  8
AM_5
 10
146.0869211852924
 20
224.29705090816759
 30
0.0
 11
152.0869211852924
 21
224.29705090816759
 31
0.0
  0
INSERT
  5
1D78
  8
AM_5
  2
_OPEN30
 10
146.0869211852924
 20
224.29705090816759
 30
0.0
 41
2.5
 42
2.5
 43
2.5
  0
INSERT
  5
1D79
  8
AM_5
  2
_OPEN30
 10
152.0869211852924
 20
224.29705090816759
 30
0.0
 41
2.5
 42
2.5
 43
2.5
 50
180.0
  0
INSERT
  5
1D7A
  8
0
  2
*U58
 10
0.0
 20
0.0
 30
0.0
  0
POINT
  5
1D7B
  8
DEFPOINTS
 62
     0
 10
146.0869211852924
 20
210.29705090816751
 30
0.0
  0
POINT
  5
1D7C
  8
DEFPOINTS
 62
     0
 10
152.0869211852924
 20
212.29705090816751
 30
0.0
  0
POINT
  5
1D7D
  8
DEFPOINTS
 62
     0
 10
152.0869211852924
 20
224.29705090816759
 30
0.0
  0
ENDBLK
  5
1941
  8
0
  0
BLOCK
  8
0
  2
*D15
 70
     1
 10
0.0
 20
0.0
 30
0.0
  3
*D15
  1

  0
LINE
  5
254D
  8
AM_5
 10
138.577025849498
 20
187.68868700607621
 30
0.0
 11
145.63185017384089
 21
198.5257611647601
 31
0.0
  0
TEXT
  8
AM_5
  40
3.5
  5
259D
  62
2
  72
0
  71
0
 10
137.874
 20
188.017
 30
0.000000
  1
R2
  0
INSERT
  5
254F
  8
AM_5
  2
_OPEN30
 10
146.99577851353621
 20
200.62092213331979
 30
0.0
 41
2.5
 42
2.5
 43
2.5
 50
56.936284623856658
  0
POINT
  5
2550
  8
DEFPOINTS
 62
     0
 10
146.99577851353621
 20
200.62092213331979
 30
0.0
  0
POINT
  5
2551
  8
DEFPOINTS
 62
     0
 10
148.0869211852924
 20
202.29705090816759
 30
0.0
  0
ENDBLK
  5
1992
  8
0
  0
BLOCK
  8
0
  2
*D16
 70
     1
 10
0.0
 20
0.0
 30
0.0
  3
*D16
  1

  0
LINE
  5
2552
  8
AM_5
 10
85.586921185292454
 20
172.29705090816739
 30
0.0
 11
71.086920175292477
 21
172.29705090816739
 31
0.0
  0
LINE
  5
2553
  8
AM_5
 10
83.086921185292454
 20
169.29705090816751
 30
0.0
 11
71.086920175292477
 21
169.29705090816751
 31
0.0
  0
LINE
  5
2554
  8
AM_5
 10
72.086920175292477
 20
174.79705090816751
 30
0.0
 11
72.086920175292477
 21
177.29705090816739
 31
0.0
  0
LINE
  5
2555
  8
AM_5
 10
72.086920175292477
 20
166.79705090816751
 30
0.0
 11
72.086920175292462
 21
159.7520761613369
 31
0.0
  0
LINE
  5
2556
  8
AM_5
 10
72.086920175292477
 20
172.29705090816739
 30
0.0
 11
72.086920175292477
 21
169.29705090816751
 31
0.0
  0
INSERT
  5
2557
  8
AM_5
  2
GENDOT
 10
72.086920175292477
 20
172.29705090816739
 30
0.0
 41
2.5
 42
2.5
 43
2.5
 50
270.0
  0
INSERT
  5
2558
  8
AM_5
  2
_OPEN30
 10
72.086920175292477
 20
169.29705090816751
 30
0.0
 41
2.5
 42
2.5
 43
2.5
 50
90.0
  0
TEXT
  8
AM_5
  40
3.5
  5
259E
  62
2
  72
0
  71
0
 10
68.8369
 20
157.475
 30
0.000000
  1
3
  0
POINT
  5
255A
  8
DEFPOINTS
 62
     0
 10
86.586921185292454
 20
172.29705090816739
 30
0.0
  0
POINT
  5
255B
  8
DEFPOINTS
 62
     0
 10
84.086921185292454
 20
169.29705090816751
 30
0.0
  0
POINT
  5
255C
  8
DEFPOINTS
 62
     0
 10
72.086920175292477
 20
169.29705090816751
 30
0.0
  0
ENDBLK
  5
19D2
  8
0
  0
BLOCK
  8
0
  2
*D17
 70
     1
 10
0.0
 20
0.0
 30
0.0
  3
*D17
  1

  0
LINE
  5
255D
  8
AM_5
 10
85.086921185292454
 20
175.29705090816751
 30
0.0
 11
71.086920175292462
 21
175.29705090816751
 31
0.0
  0
LINE
  5
255E
  8
AM_5
 10
85.586921185292454
 20
172.29705090816739
 30
0.0
 11
71.086920175292462
 21
172.29705090816739
 31
0.0
  0
LINE
  5
255F
  8
AM_5
 10
72.086920175292462
 20
169.79705090816751
 30
0.0
 11
72.086920175292462
 21
167.29705090816751
 31
0.0
  0
LINE
  5
2560
  8
AM_5
 10
72.086920175292462
 20
177.79705090816751
 30
0.0
 11
72.086920175292462
 21
184.84202565499811
 31
0.0
  0
LINE
  5
2561
  8
AM_5
 10
72.086920175292462
 20
172.29705090816739
 30
0.0
 11
72.086920175292462
 21
175.29705090816751
 31
0.0
  0
INSERT
  5
2562
  8
AM_5
  2
GENDOT
 10
72.086920175292462
 20
172.29705090816739
 30
0.0
 41
2.5
 42
2.5
 43
2.5
 50
90.0
  0
INSERT
  5
2563
  8
AM_5
  2
_OPEN30
 10
72.086920175292462
 20
175.29705090816751
 30
0.0
 41
2.5
 42
2.5
 43
2.5
 50
270.0
  0
TEXT
  8
AM_5
  40
3.5
  5
259F
  62
2
  72
0
  71
0
 10
68.8369
 20
178.020
 30
0.000000
  1
3
  0
POINT
  5
2565
  8
DEFPOINTS
 62
     0
 10
86.086921185292454
 20
175.29705090816751
 30
0.0
  0
POINT
  5
2566
  8
DEFPOINTS
 62
     0
 10
86.586921185292454
 20
172.29705090816739
 30
0.0
  0
POINT
  5
2567
  8
DEFPOINTS
 62
     0
 10
72.086920175292462
 20
172.29705090816739
 30
0.0
  0
ENDBLK
  5
1A18
  8
0
  0
BLOCK
  8
0
  2
*D18
 70
     1
 10
0.0
 20
0.0
 30
0.0
  3
*D18
  1

  0
LINE
  5
1DC0
  8
AM_5
 10
87.283000917621337
 20
112.9925216045871
 30
0.0
 11
80.014034432601818
 21
99.240901713285695
 31
0.0
  0
LINE
  5
1DC1
  8
AM_5
 10
80.014034432601818
 20
99.240901713285695
 30
0.0
 11
73.964034432601821
 21
99.24090171328568
 31
0.0
  0
INSERT
  5
1DC2
  8
AM_5
  2
_OPEN30
 10
88.451301029150969
 20
115.2027421477456
 30
0.0
 41
2.5
 42
2.5
 43
2.5
 50
62.139525016181061
  0
INSERT
  5
1DC3
  8
0
  2
*U63
 10
0.0
 20
0.0
 30
0.0
  0
POINT
  5
1DC4
  8
DEFPOINTS
 62
     0
 10
88.451301029150969
 20
115.2027421477456
 30
0.0
  0
POINT
  5
1DC5
  8
DEFPOINTS
 62
     0
 10
91.722541341433967
 20
121.3913596685894
 30
0.0
  0
ENDBLK
  5
1B13
  8
0
  0
BLOCK
  8
0
  2
*D19
 70
     1
 10
0.0
 20
0.0
 30
0.0
  3
*D19
  1

  0
LINE
  5
1DBA
  8
AM_5
 10
111.71968482747469
 20
114.1037129908554
 30
0.0
 11
117.6409607291379
 21
98.896422654499503
 31
0.0
  0
LINE
  5
1DBB
  8
AM_5
 10
117.6409607291379
 20
98.896422654499503
 30
0.0
 11
124.04096072913789
 21
98.896422654499517
 31
0.0
  0
INSERT
  5
1DBC
  8
AM_5
  2
_OPEN30
 10
110.8125939151512
 20
116.4333451671399
 30
0.0
 41
2.5
 42
2.5
 43
2.5
 50
111.2744894211571
  0
INSERT
  5
1DBD
  8
0
  2
*U62
 10
0.0
 20
0.0
 30
0.0
  0
POINT
  5
1DBE
  8
DEFPOINTS
 62
     0
 10
110.8125939151512
 20
116.4333451671399
 30
0.0
  0
POINT
  5
1DBF
  8
DEFPOINTS
 62
     0
 10
109.3612484554337
 20
120.16075664919509
 30
0.0
  0
ENDBLK
  5
1B43
  8
0
  0
BLOCK
  8
0
  2
*D20
 70
     1
 10
0.0
 20
0.0
 30
0.0
  3
*D20
  1

  0
LINE
  5
1DB4
  8
AM_5
 10
88.131702616525345
 20
210.0705930569116
 30
0.0
 11
80.411781695035671
 21
224.96992321240509
 31
0.0
  0
LINE
  5
1DB5
  8
AM_5
 10
80.411781695035671
 20
224.96992321240509
 30
0.0
 11
70.71680694820509
 21
224.96992321240509
 31
0.0
  0
INSERT
  5
1DB6
  8
AM_5
  2
_OPEN30
 10
89.281831186388359
 20
207.85086238117989
 30
0.0
 41
2.5
 42
2.5
 43
2.5
 50
297.39042610345172
  0
INSERT
  5
1DB7
  8
0
  2
*U61
 10
0.0
 20
0.0
 30
0.0
  0
POINT
  5
1DB8
  8
DEFPOINTS
 62
     0
 10
89.281831186388359
 20
207.85086238117989
 30
0.0
  0
POINT
  5
1DB9
  8
DEFPOINTS
 62
     0
 10
90.892011184196576
 20
204.74323943515529
 30
0.0
  0
ENDBLK
  5
1B74
  8
0
  0
BLOCK
  8
0
  2
*D21
 70
     1
 10
0.0
 20
0.0
 30
0.0
  3
*D21
  1

  0
LINE
  5
1DAE
  8
AM_5
 10
84.760000674084395
 20
210.02182175578639
 30
0.0
 11
75.188608567299056
 21
216.71447696163591
 31
0.0
  0
LINE
  5
1DAF
  8
AM_5
 10
75.188608567299056
 20
216.71447696163591
 30
0.0
 11
69.138608567299059
 21
216.71447696163591
 31
0.0
  0
INSERT
  5
1DB0
  8
AM_5
  2
_OPEN30
 10
86.808816255318277
 20
208.58921758362521
 30
0.0
 41
2.5
 42
2.5
 43
2.5
 50
325.03739589320242
  0
INSERT
  5
1DB1
  8
0
  2
*U60
 10
0.0
 20
0.0
 30
0.0
  0
POINT
  5
1DB2
  8
DEFPOINTS
 62
     0
 10
86.808816255318277
 20
208.58921758362521
 30
0.0
  0
POINT
  5
1DB3
  8
DEFPOINTS
 62
     0
 10
93.365026115266588
 20
204.0048842327098
 30
0.0
  0
ENDBLK
  5
1B9F
  8
0
  0
BLOCK
  8
0
  2
*D22
 70
     1
 10
0.0
 20
0.0
 30
0.0
  3
*D22
  1

  0
LINE
  5
1D35
  8
AM_5
 10
96.586921185292482
 20
173.29705090816751
 30
0.0
 11
102.5243030266152
 21
173.29705090816751
 31
0.0
  0
LINE
  5
1D36
  8
AM_5
 10
96.586921185292468
 20
175.29705090816751
 30
0.0
 11
102.5243030266152
 21
175.29705090816751
 31
0.0
  0
LINE
  5
1D37
  8
AM_5
 10
101.5243030266152
 20
170.79705090816751
 30
0.0
 11
101.5243030266152
 21
168.29705090816751
 31
0.0
  0
LINE
  5
1D38
  8
AM_5
 10
101.5243030266152
 20
177.79705090816751
 30
0.0
 11
101.5243030266152
 21
184.99613555383681
 31
0.0
  0
LINE
  5
1D39
  8
AM_5
 10
101.5243030266152
 20
173.29705090816751
 30
0.0
 11
101.5243030266152
 21
175.29705090816751
 31
0.0
  0
INSERT
  5
1D3A
  8
AM_5
  2
_OPEN30
 10
101.5243030266152
 20
173.29705090816751
 30
0.0
 41
2.5
 42
2.5
 43
2.5
 50
90.0
  0
INSERT
  5
1D3B
  8
AM_5
  2
_OPEN30
 10
101.5243030266152
 20
175.29705090816751
 30
0.0
 41
2.5
 42
2.5
 43
2.5
 50
270.0
  0
INSERT
  5
1D3C
  8
0
  2
*U57
 10
0.0
 20
0.0
 30
0.0
  0
POINT
  5
1D3D
  8
DEFPOINTS
 62
     0
 10
95.586921185292496
 20
173.29705090816751
 30
0.0
  0
POINT
  5
1D3E
  8
DEFPOINTS
 62
     0
 10
95.586921185292468
 20
175.29705090816751
 30
0.0
  0
POINT
  5
1D3F
  8
DEFPOINTS
 62
     0
 10
101.5243030266152
 20
175.29705090816751
 30
0.0
  0
ENDBLK
  5
1BDB
  8
0
  0
BLOCK
  8
0
  2
GEVCON
 70
     0
 10
0.0
 20
0.0
 30
0.0
  3
GEVCON
  1
GEVCON
  0
ENDBLK
  5
1C09
  8
0
  0
BLOCK
  8
0
  2
GEVEP
 70
     0
 10
0.0
 20
0.0
 30
0.0
  3
GEVEP
  1

  0
LINE
  5
1C0C
  8
0
 10
2.0
 20
-2.0
 30
0.0
 11
-2.0
 21
-2.0
 31
0.0
  0
LINE
  5
1C0D
  8
0
 10
-2.0
 20
2.0
 30
0.0
 11
2.0
 21
2.0
 31
0.0
  0
LINE
  5
1C0E
  8
0
 10
2.0
 20
-2.0
 30
0.0
 11
-2.0
 21
2.0
 31
0.0
  0
LINE
  5
1C0F
  8
0
 10
-2.0
 20
-2.0
 30
0.0
 11
2.0
 21
2.0
 31
0.0
  0
LINE
  5
1C10
  8
0
 10
-2.0
 20
-2.0
 30
0.0
 11
-2.0
 21
2.0
 31
0.0
  0
LINE
  5
1C11
  8
0
 10
2.0
 20
2.0
 30
0.0
 11
2.0
 21
-2.0
 31
0.0
  0
ENDBLK
  5
1C12
  8
0
  0
BLOCK
  8
0
  2
GEVFRAME
 70
     0
 10
0.0
 20
0.0
 30
0.0
  3
GEVFRAME
  1
GEVFRAME
  0
LINE
  5
1C15
  8
0
 10
0.0
 20
0.0
 30
0.0
 11
1.0
 21
0.0
 31
0.0
  0
LINE
  5
1C16
  8
0
 10
1.0
 20
0.0
 30
0.0
 11
1.0
 21
1.0
 31
0.0
  0
LINE
  5
1C17
  8
0
 10
1.0
 20
1.0
 30
0.0
 11
0.0
 21
1.0
 31
0.0
  0
LINE
  5
1C18
  8
0
 10
0.0
 20
1.0
 30
0.0
 11
0.0
 21
0.0
 31
0.0
  0
ENDBLK
  5
1C19
  8
0
  0
BLOCK
  8
0
  2
TAKACHI-A4
 70
     0
 10
0.0
 20
0.0
 30
0.0
  3
TAKACHI-A4
  1

  0
TEXT
  5
1C21
  8
0
 10
10.0
 20
54.999999999999943
 30
0.0
 40
2.5
  1
!GENTITLE-LL
  0
TEXT
  5
1C22
  8
0
 10
215.0
 20
15.0
 30
0.0
 40
2.5
  1
!GENTITLE-INSERT
  0
TEXT
  5
1C23
  8
0
 10
215.0
 20
285.00000000000011
 30
0.0
 40
2.5
  1
!GENTITLE-RU
  0
TEXT
  5
1C24
  8
0
 10
215.00000000000011
 20
290.0
 30
0.0
 40
2.5
  1
!GENTITLE-MAX
  0
LINE
  5
1C25
  8
0
 10
215.0
 20
290.00000000000011
 30
0.0
 11
20.000000000000028
 21
290.0
 31
0.0
1001
GENIUS_GENREC_14
1002
{
1000
PYDIR
1011
15.00000000000003
1021
0.0
1031
9.5843747758113120E+015
1021
295.0
1031
0.0
1002
}
1002
{
1000
PXDIR
1011
215.0
1021
0.0
1031
9.5843747758113120E+015
1021
15.0
1031
0.0
1002
}
1002
{
1000
PORI
1011
15.0
1021
0.0
1031
9.5843747758113120E+015
1021
15.0
1031
0.0
1002
}
1002
{
1000
PINS
1011
115.0
1021
0.0
1031
9.5843747758113120E+015
1021
155.0
1031
0.0
1002
}
1002
{
1000
HVAL
1000
280
1002
}
1002
{
1000
H
1070
     2
1002
}
1002
{
1000
WVAL
1000
200
1002
}
1002
{
1000
W
1070
     2
1002
}
1002
{
1000
C
1070
     4
1002
}
  0
LINE
  5
1C26
  8
0
 10
20.000000000000028
 20
290.0
 30
0.0
 11
19.999999999999972
 21
15.0
 31
0.0
1001
GENIUS_GENREC_14
1002
{
1000
PYDIR
1011
15.00000000000003
1021
0.0
1031
9.5843747758113120E+015
1021
295.0
1031
0.0
1002
}
1002
{
1000
PXDIR
1011
215.0
1021
0.0
1031
9.5843747758113120E+015
1021
15.0
1031
0.0
1002
}
1002
{
1000
PORI
1011
15.0
1021
0.0
1031
9.5843747758113120E+015
1021
15.0
1031
0.0
1002
}
1002
{
1000
PINS
1011
115.0
1021
0.0
1031
9.5843747758113120E+015
1021
155.0
1031
0.0
1002
}
1002
{
1000
HVAL
1000
280
1002
}
1002
{
1000
H
1070
     2
1002
}
1002
{
1000
WVAL
1000
200
1002
}
1002
{
1000
W
1070
     2
1002
}
1002
{
1000
C
1070
     4
1002
}
  0
LINE
  5
1C27
  8
0
 10
19.999999999999972
 20
15.0
 30
0.0
 11
215.0
 21
15.0
 31
0.0
1001
GENIUS_GENREC_14
1002
{
1000
PYDIR
1011
15.00000000000003
1021
0.0
1031
9.5843747758113120E+015
1021
295.0
1031
0.0
1002
}
1002
{
1000
PXDIR
1011
215.0
1021
0.0
1031
9.5843747758113120E+015
1021
15.0
1031
0.0
1002
}
1002
{
1000
PORI
1011
15.0
1021
0.0
1031
9.5843747758113120E+015
1021
15.0
1031
0.0
1002
}
1002
{
1000
PINS
1011
115.0
1021
0.0
1031
9.5843747758113120E+015
1021
155.0
1031
0.0
1002
}
1002
{
1000
HVAL
1000
280
1002
}
1002
{
1000
H
1070
     2
1002
}
1002
{
1000
WVAL
1000
200
1002
}
1002
{
1000
W
1070
     2
1002
}
1002
{
1000
C
1070
     4
1002
}
  0
LINE
  5
1C28
  8
0
 10
215.0
 20
15.0
 30
0.0
 11
215.00000000000011
 21
290.00000000000011
 31
0.0
1001
GENIUS_GENREC_14
1002
{
1000
PYDIR
1011
15.00000000000003
1021
0.0
1031
9.5843747758113120E+015
1021
295.0
1031
0.0
1002
}
1002
{
1000
PXDIR
1011
215.0
1021
0.0
1031
9.5843747758113120E+015
1021
15.0
1031
0.0
1002
}
1002
{
1000
PORI
1011
15.0
1021
0.0
1031
9.5843747758113120E+015
1021
15.0
1031
0.0
1002
}
1002
{
1000
PINS
1011
115.0
1021
0.0
1031
9.5843747758113120E+015
1021
155.0
1031
0.0
1002
}
1002
{
1000
HVAL
1000
280
1002
}
1002
{
1000
H
1070
     2
1002
}
1002
{
1000
WVAL
1000
200
1002
}
1002
{
1000
W
1070
     2
1002
}
1002
{
1000
C
1070
     4
1002
}
  0
LINE
  5
1C29
  8
0
 10
171.00000000000011
 20
285.00000000000011
 30
0.0
 11
215.00000000000011
 21
285.00000000000011
 31
0.0
  0
LINE
  5
1C2A
  8
0
 10
171.00000000000011
 20
290.00000000000011
 30
0.0
 11
171.00000000000011
 21
285.00000000000011
 31
0.0
  0
TEXT
  8
0
  40
2.5
  5
25A0
  72
0
  71
0
 10
214.359
 20
282.859
 30
0.000000
  1
(文書番号：TY-34)2004.10.29
  0
ENDBLK
  5
1C2E
  8
0
  0
BLOCK
  8
0
  2
*S27
 70
     1
 10
0.0
 20
0.0
 30
0.0
  3
*S27
  1

  0
LINE
  5
1E61
  8
AM_5
 10
110.762860341847
 20
157.3606648130839
 30
0.0
 11
99.604789004832014
 21
157.3606648130839
 31
0.0
  0
LINE
  5
1E62
  8
AM_5
 10
99.604789004832014
 20
157.3606648130839
 30
0.0
 11
90.243475334846451
 21
169.8025350688485
 31
0.0
  0
LINE
  5
1E63
  8
AM_5
 10
90.243475334846451
 20
169.8025350688485
 30
0.0
 11
88.139174713403435
 21
172.59930443627849
 31
0.0
  0
LINE
  5
1E64
  8
AM_5
 10
90.61167700560172
 20
170.0795715001002
 30
0.0
 11
88.139174713403435
 21
172.59930443627849
 31
0.0
  0
LINE
  5
1E65
  8
AM_5
 10
88.139174713403435
 20
172.59930443627849
 30
0.0
 11
89.875273664091182
 21
169.52549863759691
 31
0.0
  0
INSERT
  5
1E66
  8
0
  2
*U66
 10
0.0
 20
0.0
 30
0.0
  0
ENDBLK
  5
1E68
  8
0
  0
BLOCK
  8
0
  2
*S28
 70
     1
 10
0.0
 20
0.0
 30
0.0
  3
*S28
  1

  0
LINE
  5
1E6B
  8
AM_5
 10
205.29555042446461
 20
253.31311373457379
 30
0.0
 11
145.59604583128871
 21
253.31311373457379
 31
0.0
  0
LINE
  5
1E6C
  8
AM_5
 10
145.59604583128871
 20
253.31311373457379
 30
0.0
 11
106.8513037858439
 21
212.45585395023249
 31
0.0
  0
LINE
  5
1E6D
  8
AM_5
 10
106.8513037858439
 20
212.45585395023249
 30
0.0
 11
104.4429574289519
 21
209.91619495240519
 31
0.0
  0
LINE
  5
1E6E
  8
AM_5
 10
106.5169513372514
 20
212.77291876175821
 30
0.0
 11
104.4429574289519
 21
209.91619495240519
 31
0.0
  0
LINE
  5
1E6F
  8
AM_5
 10
104.4429574289519
 20
209.91619495240519
 30
0.0
 11
107.18565623443639
 21
212.13878913870681
 31
0.0
  0
LINE
  5
1E70
  8
AM_5
 10
145.59604583128871
 20
253.31311373457379
 30
0.0
 11
116.40456546789309
 21
242.75830889771581
 31
0.0
  0
LINE
  5
1E71
  8
AM_5
 10
116.40456546789309
 20
242.75830889771581
 30
0.0
 11
113.11311108576921
 21
241.56821308207839
 31
0.0
  0
LINE
  5
1E72
  8
AM_5
 10
116.2478863820951
 20
243.191637085884
 30
0.0
 11
113.11311108576921
 21
241.56821308207839
 31
0.0
  0
LINE
  5
1E73
  8
AM_5
 10
113.11311108576921
 20
241.56821308207839
 30
0.0
 11
116.561244553691
 21
242.32498070954759
 31
0.0
  0
INSERT
  5
1E74
  8
0
  2
*U67
 10
0.0
 20
0.0
 30
0.0
  0
ENDBLK
  5
1E76
  8
0
  0
BLOCK
  8
0
  2
*U29
 70
     1
 10
0.0
 20
0.0
 30
0.0
  3
*U29
  1

  0
TEXT
  5
1E93
  8
0
 10
367.55531168523049
 20
276.233542987227
 30
0.0
 40
2.5
  1
(文書番号：TY-34)2004.10.29
  0
ENDBLK
  5
1E95
  8
0
  0
BLOCK
  8
0
  2
*U30
 70
     1
 10
0.0
 20
0.0
 30
0.0
  3
*U30
  1

  0
TEXT
  5
1E97
  8
RAHM2
 10
-193.80025513713139
 20
3.3010354072796408
 30
0.0
 40
2.5
  1
図番
  0
ENDBLK
  5
1E99
  8
0
  0
BLOCK
  8
0
  2
*U31
 70
     1
 10
0.0
 20
0.0
 30
0.0
  3
*U31
  1

  0
TEXT
  5
1E9B
  8
RAHM2
 10
-193.0
 20
21.249999999999972
 30
0.0
 40
2.5
  1
符号
  0
ENDBLK
  5
1E9D
  8
0
  0
BLOCK
  8
0
  2
*U32
 70
     1
 10
0.0
 20
0.0
 30
0.0
  3
*U32
  1

  0
TEXT
  5
1E9F
  8
RAHM2
 10
-193.80025513713139
 20
16.30103540727961
 30
0.0
 40
2.5
  1
品名
  0
ENDBLK
  5
1EA1
  8
0
  0
BLOCK
  8
0
  2
*U33
 70
     1
 10
0.0
 20
0.0
 30
0.0
  3
*U33
  1

  0
TEXT
  5
1EA3
  8
RAHM2
 10
-163.1448171868856
 20
21.249999999999972
 30
0.0
 40
2.5
  1
変更記事
  0
ENDBLK
  5
1EA5
  8
0
  0
BLOCK
  8
0
  2
*U34
 70
     1
 10
0.0
 20
0.0
 30
0.0
  3
*U34
  1

  0
TEXT
  5
1EA7
  8
0
 10
-88.85532994923858
 20
3.4187817258883251
 30
0.0
 40
3.5
  1
株式会社タカチ電機工業
  0
ENDBLK
  5
1EA9
  8
0
  0
BLOCK
  8
0
  2
*U35
 70
     1
 10
0.0
 20
0.0
 30
0.0
  3
*U35
  1

  0
TEXT
  5
1EAB
  8
RAHM2
 10
-123.3541228057275
 20
31.250000000000028
 30
0.0
 40
2.5
  1
・  ・   
  0
ENDBLK
  5
1EAD
  8
0
  0
BLOCK
  8
0
  2
*U36
 70
     1
 10
0.0
 20
0.0
 30
0.0
  3
*U36
  1

  0
TEXT
  5
1EAF
  8
RAHM2
 10
-126.238119805002
 20
21.249999999999972
 30
0.0
 40
2.5
  1
年・月・日
  0
ENDBLK
  5
1EB1
  8
0
  0
BLOCK
  8
0
  2
*U37
 70
     1
 10
0.0
 20
0.0
 30
0.0
  3
*U37
  1

  0
TEXT
  5
1EB3
  8
RAHM2
 10
-104.5
 20
21.249999999999972
 30
0.0
 40
2.5
  1
担当
  0
ENDBLK
  5
1EB5
  8
0
  0
BLOCK
  8
0
  2
*U38
 70
     1
 10
0.0
 20
0.0
 30
0.0
  3
*U38
  1

  0
TEXT
  5
1EB7
  8
RAHM2
 10
-123.3541228057275
 20
41.250000000000021
 30
0.0
 40
2.5
  1
・  ・   
  0
ENDBLK
  5
1EB9
  8
0
  0
BLOCK
  8
0
  2
*U39
 70
     1
 10
0.0
 20
0.0
 30
0.0
  3
*U39
  1

  0
TEXT
  5
1EBB
  8
RAHM2
 10
-123.3541228057275
 20
36.250000000000028
 30
0.0
 40
2.5
  1
・  ・   
  0
ENDBLK
  5
1EBD
  8
0
  0
BLOCK
  8
0
  2
*U40
 70
     1
 10
0.0
 20
0.0
 30
0.0
  3
*U40
  1

  0
TEXT
  5
1EBF
  8
RAHM2
 10
-123.3541228057275
 20
46.250000000000021
 30
0.0
 40
2.5
  1
・  ・   
  0
ENDBLK
  5
1EC1
  8
0
  0
BLOCK
  8
0
  2
*U41
 70
     1
 10
0.0
 20
0.0
 30
0.0
  3
*U41
  1

  0
TEXT
  5
1EC3
  8
RAHM2
 10
-92.800255137131444
 20
13.80103540727964
 30
0.0
 40
2.5
  1
日付
  0
ENDBLK
  5
1EC5
  8
0
  0
BLOCK
  8
0
  2
*U42
 70
     1
 10
0.0
 20
0.0
 30
0.0
  3
*U42
  1

  0
TEXT
  5
1EC7
  8
RAHM2
 10
-92.800255137131444
 20
23.801035407279642
 30
0.0
 40
2.5
  1
表面処理
  0
ENDBLK
  5
1EC9
  8
0
  0
BLOCK
  8
0
  2
*U43
 70
     1
 10
0.0
 20
0.0
 30
0.0
  3
*U43
  1

  0
TEXT
  5
1ECB
  8
RAHM2
 10
-92.800255137131444
 20
33.801035407279642
 30
0.0
 40
2.5
  1
材質
  0
ENDBLK
  5
1ECD
  8
0
  0
BLOCK
  8
0
  2
*U44
 70
     1
 10
0.0
 20
0.0
 30
0.0
  3
*U44
  1

  0
TEXT
  5
1ECF
  8
RAHM2
 10
-72.800255137131444
 20
46.301035407279642
 30
0.0
 40
2.5
  1
尺度
  0
ENDBLK
  5
1ED1
  8
0
  0
BLOCK
  8
0
  2
*U45
 70
     1
 10
0.0
 20
0.0
 30
0.0
  3
*U45
  1

  0
TEXT
  5
1ED3
  8
RAHM2
 10
-52.800255137131451
 20
46.301035407279642
 30
0.0
 40
2.5
  1
数量
  0
ENDBLK
  5
1ED5
  8
0
  0
BLOCK
  8
0
  2
*U46
 70
     1
 10
0.0
 20
0.0
 30
0.0
  3
*U46
  1

  0
TEXT
  5
1ED7
  8
RAHM2
 10
-28.3125
 20
21.301035407279642
 30
0.0
 40
2.5
  1
承認
  0
ENDBLK
  5
1ED9
  8
0
  0
BLOCK
  8
0
  2
*U47
 70
     1
 10
0.0
 20
0.0
 30
0.0
  3
*U47
  1

  0
TEXT
  5
1EDB
  8
RAHM2
 10
-28.3125
 20
46.301035407279642
 30
0.0
 40
2.5
  1
承認
  0
ENDBLK
  5
1EDD
  8
0
  0
BLOCK
  8
0
  2
*U48
 70
     1
 10
0.0
 20
0.0
 30
0.0
  3
*U48
  1

  0
TEXT
  5
1EDF
  8
RAHM2
 10
-123.3541228057275
 20
26.250000000000028
 30
0.0
 40
2.5
  1
・  ・   
  0
ENDBLK
  5
1EE1
  8
0
  0
BLOCK
  8
0
  2
*U49
 70
     1
 10
0.0
 20
0.0
 30
0.0
  3
*U49
  1

  0
TEXT
  5
1EE3
  8
RAHM2
 10
-11.3125
 20
46.301035407279642
 30
0.0
 40
2.5
  1
検図
  0
ENDBLK
  5
1EE5
  8
0
  0
BLOCK
  8
0
  2
*U50
 70
     1
 10
0.0
 20
0.0
 30
0.0
  3
*U50
  1

  0
TEXT
  5
1EE7
  8
RAHM2
 10
-11.3125
 20
21.301035407279642
 30
0.0
 40
2.5
  1
製図
  0
ENDBLK
  5
1EE9
  8
0
  0
BLOCK
  8
0
  2
*X51
 70
     1
 10
0.0
 20
0.0
 30
0.0
  3
*X51
  1

  0
LINE
  5
1EEE
  8
0
 62
     0
 10
86.328767708650673
 20
169.29705090816751
 30
0.0
 11
86.586921185292454
 21
169.55520438480929
 31
0.0
  0
LINE
  5
1EEF
  8
0
 62
     0
 10
84.914554146277567
 20
169.29705090816751
 30
0.0
 11
86.586921185292468
 21
170.96941794718239
 31
0.0
  0
LINE
  5
1EF0
  8
0
 62
     0
 10
84.086921185292454
 20
169.8836315095555
 30
0.0
 11
88.336921185292439
 21
174.1336315095555
 31
0.0
  0
LINE
  5
1EF1
  8
0
 62
     0
 10
84.086921185292454
 20
171.29784507192861
 30
0.0
 11
88.086127021531397
 21
175.29705090816751
 31
0.0
  0
LINE
  5
1EF2
  8
0
 62
     0
 10
84.086921185292425
 20
172.71205863430171
 30
0.0
 11
86.671913459158304
 21
175.29705090816751
 31
0.0
  0
ENDBLK
  5
1EF4
  8
0
  0
BLOCK
  8
0
  2
*X52
 70
     1
 10
0.0
 20
0.0
 30
0.0
  3
*X52
  1

  0
LINE
  5
1EF6
  8
0
 62
     0
 10
106.12775758187399
 20
169.29705090816751
 30
0.0
 11
108.0869211852924
 21
171.25621451158599
 31
0.0
  0
LINE
  5
1EF7
  8
0
 62
     0
 10
106.0869211852924
 20
172.7917484175187
 30
0.0
 11
108.0869211852924
 21
174.7917484175187
 31
0.0
  0
LINE
  5
1EF8
  8
0
 62
     0
 10
103.0566897700085
 20
173.29705090816751
 30
0.0
 11
105.0566897700085
 21
175.29705090816751
 31
0.0
  0
LINE
  5
1EF9
  8
0
 62
     0
 10
99.521155864075794
 20
173.29705090816751
 30
0.0
 11
101.52115586407579
 21
175.29705090816751
 31
0.0
  0
LINE
  5
1EFA
  8
0
 62
     0
 10
95.521155864075794
 20
169.29705090816751
 30
0.0
 11
95.586921185292454
 21
169.36281622938421
 31
0.0
  0
LINE
  5
1EFB
  8
0
 62
     0
 10
95.985621958143057
 20
173.29705090816751
 30
0.0
 11
97.985621958143071
 21
175.29705090816751
 31
0.0
  0
LINE
  5
1EFC
  8
0
 62
     0
 10
93.586921185292454
 20
170.89835013531689
 30
0.0
 11
95.586921185292496
 21
172.89835013531689
 31
0.0
  0
LINE
  5
1EFD
  8
0
 62
     0
 10
91.893504618751379
 20
172.74046747470859
 30
0.0
 11
94.450088052210319
 21
175.29705090816751
 31
0.0
  0
ENDBLK
  5
1EFF
  8
0
  0
BLOCK
  8
0
  2
*X53
 70
     1
 10
0.0
 20
0.0
 30
0.0
  3
*X53
  1

  0
LINE
  5
1F01
  8
0
 62
     0
 10
116.0272525184856
 20
169.29705090816751
 30
0.0
 11
116.0869211852924
 21
169.35671957497431
 31
0.0
  0
LINE
  5
1F02
  8
0
 62
     0
 10
113.90593217492599
 20
169.29705090816751
 30
0.0
 11
116.0869211852924
 21
171.47803991853391
 31
0.0
  0
LINE
  5
1F03
  8
0
 62
     0
 10
112.0869211852924
 20
169.5993602620936
 30
0.0
 11
116.0668993995311
 21
173.5793384763322
 31
0.0
  0
LINE
  5
1F04
  8
0
 62
     0
 10
112.0869211852924
 20
171.7206806056532
 30
0.0
 11
115.2733675674546
 21
174.90712698781539
 31
0.0
  0
LINE
  5
1F05
  8
0
 62
     0
 10
112.0869211852924
 20
173.84200094921289
 30
0.0
 11
113.5419711442471
 21
175.29705090816751
 31
0.0
  0
ENDBLK
  5
1F07
  8
0
  0
BLOCK
  8
0
  2
*X54
 70
     1
 10
0.0
 20
0.0
 30
0.0
  3
*X54
  1

  0
LINE
  5
1F09
  8
0
 62
     0
 10
85.463212375638093
 20
200.85996541586121
 30
0.0
 11
85.463212375638093
 21
200.85996541586121
 31
0.0
  0
LINE
  5
1F0A
  8
0
 62
     0
 10
85.322761042975785
 20
200.98866535041199
 30
0.0
 11
85.322761042975785
 21
200.98866535041199
 31
0.0
  0
LINE
  5
1F0B
  8
0
 62
     0
 10
84.564323846599194
 20
201.68364499698629
 30
0.0
 11
84.564323846599194
 21
201.68364499698629
 31
0.0
  0
LINE
  5
1F0C
  8
0
 62
     0
 10
88.416812023221169
 20
200.9212896945532
 30
0.0
 11
88.416812023221169
 21
200.9212896945532
 31
0.0
  0
LINE
  5
1F0D
  8
0
 62
     0
 10
87.753881733054996
 20
201.52875338563291
 30
0.0
 11
87.753881733054996
 21
201.52875338563291
 31
0.0
  0
LINE
  5
1F0E
  8
0
 62
     0
 10
87.613430400392659
 20
201.65745332018369
 30
0.0
 11
87.613430400392659
 21
201.65745332018369
 31
0.0
  0
LINE
  5
1F0F
  8
0
 62
     0
 10
86.854993204016097
 20
202.35243296675799
 30
0.0
 11
86.854993204016097
 21
202.35243296675799
 31
0.0
  0
LINE
  5
1F10
  8
0
 62
     0
 10
86.192062913849895
 20
202.95989665783759
 30
0.0
 11
86.192062913849895
 21
202.95989665783759
 31
0.0
  0
LINE
  5
1F11
  8
0
 62
     0
 10
86.051611581187572
 20
203.0885965923884
 30
0.0
 11
86.051611581187572
 21
203.0885965923884
 31
0.0
  0
LINE
  5
1F12
  8
0
 62
     0
 10
85.293174384810996
 20
203.78357623896261
 30
0.0
 11
85.293174384810996
 21
203.78357623896261
 31
0.0
  0
LINE
  5
1F13
  8
0
 62
     0
 10
84.630244094644794
 20
204.3910399300423
 30
0.0
 11
84.630244094644794
 21
204.3910399300423
 31
0.0
  0
LINE
  5
1F14
  8
0
 62
     0
 10
84.489792761982486
 20
204.51973986459311
 30
0.0
 11
84.489792761982486
 21
204.51973986459311
 31
0.0
  0
LINE
  5
1F15
  8
0
 62
     0
 10
91.606369909676985
 20
200.7663980831999
 30
0.0
 11
91.606369909676985
 21
200.7663980831999
 31
0.0
  0
LINE
  5
1F16
  8
0
 62
     0
 10
91.465918577014662
 20
200.8950980177506
 30
0.0
 11
91.465918577014662
 21
200.8950980177506
 31
0.0
  0
LINE
  5
1F17
  8
0
 62
     0
 10
90.707481380638086
 20
201.59007766432489
 30
0.0
 11
90.707481380638086
 21
201.59007766432489
 31
0.0
  0
LINE
  5
1F18
  8
0
 62
     0
 10
90.044551090471899
 20
202.1975413554045
 30
0.0
 11
90.044551090471899
 21
202.1975413554045
 31
0.0
  0
LINE
  5
1F19
  8
0
 62
     0
 10
86.022024923022798
 20
205.88350748093899
 30
0.0
 11
86.022024923022798
 21
205.88350748093899
 31
0.0
  0
LINE
  5
1F1A
  8
0
 62
     0
 10
85.359094632856596
 20
206.4909711720187
 30
0.0
 11
85.359094632856596
 21
206.4909711720187
 31
0.0
  0
LINE
  5
1F1B
  8
0
 62
     0
 10
85.218643300194287
 20
206.6196711065694
 30
0.0
 11
85.218643300194287
 21
206.6196711065694
 31
0.0
  0
LINE
  5
1F1C
  8
0
 62
     0
 10
84.460206103817697
 20
207.3146507531437
 30
0.0
 11
84.460206103817697
 21
207.3146507531437
 31
0.0
  0
LINE
  5
1F1D
  8
0
 62
     0
 10
94.559969557260047
 20
200.8277223618918
 30
0.0
 11
94.559969557260047
 21
200.8277223618918
 31
0.0
  0
LINE
  5
1F1E
  8
0
 62
     0
 10
93.897039267093845
 20
201.43518605297149
 30
0.0
 11
93.897039267093845
 21
201.43518605297149
 31
0.0
  0
LINE
  5
1F1F
  8
0
 62
     0
 10
93.756587934431536
 20
201.5638859875223
 30
0.0
 11
93.756587934431536
 21
201.5638859875223
 31
0.0
  0
LINE
  5
1F20
  8
0
 62
     0
 10
92.998150738054946
 20
202.25886563409651
 30
0.0
 11
92.998150738054946
 21
202.25886563409651
 31
0.0
  0
LINE
  5
1F21
  8
0
 62
     0
 10
92.335220447888773
 20
202.8663293251762
 30
0.0
 11
92.335220447888773
 21
202.8663293251762
 31
0.0
  0
LINE
  5
1F22
  8
0
 62
     0
 10
86.087945171068384
 20
208.590902413995
 30
0.0
 11
86.087945171068384
 21
208.590902413995
 31
0.0
  0
LINE
  5
1F23
  8
0
 62
     0
 10
85.947493838406047
 20
208.71960234854581
 30
0.0
 11
85.947493838406047
 21
208.71960234854581
 31
0.0
  0
LINE
  5
1F24
  8
0
 62
     0
 10
85.189056642029485
 20
209.4145819951201
 30
0.0
 11
85.189056642029485
 21
209.4145819951201
 31
0.0
  0
LINE
  5
1F25
  8
0
 62
     0
 10
84.526126351863297
 20
210.02204568619979
 30
0.0
 11
84.526126351863297
 21
210.02204568619979
 31
0.0
  0
LINE
  5
1F26
  8
0
 62
     0
 10
84.385675019200974
 20
210.15074562075051
 30
0.0
 11
84.385675019200974
 21
210.15074562075051
 31
0.0
  0
LINE
  5
1F27
  8
0
 62
     0
 10
97.749527443715834
 20
200.6728307505384
 30
0.0
 11
97.749527443715834
 21
200.6728307505384
 31
0.0
  0
LINE
  5
1F28
  8
0
 62
     0
 10
97.609076111053525
 20
200.8015306850892
 30
0.0
 11
97.609076111053525
 21
200.8015306850892
 31
0.0
  0
LINE
  5
1F29
  8
0
 62
     0
 10
96.850638914676935
 20
201.49651033166339
 30
0.0
 11
96.850638914676935
 21
201.49651033166339
 31
0.0
  0
LINE
  5
1F2A
  8
0
 62
     0
 10
96.187708624510748
 20
202.1039740227431
 30
0.0
 11
96.187708624510748
 21
202.1039740227431
 31
0.0
  0
LINE
  5
1F2B
  8
0
 62
     0
 10
96.047257291848425
 20
202.23267395729391
 30
0.0
 11
96.047257291848425
 21
202.23267395729391
 31
0.0
  0
LINE
  5
1F2C
  8
0
 62
     0
 10
95.288820095471849
 20
202.92765360386821
 30
0.0
 11
95.288820095471849
 21
202.92765360386821
 31
0.0
  0
LINE
  5
1F2D
  8
0
 62
     0
 10
94.625889805305675
 20
203.53511729494781
 30
0.0
 11
94.625889805305675
 21
203.53511729494781
 31
0.0
  0
LINE
  5
1F2E
  8
0
 62
     0
 10
94.485438472643338
 20
203.66381722949859
 30
0.0
 11
94.485438472643338
 21
203.66381722949859
 31
0.0
  0
LINE
  5
1F2F
  8
0
 62
     0
 10
93.727001276266776
 20
204.35879687607289
 30
0.0
 11
93.727001276266776
 21
204.35879687607289
 31
0.0
  0
LINE
  5
1F30
  8
0
 62
     0
 10
87.479725999446359
 20
210.08336996489169
 30
0.0
 11
87.479725999446359
 21
210.08336996489169
 31
0.0
  0
LINE
  5
1F31
  8
0
 62
     0
 10
86.816795709280186
 20
210.6908336559714
 30
0.0
 11
86.816795709280186
 21
210.6908336559714
 31
0.0
  0
LINE
  5
1F32
  8
0
 62
     0
 10
86.676344376617877
 20
210.81953359052221
 30
0.0
 11
86.676344376617877
 21
210.81953359052221
 31
0.0
  0
LINE
  5
1F33
  8
0
 62
     0
 10
85.917907180241286
 20
211.51451323709639
 30
0.0
 11
85.917907180241286
 21
211.51451323709639
 31
0.0
  0
LINE
  5
1F34
  8
0
 62
     0
 10
100.7031270912989
 20
200.73415502923041
 30
0.0
 11
100.7031270912989
 21
200.73415502923041
 31
0.0
  0
LINE
  5
1F35
  8
0
 62
     0
 10
100.04019680113269
 20
201.34161872031009
 30
0.0
 11
100.04019680113269
 21
201.34161872031009
 31
0.0
  0
LINE
  5
1F36
  8
0
 62
     0
 10
99.899745468470385
 20
201.4703186548609
 30
0.0
 11
99.899745468470385
 21
201.4703186548609
 31
0.0
  0
LINE
  5
1F37
  8
0
 62
     0
 10
99.141308272093809
 20
202.16529830143509
 30
0.0
 11
99.141308272093809
 21
202.16529830143509
 31
0.0
  0
LINE
  5
1F38
  8
0
 62
     0
 10
98.478377981927636
 20
202.7727619925148
 30
0.0
 11
98.478377981927636
 21
202.7727619925148
 31
0.0
  0
LINE
  5
1F39
  8
0
 62
     0
 10
98.337926649265299
 20
202.90146192706561
 30
0.0
 11
98.337926649265299
 21
202.90146192706561
 31
0.0
  0
LINE
  5
1F3A
  8
0
 62
     0
 10
97.579489452888737
 20
203.59644157363979
 30
0.0
 11
97.579489452888737
 21
203.59644157363979
 31
0.0
  0
LINE
  5
1F3B
  8
0
 62
     0
 10
96.916559162722535
 20
204.20390526471951
 30
0.0
 11
96.916559162722535
 21
204.20390526471951
 31
0.0
  0
LINE
  5
1F3C
  8
0
 62
     0
 10
96.776107830060226
 20
204.33260519927029
 30
0.0
 11
96.776107830060226
 21
204.33260519927029
 31
0.0
  0
LINE
  5
1F3D
  8
0
 62
     0
 10
96.017670633683636
 20
205.0275848458445
 30
0.0
 11
96.017670633683636
 21
205.0275848458445
 31
0.0
  0
LINE
  5
1F3E
  8
0
 62
     0
 10
95.354740343517449
 20
205.63504853692419
 30
0.0
 11
95.354740343517449
 21
205.63504853692419
 31
0.0
  0
LINE
  5
1F3F
  8
0
 62
     0
 10
95.214289010855126
 20
205.763748471475
 30
0.0
 11
95.214289010855126
 21
205.763748471475
 31
0.0
  0
LINE
  5
1F40
  8
0
 62
     0
 10
94.455851814478549
 20
206.45872811804929
 30
0.0
 11
94.455851814478549
 21
206.45872811804929
 31
0.0
  0
LINE
  5
1F41
  8
0
 62
     0
 10
89.770395356863276
 20
210.7521579346633
 30
0.0
 11
89.770395356863276
 21
210.7521579346633
 31
0.0
  0
LINE
  5
1F42
  8
0
 62
     0
 10
89.107465066697074
 20
211.35962162574299
 30
0.0
 11
89.107465066697074
 21
211.35962162574299
 31
0.0
  0
LINE
  5
1F43
  8
0
 62
     0
 10
88.967013734034765
 20
211.4883215602938
 30
0.0
 11
88.967013734034765
 21
211.4883215602938
 31
0.0
  0
LINE
  5
1F44
  8
0
 62
     0
 10
88.208576537658175
 20
212.18330120686801
 30
0.0
 11
88.208576537658175
 21
212.18330120686801
 31
0.0
  0
LINE
  5
1F45
  8
0
 62
     0
 10
103.8926849777547
 20
200.579263417877
 30
0.0
 11
103.8926849777547
 21
200.579263417877
 31
0.0
  0
LINE
  5
1F46
  8
0
 62
     0
 10
103.7522336450923
 20
200.70796335242781
 30
0.0
 11
103.7522336450923
 21
200.70796335242781
 31
0.0
  0
LINE
  5
1F47
  8
0
 62
     0
 10
102.9937964487158
 20
201.40294299900199
 30
0.0
 11
102.9937964487158
 21
201.40294299900199
 31
0.0
  0
LINE
  5
1F48
  8
0
 62
     0
 10
102.3308661585496
 20
202.01040669008171
 30
0.0
 11
102.3308661585496
 21
202.01040669008171
 31
0.0
  0
LINE
  5
1F49
  8
0
 62
     0
 10
102.1904148258872
 20
202.13910662463249
 30
0.0
 11
102.1904148258872
 21
202.13910662463249
 31
0.0
  0
LINE
  5
1F4A
  8
0
 62
     0
 10
101.4319776295107
 20
202.83408627120679
 30
0.0
 11
101.4319776295107
 21
202.83408627120679
 31
0.0
  0
LINE
  5
1F4B
  8
0
 62
     0
 10
100.7690473393445
 20
203.44154996228639
 30
0.0
 11
100.7690473393445
 21
203.44154996228639
 31
0.0
  0
LINE
  5
1F4C
  8
0
 62
     0
 10
100.6285960066822
 20
203.5702498968372
 30
0.0
 11
100.6285960066822
 21
203.5702498968372
 31
0.0
  0
LINE
  5
1F4D
  8
0
 62
     0
 10
99.870158810305611
 20
204.26522954341149
 30
0.0
 11
99.870158810305611
 21
204.26522954341149
 31
0.0
  0
LINE
  5
1F4E
  8
0
 62
     0
 10
99.207228520139424
 20
204.87269323449121
 30
0.0
 11
99.207228520139424
 21
204.87269323449121
 31
0.0
  0
LINE
  5
1F4F
  8
0
 62
     0
 10
99.066777187477101
 20
205.0013931690419
 30
0.0
 11
99.066777187477101
 21
205.0013931690419
 31
0.0
  0
LINE
  5
1F50
  8
0
 62
     0
 10
98.308339991100524
 20
205.6963728156162
 30
0.0
 11
98.308339991100524
 21
205.6963728156162
 31
0.0
  0
LINE
  5
1F51
  8
0
 62
     0
 10
97.645409700934351
 20
206.30383650669589
 30
0.0
 11
97.645409700934351
 21
206.30383650669589
 31
0.0
  0
LINE
  5
1F52
  8
0
 62
     0
 10
97.504958368272014
 20
206.4325364412467
 30
0.0
 11
97.504958368272014
 21
206.4325364412467
 31
0.0
  0
LINE
  5
1F53
  8
0
 62
     0
 10
96.746521171895452
 20
207.12751608782091
 30
0.0
 11
96.746521171895452
 21
207.12751608782091
 31
0.0
  0
LINE
  5
1F54
  8
0
 62
     0
 10
96.083590881729251
 20
207.73497977890059
 30
0.0
 11
96.083590881729251
 21
207.73497977890059
 31
0.0
  0
LINE
  5
1F55
  8
0
 62
     0
 10
95.943139549066927
 20
207.86367971345129
 30
0.0
 11
95.943139549066927
 21
207.86367971345129
 31
0.0
  0
LINE
  5
1F56
  8
0
 62
     0
 10
95.184702352690351
 20
208.55865936002559
 30
0.0
 11
95.184702352690351
 21
208.55865936002559
 31
0.0
  0
LINE
  5
1F57
  8
0
 62
     0
 10
94.521772062524164
 20
209.1661230511053
 30
0.0
 11
94.521772062524164
 21
209.1661230511053
 31
0.0
  0
LINE
  5
1F58
  8
0
 62
     0
 10
94.381320729861827
 20
209.29482298565611
 30
0.0
 11
94.381320729861827
 21
209.29482298565611
 31
0.0
  0
LINE
  5
1F59
  8
0
 62
     0
 10
93.622883533485265
 20
209.98980263223029
 30
0.0
 11
93.622883533485265
 21
209.98980263223029
 31
0.0
  0
LINE
  5
1F5A
  8
0
 62
     0
 10
92.959953243319077
 20
210.59726632331001
 30
0.0
 11
92.959953243319077
 21
210.59726632331001
 31
0.0
  0
LINE
  5
1F5B
  8
0
 62
     0
 10
92.819501910656754
 20
210.7259662578607
 30
0.0
 11
92.819501910656754
 21
210.7259662578607
 31
0.0
  0
LINE
  5
1F5C
  8
0
 62
     0
 10
92.061064714280178
 20
211.420945904435
 30
0.0
 11
92.061064714280178
 21
211.420945904435
 31
0.0
  0
LINE
  5
1F5D
  8
0
 62
     0
 10
91.398134424114005
 20
212.02840959551469
 30
0.0
 11
91.398134424114005
 21
212.02840959551469
 31
0.0
  0
LINE
  5
1F5E
  8
0
 62
     0
 10
91.257683091451668
 20
212.1571095300655
 30
0.0
 11
91.257683091451668
 21
212.1571095300655
 31
0.0
  0
LINE
  5
1F5F
  8
0
 62
     0
 10
106.8462846253377
 20
200.64058769656901
 30
0.0
 11
106.8462846253377
 21
200.64058769656901
 31
0.0
  0
LINE
  5
1F60
  8
0
 62
     0
 10
106.1833543351715
 20
201.2480513876487
 30
0.0
 11
106.1833543351715
 21
201.2480513876487
 31
0.0
  0
LINE
  5
1F61
  8
0
 62
     0
 10
106.04290300250921
 20
201.37675132219951
 30
0.0
 11
106.04290300250921
 21
201.37675132219951
 31
0.0
  0
LINE
  5
1F62
  8
0
 62
     0
 10
105.2844658061326
 20
202.07173096877369
 30
0.0
 11
105.2844658061326
 21
202.07173096877369
 31
0.0
  0
LINE
  5
1F63
  8
0
 62
     0
 10
104.6215355159665
 20
202.67919465985341
 30
0.0
 11
104.6215355159665
 21
202.67919465985341
 31
0.0
  0
LINE
  5
1F64
  8
0
 62
     0
 10
104.48108418330411
 20
202.80789459440419
 30
0.0
 11
104.48108418330411
 21
202.80789459440419
 31
0.0
  0
LINE
  5
1F65
  8
0
 62
     0
 10
103.7226469869276
 20
203.5028742409784
 30
0.0
 11
103.7226469869276
 21
203.5028742409784
 31
0.0
  0
LINE
  5
1F66
  8
0
 62
     0
 10
103.0597166967614
 20
204.11033793205809
 30
0.0
 11
103.0597166967614
 21
204.11033793205809
 31
0.0
  0
LINE
  5
1F67
  8
0
 62
     0
 10
102.919265364099
 20
204.2390378666089
 30
0.0
 11
102.919265364099
 21
204.2390378666089
 31
0.0
  0
LINE
  5
1F68
  8
0
 62
     0
 10
102.1608281677225
 20
204.93401751318311
 30
0.0
 11
102.1608281677225
 21
204.93401751318311
 31
0.0
  0
LINE
  5
1F69
  8
0
 62
     0
 10
101.4978978775563
 20
205.54148120426279
 30
0.0
 11
101.4978978775563
 21
205.54148120426279
 31
0.0
  0
LINE
  5
1F6A
  8
0
 62
     0
 10
101.357446544894
 20
205.6701811388136
 30
0.0
 11
101.357446544894
 21
205.6701811388136
 31
0.0
  0
LINE
  5
1F6B
  8
0
 62
     0
 10
100.5990093485174
 20
206.36516078538779
 30
0.0
 11
100.5990093485174
 21
206.36516078538779
 31
0.0
  0
LINE
  5
1F6C
  8
0
 62
     0
 10
99.936079058351226
 20
206.9726244764675
 30
0.0
 11
99.936079058351226
 21
206.9726244764675
 31
0.0
  0
LINE
  5
1F6D
  8
0
 62
     0
 10
99.795627725688902
 20
207.10132441101831
 30
0.0
 11
99.795627725688902
 21
207.10132441101831
 31
0.0
  0
LINE
  5
1F6E
  8
0
 62
     0
 10
99.037190529312326
 20
207.79630405759249
 30
0.0
 11
99.037190529312326
 21
207.79630405759249
 31
0.0
  0
LINE
  5
1F6F
  8
0
 62
     0
 10
98.374260239146139
 20
208.40376774867221
 30
0.0
 11
98.374260239146139
 21
208.40376774867221
 31
0.0
  0
LINE
  5
1F70
  8
0
 62
     0
 10
98.233808906483816
 20
208.53246768322299
 30
0.0
 11
98.233808906483816
 21
208.53246768322299
 31
0.0
  0
LINE
  5
1F71
  8
0
 62
     0
 10
97.475371710107254
 20
209.2274473297972
 30
0.0
 11
97.475371710107254
 21
209.2274473297972
 31
0.0
  0
LINE
  5
1F72
  8
0
 62
     0
 10
96.812441419941067
 20
209.83491102087689
 30
0.0
 11
96.812441419941067
 21
209.83491102087689
 31
0.0
  0
LINE
  5
1F73
  8
0
 62
     0
 10
96.671990087278729
 20
209.9636109554277
 30
0.0
 11
96.671990087278729
 21
209.9636109554277
 31
0.0
  0
LINE
  5
1F74
  8
0
 62
     0
 10
95.913552890902139
 20
210.65859060200191
 30
0.0
 11
95.913552890902139
 21
210.65859060200191
 31
0.0
  0
LINE
  5
1F75
  8
0
 62
     0
 10
95.250622600735966
 20
211.2660542930816
 30
0.0
 11
95.250622600735966
 21
211.2660542930816
 31
0.0
  0
LINE
  5
1F76
  8
0
 62
     0
 10
95.110171268073657
 20
211.3947542276324
 30
0.0
 11
95.110171268073657
 21
211.3947542276324
 31
0.0
  0
LINE
  5
1F77
  8
0
 62
     0
 10
94.351734071697066
 20
212.0897338742067
 30
0.0
 11
94.351734071697066
 21
212.0897338742067
 31
0.0
  0
LINE
  5
1F78
  8
0
 62
     0
 10
110.0358425117935
 20
200.48569608521561
 30
0.0
 11
110.0358425117935
 21
200.48569608521561
 31
0.0
  0
LINE
  5
1F79
  8
0
 62
     0
 10
109.8953911791312
 20
200.61439601976639
 30
0.0
 11
109.8953911791312
 21
200.61439601976639
 31
0.0
  0
LINE
  5
1F7A
  8
0
 62
     0
 10
109.1369539827546
 20
201.30937566634071
 30
0.0
 11
109.1369539827546
 21
201.30937566634071
 31
0.0
  0
LINE
  5
1F7B
  8
0
 62
     0
 10
108.4740236925884
 20
201.91683935742029
 30
0.0
 11
108.4740236925884
 21
201.91683935742029
 31
0.0
  0
LINE
  5
1F7C
  8
0
 62
     0
 10
108.33357235992609
 20
202.0455392919711
 30
0.0
 11
108.33357235992609
 21
202.0455392919711
 31
0.0
  0
LINE
  5
1F7D
  8
0
 62
     0
 10
107.5751351635495
 20
202.74051893854539
 30
0.0
 11
107.5751351635495
 21
202.74051893854539
 31
0.0
  0
LINE
  5
1F7E
  8
0
 62
     0
 10
106.9122048733833
 20
203.34798262962499
 30
0.0
 11
106.9122048733833
 21
203.34798262962499
 31
0.0
  0
LINE
  5
1F7F
  8
0
 62
     0
 10
106.77175354072099
 20
203.4766825641758
 30
0.0
 11
106.77175354072099
 21
203.4766825641758
 31
0.0
  0
LINE
  5
1F80
  8
0
 62
     0
 10
106.0133163443444
 20
204.1716622107501
 30
0.0
 11
106.0133163443444
 21
204.1716622107501
 31
0.0
  0
LINE
  5
1F81
  8
0
 62
     0
 10
105.3503860541783
 20
204.77912590182979
 30
0.0
 11
105.3503860541783
 21
204.77912590182979
 31
0.0
  0
LINE
  5
1F82
  8
0
 62
     0
 10
105.20993472151591
 20
204.9078258363806
 30
0.0
 11
105.20993472151591
 21
204.9078258363806
 31
0.0
  0
LINE
  5
1F83
  8
0
 62
     0
 10
104.4514975251394
 20
205.60280548295481
 30
0.0
 11
104.4514975251394
 21
205.60280548295481
 31
0.0
  0
LINE
  5
1F84
  8
0
 62
     0
 10
103.7885672349732
 20
206.21026917403449
 30
0.0
 11
103.7885672349732
 21
206.21026917403449
 31
0.0
  0
LINE
  5
1F85
  8
0
 62
     0
 10
103.64811590231091
 20
206.33896910858519
 30
0.0
 11
103.64811590231091
 21
206.33896910858519
 31
0.0
  0
LINE
  5
1F86
  8
0
 62
     0
 10
102.8896787059343
 20
207.03394875515951
 30
0.0
 11
102.8896787059343
 21
207.03394875515951
 31
0.0
  0
LINE
  5
1F87
  8
0
 62
     0
 10
102.2267484157681
 20
207.6414124462392
 30
0.0
 11
102.2267484157681
 21
207.6414124462392
 31
0.0
  0
LINE
  5
1F88
  8
0
 62
     0
 10
102.0862970831058
 20
207.77011238079001
 30
0.0
 11
102.0862970831058
 21
207.77011238079001
 31
0.0
  0
LINE
  5
1F89
  8
0
 62
     0
 10
101.3278598867292
 20
208.46509202736419
 30
0.0
 11
101.3278598867292
 21
208.46509202736419
 31
0.0
  0
LINE
  5
1F8A
  8
0
 62
     0
 10
100.664929596563
 20
209.07255571844391
 30
0.0
 11
100.664929596563
 21
209.07255571844391
 31
0.0
  0
LINE
  5
1F8B
  8
0
 62
     0
 10
100.5244782639007
 20
209.2012556529946
 30
0.0
 11
100.5244782639007
 21
209.2012556529946
 31
0.0
  0
LINE
  5
1F8C
  8
0
 62
     0
 10
99.766041067524128
 20
209.8962352995689
 30
0.0
 11
99.766041067524128
 21
209.8962352995689
 31
0.0
  0
LINE
  5
1F8D
  8
0
 62
     0
 10
99.103110777357941
 20
210.50369899064859
 30
0.0
 11
99.103110777357941
 21
210.50369899064859
 31
0.0
  0
LINE
  5
1F8E
  8
0
 62
     0
 10
98.962659444695603
 20
210.6323989251994
 30
0.0
 11
98.962659444695603
 21
210.6323989251994
 31
0.0
  0
LINE
  5
1F8F
  8
0
 62
     0
 10
98.204222248319041
 20
211.32737857177361
 30
0.0
 11
98.204222248319041
 21
211.32737857177361
 31
0.0
  0
LINE
  5
1F90
  8
0
 62
     0
 10
97.541291958152854
 20
211.93484226285329
 30
0.0
 11
97.541291958152854
 21
211.93484226285329
 31
0.0
  0
LINE
  5
1F91
  8
0
 62
     0
 10
97.400840625490531
 20
212.0635421974041
 30
0.0
 11
97.400840625490531
 21
212.0635421974041
 31
0.0
  0
LINE
  5
1F92
  8
0
 62
     0
 10
112.32651186921041
 20
201.15448405498731
 30
0.0
 11
112.32651186921041
 21
201.15448405498731
 31
0.0
  0
LINE
  5
1F93
  8
0
 62
     0
 10
112.1860605365481
 20
201.28318398953809
 30
0.0
 11
112.1860605365481
 21
201.28318398953809
 31
0.0
  0
LINE
  5
1F94
  8
0
 62
     0
 10
111.42762334017149
 20
201.9781636361123
 30
0.0
 11
111.42762334017149
 21
201.9781636361123
 31
0.0
  0
LINE
  5
1F95
  8
0
 62
     0
 10
110.76469305000531
 20
202.58562732719199
 30
0.0
 11
110.76469305000531
 21
202.58562732719199
 31
0.0
  0
LINE
  5
1F96
  8
0
 62
     0
 10
110.624241717343
 20
202.7143272617428
 30
0.0
 11
110.624241717343
 21
202.7143272617428
 31
0.0
  0
LINE
  5
1F97
  8
0
 62
     0
 10
109.86580452096641
 20
203.40930690831701
 30
0.0
 11
109.86580452096641
 21
203.40930690831701
 31
0.0
  0
LINE
  5
1F98
  8
0
 62
     0
 10
109.2028742308003
 20
204.01677059939669
 30
0.0
 11
109.2028742308003
 21
204.01677059939669
 31
0.0
  0
LINE
  5
1F99
  8
0
 62
     0
 10
109.0624228981379
 20
204.1454705339475
 30
0.0
 11
109.0624228981379
 21
204.1454705339475
 31
0.0
  0
LINE
  5
1F9A
  8
0
 62
     0
 10
108.30398570176141
 20
204.84045018052171
 30
0.0
 11
108.30398570176141
 21
204.84045018052171
 31
0.0
  0
LINE
  5
1F9B
  8
0
 62
     0
 10
107.6410554115952
 20
205.4479138716014
 30
0.0
 11
107.6410554115952
 21
205.4479138716014
 31
0.0
  0
LINE
  5
1F9C
  8
0
 62
     0
 10
107.5006040789328
 20
205.57661380615221
 30
0.0
 11
107.5006040789328
 21
205.57661380615221
 31
0.0
  0
LINE
  5
1F9D
  8
0
 62
     0
 10
106.7421668825563
 20
206.27159345272639
 30
0.0
 11
106.7421668825563
 21
206.27159345272639
 31
0.0
  0
LINE
  5
1F9E
  8
0
 62
     0
 10
106.0792365923901
 20
206.87905714380611
 30
0.0
 11
106.0792365923901
 21
206.87905714380611
 31
0.0
  0
LINE
  5
1F9F
  8
0
 62
     0
 10
105.93878525972769
 20
207.00775707835689
 30
0.0
 11
105.93878525972769
 21
207.00775707835689
 31
0.0
  0
LINE
  5
1FA0
  8
0
 62
     0
 10
105.1803480633512
 20
207.7027367249311
 30
0.0
 11
105.1803480633512
 21
207.7027367249311
 31
0.0
  0
LINE
  5
1FA1
  8
0
 62
     0
 10
104.517417773185
 20
208.31020041601079
 30
0.0
 11
104.517417773185
 21
208.31020041601079
 31
0.0
  0
LINE
  5
1FA2
  8
0
 62
     0
 10
104.37696644052269
 20
208.4389003505616
 30
0.0
 11
104.37696644052269
 21
208.4389003505616
 31
0.0
  0
LINE
  5
1FA3
  8
0
 62
     0
 10
103.6185292441461
 20
209.13387999713581
 30
0.0
 11
103.6185292441461
 21
209.13387999713581
 31
0.0
  0
LINE
  5
1FA4
  8
0
 62
     0
 10
102.9555989539799
 20
209.74134368821549
 30
0.0
 11
102.9555989539799
 21
209.74134368821549
 31
0.0
  0
LINE
  5
1FA5
  8
0
 62
     0
 10
102.81514762131761
 20
209.8700436227663
 30
0.0
 11
102.81514762131761
 21
209.8700436227663
 31
0.0
  0
LINE
  5
1FA6
  8
0
 62
     0
 10
102.056710424941
 20
210.5650232693406
 30
0.0
 11
102.056710424941
 21
210.5650232693406
 31
0.0
  0
LINE
  5
1FA7
  8
0
 62
     0
 10
101.3937801347748
 20
211.1724869604202
 30
0.0
 11
101.3937801347748
 21
211.1724869604202
 31
0.0
  0
LINE
  5
1FA8
  8
0
 62
     0
 10
101.25332880211251
 20
211.30118689497101
 30
0.0
 11
101.25332880211251
 21
211.30118689497101
 31
0.0
  0
LINE
  5
1FA9
  8
0
 62
     0
 10
100.4948916057359
 20
211.99616654154519
 30
0.0
 11
100.4948916057359
 21
211.99616654154519
 31
0.0
  0
LINE
  5
1FAA
  8
0
 62
     0
 10
113.7182926975885
 20
202.64695160588391
 30
0.0
 11
113.7182926975885
 21
202.64695160588391
 31
0.0
  0
LINE
  5
1FAB
  8
0
 62
     0
 10
113.05536240742229
 20
203.2544152969636
 30
0.0
 11
113.05536240742229
 21
203.2544152969636
 31
0.0
  0
LINE
  5
1FAC
  8
0
 62
     0
 10
112.9149110747599
 20
203.38311523151441
 30
0.0
 11
112.9149110747599
 21
203.38311523151441
 31
0.0
  0
LINE
  5
1FAD
  8
0
 62
     0
 10
112.15647387838339
 20
204.07809487808871
 30
0.0
 11
112.15647387838339
 21
204.07809487808871
 31
0.0
  0
LINE
  5
1FAE
  8
0
 62
     0
 10
111.49354358821719
 20
204.68555856916831
 30
0.0
 11
111.49354358821719
 21
204.68555856916831
 31
0.0
  0
LINE
  5
1FAF
  8
0
 62
     0
 10
108.36990594980701
 20
207.54784511357781
 30
0.0
 11
108.36990594980701
 21
207.54784511357781
 31
0.0
  0
LINE
  5
1FB0
  8
0
 62
     0
 10
108.2294546171446
 20
207.6765450481285
 30
0.0
 11
108.2294546171446
 21
207.6765450481285
 31
0.0
  0
LINE
  5
1FB1
  8
0
 62
     0
 10
107.47101742076811
 20
208.3715246947028
 30
0.0
 11
107.47101742076811
 21
208.3715246947028
 31
0.0
  0
LINE
  5
1FB2
  8
0
 62
     0
 10
106.8080871306019
 20
208.97898838578249
 30
0.0
 11
106.8080871306019
 21
208.97898838578249
 31
0.0
  0
LINE
  5
1FB3
  8
0
 62
     0
 10
106.6676357979396
 20
209.10768832033321
 30
0.0
 11
106.6676357979396
 21
209.10768832033321
 31
0.0
  0
LINE
  5
1FB4
  8
0
 62
     0
 10
105.90919860156301
 20
209.80266796690751
 30
0.0
 11
105.90919860156301
 21
209.80266796690751
 31
0.0
  0
LINE
  5
1FB5
  8
0
 62
     0
 10
105.2462683113968
 20
210.41013165798719
 30
0.0
 11
105.2462683113968
 21
210.41013165798719
 31
0.0
  0
LINE
  5
1FB6
  8
0
 62
     0
 10
105.1058169787345
 20
210.538831592538
 30
0.0
 11
105.1058169787345
 21
210.538831592538
 31
0.0
  0
LINE
  5
1FB7
  8
0
 62
     0
 10
104.3473797823579
 20
211.23381123911221
 30
0.0
 11
104.3473797823579
 21
211.23381123911221
 31
0.0
  0
LINE
  5
1FB8
  8
0
 62
     0
 10
103.6844494921917
 20
211.8412749301919
 30
0.0
 11
103.6844494921917
 21
211.8412749301919
 31
0.0
  0
LINE
  5
1FB9
  8
0
 62
     0
 10
103.54399815952939
 20
211.9699748647426
 30
0.0
 11
103.54399815952939
 21
211.9699748647426
 31
0.0
  0
LINE
  5
1FBA
  8
0
 62
     0
 10
115.3460317648391
 20
203.92320326673519
 30
0.0
 11
115.3460317648391
 21
203.92320326673519
 31
0.0
  0
LINE
  5
1FBB
  8
0
 62
     0
 10
115.2055804321768
 20
204.05190320128611
 30
0.0
 11
115.2055804321768
 21
204.05190320128611
 31
0.0
  0
LINE
  5
1FBC
  8
0
 62
     0
 10
114.4471432358002
 20
204.74688284786029
 30
0.0
 11
114.4471432358002
 21
204.74688284786029
 31
0.0
  0
LINE
  5
1FBD
  8
0
 62
     0
 10
113.7842129456341
 20
205.35434653894001
 30
0.0
 11
113.7842129456341
 21
205.35434653894001
 31
0.0
  0
LINE
  5
1FBE
  8
0
 62
     0
 10
113.6437616129717
 20
205.48304647349079
 30
0.0
 11
113.6437616129717
 21
205.48304647349079
 31
0.0
  0
LINE
  5
1FBF
  8
0
 62
     0
 10
112.8853244165952
 20
206.178026120065
 30
0.0
 11
112.8853244165952
 21
206.178026120065
 31
0.0
  0
LINE
  5
1FC0
  8
0
 62
     0
 10
112.22239412642899
 20
206.78548981114471
 30
0.0
 11
112.22239412642899
 21
206.78548981114471
 31
0.0
  0
LINE
  5
1FC1
  8
0
 62
     0
 10
112.0819427937666
 20
206.9141897456955
 30
0.0
 11
112.0819427937666
 21
206.9141897456955
 31
0.0
  0
LINE
  5
1FC2
  8
0
 62
     0
 10
110.66057530722389
 20
208.21663308334939
 30
0.0
 11
110.66057530722389
 21
208.21663308334939
 31
0.0
  0
LINE
  5
1FC3
  8
0
 62
     0
 10
110.5201239745616
 20
208.3453330179002
 30
0.0
 11
110.5201239745616
 21
208.3453330179002
 31
0.0
  0
LINE
  5
1FC4
  8
0
 62
     0
 10
109.76168677818499
 20
209.04031266447441
 30
0.0
 11
109.76168677818499
 21
209.04031266447441
 31
0.0
  0
LINE
  5
1FC5
  8
0
 62
     0
 10
109.09875648801879
 20
209.6477763555541
 30
0.0
 11
109.09875648801879
 21
209.6477763555541
 31
0.0
  0
LINE
  5
1FC6
  8
0
 62
     0
 10
108.9583051553565
 20
209.77647629010491
 30
0.0
 11
108.9583051553565
 21
209.77647629010491
 31
0.0
  0
LINE
  5
1FC7
  8
0
 62
     0
 10
108.19986795897989
 20
210.47145593667909
 30
0.0
 11
108.19986795897989
 21
210.47145593667909
 31
0.0
  0
LINE
  5
1FC8
  8
0
 62
     0
 10
107.53693766881371
 20
211.07891962775881
 30
0.0
 11
107.53693766881371
 21
211.07891962775881
 31
0.0
  0
LINE
  5
1FC9
  8
0
 62
     0
 10
107.3964863361514
 20
211.20761956230959
 30
0.0
 11
107.3964863361514
 21
211.20761956230959
 31
0.0
  0
LINE
  5
1FCA
  8
0
 62
     0
 10
106.63804913977479
 20
211.9025992088838
 30
0.0
 11
106.63804913977479
 21
211.9025992088838
 31
0.0
  0
LINE
  5
1FCB
  8
0
 62
     0
 10
116.0748823030509
 20
206.02313450871159
 30
0.0
 11
116.0748823030509
 21
206.02313450871159
 31
0.0
  0
LINE
  5
1FCC
  8
0
 62
     0
 10
115.9344309703886
 20
206.1518344432624
 30
0.0
 11
115.9344309703886
 21
206.1518344432624
 31
0.0
  0
LINE
  5
1FCD
  8
0
 62
     0
 10
115.175993774012
 20
206.84681408983661
 30
0.0
 11
115.175993774012
 21
206.84681408983661
 31
0.0
  0
LINE
  5
1FCE
  8
0
 62
     0
 10
114.5130634838459
 20
207.4542777809163
 30
0.0
 11
114.5130634838459
 21
207.4542777809163
 31
0.0
  0
LINE
  5
1FCF
  8
0
 62
     0
 10
114.3726121511835
 20
207.58297771546711
 30
0.0
 11
114.3726121511835
 21
207.58297771546711
 31
0.0
  0
LINE
  5
1FD0
  8
0
 62
     0
 10
113.614174954807
 20
208.27795736204129
 30
0.0
 11
113.614174954807
 21
208.27795736204129
 31
0.0
  0
LINE
  5
1FD1
  8
0
 62
     0
 10
112.9512446646408
 20
208.88542105312101
 30
0.0
 11
112.9512446646408
 21
208.88542105312101
 31
0.0
  0
LINE
  5
1FD2
  8
0
 62
     0
 10
112.8107933319784
 20
209.01412098767179
 30
0.0
 11
112.8107933319784
 21
209.01412098767179
 31
0.0
  0
LINE
  5
1FD3
  8
0
 62
     0
 10
112.0523561356019
 20
209.70910063424611
 30
0.0
 11
112.0523561356019
 21
209.70910063424611
 31
0.0
  0
LINE
  5
1FD4
  8
0
 62
     0
 10
111.3894258454357
 20
210.31656432532569
 30
0.0
 11
111.3894258454357
 21
210.31656432532569
 31
0.0
  0
LINE
  5
1FD5
  8
0
 62
     0
 10
111.2489745127734
 20
210.4452642598765
 30
0.0
 11
111.2489745127734
 21
210.4452642598765
 31
0.0
  0
LINE
  5
1FD6
  8
0
 62
     0
 10
110.4905373163968
 20
211.14024390645079
 30
0.0
 11
110.4905373163968
 21
211.14024390645079
 31
0.0
  0
LINE
  5
1FD7
  8
0
 62
     0
 10
109.8276070262306
 20
211.74770759753039
 30
0.0
 11
109.8276070262306
 21
211.74770759753039
 31
0.0
  0
LINE
  5
1FD8
  8
0
 62
     0
 10
109.6871556935683
 20
211.8764075320812
 30
0.0
 11
109.6871556935683
 21
211.8764075320812
 31
0.0
  0
LINE
  5
1FD9
  8
0
 62
     0
 10
114.3430254930188
 20
210.3778886040177
 30
0.0
 11
114.3430254930188
 21
210.3778886040177
 31
0.0
  0
LINE
  5
1FDA
  8
0
 62
     0
 10
113.6800952028526
 20
210.98535229509741
 30
0.0
 11
113.6800952028526
 21
210.98535229509741
 31
0.0
  0
LINE
  5
1FDB
  8
0
 62
     0
 10
113.5396438701902
 20
211.11405222964819
 30
0.0
 11
113.5396438701902
 21
211.11405222964819
 31
0.0
  0
LINE
  5
1FDC
  8
0
 62
     0
 10
86.337023645702615
 20
200.9317307034201
 30
0.0
 11
86.337023645702615
 21
200.9317307034201
 31
0.0
  0
LINE
  5
1FDD
  8
0
 62
     0
 10
86.015691504847894
 20
201.1364418542002
 30
0.0
 11
86.015691504847894
 21
201.1364418542002
 31
0.0
  0
LINE
  5
1FDE
  8
0
 62
     0
 10
84.505430442830786
 20
202.09858426286689
 30
0.0
 11
84.505430442830786
 21
202.09858426286689
 31
0.0
  0
LINE
  5
1FDF
  8
0
 62
     0
 10
88.710000756426965
 20
200.93604225745571
 30
0.0
 11
88.710000756426965
 21
200.93604225745571
 31
0.0
  0
LINE
  5
1FE0
  8
0
 62
     0
 10
88.388668615572257
 20
201.14075340823581
 30
0.0
 11
88.388668615572257
 21
201.14075340823581
 31
0.0
  0
LINE
  5
1FE1
  8
0
 62
     0
 10
86.878407553555135
 20
202.1028958169025
 30
0.0
 11
86.878407553555135
 21
202.1028958169025
 31
0.0
  0
LINE
  5
1FE2
  8
0
 62
     0
 10
85.721611846478183
 20
202.839855959711
 30
0.0
 11
85.721611846478183
 21
202.839855959711
 31
0.0
  0
LINE
  5
1FE3
  8
0
 62
     0
 10
85.400279705623475
 20
203.0445671104911
 30
0.0
 11
85.400279705623475
 21
203.0445671104911
 31
0.0
  0
LINE
  5
1FE4
  8
0
 62
     0
 10
91.082977867151357
 20
200.94035381149129
 30
0.0
 11
91.082977867151357
 21
200.94035381149129
 31
0.0
  0
LINE
  5
1FE5
  8
0
 62
     0
 10
90.761645726296635
 20
201.1450649622715
 30
0.0
 11
90.761645726296635
 21
201.1450649622715
 31
0.0
  0
LINE
  5
1FE6
  8
0
 62
     0
 10
89.251384664279499
 20
202.10720737093811
 30
0.0
 11
89.251384664279499
 21
202.10720737093811
 31
0.0
  0
LINE
  5
1FE7
  8
0
 62
     0
 10
86.262995754330717
 20
204.0110210731934
 30
0.0
 11
86.262995754330717
 21
204.0110210731934
 31
0.0
  0
LINE
  5
1FE8
  8
0
 62
     0
 10
85.106200047253765
 20
204.74798121600199
 30
0.0
 11
85.106200047253765
 21
204.74798121600199
 31
0.0
  0
LINE
  5
1FE9
  8
0
 62
     0
 10
84.784867906399043
 20
204.95269236678209
 30
0.0
 11
84.784867906399043
 21
204.95269236678209
 31
0.0
  0
LINE
  5
1FEA
  8
0
 62
     0
 10
93.455954977875749
 20
200.94466536552699
 30
0.0
 11
93.455954977875749
 21
200.94466536552699
 31
0.0
  0
LINE
  5
1FEB
  8
0
 62
     0
 10
93.134622837021055
 20
201.14937651630709
 30
0.0
 11
93.134622837021055
 21
201.14937651630709
 31
0.0
  0
LINE
  5
1FEC
  8
0
 62
     0
 10
91.624361775003919
 20
202.11151892497381
 30
0.0
 11
91.624361775003919
 21
202.11151892497381
 31
0.0
  0
LINE
  5
1FED
  8
0
 62
     0
 10
85.647583955106327
 20
205.91914632948439
 30
0.0
 11
85.647583955106327
 21
205.91914632948439
 31
0.0
  0
LINE
  5
1FEE
  8
0
 62
     0
 10
84.490788248029375
 20
206.65610647229289
 30
0.0
 11
84.490788248029375
 21
206.65610647229289
 31
0.0
  0
LINE
  5
1FEF
  8
0
 62
     0
 10
84.169456107174668
 20
206.8608176230731
 30
0.0
 11
84.169456107174668
 21
206.8608176230731
 31
0.0
  0
LINE
  5
1FF0
  8
0
 62
     0
 10
95.828932088600098
 20
200.9489769195626
 30
0.0
 11
95.828932088600098
 21
200.9489769195626
 31
0.0
  0
LINE
  5
1FF1
  8
0
 62
     0
 10
95.507599947745391
 20
201.1536880703427
 30
0.0
 11
95.507599947745391
 21
201.1536880703427
 31
0.0
  0
LINE
  5
1FF2
  8
0
 62
     0
 10
93.997338885728254
 20
202.11583047900939
 30
0.0
 11
93.997338885728254
 21
202.11583047900939
 31
0.0
  0
LINE
  5
1FF3
  8
0
 62
     0
 10
92.840543178651302
 20
202.85279062181789
 30
0.0
 11
92.840543178651302
 21
202.85279062181789
 31
0.0
  0
LINE
  5
1FF4
  8
0
 62
     0
 10
92.519211037796595
 20
203.05750177259799
 30
0.0
 11
92.519211037796595
 21
203.05750177259799
 31
0.0
  0
LINE
  5
1FF5
  8
0
 62
     0
 10
85.032172155881881
 20
207.82727158577529
 30
0.0
 11
85.032172155881881
 21
207.82727158577529
 31
0.0
  0
LINE
  5
1FF6
  8
0
 62
     0
 10
98.201909199324504
 20
200.95328847359829
 30
0.0
 11
98.201909199324504
 21
200.95328847359829
 31
0.0
  0
LINE
  5
1FF7
  8
0
 62
     0
 10
97.880577058469811
 20
201.15799962437839
 30
0.0
 11
97.880577058469811
 21
201.15799962437839
 31
0.0
  0
LINE
  5
1FF8
  8
0
 62
     0
 10
96.370315996452675
 20
202.120142033045
 30
0.0
 11
96.370315996452675
 21
202.120142033045
 31
0.0
  0
LINE
  5
1FF9
  8
0
 62
     0
 10
95.213520289375694
 20
202.85710217585361
 30
0.0
 11
95.213520289375694
 21
202.85710217585361
 31
0.0
  0
LINE
  5
1FFA
  8
0
 62
     0
 10
94.892188148520987
 20
203.06181332663371
 30
0.0
 11
94.892188148520987
 21
203.06181332663371
 31
0.0
  0
LINE
  5
1FFB
  8
0
 62
     0
 10
93.381927086503865
 20
204.02395573530029
 30
0.0
 11
93.381927086503865
 21
204.02395573530029
 31
0.0
  0
LINE
  5
1FFC
  8
0
 62
     0
 10
86.248353559529306
 20
208.5685432826194
 30
0.0
 11
86.248353559529306
 21
208.5685432826194
 31
0.0
  0
LINE
  5
1FFD
  8
0
 62
     0
 10
85.927021418674599
 20
208.77325443339959
 30
0.0
 11
85.927021418674599
 21
208.77325443339959
 31
0.0
  0
LINE
  5
1FFE
  8
0
 62
     0
 10
84.416760356657463
 20
209.73539684206619
 30
0.0
 11
84.416760356657463
 21
209.73539684206619
 31
0.0
  0
LINE
  5
1FFF
  8
0
 62
     0
 10
100.5748863100489
 20
200.9576000276339
 30
0.0
 11
100.5748863100489
 21
200.9576000276339
 31
0.0
  0
LINE
  5
2000
  8
0
 62
     0
 10
100.2535541691941
 20
201.162311178414
 30
0.0
 11
100.2535541691941
 21
201.162311178414
 31
0.0
  0
LINE
  5
2001
  8
0
 62
     0
 10
98.743293107177053
 20
202.12445358708069
 30
0.0
 11
98.743293107177053
 21
202.12445358708069
 31
0.0
  0
LINE
  5
2002
  8
0
 62
     0
 10
97.586497400100086
 20
202.86141372988919
 30
0.0
 11
97.586497400100086
 21
202.86141372988919
 31
0.0
  0
LINE
  5
2003
  8
0
 62
     0
 10
97.265165259245364
 20
203.06612488066929
 30
0.0
 11
97.265165259245364
 21
203.06612488066929
 31
0.0
  0
LINE
  5
2004
  8
0
 62
     0
 10
95.754904197228228
 20
204.02826728933599
 30
0.0
 11
95.754904197228228
 21
204.02826728933599
 31
0.0
  0
LINE
  5
2005
  8
0
 62
     0
 10
94.59810849015129
 20
204.76522743214451
 30
0.0
 11
94.59810849015129
 21
204.76522743214451
 31
0.0
  0
LINE
  5
2006
  8
0
 62
     0
 10
94.276776349296583
 20
204.96993858292461
 30
0.0
 11
94.276776349296583
 21
204.96993858292461
 31
0.0
  0
LINE
  5
2007
  8
0
 62
     0
 10
86.789737467381855
 20
209.73970839610189
 30
0.0
 11
86.789737467381855
 21
209.73970839610189
 31
0.0
  0
LINE
  5
2008
  8
0
 62
     0
 10
85.632941760304874
 20
210.47666853891039
 30
0.0
 11
85.632941760304874
 21
210.47666853891039
 31
0.0
  0
LINE
  5
2009
  8
0
 62
     0
 10
85.311609619450167
 20
210.6813796896906
 30
0.0
 11
85.311609619450167
 21
210.6813796896906
 31
0.0
  0
LINE
  5
200A
  8
0
 62
     0
 10
102.9478634207732
 20
200.9619115816696
 30
0.0
 11
102.9478634207732
 21
200.9619115816696
 31
0.0
  0
LINE
  5
200B
  8
0
 62
     0
 10
102.6265312799185
 20
201.16662273244961
 30
0.0
 11
102.6265312799185
 21
201.16662273244961
 31
0.0
  0
LINE
  5
200C
  8
0
 62
     0
 10
101.1162702179014
 20
202.1287651411163
 30
0.0
 11
101.1162702179014
 21
202.1287651411163
 31
0.0
  0
LINE
  5
200D
  8
0
 62
     0
 10
99.959474510824464
 20
202.8657252839248
 30
0.0
 11
99.959474510824464
 21
202.8657252839248
 31
0.0
  0
LINE
  5
200E
  8
0
 62
     0
 10
99.638142369969756
 20
203.0704364347049
 30
0.0
 11
99.638142369969756
 21
203.0704364347049
 31
0.0
  0
LINE
  5
200F
  8
0
 62
     0
 10
98.12788130795262
 20
204.0325788433716
 30
0.0
 11
98.12788130795262
 21
204.0325788433716
 31
0.0
  0
LINE
  5
2010
  8
0
 62
     0
 10
96.971085600875668
 20
204.76953898618009
 30
0.0
 11
96.971085600875668
 21
204.76953898618009
 31
0.0
  0
LINE
  5
2011
  8
0
 62
     0
 10
96.64975346002096
 20
204.97425013696019
 30
0.0
 11
96.64975346002096
 21
204.97425013696019
 31
0.0
  0
LINE
  5
2012
  8
0
 62
     0
 10
95.139492398003824
 20
205.93639254562689
 30
0.0
 11
95.139492398003824
 21
205.93639254562689
 31
0.0
  0
LINE
  5
2013
  8
0
 62
     0
 10
88.005918871029266
 20
210.480980092946
 30
0.0
 11
88.005918871029266
 21
210.480980092946
 31
0.0
  0
LINE
  5
2014
  8
0
 62
     0
 10
87.684586730174544
 20
210.6856912437261
 30
0.0
 11
87.684586730174544
 21
210.6856912437261
 31
0.0
  0
LINE
  5
2015
  8
0
 62
     0
 10
86.174325668157408
 20
211.64783365239279
 30
0.0
 11
86.174325668157408
 21
211.64783365239279
 31
0.0
  0
LINE
  5
2016
  8
0
 62
     0
 10
105.32084053149759
 20
200.96622313570521
 30
0.0
 11
105.32084053149759
 21
200.96622313570521
 31
0.0
  0
LINE
  5
2017
  8
0
 62
     0
 10
104.9995083906429
 20
201.17093428648531
 30
0.0
 11
104.9995083906429
 21
201.17093428648531
 31
0.0
  0
LINE
  5
2018
  8
0
 62
     0
 10
103.48924732862569
 20
202.133076695152
 30
0.0
 11
103.48924732862569
 21
202.133076695152
 31
0.0
  0
LINE
  5
2019
  8
0
 62
     0
 10
102.3324516215488
 20
202.8700368379605
 30
0.0
 11
102.3324516215488
 21
202.8700368379605
 31
0.0
  0
LINE
  5
201A
  8
0
 62
     0
 10
102.01111948069411
 20
203.0747479887406
 30
0.0
 11
102.01111948069411
 21
203.0747479887406
 31
0.0
  0
LINE
  5
201B
  8
0
 62
     0
 10
100.5008584186769
 20
204.03689039740721
 30
0.0
 11
100.5008584186769
 21
204.03689039740721
 31
0.0
  0
LINE
  5
201C
  8
0
 62
     0
 10
99.344062711600017
 20
204.77385054021579
 30
0.0
 11
99.344062711600017
 21
204.77385054021579
 31
0.0
  0
LINE
  5
201D
  8
0
 62
     0
 10
99.022730570745296
 20
204.97856169099589
 30
0.0
 11
99.022730570745296
 21
204.97856169099589
 31
0.0
  0
LINE
  5
201E
  8
0
 62
     0
 10
97.512469508728174
 20
205.9407040996625
 30
0.0
 11
97.512469508728174
 21
205.9407040996625
 31
0.0
  0
LINE
  5
201F
  8
0
 62
     0
 10
96.355673801651221
 20
206.67766424247111
 30
0.0
 11
96.355673801651221
 21
206.67766424247111
 31
0.0
  0
LINE
  5
2020
  8
0
 62
     0
 10
96.034341660796514
 20
206.88237539325121
 30
0.0
 11
96.034341660796514
 21
206.88237539325121
 31
0.0
  0
LINE
  5
2021
  8
0
 62
     0
 10
94.524080598779364
 20
207.84451780191779
 30
0.0
 11
94.524080598779364
 21
207.84451780191779
 31
0.0
  0
LINE
  5
2022
  8
0
 62
     0
 10
90.378895981753615
 20
210.48529164698169
 30
0.0
 11
90.378895981753615
 21
210.48529164698169
 31
0.0
  0
LINE
  5
2023
  8
0
 62
     0
 10
90.057563840898894
 20
210.69000279776179
 30
0.0
 11
90.057563840898894
 21
210.69000279776179
 31
0.0
  0
LINE
  5
2024
  8
0
 62
     0
 10
88.547302778881786
 20
211.65214520642849
 30
0.0
 11
88.547302778881786
 21
211.65214520642849
 31
0.0
  0
LINE
  5
2025
  8
0
 62
     0
 10
107.693817642222
 20
200.97053468974079
 30
0.0
 11
107.693817642222
 21
200.97053468974079
 31
0.0
  0
LINE
  5
2026
  8
0
 62
     0
 10
107.37248550136729
 20
201.175245840521
 30
0.0
 11
107.37248550136729
 21
201.175245840521
 31
0.0
  0
LINE
  5
2027
  8
0
 62
     0
 10
105.8622244393501
 20
202.13738824918761
 30
0.0
 11
105.8622244393501
 21
202.13738824918761
 31
0.0
  0
LINE
  5
2028
  8
0
 62
     0
 10
104.70542873227321
 20
202.87434839199611
 30
0.0
 11
104.70542873227321
 21
202.87434839199611
 31
0.0
  0
LINE
  5
2029
  8
0
 62
     0
 10
104.3840965914185
 20
203.07905954277629
 30
0.0
 11
104.3840965914185
 21
203.07905954277629
 31
0.0
  0
LINE
  5
202A
  8
0
 62
     0
 10
102.8738355294013
 20
204.0412019514429
 30
0.0
 11
102.8738355294013
 21
204.0412019514429
 31
0.0
  0
LINE
  5
202B
  8
0
 62
     0
 10
101.7170398223244
 20
204.7781620942514
 30
0.0
 11
101.7170398223244
 21
204.7781620942514
 31
0.0
  0
LINE
  5
202C
  8
0
 62
     0
 10
101.3957076814697
 20
204.98287324503161
 30
0.0
 11
101.3957076814697
 21
204.98287324503161
 31
0.0
  0
LINE
  5
202D
  8
0
 62
     0
 10
99.885446619452551
 20
205.94501565369819
 30
0.0
 11
99.885446619452551
 21
205.94501565369819
 31
0.0
  0
LINE
  5
202E
  8
0
 62
     0
 10
98.728650912375599
 20
206.68197579650669
 30
0.0
 11
98.728650912375599
 21
206.68197579650669
 31
0.0
  0
LINE
  5
202F
  8
0
 62
     0
 10
98.407318771520892
 20
206.8866869472869
 30
0.0
 11
98.407318771520892
 21
206.8866869472869
 31
0.0
  0
LINE
  5
2030
  8
0
 62
     0
 10
96.897057709503756
 20
207.84882935595351
 30
0.0
 11
96.897057709503756
 21
207.84882935595351
 31
0.0
  0
LINE
  5
2031
  8
0
 62
     0
 10
95.740262002426803
 20
208.58578949876201
 30
0.0
 11
95.740262002426803
 21
208.58578949876201
 31
0.0
  0
LINE
  5
2032
  8
0
 62
     0
 10
95.418929861572096
 20
208.79050064954211
 30
0.0
 11
95.418929861572096
 21
208.79050064954211
 31
0.0
  0
LINE
  5
2033
  8
0
 62
     0
 10
93.908668799554945
 20
209.7526430582088
 30
0.0
 11
93.908668799554945
 21
209.7526430582088
 31
0.0
  0
LINE
  5
2034
  8
0
 62
     0
 10
92.751873092478007
 20
210.4896032010173
 30
0.0
 11
92.751873092478007
 21
210.4896032010173
 31
0.0
  0
LINE
  5
2035
  8
0
 62
     0
 10
92.4305409516233
 20
210.6943143517974
 30
0.0
 11
92.4305409516233
 21
210.6943143517974
 31
0.0
  0
LINE
  5
2036
  8
0
 62
     0
 10
90.920279889606164
 20
211.6564567604641
 30
0.0
 11
90.920279889606164
 21
211.6564567604641
 31
0.0
  0
LINE
  5
2037
  8
0
 62
     0
 10
110.06679475294629
 20
200.97484624377651
 30
0.0
 11
110.06679475294629
 21
200.97484624377651
 31
0.0
  0
LINE
  5
2038
  8
0
 62
     0
 10
109.7454626120916
 20
201.17955739455661
 30
0.0
 11
109.7454626120916
 21
201.17955739455661
 31
0.0
  0
LINE
  5
2039
  8
0
 62
     0
 10
108.23520155007451
 20
202.1416998032233
 30
0.0
 11
108.23520155007451
 21
202.1416998032233
 31
0.0
  0
LINE
  5
203A
  8
0
 62
     0
 10
107.0784058429975
 20
202.8786599460318
 30
0.0
 11
107.0784058429975
 21
202.8786599460318
 31
0.0
  0
LINE
  5
203B
  8
0
 62
     0
 10
106.7570737021428
 20
203.0833710968119
 30
0.0
 11
106.7570737021428
 21
203.0833710968119
 31
0.0
  0
LINE
  5
203C
  8
0
 62
     0
 10
105.2468126401257
 20
204.0455135054786
 30
0.0
 11
105.2468126401257
 21
204.0455135054786
 31
0.0
  0
LINE
  5
203D
  8
0
 62
     0
 10
104.0900169330487
 20
204.78247364828701
 30
0.0
 11
104.0900169330487
 21
204.78247364828701
 31
0.0
  0
LINE
  5
203E
  8
0
 62
     0
 10
103.76868479219399
 20
204.98718479906719
 30
0.0
 11
103.76868479219399
 21
204.98718479906719
 31
0.0
  0
LINE
  5
203F
  8
0
 62
     0
 10
102.2584237301769
 20
205.94932720773389
 30
0.0
 11
102.2584237301769
 21
205.94932720773389
 31
0.0
  0
LINE
  5
2040
  8
0
 62
     0
 10
101.10162802309991
 20
206.6862873505423
 30
0.0
 11
101.10162802309991
 21
206.6862873505423
 31
0.0
  0
LINE
  5
2041
  8
0
 62
     0
 10
100.7802958822452
 20
206.89099850132251
 30
0.0
 11
100.7802958822452
 21
206.89099850132251
 31
0.0
  0
LINE
  5
2042
  8
0
 62
     0
 10
99.270034820228105
 20
207.85314090998921
 30
0.0
 11
99.270034820228105
 21
207.85314090998921
 31
0.0
  0
LINE
  5
2043
  8
0
 62
     0
 10
98.113239113151167
 20
208.59010105279759
 30
0.0
 11
98.113239113151167
 21
208.59010105279759
 31
0.0
  0
LINE
  5
2044
  8
0
 62
     0
 10
97.791906972296459
 20
208.79481220357781
 30
0.0
 11
97.791906972296459
 21
208.79481220357781
 31
0.0
  0
LINE
  5
2045
  8
0
 62
     0
 10
96.281645910279323
 20
209.7569546122445
 30
0.0
 11
96.281645910279323
 21
209.7569546122445
 31
0.0
  0
LINE
  5
2046
  8
0
 62
     0
 10
95.124850203202371
 20
210.49391475505291
 30
0.0
 11
95.124850203202371
 21
210.49391475505291
 31
0.0
  0
LINE
  5
2047
  8
0
 62
     0
 10
94.803518062347663
 20
210.6986259058331
 30
0.0
 11
94.803518062347663
 21
210.6986259058331
 31
0.0
  0
LINE
  5
2048
  8
0
 62
     0
 10
93.293257000330513
 20
211.66076831449979
 30
0.0
 11
93.293257000330513
 21
211.66076831449979
 31
0.0
  0
LINE
  5
2049
  8
0
 62
     0
 10
112.4397718636707
 20
200.97915779781209
 30
0.0
 11
112.4397718636707
 21
200.97915779781209
 31
0.0
  0
LINE
  5
204A
  8
0
 62
     0
 10
112.11843972281601
 20
201.18386894859231
 30
0.0
 11
112.11843972281601
 21
201.18386894859231
 31
0.0
  0
LINE
  5
204B
  8
0
 62
     0
 10
110.6081786607989
 20
202.14601135725891
 30
0.0
 11
110.6081786607989
 21
202.14601135725891
 31
0.0
  0
LINE
  5
204C
  8
0
 62
     0
 10
109.4513829537219
 20
202.88297150006741
 30
0.0
 11
109.4513829537219
 21
202.88297150006741
 31
0.0
  0
LINE
  5
204D
  8
0
 62
     0
 10
109.1300508128672
 20
203.0876826508476
 30
0.0
 11
109.1300508128672
 21
203.0876826508476
 31
0.0
  0
LINE
  5
204E
  8
0
 62
     0
 10
107.61978975085
 20
204.04982505951421
 30
0.0
 11
107.61978975085
 21
204.04982505951421
 31
0.0
  0
LINE
  5
204F
  8
0
 62
     0
 10
106.46299404377309
 20
204.7867852023227
 30
0.0
 11
106.46299404377309
 21
204.7867852023227
 31
0.0
  0
LINE
  5
2050
  8
0
 62
     0
 10
106.1416619029184
 20
204.9914963531028
 30
0.0
 11
106.1416619029184
 21
204.9914963531028
 31
0.0
  0
LINE
  5
2051
  8
0
 62
     0
 10
104.63140084090131
 20
205.9536387617695
 30
0.0
 11
104.63140084090131
 21
205.9536387617695
 31
0.0
  0
LINE
  5
2052
  8
0
 62
     0
 10
103.4746051338243
 20
206.690598904578
 30
0.0
 11
103.4746051338243
 21
206.690598904578
 31
0.0
  0
LINE
  5
2053
  8
0
 62
     0
 10
103.1532729929696
 20
206.8953100553581
 30
0.0
 11
103.1532729929696
 21
206.8953100553581
 31
0.0
  0
LINE
  5
2054
  8
0
 62
     0
 10
101.6430119309525
 20
207.85745246402479
 30
0.0
 11
101.6430119309525
 21
207.85745246402479
 31
0.0
  0
LINE
  5
2055
  8
0
 62
     0
 10
100.4862162238755
 20
208.59441260683329
 30
0.0
 11
100.4862162238755
 21
208.59441260683329
 31
0.0
  0
LINE
  5
2056
  8
0
 62
     0
 10
100.16488408302079
 20
208.79912375761339
 30
0.0
 11
100.16488408302079
 21
208.79912375761339
 31
0.0
  0
LINE
  5
2057
  8
0
 62
     0
 10
98.654623021003687
 20
209.76126616628011
 30
0.0
 11
98.654623021003687
 21
209.76126616628011
 31
0.0
  0
LINE
  5
2058
  8
0
 62
     0
 10
97.497827313926734
 20
210.49822630908861
 30
0.0
 11
97.497827313926734
 21
210.49822630908861
 31
0.0
  0
LINE
  5
2059
  8
0
 62
     0
 10
97.176495173072027
 20
210.70293745986871
 30
0.0
 11
97.176495173072027
 21
210.70293745986871
 31
0.0
  0
LINE
  5
205A
  8
0
 62
     0
 10
95.666234111054891
 20
211.6650798685354
 30
0.0
 11
95.666234111054891
 21
211.6650798685354
 31
0.0
  0
LINE
  5
205B
  8
0
 62
     0
 10
112.98115577152331
 20
202.1503229112945
 30
0.0
 11
112.98115577152331
 21
202.1503229112945
 31
0.0
  0
LINE
  5
205C
  8
0
 62
     0
 10
111.8243600644463
 20
202.88728305410299
 30
0.0
 11
111.8243600644463
 21
202.88728305410299
 31
0.0
  0
LINE
  5
205D
  8
0
 62
     0
 10
111.5030279235916
 20
203.09199420488309
 30
0.0
 11
111.5030279235916
 21
203.09199420488309
 31
0.0
  0
LINE
  5
205E
  8
0
 62
     0
 10
109.99276686157449
 20
204.05413661354979
 30
0.0
 11
109.99276686157449
 21
204.05413661354979
 31
0.0
  0
LINE
  5
205F
  8
0
 62
     0
 10
108.51463901364281
 20
204.99580790713841
 30
0.0
 11
108.51463901364281
 21
204.99580790713841
 31
0.0
  0
LINE
  5
2060
  8
0
 62
     0
 10
107.0043779516257
 20
205.95795031580511
 30
0.0
 11
107.0043779516257
 21
205.95795031580511
 31
0.0
  0
LINE
  5
2061
  8
0
 62
     0
 10
105.8475822445487
 20
206.69491045861361
 30
0.0
 11
105.8475822445487
 21
206.69491045861361
 31
0.0
  0
LINE
  5
2062
  8
0
 62
     0
 10
105.526250103694
 20
206.89962160939371
 30
0.0
 11
105.526250103694
 21
206.89962160939371
 31
0.0
  0
LINE
  5
2063
  8
0
 62
     0
 10
104.0159890416769
 20
207.8617640180604
 30
0.0
 11
104.0159890416769
 21
207.8617640180604
 31
0.0
  0
LINE
  5
2064
  8
0
 62
     0
 10
102.85919333459989
 20
208.5987241608689
 30
0.0
 11
102.85919333459989
 21
208.5987241608689
 31
0.0
  0
LINE
  5
2065
  8
0
 62
     0
 10
102.5378611937452
 20
208.803435311649
 30
0.0
 11
102.5378611937452
 21
208.803435311649
 31
0.0
  0
LINE
  5
2066
  8
0
 62
     0
 10
101.02760013172809
 20
209.76557772031569
 30
0.0
 11
101.02760013172809
 21
209.76557772031569
 31
0.0
  0
LINE
  5
2067
  8
0
 62
     0
 10
99.870804424651169
 20
210.50253786312419
 30
0.0
 11
99.870804424651169
 21
210.50253786312419
 31
0.0
  0
LINE
  5
2068
  8
0
 62
     0
 10
99.549472283796462
 20
210.70724901390429
 30
0.0
 11
99.549472283796462
 21
210.70724901390429
 31
0.0
  0
LINE
  5
2069
  8
0
 62
     0
 10
98.039211221779325
 20
211.66939142257101
 30
0.0
 11
98.039211221779325
 21
211.66939142257101
 31
0.0
  0
LINE
  5
206A
  8
0
 62
     0
 10
114.1973371751707
 20
202.8915946081386
 30
0.0
 11
114.1973371751707
 21
202.8915946081386
 31
0.0
  0
LINE
  5
206B
  8
0
 62
     0
 10
113.87600503431599
 20
203.0963057589187
 30
0.0
 11
113.87600503431599
 21
203.0963057589187
 31
0.0
  0
LINE
  5
206C
  8
0
 62
     0
 10
112.3657439722988
 20
204.0584481675854
 30
0.0
 11
112.3657439722988
 21
204.0584481675854
 31
0.0
  0
LINE
  5
206D
  8
0
 62
     0
 10
107.8992272144184
 20
206.9039331634294
 30
0.0
 11
107.8992272144184
 21
206.9039331634294
 31
0.0
  0
LINE
  5
206E
  8
0
 62
     0
 10
106.3889661524012
 20
207.86607557209609
 30
0.0
 11
106.3889661524012
 21
207.86607557209609
 31
0.0
  0
LINE
  5
206F
  8
0
 62
     0
 10
105.2321704453243
 20
208.60303571490451
 30
0.0
 11
105.2321704453243
 21
208.60303571490451
 31
0.0
  0
LINE
  5
2070
  8
0
 62
     0
 10
104.91083830446961
 20
208.80774686568469
 30
0.0
 11
104.91083830446961
 21
208.80774686568469
 31
0.0
  0
LINE
  5
2071
  8
0
 62
     0
 10
103.4005772424525
 20
209.76988927435141
 30
0.0
 11
103.4005772424525
 21
209.76988927435141
 31
0.0
  0
LINE
  5
2072
  8
0
 62
     0
 10
102.2437815353755
 20
210.5068494171598
 30
0.0
 11
102.2437815353755
 21
210.5068494171598
 31
0.0
  0
LINE
  5
2073
  8
0
 62
     0
 10
101.9224493945208
 20
210.71156056794001
 30
0.0
 11
101.9224493945208
 21
210.71156056794001
 31
0.0
  0
LINE
  5
2074
  8
0
 62
     0
 10
100.4121883325037
 20
211.67370297660671
 30
0.0
 11
100.4121883325037
 21
211.67370297660671
 31
0.0
  0
LINE
  5
2075
  8
0
 62
     0
 10
114.73872108302319
 20
204.06275972162109
 30
0.0
 11
114.73872108302319
 21
204.06275972162109
 31
0.0
  0
LINE
  5
2076
  8
0
 62
     0
 10
113.5819253759463
 20
204.79971986442959
 30
0.0
 11
113.5819253759463
 21
204.79971986442959
 31
0.0
  0
LINE
  5
2077
  8
0
 62
     0
 10
113.2605932350916
 20
205.00443101520969
 30
0.0
 11
113.2605932350916
 21
205.00443101520969
 31
0.0
  0
LINE
  5
2078
  8
0
 62
     0
 10
108.7619432631256
 20
207.8703871261317
 30
0.0
 11
108.7619432631256
 21
207.8703871261317
 31
0.0
  0
LINE
  5
2079
  8
0
 62
     0
 10
107.60514755604871
 20
208.6073472689402
 30
0.0
 11
107.60514755604871
 21
208.6073472689402
 31
0.0
  0
LINE
  5
207A
  8
0
 62
     0
 10
107.283815415194
 20
208.8120584197203
 30
0.0
 11
107.283815415194
 21
208.8120584197203
 31
0.0
  0
LINE
  5
207B
  8
0
 62
     0
 10
105.77355435317681
 20
209.77420082838699
 30
0.0
 11
105.77355435317681
 21
209.77420082838699
 31
0.0
  0
LINE
  5
207C
  8
0
 62
     0
 10
104.6167586460999
 20
210.51116097119549
 30
0.0
 11
104.6167586460999
 21
210.51116097119549
 31
0.0
  0
LINE
  5
207D
  8
0
 62
     0
 10
104.2954265052451
 20
210.71587212197559
 30
0.0
 11
104.2954265052451
 21
210.71587212197559
 31
0.0
  0
LINE
  5
207E
  8
0
 62
     0
 10
102.785165443228
 20
211.67801453064229
 30
0.0
 11
102.785165443228
 21
211.67801453064229
 31
0.0
  0
LINE
  5
207F
  8
0
 62
     0
 10
115.6335703458159
 20
205.00874256924541
 30
0.0
 11
115.6335703458159
 21
205.00874256924541
 31
0.0
  0
LINE
  5
2080
  8
0
 62
     0
 10
114.1233092837988
 20
205.97088497791199
 30
0.0
 11
114.1233092837988
 21
205.97088497791199
 31
0.0
  0
LINE
  5
2081
  8
0
 62
     0
 10
112.96651357672179
 20
206.70784512072049
 30
0.0
 11
112.96651357672179
 21
206.70784512072049
 31
0.0
  0
LINE
  5
2082
  8
0
 62
     0
 10
112.6451814358671
 20
206.9125562715007
 30
0.0
 11
112.6451814358671
 21
206.9125562715007
 31
0.0
  0
LINE
  5
2083
  8
0
 62
     0
 10
109.978124666773
 20
208.61165882297581
 30
0.0
 11
109.978124666773
 21
208.61165882297581
 31
0.0
  0
LINE
  5
2084
  8
0
 62
     0
 10
109.65679252591831
 20
208.816369973756
 30
0.0
 11
109.65679252591831
 21
208.816369973756
 31
0.0
  0
LINE
  5
2085
  8
0
 62
     0
 10
108.1465314639012
 20
209.7785123824226
 30
0.0
 11
108.1465314639012
 21
209.7785123824226
 31
0.0
  0
LINE
  5
2086
  8
0
 62
     0
 10
106.9897357568242
 20
210.5154725252311
 30
0.0
 11
106.9897357568242
 21
210.5154725252311
 31
0.0
  0
LINE
  5
2087
  8
0
 62
     0
 10
106.6684036159695
 20
210.72018367601129
 30
0.0
 11
106.6684036159695
 21
210.72018367601129
 31
0.0
  0
LINE
  5
2088
  8
0
 62
     0
 10
105.1581425539524
 20
211.6823260846779
 30
0.0
 11
105.1581425539524
 21
211.6823260846779
 31
0.0
  0
LINE
  5
2089
  8
0
 62
     0
 10
115.3394906874462
 20
206.71215667475619
 30
0.0
 11
115.3394906874462
 21
206.71215667475619
 31
0.0
  0
LINE
  5
208A
  8
0
 62
     0
 10
115.01815854659149
 20
206.91686782553629
 30
0.0
 11
115.01815854659149
 21
206.91686782553629
 31
0.0
  0
LINE
  5
208B
  8
0
 62
     0
 10
113.5078974845744
 20
207.87901023420301
 30
0.0
 11
113.5078974845744
 21
207.87901023420301
 31
0.0
  0
LINE
  5
208C
  8
0
 62
     0
 10
112.35110177749741
 20
208.61597037701151
 30
0.0
 11
112.35110177749741
 21
208.61597037701151
 31
0.0
  0
LINE
  5
208D
  8
0
 62
     0
 10
112.0297696366427
 20
208.82068152779161
 30
0.0
 11
112.0297696366427
 21
208.82068152779161
 31
0.0
  0
LINE
  5
208E
  8
0
 62
     0
 10
110.5195085746256
 20
209.7828239364583
 30
0.0
 11
110.5195085746256
 21
209.7828239364583
 31
0.0
  0
LINE
  5
208F
  8
0
 62
     0
 10
109.36271286754859
 20
210.5197840792668
 30
0.0
 11
109.36271286754859
 21
210.5197840792668
 31
0.0
  0
LINE
  5
2090
  8
0
 62
     0
 10
109.0413807266939
 20
210.7244952300469
 30
0.0
 11
109.0413807266939
 21
210.7244952300469
 31
0.0
  0
LINE
  5
2091
  8
0
 62
     0
 10
107.53111966467679
 20
211.68663763871359
 30
0.0
 11
107.53111966467679
 21
211.68663763871359
 31
0.0
  0
LINE
  5
2092
  8
0
 62
     0
 10
114.7240788882218
 20
208.62028193104709
 30
0.0
 11
114.7240788882218
 21
208.62028193104709
 31
0.0
  0
LINE
  5
2093
  8
0
 62
     0
 10
114.402746747367
 20
208.82499308182719
 30
0.0
 11
114.402746747367
 21
208.82499308182719
 31
0.0
  0
LINE
  5
2094
  8
0
 62
     0
 10
112.8924856853499
 20
209.78713549049391
 30
0.0
 11
112.8924856853499
 21
209.78713549049391
 31
0.0
  0
LINE
  5
2095
  8
0
 62
     0
 10
111.7356899782729
 20
210.52409563330241
 30
0.0
 11
111.7356899782729
 21
210.52409563330241
 31
0.0
  0
LINE
  5
2096
  8
0
 62
     0
 10
111.41435783741819
 20
210.72880678408251
 30
0.0
 11
111.41435783741819
 21
210.72880678408251
 31
0.0
  0
LINE
  5
2097
  8
0
 62
     0
 10
109.9040967754011
 20
211.6909491927492
 30
0.0
 11
109.9040967754011
 21
211.6909491927492
 31
0.0
  0
LINE
  5
2098
  8
0
 62
     0
 10
114.10866708899729
 20
210.5284071873381
 30
0.0
 11
114.10866708899729
 21
210.5284071873381
 31
0.0
  0
LINE
  5
2099
  8
0
 62
     0
 10
113.7873349481426
 20
210.7331183381182
 30
0.0
 11
113.7873349481426
 21
210.7331183381182
 31
0.0
  0
LINE
  5
209A
  8
0
 62
     0
 10
112.27707388612551
 20
211.6952607467849
 30
0.0
 11
112.27707388612551
 21
211.6952607467849
 31
0.0
  0
LINE
  5
209B
  8
0
 62
     0
 10
112.3033087131536
 20
200.9225115243454
 30
0.0
 11
112.3033087131536
 21
200.9225115243454
 31
0.0
  0
LINE
  5
209C
  8
0
 62
     0
 10
111.6838143059728
 20
200.84095353839859
 30
0.0
 11
111.6838143059728
 21
200.84095353839859
 31
0.0
  0
LINE
  5
209D
  8
0
 62
     0
 10
111.2871867891802
 20
200.788736535201
 30
0.0
 11
111.2871867891802
 21
200.788736535201
 31
0.0
  0
LINE
  5
209E
  8
0
 62
     0
 10
110.2521778405976
 20
200.65247502209479
 30
0.0
 11
110.2521778405976
 21
200.65247502209479
 31
0.0
  0
LINE
  5
209F
  8
0
 62
     0
 10
109.6326834334168
 20
200.57091703614799
 30
0.0
 11
109.6326834334168
 21
200.57091703614799
 31
0.0
  0
LINE
  5
20A0
  8
0
 62
     0
 10
109.2360559166242
 20
200.51870003295039
 30
0.0
 11
109.2360559166242
 21
200.51870003295039
 31
0.0
  0
LINE
  5
20A1
  8
0
 62
     0
 10
108.2010469680416
 20
200.38243851984419
 30
0.0
 11
108.2010469680416
 21
200.38243851984419
 31
0.0
  0
LINE
  5
20A2
  8
0
 62
     0
 10
107.5815525608608
 20
200.30088053389741
 30
0.0
 11
107.5815525608608
 21
200.30088053389741
 31
0.0
  0
LINE
  5
20A3
  8
0
 62
     0
 10
115.0835150279427
 20
203.2614653423542
 30
0.0
 11
115.0835150279427
 21
203.2614653423542
 31
0.0
  0
LINE
  5
20A4
  8
0
 62
     0
 10
114.6868875111501
 20
203.2092483391566
 30
0.0
 11
114.6868875111501
 21
203.2092483391566
 31
0.0
  0
LINE
  5
20A5
  8
0
 62
     0
 10
113.6518785625675
 20
203.0729868260504
 30
0.0
 11
113.6518785625675
 21
203.0729868260504
 31
0.0
  0
LINE
  5
20A6
  8
0
 62
     0
 10
113.03238415538669
 20
202.99142884010359
 30
0.0
 11
113.03238415538669
 21
202.99142884010359
 31
0.0
  0
LINE
  5
20A7
  8
0
 62
     0
 10
112.6357566385941
 20
202.939211836906
 30
0.0
 11
112.6357566385941
 21
202.939211836906
 31
0.0
  0
LINE
  5
20A8
  8
0
 62
     0
 10
111.6007476900115
 20
202.80295032379979
 30
0.0
 11
111.6007476900115
 21
202.80295032379979
 31
0.0
  0
LINE
  5
20A9
  8
0
 62
     0
 10
110.98125328283071
 20
202.72139233785299
 30
0.0
 11
110.98125328283071
 21
202.72139233785299
 31
0.0
  0
LINE
  5
20AA
  8
0
 62
     0
 10
110.5846257660381
 20
202.66917533465539
 30
0.0
 11
110.5846257660381
 21
202.66917533465539
 31
0.0
  0
LINE
  5
20AB
  8
0
 62
     0
 10
109.5496168174556
 20
202.53291382154919
 30
0.0
 11
109.5496168174556
 21
202.53291382154919
 31
0.0
  0
LINE
  5
20AC
  8
0
 62
     0
 10
108.93012241027471
 20
202.45135583560241
 30
0.0
 11
108.93012241027471
 21
202.45135583560241
 31
0.0
  0
LINE
  5
20AD
  8
0
 62
     0
 10
108.5334948934822
 20
202.39913883240479
 30
0.0
 11
108.5334948934822
 21
202.39913883240479
 31
0.0
  0
LINE
  5
20AE
  8
0
 62
     0
 10
107.4984859448996
 20
202.26287731929861
 30
0.0
 11
107.4984859448996
 21
202.26287731929861
 31
0.0
  0
LINE
  5
20AF
  8
0
 62
     0
 10
106.8789915377188
 20
202.18131933335181
 30
0.0
 11
106.8789915377188
 21
202.18131933335181
 31
0.0
  0
LINE
  5
20B0
  8
0
 62
     0
 10
106.4823640209262
 20
202.12910233015421
 30
0.0
 11
106.4823640209262
 21
202.12910233015421
 31
0.0
  0
LINE
  5
20B1
  8
0
 62
     0
 10
105.4473550723436
 20
201.99284081704801
 30
0.0
 11
105.4473550723436
 21
201.99284081704801
 31
0.0
  0
LINE
  5
20B2
  8
0
 62
     0
 10
104.8278606651628
 20
201.9112828311012
 30
0.0
 11
104.8278606651628
 21
201.9112828311012
 31
0.0
  0
LINE
  5
20B3
  8
0
 62
     0
 10
104.4312331483702
 20
201.85906582790361
 30
0.0
 11
104.4312331483702
 21
201.85906582790361
 31
0.0
  0
LINE
  5
20B4
  8
0
 62
     0
 10
103.3962241997876
 20
201.7228043147974
 30
0.0
 11
103.3962241997876
 21
201.7228043147974
 31
0.0
  0
LINE
  5
20B5
  8
0
 62
     0
 10
102.7767297926068
 20
201.6412463288506
 30
0.0
 11
102.7767297926068
 21
201.6412463288506
 31
0.0
  0
LINE
  5
20B6
  8
0
 62
     0
 10
102.3801022758142
 20
201.589029325653
 30
0.0
 11
102.3801022758142
 21
201.589029325653
 31
0.0
  0
LINE
  5
20B7
  8
0
 62
     0
 10
101.34509332723169
 20
201.45276781254671
 30
0.0
 11
101.34509332723169
 21
201.45276781254671
 31
0.0
  0
LINE
  5
20B8
  8
0
 62
     0
 10
100.7255989200509
 20
201.37120982659999
 30
0.0
 11
100.7255989200509
 21
201.37120982659999
 31
0.0
  0
LINE
  5
20B9
  8
0
 62
     0
 10
100.32897140325829
 20
201.31899282340231
 30
0.0
 11
100.32897140325829
 21
201.31899282340231
 31
0.0
  0
LINE
  5
20BA
  8
0
 62
     0
 10
99.293962454675722
 20
201.18273131029619
 30
0.0
 11
99.293962454675722
 21
201.18273131029619
 31
0.0
  0
LINE
  5
20BB
  8
0
 62
     0
 10
98.674468047494912
 20
201.10117332434939
 30
0.0
 11
98.674468047494912
 21
201.10117332434939
 31
0.0
  0
LINE
  5
20BC
  8
0
 62
     0
 10
98.277840530702321
 20
201.04895632115179
 30
0.0
 11
98.277840530702321
 21
201.04895632115179
 31
0.0
  0
LINE
  5
20BD
  8
0
 62
     0
 10
97.242831582119734
 20
200.91269480804559
 30
0.0
 11
97.242831582119734
 21
200.91269480804559
 31
0.0
  0
LINE
  5
20BE
  8
0
 62
     0
 10
96.623337174938925
 20
200.83113682209881
 30
0.0
 11
96.623337174938925
 21
200.83113682209881
 31
0.0
  0
LINE
  5
20BF
  8
0
 62
     0
 10
96.226709658146333
 20
200.77891981890119
 30
0.0
 11
96.226709658146333
 21
200.77891981890119
 31
0.0
  0
LINE
  5
20C0
  8
0
 62
     0
 10
95.191700709563776
 20
200.64265830579501
 30
0.0
 11
95.191700709563776
 21
200.64265830579501
 31
0.0
  0
LINE
  5
20C1
  8
0
 62
     0
 10
94.572206302382966
 20
200.56110031984821
 30
0.0
 11
94.572206302382966
 21
200.56110031984821
 31
0.0
  0
LINE
  5
20C2
  8
0
 62
     0
 10
94.175578785590375
 20
200.50888331665061
 30
0.0
 11
94.175578785590375
 21
200.50888331665061
 31
0.0
  0
LINE
  5
20C3
  8
0
 62
     0
 10
93.140569837007803
 20
200.37262180354429
 30
0.0
 11
93.140569837007803
 21
200.37262180354429
 31
0.0
  0
LINE
  5
20C4
  8
0
 62
     0
 10
115.00044841198159
 20
205.22346212775551
 30
0.0
 11
115.00044841198159
 21
205.22346212775551
 31
0.0
  0
LINE
  5
20C5
  8
0
 62
     0
 10
114.3809540048008
 20
205.14190414180871
 30
0.0
 11
114.3809540048008
 21
205.14190414180871
 31
0.0
  0
LINE
  5
20C6
  8
0
 62
     0
 10
113.98432648800819
 20
205.08968713861111
 30
0.0
 11
113.98432648800819
 21
205.08968713861111
 31
0.0
  0
LINE
  5
20C7
  8
0
 62
     0
 10
112.94931753942561
 20
204.95342562550491
 30
0.0
 11
112.94931753942561
 21
204.95342562550491
 31
0.0
  0
LINE
  5
20C8
  8
0
 62
     0
 10
112.3298231322448
 20
204.8718676395581
 30
0.0
 11
112.3298231322448
 21
204.8718676395581
 31
0.0
  0
LINE
  5
20C9
  8
0
 62
     0
 10
111.93319561545221
 20
204.81965063636051
 30
0.0
 11
111.93319561545221
 21
204.81965063636051
 31
0.0
  0
LINE
  5
20CA
  8
0
 62
     0
 10
108.8470557943136
 20
204.41335262100361
 30
0.0
 11
108.8470557943136
 21
204.41335262100361
 31
0.0
  0
LINE
  5
20CB
  8
0
 62
     0
 10
108.22756138713279
 20
204.33179463505689
 30
0.0
 11
108.22756138713279
 21
204.33179463505689
 31
0.0
  0
LINE
  5
20CC
  8
0
 62
     0
 10
107.8309338703402
 20
204.27957763185921
 30
0.0
 11
107.8309338703402
 21
204.27957763185921
 31
0.0
  0
LINE
  5
20CD
  8
0
 62
     0
 10
106.7959249217576
 20
204.14331611875301
 30
0.0
 11
106.7959249217576
 21
204.14331611875301
 31
0.0
  0
LINE
  5
20CE
  8
0
 62
     0
 10
106.17643051457679
 20
204.0617581328062
 30
0.0
 11
106.17643051457679
 21
204.0617581328062
 31
0.0
  0
LINE
  5
20CF
  8
0
 62
     0
 10
105.7798029977842
 20
204.00954112960861
 30
0.0
 11
105.7798029977842
 21
204.00954112960861
 31
0.0
  0
LINE
  5
20D0
  8
0
 62
     0
 10
104.7447940492016
 20
203.8732796165024
 30
0.0
 11
104.7447940492016
 21
203.8732796165024
 31
0.0
  0
LINE
  5
20D1
  8
0
 62
     0
 10
104.12529964202081
 20
203.7917216305556
 30
0.0
 11
104.12529964202081
 21
203.7917216305556
 31
0.0
  0
LINE
  5
20D2
  8
0
 62
     0
 10
103.7286721252282
 20
203.739504627358
 30
0.0
 11
103.7286721252282
 21
203.739504627358
 31
0.0
  0
LINE
  5
20D3
  8
0
 62
     0
 10
102.6936631766456
 20
203.6032431142518
 30
0.0
 11
102.6936631766456
 21
203.6032431142518
 31
0.0
  0
LINE
  5
20D4
  8
0
 62
     0
 10
102.0741687694648
 20
203.52168512830499
 30
0.0
 11
102.0741687694648
 21
203.52168512830499
 31
0.0
  0
LINE
  5
20D5
  8
0
 62
     0
 10
101.6775412526722
 20
203.4694681251074
 30
0.0
 11
101.6775412526722
 21
203.4694681251074
 31
0.0
  0
LINE
  5
20D6
  8
0
 62
     0
 10
100.6425323040897
 20
203.33320661200119
 30
0.0
 11
100.6425323040897
 21
203.33320661200119
 31
0.0
  0
LINE
  5
20D7
  8
0
 62
     0
 10
100.0230378969089
 20
203.25164862605439
 30
0.0
 11
100.0230378969089
 21
203.25164862605439
 31
0.0
  0
LINE
  5
20D8
  8
0
 62
     0
 10
99.626410380116297
 20
203.19943162285679
 30
0.0
 11
99.626410380116297
 21
203.19943162285679
 31
0.0
  0
LINE
  5
20D9
  8
0
 62
     0
 10
98.591401431533725
 20
203.06317010975059
 30
0.0
 11
98.591401431533725
 21
203.06317010975059
 31
0.0
  0
LINE
  5
20DA
  8
0
 62
     0
 10
97.971907024352916
 20
202.98161212380381
 30
0.0
 11
97.971907024352916
 21
202.98161212380381
 31
0.0
  0
LINE
  5
20DB
  8
0
 62
     0
 10
97.575279507560325
 20
202.92939512060619
 30
0.0
 11
97.575279507560325
 21
202.92939512060619
 31
0.0
  0
LINE
  5
20DC
  8
0
 62
     0
 10
96.540270558977767
 20
202.79313360750001
 30
0.0
 11
96.540270558977767
 21
202.79313360750001
 31
0.0
  0
LINE
  5
20DD
  8
0
 62
     0
 10
95.920776151796943
 20
202.71157562155321
 30
0.0
 11
95.920776151796943
 21
202.71157562155321
 31
0.0
  0
LINE
  5
20DE
  8
0
 62
     0
 10
95.524148635004366
 20
202.65935861835561
 30
0.0
 11
95.524148635004366
 21
202.65935861835561
 31
0.0
  0
LINE
  5
20DF
  8
0
 62
     0
 10
94.489139686421794
 20
202.52309710524941
 30
0.0
 11
94.489139686421794
 21
202.52309710524941
 31
0.0
  0
LINE
  5
20E0
  8
0
 62
     0
 10
93.869645279240984
 20
202.4415391193026
 30
0.0
 11
93.869645279240984
 21
202.4415391193026
 31
0.0
  0
LINE
  5
20E1
  8
0
 62
     0
 10
93.473017762448379
 20
202.38932211610501
 30
0.0
 11
93.473017762448379
 21
202.38932211610501
 31
0.0
  0
LINE
  5
20E2
  8
0
 62
     0
 10
92.438008813865807
 20
202.2530606029988
 30
0.0
 11
92.438008813865807
 21
202.2530606029988
 31
0.0
  0
LINE
  5
20E3
  8
0
 62
     0
 10
91.818514406684997
 20
202.171502617052
 30
0.0
 11
91.818514406684997
 21
202.171502617052
 31
0.0
  0
LINE
  5
20E4
  8
0
 62
     0
 10
91.421886889892406
 20
202.1192856138544
 30
0.0
 11
91.421886889892406
 21
202.1192856138544
 31
0.0
  0
LINE
  5
20E5
  8
0
 62
     0
 10
90.386877941309834
 20
201.9830241007482
 30
0.0
 11
90.386877941309834
 21
201.9830241007482
 31
0.0
  0
LINE
  5
20E6
  8
0
 62
     0
 10
89.767383534129024
 20
201.90146611480139
 30
0.0
 11
89.767383534129024
 21
201.90146611480139
 31
0.0
  0
LINE
  5
20E7
  8
0
 62
     0
 10
89.370756017336447
 20
201.8492491116038
 30
0.0
 11
89.370756017336447
 21
201.8492491116038
 31
0.0
  0
LINE
  5
20E8
  8
0
 62
     0
 10
88.335747068753875
 20
201.71298759849759
 30
0.0
 11
88.335747068753875
 21
201.71298759849759
 31
0.0
  0
LINE
  5
20E9
  8
0
 62
     0
 10
87.716252661573066
 20
201.63142961255079
 30
0.0
 11
87.716252661573066
 21
201.63142961255079
 31
0.0
  0
LINE
  5
20EA
  8
0
 62
     0
 10
87.319625144780474
 20
201.57921260935319
 30
0.0
 11
87.319625144780474
 21
201.57921260935319
 31
0.0
  0
LINE
  5
20EB
  8
0
 62
     0
 10
86.284616196197888
 20
201.4429510962469
 30
0.0
 11
86.284616196197888
 21
201.4429510962469
 31
0.0
  0
LINE
  5
20EC
  8
0
 62
     0
 10
85.665121789017078
 20
201.36139311030021
 30
0.0
 11
85.665121789017078
 21
201.36139311030021
 31
0.0
  0
LINE
  5
20ED
  8
0
 62
     0
 10
85.268494272224487
 20
201.3091761071025
 30
0.0
 11
85.268494272224487
 21
201.3091761071025
 31
0.0
  0
LINE
  5
20EE
  8
0
 62
     0
 10
107.5250003639908
 20
206.21223343451129
 30
0.0
 11
107.5250003639908
 21
206.21223343451129
 31
0.0
  0
LINE
  5
20EF
  8
0
 62
     0
 10
107.12837284719819
 20
206.16001643131369
 30
0.0
 11
107.12837284719819
 21
206.16001643131369
 31
0.0
  0
LINE
  5
20F0
  8
0
 62
     0
 10
106.09336389861571
 20
206.02375491820749
 30
0.0
 11
106.09336389861571
 21
206.02375491820749
 31
0.0
  0
LINE
  5
20F1
  8
0
 62
     0
 10
105.4738694914349
 20
205.94219693226071
 30
0.0
 11
105.4738694914349
 21
205.94219693226071
 31
0.0
  0
LINE
  5
20F2
  8
0
 62
     0
 10
105.07724197464231
 20
205.88997992906309
 30
0.0
 11
105.07724197464231
 21
205.88997992906309
 31
0.0
  0
LINE
  5
20F3
  8
0
 62
     0
 10
104.04223302605971
 20
205.75371841595691
 30
0.0
 11
104.04223302605971
 21
205.75371841595691
 31
0.0
  0
LINE
  5
20F4
  8
0
 62
     0
 10
103.4227386188789
 20
205.67216043001011
 30
0.0
 11
103.4227386188789
 21
205.67216043001011
 31
0.0
  0
LINE
  5
20F5
  8
0
 62
     0
 10
103.0261111020863
 20
205.61994342681251
 30
0.0
 11
103.0261111020863
 21
205.61994342681251
 31
0.0
  0
LINE
  5
20F6
  8
0
 62
     0
 10
101.9911021535037
 20
205.48368191370631
 30
0.0
 11
101.9911021535037
 21
205.48368191370631
 31
0.0
  0
LINE
  5
20F7
  8
0
 62
     0
 10
101.37160774632289
 20
205.4021239277595
 30
0.0
 11
101.37160774632289
 21
205.4021239277595
 31
0.0
  0
LINE
  5
20F8
  8
0
 62
     0
 10
100.9749802295303
 20
205.34990692456191
 30
0.0
 11
100.9749802295303
 21
205.34990692456191
 31
0.0
  0
LINE
  5
20F9
  8
0
 62
     0
 10
99.939971280947773
 20
205.2136454114557
 30
0.0
 11
99.939971280947773
 21
205.2136454114557
 31
0.0
  0
LINE
  5
20FA
  8
0
 62
     0
 10
99.320476873766964
 20
205.1320874255089
 30
0.0
 11
99.320476873766964
 21
205.1320874255089
 31
0.0
  0
LINE
  5
20FB
  8
0
 62
     0
 10
98.923849356974372
 20
205.0798704223113
 30
0.0
 11
98.923849356974372
 21
205.0798704223113
 31
0.0
  0
LINE
  5
20FC
  8
0
 62
     0
 10
97.8888404083918
 20
204.9436089092051
 30
0.0
 11
97.8888404083918
 21
204.9436089092051
 31
0.0
  0
LINE
  5
20FD
  8
0
 62
     0
 10
97.269346001210991
 20
204.86205092325829
 30
0.0
 11
97.269346001210991
 21
204.86205092325829
 31
0.0
  0
LINE
  5
20FE
  8
0
 62
     0
 10
96.872718484418399
 20
204.8098339200607
 30
0.0
 11
96.872718484418399
 21
204.8098339200607
 31
0.0
  0
LINE
  5
20FF
  8
0
 62
     0
 10
95.837709535835828
 20
204.67357240695449
 30
0.0
 11
95.837709535835828
 21
204.67357240695449
 31
0.0
  0
LINE
  5
2100
  8
0
 62
     0
 10
95.218215128655018
 20
204.59201442100769
 30
0.0
 11
95.218215128655018
 21
204.59201442100769
 31
0.0
  0
LINE
  5
2101
  8
0
 62
     0
 10
94.821587611862427
 20
204.53979741781009
 30
0.0
 11
94.821587611862427
 21
204.53979741781009
 31
0.0
  0
LINE
  5
2102
  8
0
 62
     0
 10
93.786578663279855
 20
204.40353590470389
 30
0.0
 11
93.786578663279855
 21
204.40353590470389
 31
0.0
  0
LINE
  5
2103
  8
0
 62
     0
 10
115.7295238542148
 20
207.29237944351371
 30
0.0
 11
115.7295238542148
 21
207.29237944351371
 31
0.0
  0
LINE
  5
2104
  8
0
 62
     0
 10
115.3328963374222
 20
207.24016244031611
 30
0.0
 11
115.3328963374222
 21
207.24016244031611
 31
0.0
  0
LINE
  5
2105
  8
0
 62
     0
 10
114.2978873888396
 20
207.10390092720991
 30
0.0
 11
114.2978873888396
 21
207.10390092720991
 31
0.0
  0
LINE
  5
2106
  8
0
 62
     0
 10
113.6783929816588
 20
207.02234294126319
 30
0.0
 11
113.6783929816588
 21
207.02234294126319
 31
0.0
  0
LINE
  5
2107
  8
0
 62
     0
 10
113.2817654648662
 20
206.97012593806551
 30
0.0
 11
113.2817654648662
 21
206.97012593806551
 31
0.0
  0
LINE
  5
2108
  8
0
 62
     0
 10
112.2467565162837
 20
206.8338644249593
 30
0.0
 11
112.2467565162837
 21
206.8338644249593
 31
0.0
  0
LINE
  5
2109
  8
0
 62
     0
 10
87.013691638431084
 20
203.51186841200521
 30
0.0
 11
87.013691638431084
 21
203.51186841200521
 31
0.0
  0
LINE
  5
210A
  8
0
 62
     0
 10
86.617064121638506
 20
203.45965140880759
 30
0.0
 11
86.617064121638506
 21
203.45965140880759
 31
0.0
  0
LINE
  5
210B
  8
0
 62
     0
 10
85.582055173055934
 20
203.32338989570141
 30
0.0
 11
85.582055173055934
 21
203.32338989570141
 31
0.0
  0
LINE
  5
210C
  8
0
 62
     0
 10
84.962560765875125
 20
203.24183190975461
 30
0.0
 11
84.962560765875125
 21
203.24183190975461
 31
0.0
  0
LINE
  5
210D
  8
0
 62
     0
 10
84.565933249082519
 20
203.18961490655701
 30
0.0
 11
84.565933249082519
 21
203.18961490655701
 31
0.0
  0
LINE
  5
210E
  8
0
 62
     0
 10
115.02696283107269
 20
209.17281824296819
 30
0.0
 11
115.02696283107269
 21
209.17281824296819
 31
0.0
  0
LINE
  5
210F
  8
0
 62
     0
 10
114.6303353142801
 20
209.12060123977059
 30
0.0
 11
114.6303353142801
 21
209.12060123977059
 31
0.0
  0
LINE
  5
2110
  8
0
 62
     0
 10
113.5953263656976
 20
208.98433972666439
 30
0.0
 11
113.5953263656976
 21
208.98433972666439
 31
0.0
  0
LINE
  5
2111
  8
0
 62
     0
 10
112.97583195851681
 20
208.90278174071759
 30
0.0
 11
112.97583195851681
 21
208.90278174071759
 31
0.0
  0
LINE
  5
2112
  8
0
 62
     0
 10
112.5792044417242
 20
208.85056473751999
 30
0.0
 11
112.5792044417242
 21
208.85056473751999
 31
0.0
  0
LINE
  5
2113
  8
0
 62
     0
 10
111.5441954931416
 20
208.71430322441381
 30
0.0
 11
111.5441954931416
 21
208.71430322441381
 31
0.0
  0
LINE
  5
2114
  8
0
 62
     0
 10
110.92470108596081
 20
208.63274523846701
 30
0.0
 11
110.92470108596081
 21
208.63274523846701
 31
0.0
  0
LINE
  5
2115
  8
0
 62
     0
 10
110.5280735691682
 20
208.58052823526941
 30
0.0
 11
110.5280735691682
 21
208.58052823526941
 31
0.0
  0
LINE
  5
2116
  8
0
 62
     0
 10
109.4930646205856
 20
208.44426672216309
 30
0.0
 11
109.4930646205856
 21
208.44426672216309
 31
0.0
  0
LINE
  5
2117
  8
0
 62
     0
 10
108.8735702134048
 20
208.3627087362164
 30
0.0
 11
108.8735702134048
 21
208.3627087362164
 31
0.0
  0
LINE
  5
2118
  8
0
 62
     0
 10
108.4769426966122
 20
208.31049173301869
 30
0.0
 11
108.4769426966122
 21
208.31049173301869
 31
0.0
  0
LINE
  5
2119
  8
0
 62
     0
 10
107.4419337480297
 20
208.17423021991249
 30
0.0
 11
107.4419337480297
 21
208.17423021991249
 31
0.0
  0
LINE
  5
211A
  8
0
 62
     0
 10
106.8224393408488
 20
208.0926722339658
 30
0.0
 11
106.8224393408488
 21
208.0926722339658
 31
0.0
  0
LINE
  5
211B
  8
0
 62
     0
 10
106.4258118240563
 20
208.04045523076809
 30
0.0
 11
106.4258118240563
 21
208.04045523076809
 31
0.0
  0
LINE
  5
211C
  8
0
 62
     0
 10
105.3908028754737
 20
207.904193717662
 30
0.0
 11
105.3908028754737
 21
207.904193717662
 31
0.0
  0
LINE
  5
211D
  8
0
 62
     0
 10
104.7713084682929
 20
207.8226357317152
 30
0.0
 11
104.7713084682929
 21
207.8226357317152
 31
0.0
  0
LINE
  5
211E
  8
0
 62
     0
 10
104.3746809515003
 20
207.7704187285176
 30
0.0
 11
104.3746809515003
 21
207.7704187285176
 31
0.0
  0
LINE
  5
211F
  8
0
 62
     0
 10
103.33967200291769
 20
207.63415721541131
 30
0.0
 11
103.33967200291769
 21
207.63415721541131
 31
0.0
  0
LINE
  5
2120
  8
0
 62
     0
 10
102.7201775957369
 20
207.55259922946459
 30
0.0
 11
102.7201775957369
 21
207.55259922946459
 31
0.0
  0
LINE
  5
2121
  8
0
 62
     0
 10
102.32355007894429
 20
207.50038222626691
 30
0.0
 11
102.32355007894429
 21
207.50038222626691
 31
0.0
  0
LINE
  5
2122
  8
0
 62
     0
 10
101.28854113036169
 20
207.3641207131607
 30
0.0
 11
101.28854113036169
 21
207.3641207131607
 31
0.0
  0
LINE
  5
2123
  8
0
 62
     0
 10
100.6690467231809
 20
207.2825627272139
 30
0.0
 11
100.6690467231809
 21
207.2825627272139
 31
0.0
  0
LINE
  5
2124
  8
0
 62
     0
 10
100.27241920638831
 20
207.2303457240163
 30
0.0
 11
100.27241920638831
 21
207.2303457240163
 31
0.0
  0
LINE
  5
2125
  8
0
 62
     0
 10
99.237410257805792
 20
207.0940842109101
 30
0.0
 11
99.237410257805792
 21
207.0940842109101
 31
0.0
  0
LINE
  5
2126
  8
0
 62
     0
 10
98.617915850624982
 20
207.01252622496341
 30
0.0
 11
98.617915850624982
 21
207.01252622496341
 31
0.0
  0
LINE
  5
2127
  8
0
 62
     0
 10
98.221288333832391
 20
206.9603092217657
 30
0.0
 11
98.221288333832391
 21
206.9603092217657
 31
0.0
  0
LINE
  5
2128
  8
0
 62
     0
 10
97.186279385249804
 20
206.82404770865949
 30
0.0
 11
97.186279385249804
 21
206.82404770865949
 31
0.0
  0
LINE
  5
2129
  8
0
 62
     0
 10
96.566784978068995
 20
206.7424897227128
 30
0.0
 11
96.566784978068995
 21
206.7424897227128
 31
0.0
  0
LINE
  5
212A
  8
0
 62
     0
 10
96.170157461276403
 20
206.69027271951509
 30
0.0
 11
96.170157461276403
 21
206.69027271951509
 31
0.0
  0
LINE
  5
212B
  8
0
 62
     0
 10
95.135148512693846
 20
206.55401120640889
 30
0.0
 11
95.135148512693846
 21
206.55401120640889
 31
0.0
  0
LINE
  5
212C
  8
0
 62
     0
 10
94.515654105513036
 20
206.47245322046211
 30
0.0
 11
94.515654105513036
 21
206.47245322046211
 31
0.0
  0
LINE
  5
212D
  8
0
 62
     0
 10
94.119026588720445
 20
206.42023621726449
 30
0.0
 11
94.119026588720445
 21
206.42023621726449
 31
0.0
  0
LINE
  5
212E
  8
0
 62
     0
 10
85.91450309849651
 20
205.34009020826201
 30
0.0
 11
85.91450309849651
 21
205.34009020826201
 31
0.0
  0
LINE
  5
212F
  8
0
 62
     0
 10
84.879494149913938
 20
205.20382869515581
 30
0.0
 11
84.879494149913938
 21
205.20382869515581
 31
0.0
  0
LINE
  5
2130
  8
0
 62
     0
 10
84.259999742733129
 20
205.12227070920909
 30
0.0
 11
84.259999742733129
 21
205.12227070920909
 31
0.0
  0
LINE
  5
2131
  8
0
 62
     0
 10
112.89276534255561
 20
210.86477852611881
 30
0.0
 11
112.89276534255561
 21
210.86477852611881
 31
0.0
  0
LINE
  5
2132
  8
0
 62
     0
 10
112.2732709353748
 20
210.78322054017201
 30
0.0
 11
112.2732709353748
 21
210.78322054017201
 31
0.0
  0
LINE
  5
2133
  8
0
 62
     0
 10
111.8766434185822
 20
210.73100353697441
 30
0.0
 11
111.8766434185822
 21
210.73100353697441
 31
0.0
  0
LINE
  5
2134
  8
0
 62
     0
 10
110.8416344699997
 20
210.59474202386821
 30
0.0
 11
110.8416344699997
 21
210.59474202386821
 31
0.0
  0
LINE
  5
2135
  8
0
 62
     0
 10
110.2221400628188
 20
210.51318403792141
 30
0.0
 11
110.2221400628188
 21
210.51318403792141
 31
0.0
  0
LINE
  5
2136
  8
0
 62
     0
 10
109.8255125460263
 20
210.46096703472381
 30
0.0
 11
109.8255125460263
 21
210.46096703472381
 31
0.0
  0
LINE
  5
2137
  8
0
 62
     0
 10
108.7905035974437
 20
210.3247055216176
 30
0.0
 11
108.7905035974437
 21
210.3247055216176
 31
0.0
  0
LINE
  5
2138
  8
0
 62
     0
 10
108.17100919026289
 20
210.2431475356708
 30
0.0
 11
108.17100919026289
 21
210.2431475356708
 31
0.0
  0
LINE
  5
2139
  8
0
 62
     0
 10
107.7743816734703
 20
210.1909305324732
 30
0.0
 11
107.7743816734703
 21
210.1909305324732
 31
0.0
  0
LINE
  5
213A
  8
0
 62
     0
 10
106.7393727248877
 20
210.054669019367
 30
0.0
 11
106.7393727248877
 21
210.054669019367
 31
0.0
  0
LINE
  5
213B
  8
0
 62
     0
 10
106.11987831770691
 20
209.9731110334202
 30
0.0
 11
106.11987831770691
 21
209.9731110334202
 31
0.0
  0
LINE
  5
213C
  8
0
 62
     0
 10
105.7232508009143
 20
209.9208940302226
 30
0.0
 11
105.7232508009143
 21
209.9208940302226
 31
0.0
  0
LINE
  5
213D
  8
0
 62
     0
 10
104.6882418523317
 20
209.78463251711639
 30
0.0
 11
104.6882418523317
 21
209.78463251711639
 31
0.0
  0
LINE
  5
213E
  8
0
 62
     0
 10
104.0687474451509
 20
209.70307453116959
 30
0.0
 11
104.0687474451509
 21
209.70307453116959
 31
0.0
  0
LINE
  5
213F
  8
0
 62
     0
 10
103.6721199283583
 20
209.65085752797199
 30
0.0
 11
103.6721199283583
 21
209.65085752797199
 31
0.0
  0
LINE
  5
2140
  8
0
 62
     0
 10
102.6371109797758
 20
209.51459601486579
 30
0.0
 11
102.6371109797758
 21
209.51459601486579
 31
0.0
  0
LINE
  5
2141
  8
0
 62
     0
 10
102.017616572595
 20
209.43303802891899
 30
0.0
 11
102.017616572595
 21
209.43303802891899
 31
0.0
  0
LINE
  5
2142
  8
0
 62
     0
 10
101.6209890558024
 20
209.38082102572139
 30
0.0
 11
101.6209890558024
 21
209.38082102572139
 31
0.0
  0
LINE
  5
2143
  8
0
 62
     0
 10
100.5859801072198
 20
209.24455951261521
 30
0.0
 11
100.5859801072198
 21
209.24455951261521
 31
0.0
  0
LINE
  5
2144
  8
0
 62
     0
 10
99.966485700039016
 20
209.16300152666841
 30
0.0
 11
99.966485700039016
 21
209.16300152666841
 31
0.0
  0
LINE
  5
2145
  8
0
 62
     0
 10
99.569858183246424
 20
209.11078452347081
 30
0.0
 11
99.569858183246424
 21
209.11078452347081
 31
0.0
  0
LINE
  5
2146
  8
0
 62
     0
 10
98.534849234663852
 20
208.97452301036461
 30
0.0
 11
98.534849234663852
 21
208.97452301036461
 31
0.0
  0
LINE
  5
2147
  8
0
 62
     0
 10
97.915354827483043
 20
208.8929650244178
 30
0.0
 11
97.915354827483043
 21
208.8929650244178
 31
0.0
  0
LINE
  5
2148
  8
0
 62
     0
 10
97.518727310690451
 20
208.84074802122021
 30
0.0
 11
97.518727310690451
 21
208.84074802122021
 31
0.0
  0
LINE
  5
2149
  8
0
 62
     0
 10
96.483718362107879
 20
208.704486508114
 30
0.0
 11
96.483718362107879
 21
208.704486508114
 31
0.0
  0
LINE
  5
214A
  8
0
 62
     0
 10
95.86422395492707
 20
208.6229285221672
 30
0.0
 11
95.86422395492707
 21
208.6229285221672
 31
0.0
  0
LINE
  5
214B
  8
0
 62
     0
 10
95.467596438134478
 20
208.5707115189696
 30
0.0
 11
95.467596438134478
 21
208.5707115189696
 31
0.0
  0
LINE
  5
214C
  8
0
 62
     0
 10
94.432587489551906
 20
208.4344500058634
 30
0.0
 11
94.432587489551906
 21
208.4344500058634
 31
0.0
  0
LINE
  5
214D
  8
0
 62
     0
 10
93.813093082371097
 20
208.3528920199166
 30
0.0
 11
93.813093082371097
 21
208.3528920199166
 31
0.0
  0
LINE
  5
214E
  8
0
 62
     0
 10
86.228063999327958
 20
207.35430399686101
 30
0.0
 11
86.228063999327958
 21
207.35430399686101
 31
0.0
  0
LINE
  5
214F
  8
0
 62
     0
 10
85.608569592147148
 20
207.2727460109142
 30
0.0
 11
85.608569592147148
 21
207.2727460109142
 31
0.0
  0
LINE
  5
2150
  8
0
 62
     0
 10
85.211942075354557
 20
207.22052900771661
 30
0.0
 11
85.211942075354557
 21
207.22052900771661
 31
0.0
  0
LINE
  5
2151
  8
0
 62
     0
 10
84.176933126771985
 20
207.08426749461029
 30
0.0
 11
84.176933126771985
 21
207.08426749461029
 31
0.0
  0
LINE
  5
2152
  8
0
 62
     0
 10
108.08794257430171
 20
212.205144321072
 30
0.0
 11
108.08794257430171
 21
212.205144321072
 31
0.0
  0
LINE
  5
2153
  8
0
 62
     0
 10
107.4684481671209
 20
212.12358633512531
 30
0.0
 11
107.4684481671209
 21
212.12358633512531
 31
0.0
  0
LINE
  5
2154
  8
0
 62
     0
 10
107.07182065032831
 20
212.0713693319276
 30
0.0
 11
107.07182065032831
 21
212.0713693319276
 31
0.0
  0
LINE
  5
2155
  8
0
 62
     0
 10
106.03681170174571
 20
211.93510781882139
 30
0.0
 11
106.03681170174571
 21
211.93510781882139
 31
0.0
  0
LINE
  5
2156
  8
0
 62
     0
 10
105.4173172945649
 20
211.85354983287471
 30
0.0
 11
105.4173172945649
 21
211.85354983287471
 31
0.0
  0
LINE
  5
2157
  8
0
 62
     0
 10
105.0206897777723
 20
211.80133282967711
 30
0.0
 11
105.0206897777723
 21
211.80133282967711
 31
0.0
  0
LINE
  5
2158
  8
0
 62
     0
 10
103.9856808291897
 20
211.6650713165709
 30
0.0
 11
103.9856808291897
 21
211.6650713165709
 31
0.0
  0
LINE
  5
2159
  8
0
 62
     0
 10
103.36618642200889
 20
211.5835133306241
 30
0.0
 11
103.36618642200889
 21
211.5835133306241
 31
0.0
  0
LINE
  5
215A
  8
0
 62
     0
 10
102.9695589052163
 20
211.5312963274265
 30
0.0
 11
102.9695589052163
 21
211.5312963274265
 31
0.0
  0
LINE
  5
215B
  8
0
 62
     0
 10
101.9345499566338
 20
211.39503481432021
 30
0.0
 11
101.9345499566338
 21
211.39503481432021
 31
0.0
  0
LINE
  5
215C
  8
0
 62
     0
 10
101.31505554945289
 20
211.3134768283735
 30
0.0
 11
101.31505554945289
 21
211.3134768283735
 31
0.0
  0
LINE
  5
215D
  8
0
 62
     0
 10
100.9184280326604
 20
211.26125982517581
 30
0.0
 11
100.9184280326604
 21
211.26125982517581
 31
0.0
  0
LINE
  5
215E
  8
0
 62
     0
 10
99.883419084077815
 20
211.12499831206961
 30
0.0
 11
99.883419084077815
 21
211.12499831206961
 31
0.0
  0
LINE
  5
215F
  8
0
 62
     0
 10
99.263924676897005
 20
211.04344032612281
 30
0.0
 11
99.263924676897005
 21
211.04344032612281
 31
0.0
  0
LINE
  5
2160
  8
0
 62
     0
 10
98.867297160104414
 20
210.99122332292521
 30
0.0
 11
98.867297160104414
 21
210.99122332292521
 31
0.0
  0
LINE
  5
2161
  8
0
 62
     0
 10
97.832288211521856
 20
210.854961809819
 30
0.0
 11
97.832288211521856
 21
210.854961809819
 31
0.0
  0
LINE
  5
2162
  8
0
 62
     0
 10
97.212793804341047
 20
210.77340382387229
 30
0.0
 11
97.212793804341047
 21
210.77340382387229
 31
0.0
  0
LINE
  5
2163
  8
0
 62
     0
 10
96.816166287548455
 20
210.7211868206746
 30
0.0
 11
96.816166287548455
 21
210.7211868206746
 31
0.0
  0
LINE
  5
2164
  8
0
 62
     0
 10
95.781157338965855
 20
210.5849253075684
 30
0.0
 11
95.781157338965855
 21
210.5849253075684
 31
0.0
  0
LINE
  5
2165
  8
0
 62
     0
 10
95.161662931785045
 20
210.50336732162171
 30
0.0
 11
95.161662931785045
 21
210.50336732162171
 31
0.0
  0
LINE
  5
2166
  8
0
 62
     0
 10
94.765035414992454
 20
210.451150318424
 30
0.0
 11
94.765035414992454
 21
210.451150318424
 31
0.0
  0
LINE
  5
2167
  8
0
 62
     0
 10
93.730026466409896
 20
210.31488880531779
 30
0.0
 11
93.730026466409896
 21
210.31488880531779
 31
0.0
  0
LINE
  5
2168
  8
0
 62
     0
 10
93.110532059229087
 20
210.23333081937099
 30
0.0
 11
93.110532059229087
 21
210.23333081937099
 31
0.0
  0
LINE
  5
2169
  8
0
 62
     0
 10
92.713904542436495
 20
210.18111381617339
 30
0.0
 11
92.713904542436495
 21
210.18111381617339
 31
0.0
  0
LINE
  5
216A
  8
0
 62
     0
 10
91.678895593853909
 20
210.04485230306719
 30
0.0
 11
91.678895593853909
 21
210.04485230306719
 31
0.0
  0
LINE
  5
216B
  8
0
 62
     0
 10
87.576633848741963
 20
209.50477929856601
 30
0.0
 11
87.576633848741963
 21
209.50477929856601
 31
0.0
  0
LINE
  5
216C
  8
0
 62
     0
 10
86.957139441561154
 20
209.42322131261921
 30
0.0
 11
86.957139441561154
 21
209.42322131261921
 31
0.0
  0
LINE
  5
216D
  8
0
 62
     0
 10
86.560511924768576
 20
209.37100430942161
 30
0.0
 11
86.560511924768576
 21
209.37100430942161
 31
0.0
  0
LINE
  5
216E
  8
0
 62
     0
 10
85.525502976186004
 20
209.2347427963154
 30
0.0
 11
85.525502976186004
 21
209.2347427963154
 31
0.0
  0
LINE
  5
216F
  8
0
 62
     0
 10
84.906008569005195
 20
209.1531848103686
 30
0.0
 11
84.906008569005195
 21
209.1531848103686
 31
0.0
  0
LINE
  5
2170
  8
0
 62
     0
 10
84.509381052212589
 20
209.100967807171
 30
0.0
 11
84.509381052212589
 21
209.100967807171
 31
0.0
  0
LINE
  5
2171
  8
0
 62
     0
 10
93.027465443267886
 20
212.1953276047723
 30
0.0
 11
93.027465443267886
 21
212.1953276047723
 31
0.0
  0
LINE
  5
2172
  8
0
 62
     0
 10
92.407971036087076
 20
212.1137696188255
 30
0.0
 11
92.407971036087076
 21
212.1137696188255
 31
0.0
  0
LINE
  5
2173
  8
0
 62
     0
 10
92.011343519294485
 20
212.0615526156279
 30
0.0
 11
92.011343519294485
 21
212.0615526156279
 31
0.0
  0
LINE
  5
2174
  8
0
 62
     0
 10
90.976334570711913
 20
211.92529110252161
 30
0.0
 11
90.976334570711913
 21
211.92529110252161
 31
0.0
  0
LINE
  5
2175
  8
0
 62
     0
 10
90.356840163531103
 20
211.8437331165749
 30
0.0
 11
90.356840163531103
 21
211.8437331165749
 31
0.0
  0
LINE
  5
2176
  8
0
 62
     0
 10
89.960212646738512
 20
211.79151611337721
 30
0.0
 11
89.960212646738512
 21
211.79151611337721
 31
0.0
  0
LINE
  5
2177
  8
0
 62
     0
 10
88.92520369815594
 20
211.65525460027109
 30
0.0
 11
88.92520369815594
 21
211.65525460027109
 31
0.0
  0
LINE
  5
2178
  8
0
 62
     0
 10
88.30570929097513
 20
211.57369661432429
 30
0.0
 11
88.30570929097513
 21
211.57369661432429
 31
0.0
  0
LINE
  5
2179
  8
0
 62
     0
 10
87.909081774182539
 20
211.52147961112669
 30
0.0
 11
87.909081774182539
 21
211.52147961112669
 31
0.0
  0
LINE
  5
217A
  8
0
 62
     0
 10
86.874072825599967
 20
211.38521809802049
 30
0.0
 11
86.874072825599967
 21
211.38521809802049
 31
0.0
  0
LINE
  5
217B
  8
0
 62
     0
 10
86.254578418419158
 20
211.30366011207369
 30
0.0
 11
86.254578418419158
 21
211.30366011207369
 31
0.0
  0
LINE
  5
217C
  8
0
 62
     0
 10
85.857950901626566
 20
211.25144310887609
 30
0.0
 11
85.857950901626566
 21
211.25144310887609
 31
0.0
  0
LINE
  5
217D
  8
0
 62
     0
 10
84.822941953043994
 20
211.11518159576991
 30
0.0
 11
84.822941953043994
 21
211.11518159576991
 31
0.0
  0
LINE
  5
217E
  8
0
 62
     0
 10
115.10569196604069
 20
203.40613111170691
 30
0.0
 11
115.10569196604069
 21
203.40613111170691
 31
0.0
  0
LINE
  5
217F
  8
0
 62
     0
 10
114.12332219242511
 20
202.65233227223681
 30
0.0
 11
114.12332219242511
 21
202.65233227223681
 31
0.0
  0
LINE
  5
2180
  8
0
 62
     0
 10
113.0956122754118
 20
201.863742717099
 30
0.0
 11
113.0956122754118
 21
201.863742717099
 31
0.0
  0
LINE
  5
2181
  8
0
 62
     0
 10
112.1767187025529
 20
201.15865087956391
 30
0.0
 11
112.1767187025529
 21
201.15865087956391
 31
0.0
  0
LINE
  5
2182
  8
0
 62
     0
 10
111.1943489289373
 20
200.4048520400938
 30
0.0
 11
111.1943489289373
 21
200.4048520400938
 31
0.0
  0
LINE
  5
2183
  8
0
 62
     0
 10
115.9765846000201
 20
205.57946266123
 30
0.0
 11
115.9765846000201
 21
205.57946266123
 31
0.0
  0
LINE
  5
2184
  8
0
 62
     0
 10
115.0576910271612
 20
204.8743708236949
 30
0.0
 11
115.0576910271612
 21
204.8743708236949
 31
0.0
  0
LINE
  5
2185
  8
0
 62
     0
 10
114.0753212535456
 20
204.12057198422491
 30
0.0
 11
114.0753212535456
 21
204.12057198422491
 31
0.0
  0
LINE
  5
2186
  8
0
 62
     0
 10
113.0476113365323
 20
203.33198242908699
 30
0.0
 11
113.0476113365323
 21
203.33198242908699
 31
0.0
  0
LINE
  5
2187
  8
0
 62
     0
 10
112.12871776367339
 20
202.6268905915519
 30
0.0
 11
112.12871776367339
 21
202.6268905915519
 31
0.0
  0
LINE
  5
2188
  8
0
 62
     0
 10
111.14634799005781
 20
201.8730917520819
 30
0.0
 11
111.14634799005781
 21
201.8730917520819
 31
0.0
  0
LINE
  5
2189
  8
0
 62
     0
 10
110.11863807304449
 20
201.08450219694399
 30
0.0
 11
110.11863807304449
 21
201.08450219694399
 31
0.0
  0
LINE
  5
218A
  8
0
 62
     0
 10
109.1997445001856
 20
200.37941035940889
 30
0.0
 11
109.1997445001856
 21
200.37941035940889
 31
0.0
  0
LINE
  5
218B
  8
0
 62
     0
 10
115.92858366114061
 20
207.0477023732181
 30
0.0
 11
115.92858366114061
 21
207.0477023732181
 31
0.0
  0
LINE
  5
218C
  8
0
 62
     0
 10
115.0096900882817
 20
206.34261053568301
 30
0.0
 11
115.0096900882817
 21
206.34261053568301
 31
0.0
  0
LINE
  5
218D
  8
0
 62
     0
 10
114.0273203146661
 20
205.5888116962129
 30
0.0
 11
114.0273203146661
 21
205.5888116962129
 31
0.0
  0
LINE
  5
218E
  8
0
 62
     0
 10
112.9996103976528
 20
204.80022214107501
 30
0.0
 11
112.9996103976528
 21
204.80022214107501
 31
0.0
  0
LINE
  5
218F
  8
0
 62
     0
 10
112.0807168247939
 20
204.09513030354
 30
0.0
 11
112.0807168247939
 21
204.09513030354
 31
0.0
  0
LINE
  5
2190
  8
0
 62
     0
 10
111.09834705117829
 20
203.3413314640699
 30
0.0
 11
111.09834705117829
 21
203.3413314640699
 31
0.0
  0
LINE
  5
2191
  8
0
 62
     0
 10
110.070637134165
 20
202.55274190893201
 30
0.0
 11
110.070637134165
 21
202.55274190893201
 31
0.0
  0
LINE
  5
2192
  8
0
 62
     0
 10
109.15174356130611
 20
201.847650071397
 30
0.0
 11
109.15174356130611
 21
201.847650071397
 31
0.0
  0
LINE
  5
2193
  8
0
 62
     0
 10
108.1693737876904
 20
201.09385123192689
 30
0.0
 11
108.1693737876904
 21
201.09385123192689
 31
0.0
  0
LINE
  5
2194
  8
0
 62
     0
 10
107.14166387067721
 20
200.305261676789
 30
0.0
 11
107.14166387067721
 21
200.305261676789
 31
0.0
  0
LINE
  5
2195
  8
0
 62
     0
 10
114.9616891494021
 20
207.810850247671
 30
0.0
 11
114.9616891494021
 21
207.810850247671
 31
0.0
  0
LINE
  5
2196
  8
0
 62
     0
 10
113.9793193757865
 20
207.05705140820089
 30
0.0
 11
113.9793193757865
 21
207.05705140820089
 31
0.0
  0
LINE
  5
2197
  8
0
 62
     0
 10
112.95160945877321
 20
206.26846185306309
 30
0.0
 11
112.95160945877321
 21
206.26846185306309
 31
0.0
  0
LINE
  5
2198
  8
0
 62
     0
 10
112.0327158859143
 20
205.56337001552799
 30
0.0
 11
112.0327158859143
 21
205.56337001552799
 31
0.0
  0
LINE
  5
2199
  8
0
 62
     0
 10
110.0226361952855
 20
204.02098162092011
 30
0.0
 11
110.0226361952855
 21
204.02098162092011
 31
0.0
  0
LINE
  5
219A
  8
0
 62
     0
 10
109.10374262242649
 20
203.31588978338499
 30
0.0
 11
109.10374262242649
 21
203.31588978338499
 31
0.0
  0
LINE
  5
219B
  8
0
 62
     0
 10
108.12137284881091
 20
202.56209094391491
 30
0.0
 11
108.12137284881091
 21
202.56209094391491
 31
0.0
  0
LINE
  5
219C
  8
0
 62
     0
 10
107.0936629317976
 20
201.77350138877699
 30
0.0
 11
107.0936629317976
 21
201.77350138877699
 31
0.0
  0
LINE
  5
219D
  8
0
 62
     0
 10
106.1747693589387
 20
201.06840955124201
 30
0.0
 11
106.1747693589387
 21
201.06840955124201
 31
0.0
  0
LINE
  5
219E
  8
0
 62
     0
 10
105.1923995853231
 20
200.31461071177191
 30
0.0
 11
105.1923995853231
 21
200.31461071177191
 31
0.0
  0
LINE
  5
219F
  8
0
 62
     0
 10
114.91368821052259
 20
209.27908995965899
 30
0.0
 11
114.91368821052259
 21
209.27908995965899
 31
0.0
  0
LINE
  5
21A0
  8
0
 62
     0
 10
113.93131843690701
 20
208.525291120189
 30
0.0
 11
113.93131843690701
 21
208.525291120189
 31
0.0
  0
LINE
  5
21A1
  8
0
 62
     0
 10
112.90360851989369
 20
207.73670156505111
 30
0.0
 11
112.90360851989369
 21
207.73670156505111
 31
0.0
  0
LINE
  5
21A2
  8
0
 62
     0
 10
111.9847149470348
 20
207.03160972751601
 30
0.0
 11
111.9847149470348
 21
207.03160972751601
 31
0.0
  0
LINE
  5
21A3
  8
0
 62
     0
 10
108.0733719099314
 20
204.0303306559029
 30
0.0
 11
108.0733719099314
 21
204.0303306559029
 31
0.0
  0
LINE
  5
21A4
  8
0
 62
     0
 10
107.0456619929181
 20
203.2417411007651
 30
0.0
 11
107.0456619929181
 21
203.2417411007651
 31
0.0
  0
LINE
  5
21A5
  8
0
 62
     0
 10
106.12676842005919
 20
202.53664926323
 30
0.0
 11
106.12676842005919
 21
202.53664926323
 31
0.0
  0
LINE
  5
21A6
  8
0
 62
     0
 10
105.14439864644361
 20
201.7828504237599
 30
0.0
 11
105.14439864644361
 21
201.7828504237599
 31
0.0
  0
LINE
  5
21A7
  8
0
 62
     0
 10
104.11668872943029
 20
200.99426086862209
 30
0.0
 11
104.11668872943029
 21
200.99426086862209
 31
0.0
  0
LINE
  5
21A8
  8
0
 62
     0
 10
113.88331749802749
 20
209.99353083217699
 30
0.0
 11
113.88331749802749
 21
209.99353083217699
 31
0.0
  0
LINE
  5
21A9
  8
0
 62
     0
 10
112.8556075810142
 20
209.2049412770391
 30
0.0
 11
112.8556075810142
 21
209.2049412770391
 31
0.0
  0
LINE
  5
21AA
  8
0
 62
     0
 10
111.93671400815531
 20
208.499849439504
 30
0.0
 11
111.93671400815531
 21
208.499849439504
 31
0.0
  0
LINE
  5
21AB
  8
0
 62
     0
 10
108.0253709710519
 20
205.49857036789101
 30
0.0
 11
108.0253709710519
 21
205.49857036789101
 31
0.0
  0
LINE
  5
21AC
  8
0
 62
     0
 10
106.9976610540386
 20
204.70998081275309
 30
0.0
 11
106.9976610540386
 21
204.70998081275309
 31
0.0
  0
LINE
  5
21AD
  8
0
 62
     0
 10
106.0787674811797
 20
204.00488897521799
 30
0.0
 11
106.0787674811797
 21
204.00488897521799
 31
0.0
  0
LINE
  5
21AE
  8
0
 62
     0
 10
105.09639770756409
 20
203.251090135748
 30
0.0
 11
105.09639770756409
 21
203.251090135748
 31
0.0
  0
LINE
  5
21AF
  8
0
 62
     0
 10
104.0686877905508
 20
202.46250058061011
 30
0.0
 11
104.0686877905508
 21
202.46250058061011
 31
0.0
  0
LINE
  5
21B0
  8
0
 62
     0
 10
103.14979421769191
 20
201.75740874307499
 30
0.0
 11
103.14979421769191
 21
201.75740874307499
 31
0.0
  0
LINE
  5
21B1
  8
0
 62
     0
 10
102.1674244440763
 20
201.00360990360491
 30
0.0
 11
102.1674244440763
 21
201.00360990360491
 31
0.0
  0
LINE
  5
21B2
  8
0
 62
     0
 10
112.8076066421347
 20
210.6731809890272
 30
0.0
 11
112.8076066421347
 21
210.6731809890272
 31
0.0
  0
LINE
  5
21B3
  8
0
 62
     0
 10
111.88871306927579
 20
209.96808915149211
 30
0.0
 11
111.88871306927579
 21
209.96808915149211
 31
0.0
  0
LINE
  5
21B4
  8
0
 62
     0
 10
110.90634329566021
 20
209.214290312022
 30
0.0
 11
110.90634329566021
 21
209.214290312022
 31
0.0
  0
LINE
  5
21B5
  8
0
 62
     0
 10
109.8786333786469
 20
208.4257007568842
 30
0.0
 11
109.8786333786469
 21
208.4257007568842
 31
0.0
  0
LINE
  5
21B6
  8
0
 62
     0
 10
107.9773700321724
 20
206.966810079879
 30
0.0
 11
107.9773700321724
 21
206.966810079879
 31
0.0
  0
LINE
  5
21B7
  8
0
 62
     0
 10
106.94966011515911
 20
206.17822052474111
 30
0.0
 11
106.94966011515911
 21
206.17822052474111
 31
0.0
  0
LINE
  5
21B8
  8
0
 62
     0
 10
106.0307665423002
 20
205.4731286872061
 30
0.0
 11
106.0307665423002
 21
205.4731286872061
 31
0.0
  0
LINE
  5
21B9
  8
0
 62
     0
 10
105.0483967686846
 20
204.71932984773599
 30
0.0
 11
105.0483967686846
 21
204.71932984773599
 31
0.0
  0
LINE
  5
21BA
  8
0
 62
     0
 10
104.0206868516713
 20
203.9307402925981
 30
0.0
 11
104.0206868516713
 21
203.9307402925981
 31
0.0
  0
LINE
  5
21BB
  8
0
 62
     0
 10
103.10179327881239
 20
203.22564845506309
 30
0.0
 11
103.10179327881239
 21
203.22564845506309
 31
0.0
  0
LINE
  5
21BC
  8
0
 62
     0
 10
102.11942350519681
 20
202.47184961559299
 30
0.0
 11
102.11942350519681
 21
202.47184961559299
 31
0.0
  0
LINE
  5
21BD
  8
0
 62
     0
 10
101.0917135881835
 20
201.6832600604551
 30
0.0
 11
101.0917135881835
 21
201.6832600604551
 31
0.0
  0
LINE
  5
21BE
  8
0
 62
     0
 10
100.1728200153246
 20
200.97816822292
 30
0.0
 11
100.1728200153246
 21
200.97816822292
 31
0.0
  0
LINE
  5
21BF
  8
0
 62
     0
 10
111.8407121303962
 20
211.4363288634801
 30
0.0
 11
111.8407121303962
 21
211.4363288634801
 31
0.0
  0
LINE
  5
21C0
  8
0
 62
     0
 10
110.8583423567806
 20
210.68253002400999
 30
0.0
 11
110.8583423567806
 21
210.68253002400999
 31
0.0
  0
LINE
  5
21C1
  8
0
 62
     0
 10
109.8306324397674
 20
209.89394046887219
 30
0.0
 11
109.8306324397674
 21
209.89394046887219
 31
0.0
  0
LINE
  5
21C2
  8
0
 62
     0
 10
108.91173886690839
 20
209.18884863133709
 30
0.0
 11
108.91173886690839
 21
209.18884863133709
 31
0.0
  0
LINE
  5
21C3
  8
0
 62
     0
 10
107.92936909329281
 20
208.43504979186699
 30
0.0
 11
107.92936909329281
 21
208.43504979186699
 31
0.0
  0
LINE
  5
21C4
  8
0
 62
     0
 10
106.90165917627949
 20
207.64646023672921
 30
0.0
 11
106.90165917627949
 21
207.64646023672921
 31
0.0
  0
LINE
  5
21C5
  8
0
 62
     0
 10
105.9827656034206
 20
206.94136839919409
 30
0.0
 11
105.9827656034206
 21
206.94136839919409
 31
0.0
  0
LINE
  5
21C6
  8
0
 62
     0
 10
105.000395829805
 20
206.18756955972401
 30
0.0
 11
105.000395829805
 21
206.18756955972401
 31
0.0
  0
LINE
  5
21C7
  8
0
 62
     0
 10
103.9726859127917
 20
205.39898000458621
 30
0.0
 11
103.9726859127917
 21
205.39898000458621
 31
0.0
  0
LINE
  5
21C8
  8
0
 62
     0
 10
103.0537923399328
 20
204.69388816705111
 30
0.0
 11
103.0537923399328
 21
204.69388816705111
 31
0.0
  0
LINE
  5
21C9
  8
0
 62
     0
 10
102.0714225663172
 20
203.94008932758101
 30
0.0
 11
102.0714225663172
 21
203.94008932758101
 31
0.0
  0
LINE
  5
21CA
  8
0
 62
     0
 10
101.0437126493039
 20
203.1514997724432
 30
0.0
 11
101.0437126493039
 21
203.1514997724432
 31
0.0
  0
LINE
  5
21CB
  8
0
 62
     0
 10
100.12481907644499
 20
202.44640793490811
 30
0.0
 11
100.12481907644499
 21
202.44640793490811
 31
0.0
  0
LINE
  5
21CC
  8
0
 62
     0
 10
99.142449302829419
 20
201.692609095438
 30
0.0
 11
99.142449302829419
 21
201.692609095438
 31
0.0
  0
LINE
  5
21CD
  8
0
 62
     0
 10
98.114739385816151
 20
200.90401954030011
 30
0.0
 11
98.114739385816151
 21
200.90401954030011
 31
0.0
  0
LINE
  5
21CE
  8
0
 62
     0
 10
110.8103414179011
 20
212.1507697359981
 30
0.0
 11
110.8103414179011
 21
212.1507697359981
 31
0.0
  0
LINE
  5
21CF
  8
0
 62
     0
 10
109.7826315008878
 20
211.36218018086021
 30
0.0
 11
109.7826315008878
 21
211.36218018086021
 31
0.0
  0
LINE
  5
21D0
  8
0
 62
     0
 10
108.8637379280289
 20
210.65708834332511
 30
0.0
 11
108.8637379280289
 21
210.65708834332511
 31
0.0
  0
LINE
  5
21D1
  8
0
 62
     0
 10
107.88136815441329
 20
209.90328950385509
 30
0.0
 11
107.88136815441329
 21
209.90328950385509
 31
0.0
  0
LINE
  5
21D2
  8
0
 62
     0
 10
106.8536582374
 20
209.1146999487172
 30
0.0
 11
106.8536582374
 21
209.1146999487172
 31
0.0
  0
LINE
  5
21D3
  8
0
 62
     0
 10
105.93476466454111
 20
208.40960811118211
 30
0.0
 11
105.93476466454111
 21
208.40960811118211
 31
0.0
  0
LINE
  5
21D4
  8
0
 62
     0
 10
104.9523948909255
 20
207.655809271712
 30
0.0
 11
104.9523948909255
 21
207.655809271712
 31
0.0
  0
LINE
  5
21D5
  8
0
 62
     0
 10
103.92468497391221
 20
206.8672197165742
 30
0.0
 11
103.92468497391221
 21
206.8672197165742
 31
0.0
  0
LINE
  5
21D6
  8
0
 62
     0
 10
103.0057914010533
 20
206.1621278790391
 30
0.0
 11
103.0057914010533
 21
206.1621278790391
 31
0.0
  0
LINE
  5
21D7
  8
0
 62
     0
 10
102.0234216274377
 20
205.408329039569
 30
0.0
 11
102.0234216274377
 21
205.408329039569
 31
0.0
  0
LINE
  5
21D8
  8
0
 62
     0
 10
100.9957117104244
 20
204.61973948443119
 30
0.0
 11
100.9957117104244
 21
204.61973948443119
 31
0.0
  0
LINE
  5
21D9
  8
0
 62
     0
 10
100.0768181375655
 20
203.9146476468961
 30
0.0
 11
100.0768181375655
 21
203.9146476468961
 31
0.0
  0
LINE
  5
21DA
  8
0
 62
     0
 10
99.094448363949908
 20
203.16084880742599
 30
0.0
 11
99.094448363949908
 21
203.16084880742599
 31
0.0
  0
LINE
  5
21DB
  8
0
 62
     0
 10
98.06673844693664
 20
202.37225925228819
 30
0.0
 11
98.06673844693664
 21
202.37225925228819
 31
0.0
  0
LINE
  5
21DC
  8
0
 62
     0
 10
97.14784487407772
 20
201.6671674147531
 30
0.0
 11
97.14784487407772
 21
201.6671674147531
 31
0.0
  0
LINE
  5
21DD
  8
0
 62
     0
 10
96.165475100462103
 20
200.91336857528299
 30
0.0
 11
96.165475100462103
 21
200.91336857528299
 31
0.0
  0
LINE
  5
21DE
  8
0
 62
     0
 10
108.8157369891494
 20
212.12532805531319
 30
0.0
 11
108.8157369891494
 21
212.12532805531319
 31
0.0
  0
LINE
  5
21DF
  8
0
 62
     0
 10
107.8333672155338
 20
211.37152921584311
 30
0.0
 11
107.8333672155338
 21
211.37152921584311
 31
0.0
  0
LINE
  5
21E0
  8
0
 62
     0
 10
106.8056572985205
 20
210.58293966070519
 30
0.0
 11
106.8056572985205
 21
210.58293966070519
 31
0.0
  0
LINE
  5
21E1
  8
0
 62
     0
 10
105.8867637256616
 20
209.87784782317021
 30
0.0
 11
105.8867637256616
 21
209.87784782317021
 31
0.0
  0
LINE
  5
21E2
  8
0
 62
     0
 10
104.90439395204599
 20
209.12404898370011
 30
0.0
 11
104.90439395204599
 21
209.12404898370011
 31
0.0
  0
LINE
  5
21E3
  8
0
 62
     0
 10
103.8766840350327
 20
208.33545942856219
 30
0.0
 11
103.8766840350327
 21
208.33545942856219
 31
0.0
  0
LINE
  5
21E4
  8
0
 62
     0
 10
102.9577904621738
 20
207.6303675910271
 30
0.0
 11
102.9577904621738
 21
207.6303675910271
 31
0.0
  0
LINE
  5
21E5
  8
0
 62
     0
 10
101.9754206885582
 20
206.8765687515571
 30
0.0
 11
101.9754206885582
 21
206.8765687515571
 31
0.0
  0
LINE
  5
21E6
  8
0
 62
     0
 10
100.94771077154491
 20
206.08797919641921
 30
0.0
 11
100.94771077154491
 21
206.08797919641921
 31
0.0
  0
LINE
  5
21E7
  8
0
 62
     0
 10
100.028817198686
 20
205.38288735888409
 30
0.0
 11
100.028817198686
 21
205.38288735888409
 31
0.0
  0
LINE
  5
21E8
  8
0
 62
     0
 10
99.046447425070397
 20
204.6290885194141
 30
0.0
 11
99.046447425070397
 21
204.6290885194141
 31
0.0
  0
LINE
  5
21E9
  8
0
 62
     0
 10
98.018737508057129
 20
203.84049896427621
 30
0.0
 11
98.018737508057129
 21
203.84049896427621
 31
0.0
  0
LINE
  5
21EA
  8
0
 62
     0
 10
97.099843935198209
 20
203.13540712674109
 30
0.0
 11
97.099843935198209
 21
203.13540712674109
 31
0.0
  0
LINE
  5
21EB
  8
0
 62
     0
 10
96.117474161582592
 20
202.38160828727109
 30
0.0
 11
96.117474161582592
 21
202.38160828727109
 31
0.0
  0
LINE
  5
21EC
  8
0
 62
     0
 10
95.089764244569324
 20
201.5930187321332
 30
0.0
 11
95.089764244569324
 21
201.5930187321332
 31
0.0
  0
LINE
  5
21ED
  8
0
 62
     0
 10
94.170870671710404
 20
200.88792689459811
 30
0.0
 11
94.170870671710404
 21
200.88792689459811
 31
0.0
  0
LINE
  5
21EE
  8
0
 62
     0
 10
106.757656359641
 20
212.05117937269321
 30
0.0
 11
106.757656359641
 21
212.05117937269321
 31
0.0
  0
LINE
  5
21EF
  8
0
 62
     0
 10
105.8387627867821
 20
211.34608753515809
 30
0.0
 11
105.8387627867821
 21
211.34608753515809
 31
0.0
  0
LINE
  5
21F0
  8
0
 62
     0
 10
104.8563930131665
 20
210.5922886956881
 30
0.0
 11
104.8563930131665
 21
210.5922886956881
 31
0.0
  0
LINE
  5
21F1
  8
0
 62
     0
 10
103.8286830961532
 20
209.80369914055021
 30
0.0
 11
103.8286830961532
 21
209.80369914055021
 31
0.0
  0
LINE
  5
21F2
  8
0
 62
     0
 10
102.90978952329429
 20
209.09860730301509
 30
0.0
 11
102.90978952329429
 21
209.09860730301509
 31
0.0
  0
LINE
  5
21F3
  8
0
 62
     0
 10
101.92741974967861
 20
208.34480846354509
 30
0.0
 11
101.92741974967861
 21
208.34480846354509
 31
0.0
  0
LINE
  5
21F4
  8
0
 62
     0
 10
100.89970983266539
 20
207.5562189084072
 30
0.0
 11
100.89970983266539
 21
207.5562189084072
 31
0.0
  0
LINE
  5
21F5
  8
0
 62
     0
 10
99.980816259806488
 20
206.85112707087211
 30
0.0
 11
99.980816259806488
 21
206.85112707087211
 31
0.0
  0
LINE
  5
21F6
  8
0
 62
     0
 10
98.998446486190872
 20
206.09732823140209
 30
0.0
 11
98.998446486190872
 21
206.09732823140209
 31
0.0
  0
LINE
  5
21F7
  8
0
 62
     0
 10
97.970736569177603
 20
205.3087386762642
 30
0.0
 11
97.970736569177603
 21
205.3087386762642
 31
0.0
  0
LINE
  5
21F8
  8
0
 62
     0
 10
97.051842996318683
 20
204.60364683872919
 30
0.0
 11
97.051842996318683
 21
204.60364683872919
 31
0.0
  0
LINE
  5
21F9
  8
0
 62
     0
 10
96.069473222703081
 20
203.84984799925911
 30
0.0
 11
96.069473222703081
 21
203.84984799925911
 31
0.0
  0
LINE
  5
21FA
  8
0
 62
     0
 10
95.041763305689784
 20
203.06125844412119
 30
0.0
 11
95.041763305689784
 21
203.06125844412119
 31
0.0
  0
LINE
  5
21FB
  8
0
 62
     0
 10
94.122869732830864
 20
202.3561666065861
 30
0.0
 11
94.122869732830864
 21
202.3561666065861
 31
0.0
  0
LINE
  5
21FC
  8
0
 62
     0
 10
93.140499959215276
 20
201.60236776711611
 30
0.0
 11
93.140499959215276
 21
201.60236776711611
 31
0.0
  0
LINE
  5
21FD
  8
0
 62
     0
 10
92.112790042201993
 20
200.81377821197819
 30
0.0
 11
92.112790042201993
 21
200.81377821197819
 31
0.0
  0
LINE
  5
21FE
  8
0
 62
     0
 10
104.8083920742869
 20
212.06052840767609
 30
0.0
 11
104.8083920742869
 21
212.06052840767609
 31
0.0
  0
LINE
  5
21FF
  8
0
 62
     0
 10
103.7806821572736
 20
211.27193885253831
 30
0.0
 11
103.7806821572736
 21
211.27193885253831
 31
0.0
  0
LINE
  5
2200
  8
0
 62
     0
 10
102.8617885844147
 20
210.56684701500319
 30
0.0
 11
102.8617885844147
 21
210.56684701500319
 31
0.0
  0
LINE
  5
2201
  8
0
 62
     0
 10
101.87941881079909
 20
209.81304817553311
 30
0.0
 11
101.87941881079909
 21
209.81304817553311
 31
0.0
  0
LINE
  5
2202
  8
0
 62
     0
 10
100.8517088937858
 20
209.02445862039531
 30
0.0
 11
100.8517088937858
 21
209.02445862039531
 31
0.0
  0
LINE
  5
2203
  8
0
 62
     0
 10
99.932815320926935
 20
208.31936678286019
 30
0.0
 11
99.932815320926935
 21
208.31936678286019
 31
0.0
  0
LINE
  5
2204
  8
0
 62
     0
 10
98.950445547311347
 20
207.56556794339011
 30
0.0
 11
98.950445547311347
 21
207.56556794339011
 31
0.0
  0
LINE
  5
2205
  8
0
 62
     0
 10
97.922735630298064
 20
206.7769783882523
 30
0.0
 11
97.922735630298064
 21
206.7769783882523
 31
0.0
  0
LINE
  5
2206
  8
0
 62
     0
 10
97.003842057439144
 20
206.07188655071721
 30
0.0
 11
97.003842057439144
 21
206.07188655071721
 31
0.0
  0
LINE
  5
2207
  8
0
 62
     0
 10
96.021472283823528
 20
205.3180877112471
 30
0.0
 11
96.021472283823528
 21
205.3180877112471
 31
0.0
  0
LINE
  5
2208
  8
0
 62
     0
 10
94.993762366810259
 20
204.5294981561093
 30
0.0
 11
94.993762366810259
 21
204.5294981561093
 31
0.0
  0
LINE
  5
2209
  8
0
 62
     0
 10
94.074868793951339
 20
203.8244063185742
 30
0.0
 11
94.074868793951339
 21
203.8244063185742
 31
0.0
  0
LINE
  5
220A
  8
0
 62
     0
 10
93.092499020335723
 20
203.0706074791041
 30
0.0
 11
93.092499020335723
 21
203.0706074791041
 31
0.0
  0
LINE
  5
220B
  8
0
 62
     0
 10
92.064789103322454
 20
202.28201792396621
 30
0.0
 11
92.064789103322454
 21
202.28201792396621
 31
0.0
  0
LINE
  5
220C
  8
0
 62
     0
 10
91.145895530463534
 20
201.5769260864312
 30
0.0
 11
91.145895530463534
 21
201.5769260864312
 31
0.0
  0
LINE
  5
220D
  8
0
 62
     0
 10
90.163525756847903
 20
200.82312724696109
 30
0.0
 11
90.163525756847903
 21
200.82312724696109
 31
0.0
  0
LINE
  5
220E
  8
0
 62
     0
 10
102.8137876455352
 20
212.03508672699121
 30
0.0
 11
102.8137876455352
 21
212.03508672699121
 31
0.0
  0
LINE
  5
220F
  8
0
 62
     0
 10
101.8314178719196
 20
211.28128788752119
 30
0.0
 11
101.8314178719196
 21
211.28128788752119
 31
0.0
  0
LINE
  5
2210
  8
0
 62
     0
 10
100.8037079549063
 20
210.4926983323833
 30
0.0
 11
100.8037079549063
 21
210.4926983323833
 31
0.0
  0
LINE
  5
2211
  8
0
 62
     0
 10
99.884814382047423
 20
209.78760649484821
 30
0.0
 11
99.884814382047423
 21
209.78760649484821
 31
0.0
  0
LINE
  5
2212
  8
0
 62
     0
 10
98.902444608431807
 20
209.03380765537821
 30
0.0
 11
98.902444608431807
 21
209.03380765537821
 31
0.0
  0
LINE
  5
2213
  8
0
 62
     0
 10
97.874734691418539
 20
208.24521810024029
 30
0.0
 11
97.874734691418539
 21
208.24521810024029
 31
0.0
  0
LINE
  5
2214
  8
0
 62
     0
 10
96.955841118559619
 20
207.5401262627052
 30
0.0
 11
96.955841118559619
 21
207.5401262627052
 31
0.0
  0
LINE
  5
2215
  8
0
 62
     0
 10
95.973471344944002
 20
206.78632742323509
 30
0.0
 11
95.973471344944002
 21
206.78632742323509
 31
0.0
  0
LINE
  5
2216
  8
0
 62
     0
 10
94.945761427930734
 20
205.99773786809729
 30
0.0
 11
94.945761427930734
 21
205.99773786809729
 31
0.0
  0
LINE
  5
2217
  8
0
 62
     0
 10
94.026867855071814
 20
205.2926460305622
 30
0.0
 11
94.026867855071814
 21
205.2926460305622
 31
0.0
  0
LINE
  5
2218
  8
0
 62
     0
 10
90.115524817968421
 20
202.29136695894911
 30
0.0
 11
90.115524817968421
 21
202.29136695894911
 31
0.0
  0
LINE
  5
2219
  8
0
 62
     0
 10
89.087814900955152
 20
201.50277740381131
 30
0.0
 11
89.087814900955152
 21
201.50277740381131
 31
0.0
  0
LINE
  5
221A
  8
0
 62
     0
 10
88.168921328096232
 20
200.79768556627619
 30
0.0
 11
88.168921328096232
 21
200.79768556627619
 31
0.0
  0
LINE
  5
221B
  8
0
 62
     0
 10
100.7557070160268
 20
211.96093804437129
 30
0.0
 11
100.7557070160268
 21
211.96093804437129
 31
0.0
  0
LINE
  5
221C
  8
0
 62
     0
 10
99.836813443167941
 20
211.2558462068362
 30
0.0
 11
99.836813443167941
 21
211.2558462068362
 31
0.0
  0
LINE
  5
221D
  8
0
 62
     0
 10
98.854443669552325
 20
210.5020473673662
 30
0.0
 11
98.854443669552325
 21
210.5020473673662
 31
0.0
  0
LINE
  5
221E
  8
0
 62
     0
 10
97.82673375253907
 20
209.71345781222831
 30
0.0
 11
97.82673375253907
 21
209.71345781222831
 31
0.0
  0
LINE
  5
221F
  8
0
 62
     0
 10
96.907840179680136
 20
209.00836597469319
 30
0.0
 11
96.907840179680136
 21
209.00836597469319
 31
0.0
  0
LINE
  5
2220
  8
0
 62
     0
 10
95.925470406064534
 20
208.2545671352232
 30
0.0
 11
95.925470406064534
 21
208.2545671352232
 31
0.0
  0
LINE
  5
2221
  8
0
 62
     0
 10
94.897760489051265
 20
207.46597758008531
 30
0.0
 11
94.897760489051265
 21
207.46597758008531
 31
0.0
  0
LINE
  5
2222
  8
0
 62
     0
 10
88.120920389216664
 20
202.26592527826421
 30
0.0
 11
88.120920389216664
 21
202.26592527826421
 31
0.0
  0
LINE
  5
2223
  8
0
 62
     0
 10
87.138550615601062
 20
201.5121264387941
 30
0.0
 11
87.138550615601062
 21
201.5121264387941
 31
0.0
  0
LINE
  5
2224
  8
0
 62
     0
 10
86.110840698587793
 20
200.72353688365621
 30
0.0
 11
86.110840698587793
 21
200.72353688365621
 31
0.0
  0
LINE
  5
2225
  8
0
 62
     0
 10
98.806442730672799
 20
211.97028707935419
 30
0.0
 11
98.806442730672799
 21
211.97028707935419
 31
0.0
  0
LINE
  5
2226
  8
0
 62
     0
 10
97.778732813659545
 20
211.1816975242163
 30
0.0
 11
97.778732813659545
 21
211.1816975242163
 31
0.0
  0
LINE
  5
2227
  8
0
 62
     0
 10
96.859839240800625
 20
210.4766056866813
 30
0.0
 11
96.859839240800625
 21
210.4766056866813
 31
0.0
  0
LINE
  5
2228
  8
0
 62
     0
 10
95.877469467184994
 20
209.72280684721119
 30
0.0
 11
95.877469467184994
 21
209.72280684721119
 31
0.0
  0
LINE
  5
2229
  8
0
 62
     0
 10
94.849759550171726
 20
208.9342172920733
 30
0.0
 11
94.849759550171726
 21
208.9342172920733
 31
0.0
  0
LINE
  5
222A
  8
0
 62
     0
 10
93.930865977312806
 20
208.22912545453829
 30
0.0
 11
93.930865977312806
 21
208.22912545453829
 31
0.0
  0
LINE
  5
222B
  8
0
 62
     0
 10
87.090549676721565
 20
202.9803661507822
 30
0.0
 11
87.090549676721565
 21
202.9803661507822
 31
0.0
  0
LINE
  5
222C
  8
0
 62
     0
 10
86.062839759708297
 20
202.19177659564431
 30
0.0
 11
86.062839759708297
 21
202.19177659564431
 31
0.0
  0
LINE
  5
222D
  8
0
 62
     0
 10
85.143946186849377
 20
201.48668475810919
 30
0.0
 11
85.143946186849377
 21
201.48668475810919
 31
0.0
  0
LINE
  5
222E
  8
0
 62
     0
 10
96.811838301921071
 20
211.94484539866929
 30
0.0
 11
96.811838301921071
 21
211.94484539866929
 31
0.0
  0
LINE
  5
222F
  8
0
 62
     0
 10
95.829468528305455
 20
211.19104655919921
 30
0.0
 11
95.829468528305455
 21
211.19104655919921
 31
0.0
  0
LINE
  5
2230
  8
0
 62
     0
 10
94.801758611292186
 20
210.4024570040614
 30
0.0
 11
94.801758611292186
 21
210.4024570040614
 31
0.0
  0
LINE
  5
2231
  8
0
 62
     0
 10
93.882865038433266
 20
209.69736516652631
 30
0.0
 11
93.882865038433266
 21
209.69736516652631
 31
0.0
  0
LINE
  5
2232
  8
0
 62
     0
 10
86.014838820828757
 20
203.6600163076323
 30
0.0
 11
86.014838820828757
 21
203.6600163076323
 31
0.0
  0
LINE
  5
2233
  8
0
 62
     0
 10
85.095945247969837
 20
202.9549244700973
 30
0.0
 11
85.095945247969837
 21
202.9549244700973
 31
0.0
  0
LINE
  5
2234
  8
0
 62
     0
 10
94.753757672412647
 20
211.87069671604939
 30
0.0
 11
94.753757672412647
 21
211.87069671604939
 31
0.0
  0
LINE
  5
2235
  8
0
 62
     0
 10
93.834864099553741
 20
211.1656048785143
 30
0.0
 11
93.834864099553741
 21
211.1656048785143
 31
0.0
  0
LINE
  5
2236
  8
0
 62
     0
 10
92.852494325938125
 20
210.41180603904431
 30
0.0
 11
92.852494325938125
 21
210.41180603904431
 31
0.0
  0
LINE
  5
2237
  8
0
 62
     0
 10
85.966837881949203
 20
205.12825601962041
 30
0.0
 11
85.966837881949203
 21
205.12825601962041
 31
0.0
  0
LINE
  5
2238
  8
0
 62
     0
 10
85.047944309090283
 20
204.42316418208529
 30
0.0
 11
85.047944309090283
 21
204.42316418208529
 31
0.0
  0
LINE
  5
2239
  8
0
 62
     0
 10
92.804493387058614
 20
211.8800457510323
 30
0.0
 11
92.804493387058614
 21
211.8800457510323
 31
0.0
  0
LINE
  5
223A
  8
0
 62
     0
 10
91.776783470045345
 20
211.09145619589441
 30
0.0
 11
91.776783470045345
 21
211.09145619589441
 31
0.0
  0
LINE
  5
223B
  8
0
 62
     0
 10
90.857889897186425
 20
210.38636435835929
 30
0.0
 11
90.857889897186425
 21
210.38636435835929
 31
0.0
  0
LINE
  5
223C
  8
0
 62
     0
 10
85.918836943069707
 20
206.5964957316084
 30
0.0
 11
85.918836943069707
 21
206.5964957316084
 31
0.0
  0
LINE
  5
223D
  8
0
 62
     0
 10
84.999943370210786
 20
205.89140389407331
 30
0.0
 11
84.999943370210786
 21
205.89140389407331
 31
0.0
  0
LINE
  5
223E
  8
0
 62
     0
 10
90.809888958306885
 20
211.85460407034731
 30
0.0
 11
90.809888958306885
 21
211.85460407034731
 31
0.0
  0
LINE
  5
223F
  8
0
 62
     0
 10
89.827519184691255
 20
211.10080523087731
 30
0.0
 11
89.827519184691255
 21
211.10080523087731
 31
0.0
  0
LINE
  5
2240
  8
0
 62
     0
 10
88.799809267678
 20
210.3122156757394
 30
0.0
 11
88.799809267678
 21
210.3122156757394
 31
0.0
  0
LINE
  5
2241
  8
0
 62
     0
 10
86.898545921203464
 20
208.85332499873431
 30
0.0
 11
86.898545921203464
 21
208.85332499873431
 31
0.0
  0
LINE
  5
2242
  8
0
 62
     0
 10
85.870836004190195
 20
208.06473544359639
 30
0.0
 11
85.870836004190195
 21
208.06473544359639
 31
0.0
  0
LINE
  5
2243
  8
0
 62
     0
 10
84.951942431331275
 20
207.35964360606141
 30
0.0
 11
84.951942431331275
 21
207.35964360606141
 31
0.0
  0
LINE
  5
2244
  8
0
 62
     0
 10
88.751808328798475
 20
211.78045538772739
 30
0.0
 11
88.751808328798475
 21
211.78045538772739
 31
0.0
  0
LINE
  5
2245
  8
0
 62
     0
 10
87.832914755939527
 20
211.07536355019241
 30
0.0
 11
87.832914755939527
 21
211.07536355019241
 31
0.0
  0
LINE
  5
2246
  8
0
 62
     0
 10
86.850544982323925
 20
210.3215647107223
 30
0.0
 11
86.850544982323925
 21
210.3215647107223
 31
0.0
  0
LINE
  5
2247
  8
0
 62
     0
 10
85.822835065310656
 20
209.53297515558441
 30
0.0
 11
85.822835065310656
 21
209.53297515558441
 31
0.0
  0
LINE
  5
2248
  8
0
 62
     0
 10
84.903941492451736
 20
208.8278833180494
 30
0.0
 11
84.903941492451736
 21
208.8278833180494
 31
0.0
  0
LINE
  5
2249
  8
0
 62
     0
 10
86.802544043444428
 20
211.7898044227104
 30
0.0
 11
86.802544043444428
 21
211.7898044227104
 31
0.0
  0
LINE
  5
224A
  8
0
 62
     0
 10
85.774834126431159
 20
211.0012148675724
 30
0.0
 11
85.774834126431159
 21
211.0012148675724
 31
0.0
  0
LINE
  5
224B
  8
0
 62
     0
 10
84.855940553572225
 20
210.29612303003739
 30
0.0
 11
84.855940553572225
 21
210.29612303003739
 31
0.0
  0
ENDBLK
  5
224D
  8
0
  0
BLOCK
  8
0
  2
*X55
 70
     1
 10
0.0
 20
0.0
 30
0.0
  3
*X55
  1

  0
LINE
  5
224F
  8
0
 62
     0
 10
149.18545707344381
 20
200.5930800590188
 30
0.0
 11
149.18545707344381
 21
200.5930800590188
 31
0.0
  0
LINE
  5
2250
  8
0
 62
     0
 10
149.04500574078139
 20
200.72177999356961
 30
0.0
 11
149.04500574078139
 21
200.72177999356961
 31
0.0
  0
LINE
  5
2251
  8
0
 62
     0
 10
148.28656854440479
 20
201.41675964014379
 30
0.0
 11
148.28656854440479
 21
201.41675964014379
 31
0.0
  0
LINE
  5
2252
  8
0
 62
     0
 10
147.6236382542387
 20
202.02422333122351
 30
0.0
 11
147.6236382542387
 21
202.02422333122351
 31
0.0
  0
LINE
  5
2253
  8
0
 62
     0
 10
147.4831869215763
 20
202.15292326577421
 30
0.0
 11
147.4831869215763
 21
202.15292326577421
 31
0.0
  0
LINE
  5
2254
  8
0
 62
     0
 10
146.7247497251997
 20
202.8479029123485
 30
0.0
 11
146.7247497251997
 21
202.8479029123485
 31
0.0
  0
LINE
  5
2255
  8
0
 62
     0
 10
151.47612643086069
 20
201.26186802879039
 30
0.0
 11
151.47612643086069
 21
201.26186802879039
 31
0.0
  0
LINE
  5
2256
  8
0
 62
     0
 10
151.33567509819841
 20
201.3905679633412
 30
0.0
 11
151.33567509819841
 21
201.3905679633412
 31
0.0
  0
LINE
  5
2257
  8
0
 62
     0
 10
150.5772379018218
 20
202.08554760991541
 30
0.0
 11
150.5772379018218
 21
202.08554760991541
 31
0.0
  0
LINE
  5
2258
  8
0
 62
     0
 10
149.9143076116556
 20
202.6930113009951
 30
0.0
 11
149.9143076116556
 21
202.6930113009951
 31
0.0
  0
LINE
  5
2259
  8
0
 62
     0
 10
149.77385627899321
 20
202.82171123554591
 30
0.0
 11
149.77385627899321
 21
202.82171123554591
 31
0.0
  0
LINE
  5
225A
  8
0
 62
     0
 10
149.01541908261669
 20
203.5166908821202
 30
0.0
 11
149.01541908261669
 21
203.5166908821202
 31
0.0
  0
LINE
  5
225B
  8
0
 62
     0
 10
148.35248879245049
 20
204.12415457319989
 30
0.0
 11
148.35248879245049
 21
204.12415457319989
 31
0.0
  0
LINE
  5
225C
  8
0
 62
     0
 10
148.21203745978809
 20
204.25285450775061
 30
0.0
 11
148.21203745978809
 21
204.25285450775061
 31
0.0
  0
LINE
  5
225D
  8
0
 62
     0
 10
147.45360026341149
 20
204.9478341543248
 30
0.0
 11
147.45360026341149
 21
204.9478341543248
 31
0.0
  0
LINE
  5
225E
  8
0
 62
     0
 10
146.79066997324529
 20
205.55529784540451
 30
0.0
 11
146.79066997324529
 21
205.55529784540451
 31
0.0
  0
LINE
  5
225F
  8
0
 62
     0
 10
146.65021864058301
 20
205.68399777995529
 30
0.0
 11
146.65021864058301
 21
205.68399777995529
 31
0.0
  0
LINE
  5
2260
  8
0
 62
     0
 10
152.0645256364102
 20
203.4904992053176
 30
0.0
 11
152.0645256364102
 21
203.4904992053176
 31
0.0
  0
LINE
  5
2261
  8
0
 62
     0
 10
151.30608844003359
 20
204.18547885189179
 30
0.0
 11
151.30608844003359
 21
204.18547885189179
 31
0.0
  0
LINE
  5
2262
  8
0
 62
     0
 10
150.64315814986739
 20
204.7929425429715
 30
0.0
 11
150.64315814986739
 21
204.7929425429715
 31
0.0
  0
LINE
  5
2263
  8
0
 62
     0
 10
150.50270681720511
 20
204.92164247752231
 30
0.0
 11
150.50270681720511
 21
204.92164247752231
 31
0.0
  0
LINE
  5
2264
  8
0
 62
     0
 10
149.7442696208285
 20
205.61662212409649
 30
0.0
 11
149.7442696208285
 21
205.61662212409649
 31
0.0
  0
LINE
  5
2265
  8
0
 62
     0
 10
149.0813393306623
 20
206.22408581517621
 30
0.0
 11
149.0813393306623
 21
206.22408581517621
 31
0.0
  0
LINE
  5
2266
  8
0
 62
     0
 10
148.94088799799991
 20
206.35278574972699
 30
0.0
 11
148.94088799799991
 21
206.35278574972699
 31
0.0
  0
LINE
  5
2267
  8
0
 62
     0
 10
148.18245080162339
 20
207.0477653963012
 30
0.0
 11
148.18245080162339
 21
207.0477653963012
 31
0.0
  0
LINE
  5
2268
  8
0
 62
     0
 10
147.5195205114571
 20
207.65522908738089
 30
0.0
 11
147.5195205114571
 21
207.65522908738089
 31
0.0
  0
LINE
  5
2269
  8
0
 62
     0
 10
147.37906917879479
 20
207.7839290219317
 30
0.0
 11
147.37906917879479
 21
207.7839290219317
 31
0.0
  0
LINE
  5
226A
  8
0
 62
     0
 10
146.62063198241819
 20
208.47890866850591
 30
0.0
 11
146.62063198241819
 21
208.47890866850591
 31
0.0
  0
LINE
  5
226B
  8
0
 62
     0
 10
152.03493897824541
 20
206.28541009386819
 30
0.0
 11
152.03493897824541
 21
206.28541009386819
 31
0.0
  0
LINE
  5
226C
  8
0
 62
     0
 10
151.37200868807921
 20
206.8928737849478
 30
0.0
 11
151.37200868807921
 21
206.8928737849478
 31
0.0
  0
LINE
  5
226D
  8
0
 62
     0
 10
151.2315573554169
 20
207.0215737194986
 30
0.0
 11
151.2315573554169
 21
207.0215737194986
 31
0.0
  0
LINE
  5
226E
  8
0
 62
     0
 10
150.47312015904029
 20
207.7165533660729
 30
0.0
 11
150.47312015904029
 21
207.7165533660729
 31
0.0
  0
LINE
  5
226F
  8
0
 62
     0
 10
149.81018986887409
 20
208.32401705715259
 30
0.0
 11
149.81018986887409
 21
208.32401705715259
 31
0.0
  0
LINE
  5
2270
  8
0
 62
     0
 10
149.66973853621181
 20
208.45271699170331
 30
0.0
 11
149.66973853621181
 21
208.45271699170331
 31
0.0
  0
LINE
  5
2271
  8
0
 62
     0
 10
148.91130133983521
 20
209.14769663827761
 30
0.0
 11
148.91130133983521
 21
209.14769663827761
 31
0.0
  0
LINE
  5
2272
  8
0
 62
     0
 10
148.248371049669
 20
209.7551603293573
 30
0.0
 11
148.248371049669
 21
209.7551603293573
 31
0.0
  0
LINE
  5
2273
  8
0
 62
     0
 10
148.10791971700669
 20
209.8838602639081
 30
0.0
 11
148.10791971700669
 21
209.8838602639081
 31
0.0
  0
LINE
  5
2274
  8
0
 62
     0
 10
147.34948252063009
 20
210.57883991048229
 30
0.0
 11
147.34948252063009
 21
210.57883991048229
 31
0.0
  0
LINE
  5
2275
  8
0
 62
     0
 10
146.68655223046389
 20
211.186303601562
 30
0.0
 11
146.68655223046389
 21
211.186303601562
 31
0.0
  0
LINE
  5
2276
  8
0
 62
     0
 10
146.54610089780149
 20
211.3150035361127
 30
0.0
 11
146.54610089780149
 21
211.3150035361127
 31
0.0
  0
LINE
  5
2277
  8
0
 62
     0
 10
151.96040789362871
 20
209.12150496147501
 30
0.0
 11
151.96040789362871
 21
209.12150496147501
 31
0.0
  0
LINE
  5
2278
  8
0
 62
     0
 10
151.20197069725211
 20
209.81648460804919
 30
0.0
 11
151.20197069725211
 21
209.81648460804919
 31
0.0
  0
LINE
  5
2279
  8
0
 62
     0
 10
150.53904040708591
 20
210.42394829912891
 30
0.0
 11
150.53904040708591
 21
210.42394829912891
 31
0.0
  0
LINE
  5
227A
  8
0
 62
     0
 10
150.3985890744236
 20
210.55264823367969
 30
0.0
 11
150.3985890744236
 21
210.55264823367969
 31
0.0
  0
LINE
  5
227B
  8
0
 62
     0
 10
149.64015187804699
 20
211.2476278802539
 30
0.0
 11
149.64015187804699
 21
211.2476278802539
 31
0.0
  0
LINE
  5
227C
  8
0
 62
     0
 10
148.97722158788079
 20
211.85509157133359
 30
0.0
 11
148.97722158788079
 21
211.85509157133359
 31
0.0
  0
LINE
  5
227D
  8
0
 62
     0
 10
148.8367702552184
 20
211.9837915058844
 30
0.0
 11
148.8367702552184
 21
211.9837915058844
 31
0.0
  0
LINE
  5
227E
  8
0
 62
     0
 10
151.93082123546381
 20
211.9164158500256
 30
0.0
 11
151.93082123546381
 21
211.9164158500256
 31
0.0
  0
LINE
  5
227F
  8
0
 62
     0
 10
149.19122423161321
 20
200.3068709655382
 30
0.0
 11
149.19122423161321
 21
200.3068709655382
 31
0.0
  0
LINE
  5
2280
  8
0
 62
     0
 10
148.03442852453631
 20
201.04383110834669
 30
0.0
 11
148.03442852453631
 21
201.04383110834669
 31
0.0
  0
LINE
  5
2281
  8
0
 62
     0
 10
147.7130963836816
 20
201.24854225912679
 30
0.0
 11
147.7130963836816
 21
201.24854225912679
 31
0.0
  0
LINE
  5
2282
  8
0
 62
     0
 10
146.20283532166451
 20
202.21068466779349
 30
0.0
 11
146.20283532166451
 21
202.21068466779349
 31
0.0
  0
LINE
  5
2283
  8
0
 62
     0
 10
151.56420134233761
 20
200.3111825195738
 30
0.0
 11
151.56420134233761
 21
200.3111825195738
 31
0.0
  0
LINE
  5
2284
  8
0
 62
     0
 10
150.40740563526069
 20
201.0481426623823
 30
0.0
 11
150.40740563526069
 21
201.0481426623823
 31
0.0
  0
LINE
  5
2285
  8
0
 62
     0
 10
150.08607349440601
 20
201.2528538131624
 30
0.0
 11
150.08607349440601
 21
201.2528538131624
 31
0.0
  0
LINE
  5
2286
  8
0
 62
     0
 10
148.57581243238889
 20
202.2149962218291
 30
0.0
 11
148.57581243238889
 21
202.2149962218291
 31
0.0
  0
LINE
  5
2287
  8
0
 62
     0
 10
147.41901672531191
 20
202.9519563646376
 30
0.0
 11
147.41901672531191
 21
202.9519563646376
 31
0.0
  0
LINE
  5
2288
  8
0
 62
     0
 10
147.0976845844572
 20
203.15666751541769
 30
0.0
 11
147.0976845844572
 21
203.15666751541769
 31
0.0
  0
LINE
  5
2289
  8
0
 62
     0
 10
150.94878954311329
 20
202.21930777586471
 30
0.0
 11
150.94878954311329
 21
202.21930777586471
 31
0.0
  0
LINE
  5
228A
  8
0
 62
     0
 10
149.79199383603631
 20
202.95626791867321
 30
0.0
 11
149.79199383603631
 21
202.95626791867321
 31
0.0
  0
LINE
  5
228B
  8
0
 62
     0
 10
149.4706616951816
 20
203.1609790694533
 30
0.0
 11
149.4706616951816
 21
203.1609790694533
 31
0.0
  0
LINE
  5
228C
  8
0
 62
     0
 10
147.96040063316451
 20
204.12312147812
 30
0.0
 11
147.96040063316451
 21
204.12312147812
 31
0.0
  0
LINE
  5
228D
  8
0
 62
     0
 10
146.8036049260875
 20
204.8600816209285
 30
0.0
 11
146.8036049260875
 21
204.8600816209285
 31
0.0
  0
LINE
  5
228E
  8
0
 62
     0
 10
146.48227278523279
 20
205.0647927717086
 30
0.0
 11
146.48227278523279
 21
205.0647927717086
 31
0.0
  0
LINE
  5
228F
  8
0
 62
     0
 10
151.84363880590601
 20
203.165290623489
 30
0.0
 11
151.84363880590601
 21
203.165290623489
 31
0.0
  0
LINE
  5
2290
  8
0
 62
     0
 10
150.33337774388889
 20
204.12743303215561
 30
0.0
 11
150.33337774388889
 21
204.12743303215561
 31
0.0
  0
LINE
  5
2291
  8
0
 62
     0
 10
149.17658203681191
 20
204.86439317496411
 30
0.0
 11
149.17658203681191
 21
204.86439317496411
 31
0.0
  0
LINE
  5
2292
  8
0
 62
     0
 10
148.8552498959572
 20
205.06910432574429
 30
0.0
 11
148.8552498959572
 21
205.06910432574429
 31
0.0
  0
LINE
  5
2293
  8
0
 62
     0
 10
147.34498883394011
 20
206.0312467344109
 30
0.0
 11
147.34498883394011
 21
206.0312467344109
 31
0.0
  0
LINE
  5
2294
  8
0
 62
     0
 10
146.1881931268631
 20
206.7682068772194
 30
0.0
 11
146.1881931268631
 21
206.7682068772194
 31
0.0
  0
LINE
  5
2295
  8
0
 62
     0
 10
151.5495591475362
 20
204.8687047289998
 30
0.0
 11
151.5495591475362
 21
204.8687047289998
 31
0.0
  0
LINE
  5
2296
  8
0
 62
     0
 10
151.22822700668149
 20
205.0734158797799
 30
0.0
 11
151.22822700668149
 21
205.0734158797799
 31
0.0
  0
LINE
  5
2297
  8
0
 62
     0
 10
149.7179659446644
 20
206.03555828844651
 30
0.0
 11
149.7179659446644
 21
206.03555828844651
 31
0.0
  0
LINE
  5
2298
  8
0
 62
     0
 10
148.5611702375875
 20
206.77251843125509
 30
0.0
 11
148.5611702375875
 21
206.77251843125509
 31
0.0
  0
LINE
  5
2299
  8
0
 62
     0
 10
148.23983809673271
 20
206.97722958203519
 30
0.0
 11
148.23983809673271
 21
206.97722958203519
 31
0.0
  0
LINE
  5
229A
  8
0
 62
     0
 10
146.72957703471559
 20
207.9393719907018
 30
0.0
 11
146.72957703471559
 21
207.9393719907018
 31
0.0
  0
LINE
  5
229B
  8
0
 62
     0
 10
150.9341473483118
 20
206.7768299852907
 30
0.0
 11
150.9341473483118
 21
206.7768299852907
 31
0.0
  0
LINE
  5
229C
  8
0
 62
     0
 10
150.61281520745709
 20
206.9815411360708
 30
0.0
 11
150.61281520745709
 21
206.9815411360708
 31
0.0
  0
LINE
  5
229D
  8
0
 62
     0
 10
149.10255414544
 20
207.9436835447375
 30
0.0
 11
149.10255414544
 21
207.9436835447375
 31
0.0
  0
LINE
  5
229E
  8
0
 62
     0
 10
147.9457584383631
 20
208.680643687546
 30
0.0
 11
147.9457584383631
 21
208.680643687546
 31
0.0
  0
LINE
  5
229F
  8
0
 62
     0
 10
147.62442629750831
 20
208.88535483832609
 30
0.0
 11
147.62442629750831
 21
208.88535483832609
 31
0.0
  0
LINE
  5
22A0
  8
0
 62
     0
 10
146.11416523549121
 20
209.84749724699279
 30
0.0
 11
146.11416523549121
 21
209.84749724699279
 31
0.0
  0
LINE
  5
22A1
  8
0
 62
     0
 10
151.47553125616429
 20
207.94799509877319
 30
0.0
 11
151.47553125616429
 21
207.94799509877319
 31
0.0
  0
LINE
  5
22A2
  8
0
 62
     0
 10
150.31873554908731
 20
208.68495524158169
 30
0.0
 11
150.31873554908731
 21
208.68495524158169
 31
0.0
  0
LINE
  5
22A3
  8
0
 62
     0
 10
149.9974034082326
 20
208.88966639236179
 30
0.0
 11
149.9974034082326
 21
208.88966639236179
 31
0.0
  0
LINE
  5
22A4
  8
0
 62
     0
 10
148.48714234621551
 20
209.85180880102851
 30
0.0
 11
148.48714234621551
 21
209.85180880102851
 31
0.0
  0
LINE
  5
22A5
  8
0
 62
     0
 10
147.3303466391385
 20
210.58876894383701
 30
0.0
 11
147.3303466391385
 21
210.58876894383701
 31
0.0
  0
LINE
  5
22A6
  8
0
 62
     0
 10
147.00901449828379
 20
210.79348009461711
 30
0.0
 11
147.00901449828379
 21
210.79348009461711
 31
0.0
  0
LINE
  5
22A7
  8
0
 62
     0
 10
150.86011945693991
 20
209.85612035506409
 30
0.0
 11
150.86011945693991
 21
209.85612035506409
 31
0.0
  0
LINE
  5
22A8
  8
0
 62
     0
 10
149.70332374986299
 20
210.59308049787259
 30
0.0
 11
149.70332374986299
 21
210.59308049787259
 31
0.0
  0
LINE
  5
22A9
  8
0
 62
     0
 10
149.38199160900831
 20
210.79779164865269
 30
0.0
 11
149.38199160900831
 21
210.79779164865269
 31
0.0
  0
LINE
  5
22AA
  8
0
 62
     0
 10
147.8717305469911
 20
211.75993405731941
 30
0.0
 11
147.8717305469911
 21
211.75993405731941
 31
0.0
  0
LINE
  5
22AB
  8
0
 62
     0
 10
152.07630086058731
 20
210.59739205190829
 30
0.0
 11
152.07630086058731
 21
210.59739205190829
 31
0.0
  0
LINE
  5
22AC
  8
0
 62
     0
 10
151.7549687197326
 20
210.80210320268839
 30
0.0
 11
151.7549687197326
 21
210.80210320268839
 31
0.0
  0
LINE
  5
22AD
  8
0
 62
     0
 10
150.24470765771551
 20
211.76424561135499
 30
0.0
 11
150.24470765771551
 21
211.76424561135499
 31
0.0
  0
LINE
  5
22AE
  8
0
 62
     0
 10
152.06042293082029
 20
202.21076948225121
 30
0.0
 11
152.06042293082029
 21
202.21076948225121
 31
0.0
  0
LINE
  5
22AF
  8
0
 62
     0
 10
151.6637954140277
 20
202.15855247905361
 30
0.0
 11
151.6637954140277
 21
202.15855247905361
 31
0.0
  0
LINE
  5
22B0
  8
0
 62
     0
 10
150.6287864654451
 20
202.02229096594741
 30
0.0
 11
150.6287864654451
 21
202.02229096594741
 31
0.0
  0
LINE
  5
22B1
  8
0
 62
     0
 10
150.00929205826429
 20
201.94073298000069
 30
0.0
 11
150.00929205826429
 21
201.94073298000069
 31
0.0
  0
LINE
  5
22B2
  8
0
 62
     0
 10
149.6126645414717
 20
201.88851597680301
 30
0.0
 11
149.6126645414717
 21
201.88851597680301
 31
0.0
  0
LINE
  5
22B3
  8
0
 62
     0
 10
148.5776555928891
 20
201.7522544636968
 30
0.0
 11
148.5776555928891
 21
201.7522544636968
 31
0.0
  0
LINE
  5
22B4
  8
0
 62
     0
 10
147.95816118570829
 20
201.67069647775011
 30
0.0
 11
147.95816118570829
 21
201.67069647775011
 31
0.0
  0
LINE
  5
22B5
  8
0
 62
     0
 10
147.5615336689157
 20
201.6184794745524
 30
0.0
 11
147.5615336689157
 21
201.6184794745524
 31
0.0
  0
LINE
  5
22B6
  8
0
 62
     0
 10
146.52652472033321
 20
201.4822179614462
 30
0.0
 11
146.52652472033321
 21
201.4822179614462
 31
0.0
  0
LINE
  5
22B7
  8
0
 62
     0
 10
151.97735631485921
 20
204.17276626765249
 30
0.0
 11
151.97735631485921
 21
204.17276626765249
 31
0.0
  0
LINE
  5
22B8
  8
0
 62
     0
 10
151.35786190767831
 20
204.09120828170569
 30
0.0
 11
151.35786190767831
 21
204.09120828170569
 31
0.0
  0
LINE
  5
22B9
  8
0
 62
     0
 10
150.96123439088581
 20
204.03899127850809
 30
0.0
 11
150.96123439088581
 21
204.03899127850809
 31
0.0
  0
LINE
  5
22BA
  8
0
 62
     0
 10
149.92622544230321
 20
203.90272976540189
 30
0.0
 11
149.92622544230321
 21
203.90272976540189
 31
0.0
  0
LINE
  5
22BB
  8
0
 62
     0
 10
149.3067310351224
 20
203.82117177945511
 30
0.0
 11
149.3067310351224
 21
203.82117177945511
 31
0.0
  0
LINE
  5
22BC
  8
0
 62
     0
 10
148.91010351832981
 20
203.76895477625749
 30
0.0
 11
148.91010351832981
 21
203.76895477625749
 31
0.0
  0
LINE
  5
22BD
  8
0
 62
     0
 10
147.8750945697472
 20
203.63269326315131
 30
0.0
 11
147.8750945697472
 21
203.63269326315131
 31
0.0
  0
LINE
  5
22BE
  8
0
 62
     0
 10
147.2556001625664
 20
203.55113527720451
 30
0.0
 11
147.2556001625664
 21
203.55113527720451
 31
0.0
  0
LINE
  5
22BF
  8
0
 62
     0
 10
146.8589726457738
 20
203.49891827400691
 30
0.0
 11
146.8589726457738
 21
203.49891827400691
 31
0.0
  0
LINE
  5
22C0
  8
0
 62
     0
 10
151.2747952917172
 20
206.05320506710689
 30
0.0
 11
151.2747952917172
 21
206.05320506710689
 31
0.0
  0
LINE
  5
22C1
  8
0
 62
     0
 10
150.6553008845363
 20
205.9716470811602
 30
0.0
 11
150.6553008845363
 21
205.9716470811602
 31
0.0
  0
LINE
  5
22C2
  8
0
 62
     0
 10
150.2586733677438
 20
205.91943007796249
 30
0.0
 11
150.2586733677438
 21
205.91943007796249
 31
0.0
  0
LINE
  5
22C3
  8
0
 62
     0
 10
149.2236644191612
 20
205.78316856485631
 30
0.0
 11
149.2236644191612
 21
205.78316856485631
 31
0.0
  0
LINE
  5
22C4
  8
0
 62
     0
 10
148.60417001198039
 20
205.70161057890959
 30
0.0
 11
148.60417001198039
 21
205.70161057890959
 31
0.0
  0
LINE
  5
22C5
  8
0
 62
     0
 10
148.20754249518779
 20
205.64939357571191
 30
0.0
 11
148.20754249518779
 21
205.64939357571191
 31
0.0
  0
LINE
  5
22C6
  8
0
 62
     0
 10
147.17253354660519
 20
205.51313206260571
 30
0.0
 11
147.17253354660519
 21
205.51313206260571
 31
0.0
  0
LINE
  5
22C7
  8
0
 62
     0
 10
146.55303913942441
 20
205.43157407665899
 30
0.0
 11
146.55303913942441
 21
205.43157407665899
 31
0.0
  0
LINE
  5
22C8
  8
0
 62
     0
 10
146.15641162263179
 20
205.37935707346131
 30
0.0
 11
146.15641162263179
 21
205.37935707346131
 31
0.0
  0
LINE
  5
22C9
  8
0
 62
     0
 10
152.00387073395041
 20
208.1221223828652
 30
0.0
 11
152.00387073395041
 21
208.1221223828652
 31
0.0
  0
LINE
  5
22CA
  8
0
 62
     0
 10
151.60724321715779
 20
208.0699053796676
 30
0.0
 11
151.60724321715779
 21
208.0699053796676
 31
0.0
  0
LINE
  5
22CB
  8
0
 62
     0
 10
150.57223426857519
 20
207.9336438665614
 30
0.0
 11
150.57223426857519
 21
207.9336438665614
 31
0.0
  0
LINE
  5
22CC
  8
0
 62
     0
 10
149.95273986139441
 20
207.8520858806146
 30
0.0
 11
149.95273986139441
 21
207.8520858806146
 31
0.0
  0
LINE
  5
22CD
  8
0
 62
     0
 10
149.55611234460179
 20
207.799868877417
 30
0.0
 11
149.55611234460179
 21
207.799868877417
 31
0.0
  0
LINE
  5
22CE
  8
0
 62
     0
 10
148.52110339601921
 20
207.66360736431079
 30
0.0
 11
148.52110339601921
 21
207.66360736431079
 31
0.0
  0
LINE
  5
22CF
  8
0
 62
     0
 10
147.9016089888384
 20
207.58204937836399
 30
0.0
 11
147.9016089888384
 21
207.58204937836399
 31
0.0
  0
LINE
  5
22D0
  8
0
 62
     0
 10
147.50498147204581
 20
207.52983237516639
 30
0.0
 11
147.50498147204581
 21
207.52983237516639
 31
0.0
  0
LINE
  5
22D1
  8
0
 62
     0
 10
146.4699725234633
 20
207.39357086206019
 30
0.0
 11
146.4699725234633
 21
207.39357086206019
 31
0.0
  0
LINE
  5
22D2
  8
0
 62
     0
 10
151.92080411798921
 20
210.0841191682664
 30
0.0
 11
151.92080411798921
 21
210.0841191682664
 31
0.0
  0
LINE
  5
22D3
  8
0
 62
     0
 10
151.3013097108084
 20
210.00256118231971
 30
0.0
 11
151.3013097108084
 21
210.00256118231971
 31
0.0
  0
LINE
  5
22D4
  8
0
 62
     0
 10
150.90468219401581
 20
209.950344179122
 30
0.0
 11
150.90468219401581
 21
209.950344179122
 31
0.0
  0
LINE
  5
22D5
  8
0
 62
     0
 10
149.86967324543321
 20
209.81408266601579
 30
0.0
 11
149.86967324543321
 21
209.81408266601579
 31
0.0
  0
LINE
  5
22D6
  8
0
 62
     0
 10
149.2501788382524
 20
209.7325246800691
 30
0.0
 11
149.2501788382524
 21
209.7325246800691
 31
0.0
  0
LINE
  5
22D7
  8
0
 62
     0
 10
148.8535513214598
 20
209.68030767687139
 30
0.0
 11
148.8535513214598
 21
209.68030767687139
 31
0.0
  0
LINE
  5
22D8
  8
0
 62
     0
 10
147.8185423728772
 20
209.54404616376519
 30
0.0
 11
147.8185423728772
 21
209.54404616376519
 31
0.0
  0
LINE
  5
22D9
  8
0
 62
     0
 10
147.19904796569639
 20
209.4624881778185
 30
0.0
 11
147.19904796569639
 21
209.4624881778185
 31
0.0
  0
LINE
  5
22DA
  8
0
 62
     0
 10
146.8024204489038
 20
209.41027117462079
 30
0.0
 11
146.8024204489038
 21
209.41027117462079
 31
0.0
  0
LINE
  5
22DB
  8
0
 62
     0
 10
151.21824309484731
 20
211.96455796772091
 30
0.0
 11
151.21824309484731
 21
211.96455796772091
 31
0.0
  0
LINE
  5
22DC
  8
0
 62
     0
 10
150.59874868766639
 20
211.88299998177411
 30
0.0
 11
150.59874868766639
 21
211.88299998177411
 31
0.0
  0
LINE
  5
22DD
  8
0
 62
     0
 10
150.20212117087391
 20
211.83078297857651
 30
0.0
 11
150.20212117087391
 21
211.83078297857651
 31
0.0
  0
LINE
  5
22DE
  8
0
 62
     0
 10
149.16711222229131
 20
211.6945214654703
 30
0.0
 11
149.16711222229131
 21
211.6945214654703
 31
0.0
  0
LINE
  5
22DF
  8
0
 62
     0
 10
148.5476178151105
 20
211.6129634795235
 30
0.0
 11
148.5476178151105
 21
211.6129634795235
 31
0.0
  0
LINE
  5
22E0
  8
0
 62
     0
 10
148.15099029831791
 20
211.5607464763259
 30
0.0
 11
148.15099029831791
 21
211.5607464763259
 31
0.0
  0
LINE
  5
22E1
  8
0
 62
     0
 10
147.11598134973531
 20
211.4244849632197
 30
0.0
 11
147.11598134973531
 21
211.4244849632197
 31
0.0
  0
LINE
  5
22E2
  8
0
 62
     0
 10
146.4964869425545
 20
211.3429269772729
 30
0.0
 11
146.4964869425545
 21
211.3429269772729
 31
0.0
  0
LINE
  5
22E3
  8
0
 62
     0
 10
151.2133899054848
 20
201.01109965766241
 30
0.0
 11
151.2133899054848
 21
201.01109965766241
 31
0.0
  0
LINE
  5
22E4
  8
0
 62
     0
 10
152.0842825394642
 20
203.1844312071855
 30
0.0
 11
152.0842825394642
 21
203.1844312071855
 31
0.0
  0
LINE
  5
22E5
  8
0
 62
     0
 10
151.16538896660529
 20
202.47933936965049
 30
0.0
 11
151.16538896660529
 21
202.47933936965049
 31
0.0
  0
LINE
  5
22E6
  8
0
 62
     0
 10
150.18301919298969
 20
201.72554053018041
 30
0.0
 11
150.18301919298969
 21
201.72554053018041
 31
0.0
  0
LINE
  5
22E7
  8
0
 62
     0
 10
149.15530927597641
 20
200.93695097504249
 30
0.0
 11
149.15530927597641
 21
200.93695097504249
 31
0.0
  0
LINE
  5
22E8
  8
0
 62
     0
 10
152.0362816005848
 20
204.6526709191736
 30
0.0
 11
152.0362816005848
 21
204.6526709191736
 31
0.0
  0
LINE
  5
22E9
  8
0
 62
     0
 10
151.11738802772581
 20
203.94757908163851
 30
0.0
 11
151.11738802772581
 21
203.94757908163851
 31
0.0
  0
LINE
  5
22EA
  8
0
 62
     0
 10
150.13501825411021
 20
203.19378024216849
 30
0.0
 11
150.13501825411021
 21
203.19378024216849
 31
0.0
  0
LINE
  5
22EB
  8
0
 62
     0
 10
149.1073083370969
 20
202.4051906870306
 30
0.0
 11
149.1073083370969
 21
202.4051906870306
 31
0.0
  0
LINE
  5
22EC
  8
0
 62
     0
 10
148.18841476423799
 20
201.7000988494955
 30
0.0
 11
148.18841476423799
 21
201.7000988494955
 31
0.0
  0
LINE
  5
22ED
  8
0
 62
     0
 10
147.20604499062239
 20
200.94630001002551
 30
0.0
 11
147.20604499062239
 21
200.94630001002551
 31
0.0
  0
LINE
  5
22EE
  8
0
 62
     0
 10
151.9882806617052
 20
206.12091063116159
 30
0.0
 11
151.9882806617052
 21
206.12091063116159
 31
0.0
  0
LINE
  5
22EF
  8
0
 62
     0
 10
151.0693870888463
 20
205.4158187936265
 30
0.0
 11
151.0693870888463
 21
205.4158187936265
 31
0.0
  0
LINE
  5
22F0
  8
0
 62
     0
 10
150.0870173152307
 20
204.66201995415651
 30
0.0
 11
150.0870173152307
 21
204.66201995415651
 31
0.0
  0
LINE
  5
22F1
  8
0
 62
     0
 10
149.05930739821741
 20
203.87343039901859
 30
0.0
 11
149.05930739821741
 21
203.87343039901859
 31
0.0
  0
LINE
  5
22F2
  8
0
 62
     0
 10
148.14041382535851
 20
203.16833856148349
 30
0.0
 11
148.14041382535851
 21
203.16833856148349
 31
0.0
  0
LINE
  5
22F3
  8
0
 62
     0
 10
147.15804405174291
 20
202.4145397220135
 30
0.0
 11
147.15804405174291
 21
202.4145397220135
 31
0.0
  0
LINE
  5
22F4
  8
0
 62
     0
 10
151.94027972282569
 20
207.58915034314961
 30
0.0
 11
151.94027972282569
 21
207.58915034314961
 31
0.0
  0
LINE
  5
22F5
  8
0
 62
     0
 10
151.02138614996679
 20
206.88405850561449
 30
0.0
 11
151.02138614996679
 21
206.88405850561449
 31
0.0
  0
LINE
  5
22F6
  8
0
 62
     0
 10
150.0390163763511
 20
206.1302596661445
 30
0.0
 11
150.0390163763511
 21
206.1302596661445
 31
0.0
  0
LINE
  5
22F7
  8
0
 62
     0
 10
149.0113064593379
 20
205.34167011100661
 30
0.0
 11
149.0113064593379
 21
205.34167011100661
 31
0.0
  0
LINE
  5
22F8
  8
0
 62
     0
 10
148.09241288647891
 20
204.63657827347151
 30
0.0
 11
148.09241288647891
 21
204.63657827347151
 31
0.0
  0
LINE
  5
22F9
  8
0
 62
     0
 10
147.11004311286331
 20
203.88277943400149
 30
0.0
 11
147.11004311286331
 21
203.88277943400149
 31
0.0
  0
LINE
  5
22FA
  8
0
 62
     0
 10
151.89227878394621
 20
209.0573900551376
 30
0.0
 11
151.89227878394621
 21
209.0573900551376
 31
0.0
  0
LINE
  5
22FB
  8
0
 62
     0
 10
150.9733852110873
 20
208.35229821760259
 30
0.0
 11
150.9733852110873
 21
208.35229821760259
 31
0.0
  0
LINE
  5
22FC
  8
0
 62
     0
 10
149.99101543747159
 20
207.59849937813249
 30
0.0
 11
149.99101543747159
 21
207.59849937813249
 31
0.0
  0
LINE
  5
22FD
  8
0
 62
     0
 10
148.96330552045839
 20
206.8099098229946
 30
0.0
 11
148.96330552045839
 21
206.8099098229946
 31
0.0
  0
LINE
  5
22FE
  8
0
 62
     0
 10
148.0444119475994
 20
206.10481798545959
 30
0.0
 11
148.0444119475994
 21
206.10481798545959
 31
0.0
  0
LINE
  5
22FF
  8
0
 62
     0
 10
147.0620421739838
 20
205.35101914598951
 30
0.0
 11
147.0620421739838
 21
205.35101914598951
 31
0.0
  0
LINE
  5
2300
  8
0
 62
     0
 10
151.84427784506661
 20
210.52562976712559
 30
0.0
 11
151.84427784506661
 21
210.52562976712559
 31
0.0
  0
LINE
  5
2301
  8
0
 62
     0
 10
150.92538427220771
 20
209.82053792959061
 30
0.0
 11
150.92538427220771
 21
209.82053792959061
 31
0.0
  0
LINE
  5
2302
  8
0
 62
     0
 10
149.94301449859211
 20
209.06673909012051
 30
0.0
 11
149.94301449859211
 21
209.06673909012051
 31
0.0
  0
LINE
  5
2303
  8
0
 62
     0
 10
148.91530458157879
 20
208.2781495349827
 30
0.0
 11
148.91530458157879
 21
208.2781495349827
 31
0.0
  0
LINE
  5
2304
  8
0
 62
     0
 10
147.99641100871989
 20
207.57305769744761
 30
0.0
 11
147.99641100871989
 21
207.57305769744761
 31
0.0
  0
LINE
  5
2305
  8
0
 62
     0
 10
147.01404123510429
 20
206.8192588579775
 30
0.0
 11
147.01404123510429
 21
206.8192588579775
 31
0.0
  0
LINE
  5
2306
  8
0
 62
     0
 10
151.7962769061871
 20
211.9938694791137
 30
0.0
 11
151.7962769061871
 21
211.9938694791137
 31
0.0
  0
LINE
  5
2307
  8
0
 62
     0
 10
150.8773833333282
 20
211.2887776415786
 30
0.0
 11
150.8773833333282
 21
211.2887776415786
 31
0.0
  0
LINE
  5
2308
  8
0
 62
     0
 10
149.89501355971259
 20
210.53497880210861
 30
0.0
 11
149.89501355971259
 21
210.53497880210861
 31
0.0
  0
LINE
  5
2309
  8
0
 62
     0
 10
148.86730364269931
 20
209.74638924697069
 30
0.0
 11
148.86730364269931
 21
209.74638924697069
 31
0.0
  0
LINE
  5
230A
  8
0
 62
     0
 10
147.94841006984041
 20
209.0412974094356
 30
0.0
 11
147.94841006984041
 21
209.0412974094356
 31
0.0
  0
LINE
  5
230B
  8
0
 62
     0
 10
146.96604029622469
 20
208.28749856996561
 30
0.0
 11
146.96604029622469
 21
208.28749856996561
 31
0.0
  0
LINE
  5
230C
  8
0
 62
     0
 10
149.84701262083311
 20
212.0032185140966
 30
0.0
 11
149.84701262083311
 21
212.0032185140966
 31
0.0
  0
LINE
  5
230D
  8
0
 62
     0
 10
148.8193027038198
 20
211.21462895895871
 30
0.0
 11
148.8193027038198
 21
211.21462895895871
 31
0.0
  0
LINE
  5
230E
  8
0
 62
     0
 10
147.9004091309609
 20
210.5095371214237
 30
0.0
 11
147.9004091309609
 21
210.5095371214237
 31
0.0
  0
LINE
  5
230F
  8
0
 62
     0
 10
146.91803935734521
 20
209.7557382819536
 30
0.0
 11
146.91803935734521
 21
209.7557382819536
 31
0.0
  0
LINE
  5
2310
  8
0
 62
     0
 10
147.85240819208141
 20
211.9777768334117
 30
0.0
 11
147.85240819208141
 21
211.9777768334117
 31
0.0
  0
LINE
  5
2311
  8
0
 62
     0
 10
146.8700384184657
 20
211.22397799394159
 30
0.0
 11
146.8700384184657
 21
211.22397799394159
 31
0.0
  0
ENDBLK
  5
2313
  8
0
  0
BLOCK
  8
0
  2
*X56
 70
     1
 10
0.0
 20
0.0
 30
0.0
  3
*X56
  1

  0
LINE
  5
2315
  8
0
 62
     0
 10
87.858025814577786
 20
237.41471916455379
 30
0.0
 11
87.858025814577786
 21
237.41471916455379
 31
0.0
  0
LINE
  5
2316
  8
0
 62
     0
 10
87.717574481915463
 20
237.5434190991046
 30
0.0
 11
87.717574481915463
 21
237.5434190991046
 31
0.0
  0
LINE
  5
2317
  8
0
 62
     0
 10
86.959137285538887
 20
238.23839874567889
 30
0.0
 11
86.959137285538887
 21
238.23839874567889
 31
0.0
  0
LINE
  5
2318
  8
0
 62
     0
 10
86.296206995372685
 20
238.84586243675861
 30
0.0
 11
86.296206995372685
 21
238.84586243675861
 31
0.0
  0
LINE
  5
2319
  8
0
 62
     0
 10
86.155755662710376
 20
238.9745623713093
 30
0.0
 11
86.155755662710376
 21
238.9745623713093
 31
0.0
  0
LINE
  5
231A
  8
0
 62
     0
 10
85.3973184663338
 20
239.6695420178836
 30
0.0
 11
85.3973184663338
 21
239.6695420178836
 31
0.0
  0
LINE
  5
231B
  8
0
 62
     0
 10
84.734388176167613
 20
240.2770057089632
 30
0.0
 11
84.734388176167613
 21
240.2770057089632
 31
0.0
  0
LINE
  5
231C
  8
0
 62
     0
 10
84.593936843505276
 20
240.40570564351401
 30
0.0
 11
84.593936843505276
 21
240.40570564351401
 31
0.0
  0
LINE
  5
231D
  8
0
 62
     0
 10
90.811625462160833
 20
237.4760434432458
 30
0.0
 11
90.811625462160833
 21
237.4760434432458
 31
0.0
  0
LINE
  5
231E
  8
0
 62
     0
 10
90.14869517199466
 20
238.08350713432549
 30
0.0
 11
90.14869517199466
 21
238.08350713432549
 31
0.0
  0
LINE
  5
231F
  8
0
 62
     0
 10
90.008243839332323
 20
238.2122070688763
 30
0.0
 11
90.008243839332323
 21
238.2122070688763
 31
0.0
  0
LINE
  5
2320
  8
0
 62
     0
 10
89.249806642955761
 20
238.90718671545051
 30
0.0
 11
89.249806642955761
 21
238.90718671545051
 31
0.0
  0
LINE
  5
2321
  8
0
 62
     0
 10
88.586876352789574
 20
239.51465040653019
 30
0.0
 11
88.586876352789574
 21
239.51465040653019
 31
0.0
  0
LINE
  5
2322
  8
0
 62
     0
 10
88.446425020127251
 20
239.643350341081
 30
0.0
 11
88.446425020127251
 21
239.643350341081
 31
0.0
  0
LINE
  5
2323
  8
0
 62
     0
 10
87.687987823750674
 20
240.33832998765519
 30
0.0
 11
87.687987823750674
 21
240.33832998765519
 31
0.0
  0
LINE
  5
2324
  8
0
 62
     0
 10
87.025057533584487
 20
240.9457936787349
 30
0.0
 11
87.025057533584487
 21
240.9457936787349
 31
0.0
  0
LINE
  5
2325
  8
0
 62
     0
 10
86.884606200922164
 20
241.07449361328571
 30
0.0
 11
86.884606200922164
 21
241.07449361328571
 31
0.0
  0
LINE
  5
2326
  8
0
 62
     0
 10
86.126169004545588
 20
241.76947325985989
 30
0.0
 11
86.126169004545588
 21
241.76947325985989
 31
0.0
  0
LINE
  5
2327
  8
0
 62
     0
 10
85.463238714379386
 20
242.37693695093961
 30
0.0
 11
85.463238714379386
 21
242.37693695093961
 31
0.0
  0
LINE
  5
2328
  8
0
 62
     0
 10
85.322787381717077
 20
242.50563688549039
 30
0.0
 11
85.322787381717077
 21
242.50563688549039
 31
0.0
  0
LINE
  5
2329
  8
0
 62
     0
 10
84.564350185340487
 20
243.2006165320646
 30
0.0
 11
84.564350185340487
 21
243.2006165320646
 31
0.0
  0
LINE
  5
232A
  8
0
 62
     0
 10
94.001183348616621
 20
237.32115183189251
 30
0.0
 11
94.001183348616621
 21
237.32115183189251
 31
0.0
  0
LINE
  5
232B
  8
0
 62
     0
 10
93.860732015954284
 20
237.4498517664432
 30
0.0
 11
93.860732015954284
 21
237.4498517664432
 31
0.0
  0
LINE
  5
232C
  8
0
 62
     0
 10
93.102294819577722
 20
238.14483141301741
 30
0.0
 11
93.102294819577722
 21
238.14483141301741
 31
0.0
  0
LINE
  5
232D
  8
0
 62
     0
 10
92.439364529411534
 20
238.7522951040971
 30
0.0
 11
92.439364529411534
 21
238.7522951040971
 31
0.0
  0
LINE
  5
232E
  8
0
 62
     0
 10
92.298913196749211
 20
238.88099503864791
 30
0.0
 11
92.298913196749211
 21
238.88099503864791
 31
0.0
  0
LINE
  5
232F
  8
0
 62
     0
 10
91.540476000372635
 20
239.57597468522221
 30
0.0
 11
91.540476000372635
 21
239.57597468522221
 31
0.0
  0
LINE
  5
2330
  8
0
 62
     0
 10
90.877545710206434
 20
240.18343837630189
 30
0.0
 11
90.877545710206434
 21
240.18343837630189
 31
0.0
  0
LINE
  5
2331
  8
0
 62
     0
 10
90.737094377544125
 20
240.31213831085259
 30
0.0
 11
90.737094377544125
 21
240.31213831085259
 31
0.0
  0
LINE
  5
2332
  8
0
 62
     0
 10
89.978657181167534
 20
241.00711795742691
 30
0.0
 11
89.978657181167534
 21
241.00711795742691
 31
0.0
  0
LINE
  5
2333
  8
0
 62
     0
 10
89.315726891001361
 20
241.6145816485066
 30
0.0
 11
89.315726891001361
 21
241.6145816485066
 31
0.0
  0
LINE
  5
2334
  8
0
 62
     0
 10
89.175275558339038
 20
241.74328158305741
 30
0.0
 11
89.175275558339038
 21
241.74328158305741
 31
0.0
  0
LINE
  5
2335
  8
0
 62
     0
 10
88.416838361962462
 20
242.43826122963159
 30
0.0
 11
88.416838361962462
 21
242.43826122963159
 31
0.0
  0
LINE
  5
2336
  8
0
 62
     0
 10
87.753908071796275
 20
243.04572492071131
 30
0.0
 11
87.753908071796275
 21
243.04572492071131
 31
0.0
  0
LINE
  5
2337
  8
0
 62
     0
 10
87.613456739133937
 20
243.17442485526209
 30
0.0
 11
87.613456739133937
 21
243.17442485526209
 31
0.0
  0
LINE
  5
2338
  8
0
 62
     0
 10
96.954782996199711
 20
237.38247611058441
 30
0.0
 11
96.954782996199711
 21
237.38247611058441
 31
0.0
  0
LINE
  5
2339
  8
0
 62
     0
 10
96.291852706033524
 20
237.98993980166401
 30
0.0
 11
96.291852706033524
 21
237.98993980166401
 31
0.0
  0
LINE
  5
233A
  8
0
 62
     0
 10
96.151401373371215
 20
238.11863973621479
 30
0.0
 11
96.151401373371215
 21
238.11863973621479
 31
0.0
  0
LINE
  5
233B
  8
0
 62
     0
 10
95.392964176994624
 20
238.81361938278911
 30
0.0
 11
95.392964176994624
 21
238.81361938278911
 31
0.0
  0
LINE
  5
233C
  8
0
 62
     0
 10
94.730033886828437
 20
239.4210830738688
 30
0.0
 11
94.730033886828437
 21
239.4210830738688
 31
0.0
  0
LINE
  5
233D
  8
0
 62
     0
 10
94.589582554166114
 20
239.5497830084195
 30
0.0
 11
94.589582554166114
 21
239.5497830084195
 31
0.0
  0
LINE
  5
233E
  8
0
 62
     0
 10
93.831145357789538
 20
240.24476265499379
 30
0.0
 11
93.831145357789538
 21
240.24476265499379
 31
0.0
  0
LINE
  5
233F
  8
0
 62
     0
 10
93.168215067623365
 20
240.85222634607351
 30
0.0
 11
93.168215067623365
 21
240.85222634607351
 31
0.0
  0
LINE
  5
2340
  8
0
 62
     0
 10
93.027763734961027
 20
240.98092628062429
 30
0.0
 11
93.027763734961027
 21
240.98092628062429
 31
0.0
  0
LINE
  5
2341
  8
0
 62
     0
 10
92.269326538584465
 20
241.6759059271985
 30
0.0
 11
92.269326538584465
 21
241.6759059271985
 31
0.0
  0
LINE
  5
2342
  8
0
 62
     0
 10
91.606396248418264
 20
242.28336961827819
 30
0.0
 11
91.606396248418264
 21
242.28336961827819
 31
0.0
  0
LINE
  5
2343
  8
0
 62
     0
 10
91.465944915755941
 20
242.412069552829
 30
0.0
 11
91.465944915755941
 21
242.412069552829
 31
0.0
  0
LINE
  5
2344
  8
0
 62
     0
 10
90.707507719379365
 20
243.10704919940321
 30
0.0
 11
90.707507719379365
 21
243.10704919940321
 31
0.0
  0
LINE
  5
2345
  8
0
 62
     0
 10
100.0038895499932
 20
237.35628443378181
 30
0.0
 11
100.0038895499932
 21
237.35628443378181
 31
0.0
  0
LINE
  5
2346
  8
0
 62
     0
 10
99.245452353616614
 20
238.05126408035599
 30
0.0
 11
99.245452353616614
 21
238.05126408035599
 31
0.0
  0
LINE
  5
2347
  8
0
 62
     0
 10
98.58252206345044
 20
238.65872777143571
 30
0.0
 11
98.58252206345044
 21
238.65872777143571
 31
0.0
  0
LINE
  5
2348
  8
0
 62
     0
 10
98.442070730788132
 20
238.78742770598649
 30
0.0
 11
98.442070730788132
 21
238.78742770598649
 31
0.0
  0
LINE
  5
2349
  8
0
 62
     0
 10
97.683633534411541
 20
239.4824073525607
 30
0.0
 11
97.683633534411541
 21
239.4824073525607
 31
0.0
  0
LINE
  5
234A
  8
0
 62
     0
 10
97.020703244245354
 20
240.08987104364039
 30
0.0
 11
97.020703244245354
 21
240.08987104364039
 31
0.0
  0
LINE
  5
234B
  8
0
 62
     0
 10
96.880251911583031
 20
240.2185709781912
 30
0.0
 11
96.880251911583031
 21
240.2185709781912
 31
0.0
  0
LINE
  5
234C
  8
0
 62
     0
 10
96.121814715206455
 20
240.91355062476541
 30
0.0
 11
96.121814715206455
 21
240.91355062476541
 31
0.0
  0
LINE
  5
234D
  8
0
 62
     0
 10
95.458884425040267
 20
241.52101431584509
 30
0.0
 11
95.458884425040267
 21
241.52101431584509
 31
0.0
  0
LINE
  5
234E
  8
0
 62
     0
 10
95.318433092377944
 20
241.6497142503959
 30
0.0
 11
95.318433092377944
 21
241.6497142503959
 31
0.0
  0
LINE
  5
234F
  8
0
 62
     0
 10
94.559995896001368
 20
242.34469389697011
 30
0.0
 11
94.559995896001368
 21
242.34469389697011
 31
0.0
  0
LINE
  5
2350
  8
0
 62
     0
 10
93.897065605835166
 20
242.9521575880498
 30
0.0
 11
93.897065605835166
 21
242.9521575880498
 31
0.0
  0
LINE
  5
2351
  8
0
 62
     0
 10
93.756614273172858
 20
243.08085752260061
 30
0.0
 11
93.756614273172858
 21
243.08085752260061
 31
0.0
  0
LINE
  5
2352
  8
0
 62
     0
 10
102.4350102400724
 20
237.8963724690027
 30
0.0
 11
102.4350102400724
 21
237.8963724690027
 31
0.0
  0
LINE
  5
2353
  8
0
 62
     0
 10
102.29455890741001
 20
238.02507240355351
 30
0.0
 11
102.29455890741001
 21
238.02507240355351
 31
0.0
  0
LINE
  5
2354
  8
0
 62
     0
 10
101.5361217110335
 20
238.72005205012769
 30
0.0
 11
101.5361217110335
 21
238.72005205012769
 31
0.0
  0
LINE
  5
2355
  8
0
 62
     0
 10
100.8731914208673
 20
239.32751574120741
 30
0.0
 11
100.8731914208673
 21
239.32751574120741
 31
0.0
  0
LINE
  5
2356
  8
0
 62
     0
 10
100.73274008820501
 20
239.45621567575819
 30
0.0
 11
100.73274008820501
 21
239.45621567575819
 31
0.0
  0
LINE
  5
2357
  8
0
 62
     0
 10
99.974302891828401
 20
240.1511953223324
 30
0.0
 11
99.974302891828401
 21
240.1511953223324
 31
0.0
  0
LINE
  5
2358
  8
0
 62
     0
 10
99.311372601662214
 20
240.75865901341211
 30
0.0
 11
99.311372601662214
 21
240.75865901341211
 31
0.0
  0
LINE
  5
2359
  8
0
 62
     0
 10
99.170921268999891
 20
240.88735894796289
 30
0.0
 11
99.170921268999891
 21
240.88735894796289
 31
0.0
  0
LINE
  5
235A
  8
0
 62
     0
 10
98.412484072623315
 20
241.58233859453711
 30
0.0
 11
98.412484072623315
 21
241.58233859453711
 31
0.0
  0
LINE
  5
235B
  8
0
 62
     0
 10
97.749553782457141
 20
242.18980228561679
 30
0.0
 11
97.749553782457141
 21
242.18980228561679
 31
0.0
  0
LINE
  5
235C
  8
0
 62
     0
 10
97.609102449794804
 20
242.3185022201676
 30
0.0
 11
97.609102449794804
 21
242.3185022201676
 31
0.0
  0
LINE
  5
235D
  8
0
 62
     0
 10
96.850665253418242
 20
243.01348186674181
 30
0.0
 11
96.850665253418242
 21
243.01348186674181
 31
0.0
  0
LINE
  5
235E
  8
0
 62
     0
 10
105.38860988765551
 20
237.9576967476946
 30
0.0
 11
105.38860988765551
 21
237.9576967476946
 31
0.0
  0
LINE
  5
235F
  8
0
 62
     0
 10
104.7256795974893
 20
238.56516043877431
 30
0.0
 11
104.7256795974893
 21
238.56516043877431
 31
0.0
  0
LINE
  5
2360
  8
0
 62
     0
 10
104.58522826482699
 20
238.69386037332509
 30
0.0
 11
104.58522826482699
 21
238.69386037332509
 31
0.0
  0
LINE
  5
2361
  8
0
 62
     0
 10
103.8267910684504
 20
239.38884001989931
 30
0.0
 11
103.8267910684504
 21
239.38884001989931
 31
0.0
  0
LINE
  5
2362
  8
0
 62
     0
 10
103.1638607782842
 20
239.99630371097899
 30
0.0
 11
103.1638607782842
 21
239.99630371097899
 31
0.0
  0
LINE
  5
2363
  8
0
 62
     0
 10
103.02340944562189
 20
240.1250036455298
 30
0.0
 11
103.02340944562189
 21
240.1250036455298
 31
0.0
  0
LINE
  5
2364
  8
0
 62
     0
 10
102.2649722492453
 20
240.81998329210401
 30
0.0
 11
102.2649722492453
 21
240.81998329210401
 31
0.0
  0
LINE
  5
2365
  8
0
 62
     0
 10
101.6020419590791
 20
241.4274469831837
 30
0.0
 11
101.6020419590791
 21
241.4274469831837
 31
0.0
  0
LINE
  5
2366
  8
0
 62
     0
 10
101.46159062641679
 20
241.55614691773451
 30
0.0
 11
101.46159062641679
 21
241.55614691773451
 31
0.0
  0
LINE
  5
2367
  8
0
 62
     0
 10
100.7031534300402
 20
242.25112656430881
 30
0.0
 11
100.7031534300402
 21
242.25112656430881
 31
0.0
  0
LINE
  5
2368
  8
0
 62
     0
 10
100.040223139874
 20
242.85859025538841
 30
0.0
 11
100.040223139874
 21
242.85859025538841
 31
0.0
  0
LINE
  5
2369
  8
0
 62
     0
 10
99.899771807211735
 20
242.98729018993919
 30
0.0
 11
99.899771807211735
 21
242.98729018993919
 31
0.0
  0
LINE
  5
236A
  8
0
 62
     0
 10
108.57816777411129
 20
237.80280513634131
 30
0.0
 11
108.57816777411129
 21
237.80280513634131
 31
0.0
  0
LINE
  5
236B
  8
0
 62
     0
 10
108.4377164414489
 20
237.931505070892
 30
0.0
 11
108.4377164414489
 21
237.931505070892
 31
0.0
  0
LINE
  5
236C
  8
0
 62
     0
 10
107.67927924507239
 20
238.6264847174663
 30
0.0
 11
107.67927924507239
 21
238.6264847174663
 31
0.0
  0
LINE
  5
236D
  8
0
 62
     0
 10
107.01634895490621
 20
239.2339484085459
 30
0.0
 11
107.01634895490621
 21
239.2339484085459
 31
0.0
  0
LINE
  5
236E
  8
0
 62
     0
 10
106.8758976222438
 20
239.36264834309671
 30
0.0
 11
106.8758976222438
 21
239.36264834309671
 31
0.0
  0
LINE
  5
236F
  8
0
 62
     0
 10
106.11746042586731
 20
240.057627989671
 30
0.0
 11
106.11746042586731
 21
240.057627989671
 31
0.0
  0
LINE
  5
2370
  8
0
 62
     0
 10
105.45453013570111
 20
240.66509168075069
 30
0.0
 11
105.45453013570111
 21
240.66509168075069
 31
0.0
  0
LINE
  5
2371
  8
0
 62
     0
 10
105.3140788030388
 20
240.79379161530139
 30
0.0
 11
105.3140788030388
 21
240.79379161530139
 31
0.0
  0
LINE
  5
2372
  8
0
 62
     0
 10
104.55564160666221
 20
241.48877126187571
 30
0.0
 11
104.55564160666221
 21
241.48877126187571
 31
0.0
  0
LINE
  5
2373
  8
0
 62
     0
 10
103.892711316496
 20
242.0962349529554
 30
0.0
 11
103.892711316496
 21
242.0962349529554
 31
0.0
  0
LINE
  5
2374
  8
0
 62
     0
 10
103.7522599838337
 20
242.22493488750621
 30
0.0
 11
103.7522599838337
 21
242.22493488750621
 31
0.0
  0
LINE
  5
2375
  8
0
 62
     0
 10
102.99382278745711
 20
242.91991453408039
 30
0.0
 11
102.99382278745711
 21
242.91991453408039
 31
0.0
  0
LINE
  5
2376
  8
0
 62
     0
 10
111.5317674216943
 20
237.8641294150332
 30
0.0
 11
111.5317674216943
 21
237.8641294150332
 31
0.0
  0
LINE
  5
2377
  8
0
 62
     0
 10
110.8688371315281
 20
238.47159310611289
 30
0.0
 11
110.8688371315281
 21
238.47159310611289
 31
0.0
  0
LINE
  5
2378
  8
0
 62
     0
 10
110.7283857988658
 20
238.6002930406637
 30
0.0
 11
110.7283857988658
 21
238.6002930406637
 31
0.0
  0
LINE
  5
2379
  8
0
 62
     0
 10
109.9699486024892
 20
239.29527268723791
 30
0.0
 11
109.9699486024892
 21
239.29527268723791
 31
0.0
  0
LINE
  5
237A
  8
0
 62
     0
 10
109.30701831232309
 20
239.9027363783176
 30
0.0
 11
109.30701831232309
 21
239.9027363783176
 31
0.0
  0
LINE
  5
237B
  8
0
 62
     0
 10
109.1665669796607
 20
240.03143631286841
 30
0.0
 11
109.1665669796607
 21
240.03143631286841
 31
0.0
  0
LINE
  5
237C
  8
0
 62
     0
 10
108.4081297832842
 20
240.7264159594427
 30
0.0
 11
108.4081297832842
 21
240.7264159594427
 31
0.0
  0
LINE
  5
237D
  8
0
 62
     0
 10
107.74519949311799
 20
241.33387965052231
 30
0.0
 11
107.74519949311799
 21
241.33387965052231
 31
0.0
  0
LINE
  5
237E
  8
0
 62
     0
 10
107.6047481604556
 20
241.46257958507309
 30
0.0
 11
107.6047481604556
 21
241.46257958507309
 31
0.0
  0
LINE
  5
237F
  8
0
 62
     0
 10
106.84631096407909
 20
242.1575592316473
 30
0.0
 11
106.84631096407909
 21
242.1575592316473
 31
0.0
  0
LINE
  5
2380
  8
0
 62
     0
 10
106.18338067391289
 20
242.76502292272701
 30
0.0
 11
106.18338067391289
 21
242.76502292272701
 31
0.0
  0
LINE
  5
2381
  8
0
 62
     0
 10
106.0429293412505
 20
242.89372285727779
 30
0.0
 11
106.0429293412505
 21
242.89372285727779
 31
0.0
  0
LINE
  5
2382
  8
0
 62
     0
 10
114.7213253081501
 20
237.7092378036798
 30
0.0
 11
114.7213253081501
 21
237.7092378036798
 31
0.0
  0
LINE
  5
2383
  8
0
 62
     0
 10
114.5808739754878
 20
237.83793773823061
 30
0.0
 11
114.5808739754878
 21
237.83793773823061
 31
0.0
  0
LINE
  5
2384
  8
0
 62
     0
 10
113.8224367791112
 20
238.5329173848049
 30
0.0
 11
113.8224367791112
 21
238.5329173848049
 31
0.0
  0
LINE
  5
2385
  8
0
 62
     0
 10
113.1595064889451
 20
239.14038107588459
 30
0.0
 11
113.1595064889451
 21
239.14038107588459
 31
0.0
  0
LINE
  5
2386
  8
0
 62
     0
 10
113.0190551562827
 20
239.26908101043529
 30
0.0
 11
113.0190551562827
 21
239.26908101043529
 31
0.0
  0
LINE
  5
2387
  8
0
 62
     0
 10
112.2606179599062
 20
239.96406065700961
 30
0.0
 11
112.2606179599062
 21
239.96406065700961
 31
0.0
  0
LINE
  5
2388
  8
0
 62
     0
 10
111.59768766974
 20
240.5715243480893
 30
0.0
 11
111.59768766974
 21
240.5715243480893
 31
0.0
  0
LINE
  5
2389
  8
0
 62
     0
 10
111.4572363370776
 20
240.70022428264011
 30
0.0
 11
111.4572363370776
 21
240.70022428264011
 31
0.0
  0
LINE
  5
238A
  8
0
 62
     0
 10
110.6987991407011
 20
241.39520392921429
 30
0.0
 11
110.6987991407011
 21
241.39520392921429
 31
0.0
  0
LINE
  5
238B
  8
0
 62
     0
 10
110.0358688505349
 20
242.00266762029401
 30
0.0
 11
110.0358688505349
 21
242.00266762029401
 31
0.0
  0
LINE
  5
238C
  8
0
 62
     0
 10
109.8954175178725
 20
242.1313675548447
 30
0.0
 11
109.8954175178725
 21
242.1313675548447
 31
0.0
  0
LINE
  5
238D
  8
0
 62
     0
 10
109.136980321496
 20
242.826347201419
 30
0.0
 11
109.136980321496
 21
242.826347201419
 31
0.0
  0
LINE
  5
238E
  8
0
 62
     0
 10
115.4501758463619
 20
239.8091690456562
 30
0.0
 11
115.4501758463619
 21
239.8091690456562
 31
0.0
  0
LINE
  5
238F
  8
0
 62
     0
 10
115.30972451369961
 20
239.93786898020701
 30
0.0
 11
115.30972451369961
 21
239.93786898020701
 31
0.0
  0
LINE
  5
2390
  8
0
 62
     0
 10
114.551287317323
 20
240.6328486267812
 30
0.0
 11
114.551287317323
 21
240.6328486267812
 31
0.0
  0
LINE
  5
2391
  8
0
 62
     0
 10
113.8883570271569
 20
241.24031231786091
 30
0.0
 11
113.8883570271569
 21
241.24031231786091
 31
0.0
  0
LINE
  5
2392
  8
0
 62
     0
 10
113.74790569449451
 20
241.36901225241169
 30
0.0
 11
113.74790569449451
 21
241.36901225241169
 31
0.0
  0
LINE
  5
2393
  8
0
 62
     0
 10
112.989468498118
 20
242.0639918989859
 30
0.0
 11
112.989468498118
 21
242.0639918989859
 31
0.0
  0
LINE
  5
2394
  8
0
 62
     0
 10
112.3265382079518
 20
242.67145559006559
 30
0.0
 11
112.3265382079518
 21
242.67145559006559
 31
0.0
  0
LINE
  5
2395
  8
0
 62
     0
 10
112.1860868752895
 20
242.8001555246164
 30
0.0
 11
112.1860868752895
 21
242.8001555246164
 31
0.0
  0
LINE
  5
2396
  8
0
 62
     0
 10
116.03857505191139
 20
242.03780022218331
 30
0.0
 11
116.03857505191139
 21
242.03780022218331
 31
0.0
  0
LINE
  5
2397
  8
0
 62
     0
 10
115.2801378555349
 20
242.7327798687576
 30
0.0
 11
115.2801378555349
 21
242.7327798687576
 31
0.0
  0
LINE
  5
2398
  8
0
 62
     0
 10
86.187752873205795
 20
237.4123794939062
 30
0.0
 11
86.187752873205795
 21
237.4123794939062
 31
0.0
  0
LINE
  5
2399
  8
0
 62
     0
 10
84.677491811188645
 20
238.37452190257289
 30
0.0
 11
84.677491811188645
 21
238.37452190257289
 31
0.0
  0
LINE
  5
239A
  8
0
 62
     0
 10
88.560729983930131
 20
237.4166910479419
 30
0.0
 11
88.560729983930131
 21
237.4166910479419
 31
0.0
  0
LINE
  5
239B
  8
0
 62
     0
 10
87.050468921912994
 20
238.3788334566085
 30
0.0
 11
87.050468921912994
 21
238.3788334566085
 31
0.0
  0
LINE
  5
239C
  8
0
 62
     0
 10
85.893673214836056
 20
239.115793599417
 30
0.0
 11
85.893673214836056
 21
239.115793599417
 31
0.0
  0
LINE
  5
239D
  8
0
 62
     0
 10
85.572341073981335
 20
239.32050475019719
 30
0.0
 11
85.572341073981335
 21
239.32050475019719
 31
0.0
  0
LINE
  5
239E
  8
0
 62
     0
 10
90.933707094654508
 20
237.42100260197751
 30
0.0
 11
90.933707094654508
 21
237.42100260197751
 31
0.0
  0
LINE
  5
239F
  8
0
 62
     0
 10
89.423446032637372
 20
238.3831450106442
 30
0.0
 11
89.423446032637372
 21
238.3831450106442
 31
0.0
  0
LINE
  5
23A0
  8
0
 62
     0
 10
88.266650325560406
 20
239.1201051534527
 30
0.0
 11
88.266650325560406
 21
239.1201051534527
 31
0.0
  0
LINE
  5
23A1
  8
0
 62
     0
 10
87.945318184705727
 20
239.3248163042328
 30
0.0
 11
87.945318184705727
 21
239.3248163042328
 31
0.0
  0
LINE
  5
23A2
  8
0
 62
     0
 10
86.435057122688576
 20
240.28695871289949
 30
0.0
 11
86.435057122688576
 21
240.28695871289949
 31
0.0
  0
LINE
  5
23A3
  8
0
 62
     0
 10
85.278261415611624
 20
241.02391885570799
 30
0.0
 11
85.278261415611624
 21
241.02391885570799
 31
0.0
  0
LINE
  5
23A4
  8
0
 62
     0
 10
84.956929274756916
 20
241.22863000648809
 30
0.0
 11
84.956929274756916
 21
241.22863000648809
 31
0.0
  0
LINE
  5
23A5
  8
0
 62
     0
 10
93.3066842053789
 20
237.4253141560132
 30
0.0
 11
93.3066842053789
 21
237.4253141560132
 31
0.0
  0
LINE
  5
23A6
  8
0
 62
     0
 10
91.796423143361764
 20
238.38745656467981
 30
0.0
 11
91.796423143361764
 21
238.38745656467981
 31
0.0
  0
LINE
  5
23A7
  8
0
 62
     0
 10
90.639627436284812
 20
239.12441670748831
 30
0.0
 11
90.639627436284812
 21
239.12441670748831
 31
0.0
  0
LINE
  5
23A8
  8
0
 62
     0
 10
90.318295295430104
 20
239.32912785826841
 30
0.0
 11
90.318295295430104
 21
239.32912785826841
 31
0.0
  0
LINE
  5
23A9
  8
0
 62
     0
 10
88.808034233412954
 20
240.2912702669351
 30
0.0
 11
88.808034233412954
 21
240.2912702669351
 31
0.0
  0
LINE
  5
23AA
  8
0
 62
     0
 10
87.651238526336016
 20
241.0282304097436
 30
0.0
 11
87.651238526336016
 21
241.0282304097436
 31
0.0
  0
LINE
  5
23AB
  8
0
 62
     0
 10
87.329906385481294
 20
241.2329415605237
 30
0.0
 11
87.329906385481294
 21
241.2329415605237
 31
0.0
  0
LINE
  5
23AC
  8
0
 62
     0
 10
85.819645323464158
 20
242.19508396919039
 30
0.0
 11
85.819645323464158
 21
242.19508396919039
 31
0.0
  0
LINE
  5
23AD
  8
0
 62
     0
 10
84.66284961638722
 20
242.93204411199889
 30
0.0
 11
84.66284961638722
 21
242.93204411199889
 31
0.0
  0
LINE
  5
23AE
  8
0
 62
     0
 10
84.341517475532513
 20
243.13675526277899
 30
0.0
 11
84.341517475532513
 21
243.13675526277899
 31
0.0
  0
LINE
  5
23AF
  8
0
 62
     0
 10
95.679661316103264
 20
237.42962571004881
 30
0.0
 11
95.679661316103264
 21
237.42962571004881
 31
0.0
  0
LINE
  5
23B0
  8
0
 62
     0
 10
94.169400254086113
 20
238.3917681187155
 30
0.0
 11
94.169400254086113
 21
238.3917681187155
 31
0.0
  0
LINE
  5
23B1
  8
0
 62
     0
 10
93.012604547009175
 20
239.128728261524
 30
0.0
 11
93.012604547009175
 21
239.128728261524
 31
0.0
  0
LINE
  5
23B2
  8
0
 62
     0
 10
92.691272406154454
 20
239.3334394123041
 30
0.0
 11
92.691272406154454
 21
239.3334394123041
 31
0.0
  0
LINE
  5
23B3
  8
0
 62
     0
 10
91.181011344137318
 20
240.2955818209708
 30
0.0
 11
91.181011344137318
 21
240.2955818209708
 31
0.0
  0
LINE
  5
23B4
  8
0
 62
     0
 10
90.024215637060379
 20
241.03254196377929
 30
0.0
 11
90.024215637060379
 21
241.03254196377929
 31
0.0
  0
LINE
  5
23B5
  8
0
 62
     0
 10
89.702883496205672
 20
241.23725311455939
 30
0.0
 11
89.702883496205672
 21
241.23725311455939
 31
0.0
  0
LINE
  5
23B6
  8
0
 62
     0
 10
88.192622434188536
 20
242.199395523226
 30
0.0
 11
88.192622434188536
 21
242.199395523226
 31
0.0
  0
LINE
  5
23B7
  8
0
 62
     0
 10
87.035826727111584
 20
242.93635566603459
 30
0.0
 11
87.035826727111584
 21
242.93635566603459
 31
0.0
  0
LINE
  5
23B8
  8
0
 62
     0
 10
86.714494586256876
 20
243.14106681681471
 30
0.0
 11
86.714494586256876
 21
243.14106681681471
 31
0.0
  0
LINE
  5
23B9
  8
0
 62
     0
 10
98.052638426827684
 20
237.43393726408439
 30
0.0
 11
98.052638426827684
 21
237.43393726408439
 31
0.0
  0
LINE
  5
23BA
  8
0
 62
     0
 10
96.542377364810577
 20
238.39607967275111
 30
0.0
 11
96.542377364810577
 21
238.39607967275111
 31
0.0
  0
LINE
  5
23BB
  8
0
 62
     0
 10
95.38558165773361
 20
239.13303981555961
 30
0.0
 11
95.38558165773361
 21
239.13303981555961
 31
0.0
  0
LINE
  5
23BC
  8
0
 62
     0
 10
95.064249516878903
 20
239.33775096633971
 30
0.0
 11
95.064249516878903
 21
239.33775096633971
 31
0.0
  0
LINE
  5
23BD
  8
0
 62
     0
 10
93.553988454861766
 20
240.29989337500641
 30
0.0
 11
93.553988454861766
 21
240.29989337500641
 31
0.0
  0
LINE
  5
23BE
  8
0
 62
     0
 10
92.397192747784814
 20
241.03685351781479
 30
0.0
 11
92.397192747784814
 21
241.03685351781479
 31
0.0
  0
LINE
  5
23BF
  8
0
 62
     0
 10
92.075860606930107
 20
241.241564668595
 30
0.0
 11
92.075860606930107
 21
241.241564668595
 31
0.0
  0
LINE
  5
23C0
  8
0
 62
     0
 10
90.565599544912956
 20
242.2037070772617
 30
0.0
 11
90.565599544912956
 21
242.2037070772617
 31
0.0
  0
LINE
  5
23C1
  8
0
 62
     0
 10
89.408803837836018
 20
242.94066722007011
 30
0.0
 11
89.408803837836018
 21
242.94066722007011
 31
0.0
  0
LINE
  5
23C2
  8
0
 62
     0
 10
89.087471696981311
 20
243.1453783708503
 30
0.0
 11
89.087471696981311
 21
243.1453783708503
 31
0.0
  0
LINE
  5
23C3
  8
0
 62
     0
 10
100.42561553755201
 20
237.43824881812009
 30
0.0
 11
100.42561553755201
 21
237.43824881812009
 31
0.0
  0
LINE
  5
23C4
  8
0
 62
     0
 10
98.915354475534926
 20
238.4003912267867
 30
0.0
 11
98.915354475534926
 21
238.4003912267867
 31
0.0
  0
LINE
  5
23C5
  8
0
 62
     0
 10
97.758558768457945
 20
239.13735136959519
 30
0.0
 11
97.758558768457945
 21
239.13735136959519
 31
0.0
  0
LINE
  5
23C6
  8
0
 62
     0
 10
97.437226627603266
 20
239.34206252037529
 30
0.0
 11
97.437226627603266
 21
239.34206252037529
 31
0.0
  0
LINE
  5
23C7
  8
0
 62
     0
 10
95.926965565586116
 20
240.30420492904199
 30
0.0
 11
95.926965565586116
 21
240.30420492904199
 31
0.0
  0
LINE
  5
23C8
  8
0
 62
     0
 10
94.770169858509163
 20
241.04116507185049
 30
0.0
 11
94.770169858509163
 21
241.04116507185049
 31
0.0
  0
LINE
  5
23C9
  8
0
 62
     0
 10
94.448837717654456
 20
241.24587622263061
 30
0.0
 11
94.448837717654456
 21
241.24587622263061
 31
0.0
  0
LINE
  5
23CA
  8
0
 62
     0
 10
92.938576655637334
 20
242.20801863129731
 30
0.0
 11
92.938576655637334
 21
242.20801863129731
 31
0.0
  0
LINE
  5
23CB
  8
0
 62
     0
 10
91.781780948560353
 20
242.94497877410581
 30
0.0
 11
91.781780948560353
 21
242.94497877410581
 31
0.0
  0
LINE
  5
23CC
  8
0
 62
     0
 10
91.460448807705646
 20
243.14968992488591
 30
0.0
 11
91.460448807705646
 21
243.14968992488591
 31
0.0
  0
LINE
  5
23CD
  8
0
 62
     0
 10
102.7985926482764
 20
237.4425603721557
 30
0.0
 11
102.7985926482764
 21
237.4425603721557
 31
0.0
  0
LINE
  5
23CE
  8
0
 62
     0
 10
101.2883315862592
 20
238.4047027808223
 30
0.0
 11
101.2883315862592
 21
238.4047027808223
 31
0.0
  0
LINE
  5
23CF
  8
0
 62
     0
 10
100.13153587918229
 20
239.14166292363089
 30
0.0
 11
100.13153587918229
 21
239.14166292363089
 31
0.0
  0
LINE
  5
23D0
  8
0
 62
     0
 10
99.810203738327615
 20
239.34637407441099
 30
0.0
 11
99.810203738327615
 21
239.34637407441099
 31
0.0
  0
LINE
  5
23D1
  8
0
 62
     0
 10
98.299942676310479
 20
240.3085164830776
 30
0.0
 11
98.299942676310479
 21
240.3085164830776
 31
0.0
  0
LINE
  5
23D2
  8
0
 62
     0
 10
97.143146969233527
 20
241.04547662588621
 30
0.0
 11
97.143146969233527
 21
241.04547662588621
 31
0.0
  0
LINE
  5
23D3
  8
0
 62
     0
 10
96.821814828378834
 20
241.25018777666631
 30
0.0
 11
96.821814828378834
 21
241.25018777666631
 31
0.0
  0
LINE
  5
23D4
  8
0
 62
     0
 10
95.311553766361683
 20
242.21233018533289
 30
0.0
 11
95.311553766361683
 21
242.21233018533289
 31
0.0
  0
LINE
  5
23D5
  8
0
 62
     0
 10
94.154758059284731
 20
242.94929032814139
 30
0.0
 11
94.154758059284731
 21
242.94929032814139
 31
0.0
  0
LINE
  5
23D6
  8
0
 62
     0
 10
93.833425918430024
 20
243.1540014789216
 30
0.0
 11
93.833425918430024
 21
243.1540014789216
 31
0.0
  0
LINE
  5
23D7
  8
0
 62
     0
 10
105.1715697590007
 20
237.44687192619139
 30
0.0
 11
105.1715697590007
 21
237.44687192619139
 31
0.0
  0
LINE
  5
23D8
  8
0
 62
     0
 10
103.6613086969836
 20
238.409014334858
 30
0.0
 11
103.6613086969836
 21
238.409014334858
 31
0.0
  0
LINE
  5
23D9
  8
0
 62
     0
 10
102.5045129899066
 20
239.1459744776665
 30
0.0
 11
102.5045129899066
 21
239.1459744776665
 31
0.0
  0
LINE
  5
23DA
  8
0
 62
     0
 10
102.18318084905189
 20
239.35068562844671
 30
0.0
 11
102.18318084905189
 21
239.35068562844671
 31
0.0
  0
LINE
  5
23DB
  8
0
 62
     0
 10
100.6729197870348
 20
240.31282803711329
 30
0.0
 11
100.6729197870348
 21
240.31282803711329
 31
0.0
  0
LINE
  5
23DC
  8
0
 62
     0
 10
99.516124079957834
 20
241.04978817992179
 30
0.0
 11
99.516124079957834
 21
241.04978817992179
 31
0.0
  0
LINE
  5
23DD
  8
0
 62
     0
 10
99.194791939103126
 20
241.25449933070189
 30
0.0
 11
99.194791939103126
 21
241.25449933070189
 31
0.0
  0
LINE
  5
23DE
  8
0
 62
     0
 10
97.684530877086004
 20
242.21664173936861
 30
0.0
 11
97.684530877086004
 21
242.21664173936861
 31
0.0
  0
LINE
  5
23DF
  8
0
 62
     0
 10
96.527735170009038
 20
242.95360188217711
 30
0.0
 11
96.527735170009038
 21
242.95360188217711
 31
0.0
  0
LINE
  5
23E0
  8
0
 62
     0
 10
96.20640302915433
 20
243.15831303295721
 30
0.0
 11
96.20640302915433
 21
243.15831303295721
 31
0.0
  0
LINE
  5
23E1
  8
0
 62
     0
 10
107.5445468697251
 20
237.451183480227
 30
0.0
 11
107.5445468697251
 21
237.451183480227
 31
0.0
  0
LINE
  5
23E2
  8
0
 62
     0
 10
106.034285807708
 20
238.41332588889361
 30
0.0
 11
106.034285807708
 21
238.41332588889361
 31
0.0
  0
LINE
  5
23E3
  8
0
 62
     0
 10
104.87749010063099
 20
239.15028603170219
 30
0.0
 11
104.87749010063099
 21
239.15028603170219
 31
0.0
  0
LINE
  5
23E4
  8
0
 62
     0
 10
104.5561579597763
 20
239.35499718248221
 30
0.0
 11
104.5561579597763
 21
239.35499718248221
 31
0.0
  0
LINE
  5
23E5
  8
0
 62
     0
 10
103.04589689775921
 20
240.3171395911489
 30
0.0
 11
103.04589689775921
 21
240.3171395911489
 31
0.0
  0
LINE
  5
23E6
  8
0
 62
     0
 10
101.8891011906823
 20
241.0540997339574
 30
0.0
 11
101.8891011906823
 21
241.0540997339574
 31
0.0
  0
LINE
  5
23E7
  8
0
 62
     0
 10
101.5677690498276
 20
241.2588108847375
 30
0.0
 11
101.5677690498276
 21
241.2588108847375
 31
0.0
  0
LINE
  5
23E8
  8
0
 62
     0
 10
100.0575079878104
 20
242.22095329340419
 30
0.0
 11
100.0575079878104
 21
242.22095329340419
 31
0.0
  0
LINE
  5
23E9
  8
0
 62
     0
 10
98.900712280733487
 20
242.95791343621269
 30
0.0
 11
98.900712280733487
 21
242.95791343621269
 31
0.0
  0
LINE
  5
23EA
  8
0
 62
     0
 10
98.579380139878779
 20
243.16262458699279
 30
0.0
 11
98.579380139878779
 21
243.16262458699279
 31
0.0
  0
LINE
  5
23EB
  8
0
 62
     0
 10
109.9175239804495
 20
237.45549503426261
 30
0.0
 11
109.9175239804495
 21
237.45549503426261
 31
0.0
  0
LINE
  5
23EC
  8
0
 62
     0
 10
108.40726291843239
 20
238.4176374429293
 30
0.0
 11
108.40726291843239
 21
238.4176374429293
 31
0.0
  0
LINE
  5
23ED
  8
0
 62
     0
 10
107.2504672113554
 20
239.1545975857378
 30
0.0
 11
107.2504672113554
 21
239.1545975857378
 31
0.0
  0
LINE
  5
23EE
  8
0
 62
     0
 10
106.92913507050071
 20
239.3593087365179
 30
0.0
 11
106.92913507050071
 21
239.3593087365179
 31
0.0
  0
LINE
  5
23EF
  8
0
 62
     0
 10
105.4188740084835
 20
240.3214511451846
 30
0.0
 11
105.4188740084835
 21
240.3214511451846
 31
0.0
  0
LINE
  5
23F0
  8
0
 62
     0
 10
104.2620783014066
 20
241.0584112879931
 30
0.0
 11
104.2620783014066
 21
241.0584112879931
 31
0.0
  0
LINE
  5
23F1
  8
0
 62
     0
 10
103.9407461605519
 20
241.26312243877319
 30
0.0
 11
103.9407461605519
 21
241.26312243877319
 31
0.0
  0
LINE
  5
23F2
  8
0
 62
     0
 10
102.4304850985348
 20
242.2252648474398
 30
0.0
 11
102.4304850985348
 21
242.2252648474398
 31
0.0
  0
LINE
  5
23F3
  8
0
 62
     0
 10
101.27368939145779
 20
242.96222499024839
 30
0.0
 11
101.27368939145779
 21
242.96222499024839
 31
0.0
  0
LINE
  5
23F4
  8
0
 62
     0
 10
100.9523572506031
 20
243.16693614102849
 30
0.0
 11
100.9523572506031
 21
243.16693614102849
 31
0.0
  0
LINE
  5
23F5
  8
0
 62
     0
 10
112.29050109117389
 20
237.45980658829819
 30
0.0
 11
112.29050109117389
 21
237.45980658829819
 31
0.0
  0
LINE
  5
23F6
  8
0
 62
     0
 10
110.7802400291568
 20
238.42194899696489
 30
0.0
 11
110.7802400291568
 21
238.42194899696489
 31
0.0
  0
LINE
  5
23F7
  8
0
 62
     0
 10
109.62344432207981
 20
239.15890913977341
 30
0.0
 11
109.62344432207981
 21
239.15890913977341
 31
0.0
  0
LINE
  5
23F8
  8
0
 62
     0
 10
109.3021121812251
 20
239.36362029055351
 30
0.0
 11
109.3021121812251
 21
239.36362029055351
 31
0.0
  0
LINE
  5
23F9
  8
0
 62
     0
 10
107.791851119208
 20
240.32576269922021
 30
0.0
 11
107.791851119208
 21
240.32576269922021
 31
0.0
  0
LINE
  5
23FA
  8
0
 62
     0
 10
106.635055412131
 20
241.06272284202871
 30
0.0
 11
106.635055412131
 21
241.06272284202871
 31
0.0
  0
LINE
  5
23FB
  8
0
 62
     0
 10
106.3137232712763
 20
241.2674339928088
 30
0.0
 11
106.3137232712763
 21
241.2674339928088
 31
0.0
  0
LINE
  5
23FC
  8
0
 62
     0
 10
104.80346220925919
 20
242.2295764014755
 30
0.0
 11
104.80346220925919
 21
242.2295764014755
 31
0.0
  0
LINE
  5
23FD
  8
0
 62
     0
 10
103.6466665021822
 20
242.966536544284
 30
0.0
 11
103.6466665021822
 21
242.966536544284
 31
0.0
  0
LINE
  5
23FE
  8
0
 62
     0
 10
103.32533436132751
 20
243.1712476950641
 30
0.0
 11
103.32533436132751
 21
243.1712476950641
 31
0.0
  0
LINE
  5
23FF
  8
0
 62
     0
 10
114.6634782018982
 20
237.46411814233389
 30
0.0
 11
114.6634782018982
 21
237.46411814233389
 31
0.0
  0
LINE
  5
2400
  8
0
 62
     0
 10
113.15321713988109
 20
238.42626055100061
 30
0.0
 11
113.15321713988109
 21
238.42626055100061
 31
0.0
  0
LINE
  5
2401
  8
0
 62
     0
 10
111.9964214328041
 20
239.16322069380911
 30
0.0
 11
111.9964214328041
 21
239.16322069380911
 31
0.0
  0
LINE
  5
2402
  8
0
 62
     0
 10
111.6750892919494
 20
239.36793184458921
 30
0.0
 11
111.6750892919494
 21
239.36793184458921
 31
0.0
  0
LINE
  5
2403
  8
0
 62
     0
 10
110.1648282299323
 20
240.3300742532559
 30
0.0
 11
110.1648282299323
 21
240.3300742532559
 31
0.0
  0
LINE
  5
2404
  8
0
 62
     0
 10
109.0080325228553
 20
241.0670343960644
 30
0.0
 11
109.0080325228553
 21
241.0670343960644
 31
0.0
  0
LINE
  5
2405
  8
0
 62
     0
 10
108.68670038200059
 20
241.2717455468445
 30
0.0
 11
108.68670038200059
 21
241.2717455468445
 31
0.0
  0
LINE
  5
2406
  8
0
 62
     0
 10
107.1764393199835
 20
242.23388795551119
 30
0.0
 11
107.1764393199835
 21
242.23388795551119
 31
0.0
  0
LINE
  5
2407
  8
0
 62
     0
 10
106.01964361290651
 20
242.97084809831969
 30
0.0
 11
106.01964361290651
 21
242.97084809831969
 31
0.0
  0
LINE
  5
2408
  8
0
 62
     0
 10
105.6983114720518
 20
243.17555924909979
 30
0.0
 11
105.6983114720518
 21
243.17555924909979
 31
0.0
  0
LINE
  5
2409
  8
0
 62
     0
 10
115.5261942506054
 20
238.43057210503619
 30
0.0
 11
115.5261942506054
 21
238.43057210503619
 31
0.0
  0
LINE
  5
240A
  8
0
 62
     0
 10
114.3693985435285
 20
239.16753224784469
 30
0.0
 11
114.3693985435285
 21
239.16753224784469
 31
0.0
  0
LINE
  5
240B
  8
0
 62
     0
 10
114.0480664026738
 20
239.37224339862479
 30
0.0
 11
114.0480664026738
 21
239.37224339862479
 31
0.0
  0
LINE
  5
240C
  8
0
 62
     0
 10
112.5378053406566
 20
240.33438580729151
 30
0.0
 11
112.5378053406566
 21
240.33438580729151
 31
0.0
  0
LINE
  5
240D
  8
0
 62
     0
 10
111.38100963357969
 20
241.07134595010001
 30
0.0
 11
111.38100963357969
 21
241.07134595010001
 31
0.0
  0
LINE
  5
240E
  8
0
 62
     0
 10
111.059677492725
 20
241.27605710088011
 30
0.0
 11
111.059677492725
 21
241.27605710088011
 31
0.0
  0
LINE
  5
240F
  8
0
 62
     0
 10
109.54941643070789
 20
242.2381995095468
 30
0.0
 11
109.54941643070789
 21
242.2381995095468
 31
0.0
  0
LINE
  5
2410
  8
0
 62
     0
 10
108.3926207236309
 20
242.9751596523553
 30
0.0
 11
108.3926207236309
 21
242.9751596523553
 31
0.0
  0
LINE
  5
2411
  8
0
 62
     0
 10
108.07128858277621
 20
243.1798708031354
 30
0.0
 11
108.07128858277621
 21
243.1798708031354
 31
0.0
  0
LINE
  5
2412
  8
0
 62
     0
 10
114.9107824513811
 20
240.33869736132709
 30
0.0
 11
114.9107824513811
 21
240.33869736132709
 31
0.0
  0
LINE
  5
2413
  8
0
 62
     0
 10
113.7539867443041
 20
241.07565750413559
 30
0.0
 11
113.7539867443041
 21
241.07565750413559
 31
0.0
  0
LINE
  5
2414
  8
0
 62
     0
 10
113.43265460344939
 20
241.28036865491569
 30
0.0
 11
113.43265460344939
 21
241.28036865491569
 31
0.0
  0
LINE
  5
2415
  8
0
 62
     0
 10
111.9223935414323
 20
242.24251106358241
 30
0.0
 11
111.9223935414323
 21
242.24251106358241
 31
0.0
  0
LINE
  5
2416
  8
0
 62
     0
 10
110.7655978343553
 20
242.97947120639091
 30
0.0
 11
110.7655978343553
 21
242.97947120639091
 31
0.0
  0
LINE
  5
2417
  8
0
 62
     0
 10
110.4442656935006
 20
243.18418235717101
 30
0.0
 11
110.4442656935006
 21
243.18418235717101
 31
0.0
  0
LINE
  5
2418
  8
0
 62
     0
 10
115.8056317141738
 20
241.2846802089513
 30
0.0
 11
115.8056317141738
 21
241.2846802089513
 31
0.0
  0
LINE
  5
2419
  8
0
 62
     0
 10
114.29537065215671
 20
242.24682261761799
 30
0.0
 11
114.29537065215671
 21
242.24682261761799
 31
0.0
  0
LINE
  5
241A
  8
0
 62
     0
 10
113.1385749450797
 20
242.98378276042649
 30
0.0
 11
113.1385749450797
 21
242.98378276042649
 31
0.0
  0
LINE
  5
241B
  8
0
 62
     0
 10
112.817242804225
 20
243.18849391120659
 30
0.0
 11
112.817242804225
 21
243.18849391120659
 31
0.0
  0
LINE
  5
241C
  8
0
 62
     0
 10
115.5115520558041
 20
242.98809431446219
 30
0.0
 11
115.5115520558041
 21
242.98809431446219
 31
0.0
  0
LINE
  5
241D
  8
0
 62
     0
 10
115.1902199149493
 20
243.19280546524229
 30
0.0
 11
115.1902199149493
 21
243.19280546524229
 31
0.0
  0
LINE
  5
241E
  8
0
 62
     0
 10
115.3636962539039
 20
238.81114073198481
 30
0.0
 11
115.3636962539039
 21
238.81114073198481
 31
0.0
  0
LINE
  5
241F
  8
0
 62
     0
 10
114.7442018467231
 20
238.72958274603809
 30
0.0
 11
114.7442018467231
 21
238.72958274603809
 31
0.0
  0
LINE
  5
2420
  8
0
 62
     0
 10
114.3475743299305
 20
238.67736574284041
 30
0.0
 11
114.3475743299305
 21
238.67736574284041
 31
0.0
  0
LINE
  5
2421
  8
0
 62
     0
 10
113.31256538134789
 20
238.5411042297342
 30
0.0
 11
113.31256538134789
 21
238.5411042297342
 31
0.0
  0
LINE
  5
2422
  8
0
 62
     0
 10
112.6930709741671
 20
238.45954624378751
 30
0.0
 11
112.6930709741671
 21
238.45954624378751
 31
0.0
  0
LINE
  5
2423
  8
0
 62
     0
 10
112.29644345737449
 20
238.4073292405898
 30
0.0
 11
112.29644345737449
 21
238.4073292405898
 31
0.0
  0
LINE
  5
2424
  8
0
 62
     0
 10
111.26143450879199
 20
238.2710677274836
 30
0.0
 11
111.26143450879199
 21
238.2710677274836
 31
0.0
  0
LINE
  5
2425
  8
0
 62
     0
 10
110.6419401016111
 20
238.18950974153691
 30
0.0
 11
110.6419401016111
 21
238.18950974153691
 31
0.0
  0
LINE
  5
2426
  8
0
 62
     0
 10
110.24531258481851
 20
238.1372927383392
 30
0.0
 11
110.24531258481851
 21
238.1372927383392
 31
0.0
  0
LINE
  5
2427
  8
0
 62
     0
 10
109.21030363623601
 20
238.00103122523299
 30
0.0
 11
109.21030363623601
 21
238.00103122523299
 31
0.0
  0
LINE
  5
2428
  8
0
 62
     0
 10
108.5908092290552
 20
237.91947323928619
 30
0.0
 11
108.5908092290552
 21
237.91947323928619
 31
0.0
  0
LINE
  5
2429
  8
0
 62
     0
 10
108.1941817122626
 20
237.86725623608859
 30
0.0
 11
108.1941817122626
 21
237.86725623608859
 31
0.0
  0
LINE
  5
242A
  8
0
 62
     0
 10
107.15917276368
 20
237.73099472298239
 30
0.0
 11
107.15917276368
 21
237.73099472298239
 31
0.0
  0
LINE
  5
242B
  8
0
 62
     0
 10
106.53967835649919
 20
237.64943673703559
 30
0.0
 11
106.53967835649919
 21
237.64943673703559
 31
0.0
  0
LINE
  5
242C
  8
0
 62
     0
 10
106.1430508397066
 20
237.59721973383799
 30
0.0
 11
106.1430508397066
 21
237.59721973383799
 31
0.0
  0
LINE
  5
242D
  8
0
 62
     0
 10
105.108041891124
 20
237.46095822073181
 30
0.0
 11
105.108041891124
 21
237.46095822073181
 31
0.0
  0
LINE
  5
242E
  8
0
 62
     0
 10
104.48854748394319
 20
237.37940023478501
 30
0.0
 11
104.48854748394319
 21
237.37940023478501
 31
0.0
  0
LINE
  5
242F
  8
0
 62
     0
 10
104.0919199671506
 20
237.32718323158741
 30
0.0
 11
104.0919199671506
 21
237.32718323158741
 31
0.0
  0
LINE
  5
2430
  8
0
 62
     0
 10
115.6961441793444
 20
240.82784104454541
 30
0.0
 11
115.6961441793444
 21
240.82784104454541
 31
0.0
  0
LINE
  5
2431
  8
0
 62
     0
 10
114.6611352307619
 20
240.6915795314392
 30
0.0
 11
114.6611352307619
 21
240.6915795314392
 31
0.0
  0
LINE
  5
2432
  8
0
 62
     0
 10
114.0416408235811
 20
240.6100215454924
 30
0.0
 11
114.0416408235811
 21
240.6100215454924
 31
0.0
  0
LINE
  5
2433
  8
0
 62
     0
 10
113.6450133067885
 20
240.5578045422948
 30
0.0
 11
113.6450133067885
 21
240.5578045422948
 31
0.0
  0
LINE
  5
2434
  8
0
 62
     0
 10
112.6100043582059
 20
240.4215430291886
 30
0.0
 11
112.6100043582059
 21
240.4215430291886
 31
0.0
  0
LINE
  5
2435
  8
0
 62
     0
 10
111.9905099510251
 20
240.3399850432418
 30
0.0
 11
111.9905099510251
 21
240.3399850432418
 31
0.0
  0
LINE
  5
2436
  8
0
 62
     0
 10
111.5938824342325
 20
240.2877680400442
 30
0.0
 11
111.5938824342325
 21
240.2877680400442
 31
0.0
  0
LINE
  5
2437
  8
0
 62
     0
 10
110.5588734856499
 20
240.15150652693799
 30
0.0
 11
110.5588734856499
 21
240.15150652693799
 31
0.0
  0
LINE
  5
2438
  8
0
 62
     0
 10
109.9393790784691
 20
240.06994854099131
 30
0.0
 11
109.9393790784691
 21
240.06994854099131
 31
0.0
  0
LINE
  5
2439
  8
0
 62
     0
 10
109.5427515616765
 20
240.01773153779359
 30
0.0
 11
109.5427515616765
 21
240.01773153779359
 31
0.0
  0
LINE
  5
243A
  8
0
 62
     0
 10
108.5077426130939
 20
239.88147002468739
 30
0.0
 11
108.5077426130939
 21
239.88147002468739
 31
0.0
  0
LINE
  5
243B
  8
0
 62
     0
 10
107.8882482059131
 20
239.7999120387407
 30
0.0
 11
107.8882482059131
 21
239.7999120387407
 31
0.0
  0
LINE
  5
243C
  8
0
 62
     0
 10
107.4916206891205
 20
239.74769503554299
 30
0.0
 11
107.4916206891205
 21
239.74769503554299
 31
0.0
  0
LINE
  5
243D
  8
0
 62
     0
 10
106.45661174053799
 20
239.61143352243681
 30
0.0
 11
106.45661174053799
 21
239.61143352243681
 31
0.0
  0
LINE
  5
243E
  8
0
 62
     0
 10
105.8371173333572
 20
239.52987553649001
 30
0.0
 11
105.8371173333572
 21
239.52987553649001
 31
0.0
  0
LINE
  5
243F
  8
0
 62
     0
 10
105.44048981656459
 20
239.47765853329241
 30
0.0
 11
105.44048981656459
 21
239.47765853329241
 31
0.0
  0
LINE
  5
2440
  8
0
 62
     0
 10
104.40548086798201
 20
239.34139702018621
 30
0.0
 11
104.40548086798201
 21
239.34139702018621
 31
0.0
  0
LINE
  5
2441
  8
0
 62
     0
 10
103.7859864608012
 20
239.25983903423941
 30
0.0
 11
103.7859864608012
 21
239.25983903423941
 31
0.0
  0
LINE
  5
2442
  8
0
 62
     0
 10
103.38935894400861
 20
239.20762203104181
 30
0.0
 11
103.38935894400861
 21
239.20762203104181
 31
0.0
  0
LINE
  5
2443
  8
0
 62
     0
 10
102.35434999542601
 20
239.0713605179356
 30
0.0
 11
102.35434999542601
 21
239.0713605179356
 31
0.0
  0
LINE
  5
2444
  8
0
 62
     0
 10
101.7348555882452
 20
238.9898025319888
 30
0.0
 11
101.7348555882452
 21
238.9898025319888
 31
0.0
  0
LINE
  5
2445
  8
0
 62
     0
 10
101.3382280714526
 20
238.9375855287912
 30
0.0
 11
101.3382280714526
 21
238.9375855287912
 31
0.0
  0
LINE
  5
2446
  8
0
 62
     0
 10
100.3032191228701
 20
238.801324015685
 30
0.0
 11
100.3032191228701
 21
238.801324015685
 31
0.0
  0
LINE
  5
2447
  8
0
 62
     0
 10
99.683724715689266
 20
238.7197660297382
 30
0.0
 11
99.683724715689266
 21
238.7197660297382
 31
0.0
  0
LINE
  5
2448
  8
0
 62
     0
 10
99.287097198896674
 20
238.6675490265406
 30
0.0
 11
99.287097198896674
 21
238.6675490265406
 31
0.0
  0
LINE
  5
2449
  8
0
 62
     0
 10
98.252088250314102
 20
238.53128751343439
 30
0.0
 11
98.252088250314102
 21
238.53128751343439
 31
0.0
  0
LINE
  5
244A
  8
0
 62
     0
 10
97.632593843133293
 20
238.44972952748759
 30
0.0
 11
97.632593843133293
 21
238.44972952748759
 31
0.0
  0
LINE
  5
244B
  8
0
 62
     0
 10
97.235966326340701
 20
238.39751252428999
 30
0.0
 11
97.235966326340701
 21
238.39751252428999
 31
0.0
  0
LINE
  5
244C
  8
0
 62
     0
 10
96.200957377758115
 20
238.26125101118379
 30
0.0
 11
96.200957377758115
 21
238.26125101118379
 31
0.0
  0
LINE
  5
244D
  8
0
 62
     0
 10
95.581462970577306
 20
238.17969302523699
 30
0.0
 11
95.581462970577306
 21
238.17969302523699
 31
0.0
  0
LINE
  5
244E
  8
0
 62
     0
 10
95.184835453784714
 20
238.12747602203939
 30
0.0
 11
95.184835453784714
 21
238.12747602203939
 31
0.0
  0
LINE
  5
244F
  8
0
 62
     0
 10
94.149826505202157
 20
237.99121450893321
 30
0.0
 11
94.149826505202157
 21
237.99121450893321
 31
0.0
  0
LINE
  5
2450
  8
0
 62
     0
 10
93.530332098021347
 20
237.90965652298641
 30
0.0
 11
93.530332098021347
 21
237.90965652298641
 31
0.0
  0
LINE
  5
2451
  8
0
 62
     0
 10
93.133704581228756
 20
237.85743951978881
 30
0.0
 11
93.133704581228756
 21
237.85743951978881
 31
0.0
  0
LINE
  5
2452
  8
0
 62
     0
 10
92.098695632646184
 20
237.72117800668261
 30
0.0
 11
92.098695632646184
 21
237.72117800668261
 31
0.0
  0
LINE
  5
2453
  8
0
 62
     0
 10
91.479201225465374
 20
237.6396200207358
 30
0.0
 11
91.479201225465374
 21
237.6396200207358
 31
0.0
  0
LINE
  5
2454
  8
0
 62
     0
 10
91.082573708672783
 20
237.58740301753821
 30
0.0
 11
91.082573708672783
 21
237.58740301753821
 31
0.0
  0
LINE
  5
2455
  8
0
 62
     0
 10
90.047564760090211
 20
237.451141504432
 30
0.0
 11
90.047564760090211
 21
237.451141504432
 31
0.0
  0
LINE
  5
2456
  8
0
 62
     0
 10
89.428070352909401
 20
237.3695835184852
 30
0.0
 11
89.428070352909401
 21
237.3695835184852
 31
0.0
  0
LINE
  5
2457
  8
0
 62
     0
 10
89.031442836116796
 20
237.3173665152876
 30
0.0
 11
89.031442836116796
 21
237.3173665152876
 31
0.0
  0
LINE
  5
2458
  8
0
 62
     0
 10
116.00970508017591
 20
242.84205483314429
 30
0.0
 11
116.00970508017591
 21
242.84205483314429
 31
0.0
  0
LINE
  5
2459
  8
0
 62
     0
 10
115.3902106729951
 20
242.7604968471976
 30
0.0
 11
115.3902106729951
 21
242.7604968471976
 31
0.0
  0
LINE
  5
245A
  8
0
 62
     0
 10
114.9935831562025
 20
242.70827984399989
 30
0.0
 11
114.9935831562025
 21
242.70827984399989
 31
0.0
  0
LINE
  5
245B
  8
0
 62
     0
 10
113.9585742076199
 20
242.57201833089371
 30
0.0
 11
113.9585742076199
 21
242.57201833089371
 31
0.0
  0
LINE
  5
245C
  8
0
 62
     0
 10
113.33907980043909
 20
242.49046034494691
 30
0.0
 11
113.33907980043909
 21
242.49046034494691
 31
0.0
  0
LINE
  5
245D
  8
0
 62
     0
 10
112.9424522836465
 20
242.43824334174931
 30
0.0
 11
112.9424522836465
 21
242.43824334174931
 31
0.0
  0
LINE
  5
245E
  8
0
 62
     0
 10
111.9074433350639
 20
242.30198182864311
 30
0.0
 11
111.9074433350639
 21
242.30198182864311
 31
0.0
  0
LINE
  5
245F
  8
0
 62
     0
 10
111.28794892788309
 20
242.22042384269631
 30
0.0
 11
111.28794892788309
 21
242.22042384269631
 31
0.0
  0
LINE
  5
2460
  8
0
 62
     0
 10
110.8913214110905
 20
242.16820683949871
 30
0.0
 11
110.8913214110905
 21
242.16820683949871
 31
0.0
  0
LINE
  5
2461
  8
0
 62
     0
 10
109.8563124625079
 20
242.0319453263925
 30
0.0
 11
109.8563124625079
 21
242.0319453263925
 31
0.0
  0
LINE
  5
2462
  8
0
 62
     0
 10
109.23681805532711
 20
241.9503873404457
 30
0.0
 11
109.23681805532711
 21
241.9503873404457
 31
0.0
  0
LINE
  5
2463
  8
0
 62
     0
 10
108.8401905385345
 20
241.8981703372481
 30
0.0
 11
108.8401905385345
 21
241.8981703372481
 31
0.0
  0
LINE
  5
2464
  8
0
 62
     0
 10
107.805181589952
 20
241.7619088241419
 30
0.0
 11
107.805181589952
 21
241.7619088241419
 31
0.0
  0
LINE
  5
2465
  8
0
 62
     0
 10
107.1856871827712
 20
241.6803508381951
 30
0.0
 11
107.1856871827712
 21
241.6803508381951
 31
0.0
  0
LINE
  5
2466
  8
0
 62
     0
 10
106.7890596659786
 20
241.6281338349975
 30
0.0
 11
106.7890596659786
 21
241.6281338349975
 31
0.0
  0
LINE
  5
2467
  8
0
 62
     0
 10
105.754050717396
 20
241.49187232189129
 30
0.0
 11
105.754050717396
 21
241.49187232189129
 31
0.0
  0
LINE
  5
2468
  8
0
 62
     0
 10
105.1345563102152
 20
241.41031433594449
 30
0.0
 11
105.1345563102152
 21
241.41031433594449
 31
0.0
  0
LINE
  5
2469
  8
0
 62
     0
 10
104.7379287934226
 20
241.35809733274689
 30
0.0
 11
104.7379287934226
 21
241.35809733274689
 31
0.0
  0
LINE
  5
246A
  8
0
 62
     0
 10
103.70291984484
 20
241.22183581964069
 30
0.0
 11
103.70291984484
 21
241.22183581964069
 31
0.0
  0
LINE
  5
246B
  8
0
 62
     0
 10
103.0834254376592
 20
241.14027783369389
 30
0.0
 11
103.0834254376592
 21
241.14027783369389
 31
0.0
  0
LINE
  5
246C
  8
0
 62
     0
 10
102.6867979208666
 20
241.08806083049629
 30
0.0
 11
102.6867979208666
 21
241.08806083049629
 31
0.0
  0
LINE
  5
246D
  8
0
 62
     0
 10
101.65178897228409
 20
240.95179931739011
 30
0.0
 11
101.65178897228409
 21
240.95179931739011
 31
0.0
  0
LINE
  5
246E
  8
0
 62
     0
 10
101.0322945651032
 20
240.87024133144331
 30
0.0
 11
101.0322945651032
 21
240.87024133144331
 31
0.0
  0
LINE
  5
246F
  8
0
 62
     0
 10
100.63566704831069
 20
240.81802432824571
 30
0.0
 11
100.63566704831069
 21
240.81802432824571
 31
0.0
  0
LINE
  5
2470
  8
0
 62
     0
 10
99.600658099728093
 20
240.68176281513951
 30
0.0
 11
99.600658099728093
 21
240.68176281513951
 31
0.0
  0
LINE
  5
2471
  8
0
 62
     0
 10
98.981163692547284
 20
240.60020482919271
 30
0.0
 11
98.981163692547284
 21
240.60020482919271
 31
0.0
  0
LINE
  5
2472
  8
0
 62
     0
 10
98.584536175754707
 20
240.54798782599511
 30
0.0
 11
98.584536175754707
 21
240.54798782599511
 31
0.0
  0
LINE
  5
2473
  8
0
 62
     0
 10
97.549527227172135
 20
240.4117263128889
 30
0.0
 11
97.549527227172135
 21
240.4117263128889
 31
0.0
  0
LINE
  5
2474
  8
0
 62
     0
 10
96.930032819991325
 20
240.3301683269421
 30
0.0
 11
96.930032819991325
 21
240.3301683269421
 31
0.0
  0
LINE
  5
2475
  8
0
 62
     0
 10
96.533405303198734
 20
240.2779513237445
 30
0.0
 11
96.533405303198734
 21
240.2779513237445
 31
0.0
  0
LINE
  5
2476
  8
0
 62
     0
 10
95.498396354616162
 20
240.1416898106383
 30
0.0
 11
95.498396354616162
 21
240.1416898106383
 31
0.0
  0
LINE
  5
2477
  8
0
 62
     0
 10
94.878901947435352
 20
240.0601318246915
 30
0.0
 11
94.878901947435352
 21
240.0601318246915
 31
0.0
  0
LINE
  5
2478
  8
0
 62
     0
 10
94.482274430642761
 20
240.0079148214939
 30
0.0
 11
94.482274430642761
 21
240.0079148214939
 31
0.0
  0
LINE
  5
2479
  8
0
 62
     0
 10
93.447265482060175
 20
239.87165330838769
 30
0.0
 11
93.447265482060175
 21
239.87165330838769
 31
0.0
  0
LINE
  5
247A
  8
0
 62
     0
 10
92.827771074879365
 20
239.79009532244089
 30
0.0
 11
92.827771074879365
 21
239.79009532244089
 31
0.0
  0
LINE
  5
247B
  8
0
 62
     0
 10
92.431143558086774
 20
239.73787831924329
 30
0.0
 11
92.431143558086774
 21
239.73787831924329
 31
0.0
  0
LINE
  5
247C
  8
0
 62
     0
 10
91.396134609504216
 20
239.601616806137
 30
0.0
 11
91.396134609504216
 21
239.601616806137
 31
0.0
  0
LINE
  5
247D
  8
0
 62
     0
 10
90.776640202323406
 20
239.52005882019029
 30
0.0
 11
90.776640202323406
 21
239.52005882019029
 31
0.0
  0
LINE
  5
247E
  8
0
 62
     0
 10
90.380012685530815
 20
239.4678418169926
 30
0.0
 11
90.380012685530815
 21
239.4678418169926
 31
0.0
  0
LINE
  5
247F
  8
0
 62
     0
 10
89.345003736948243
 20
239.33158030388651
 30
0.0
 11
89.345003736948243
 21
239.33158030388651
 31
0.0
  0
LINE
  5
2480
  8
0
 62
     0
 10
88.725509329767434
 20
239.25002231793971
 30
0.0
 11
88.725509329767434
 21
239.25002231793971
 31
0.0
  0
LINE
  5
2481
  8
0
 62
     0
 10
88.328881812974842
 20
239.19780531474211
 30
0.0
 11
88.328881812974842
 21
239.19780531474211
 31
0.0
  0
LINE
  5
2482
  8
0
 62
     0
 10
87.29387286439227
 20
239.06154380163591
 30
0.0
 11
87.29387286439227
 21
239.06154380163591
 31
0.0
  0
LINE
  5
2483
  8
0
 62
     0
 10
86.674378457211461
 20
238.9799858156891
 30
0.0
 11
86.674378457211461
 21
238.9799858156891
 31
0.0
  0
LINE
  5
2484
  8
0
 62
     0
 10
86.277750940418855
 20
238.92776881249151
 30
0.0
 11
86.277750940418855
 21
238.92776881249151
 31
0.0
  0
LINE
  5
2485
  8
0
 62
     0
 10
85.242741991836283
 20
238.79150729938519
 30
0.0
 11
85.242741991836283
 21
238.79150729938519
 31
0.0
  0
LINE
  5
2486
  8
0
 62
     0
 10
84.623247584655473
 20
238.7099493134385
 30
0.0
 11
84.623247584655473
 21
238.7099493134385
 31
0.0
  0
LINE
  5
2487
  8
0
 62
     0
 10
84.226620067862896
 20
238.65773231024079
 30
0.0
 11
84.226620067862896
 21
238.65773231024079
 31
0.0
  0
LINE
  5
2488
  8
0
 62
     0
 10
104.43199528707321
 20
243.290753135399
 30
0.0
 11
104.43199528707321
 21
243.290753135399
 31
0.0
  0
LINE
  5
2489
  8
0
 62
     0
 10
104.0353677702806
 20
243.2385361322014
 30
0.0
 11
104.0353677702806
 21
243.2385361322014
 31
0.0
  0
LINE
  5
248A
  8
0
 62
     0
 10
103.0003588216981
 20
243.10227461909511
 30
0.0
 11
103.0003588216981
 21
243.10227461909511
 31
0.0
  0
LINE
  5
248B
  8
0
 62
     0
 10
102.3808644145173
 20
243.0207166331484
 30
0.0
 11
102.3808644145173
 21
243.0207166331484
 31
0.0
  0
LINE
  5
248C
  8
0
 62
     0
 10
101.9842368977247
 20
242.96849962995071
 30
0.0
 11
101.9842368977247
 21
242.96849962995071
 31
0.0
  0
LINE
  5
248D
  8
0
 62
     0
 10
100.9492279491421
 20
242.83223811684451
 30
0.0
 11
100.9492279491421
 21
242.83223811684451
 31
0.0
  0
LINE
  5
248E
  8
0
 62
     0
 10
100.3297335419613
 20
242.75068013089779
 30
0.0
 11
100.3297335419613
 21
242.75068013089779
 31
0.0
  0
LINE
  5
248F
  8
0
 62
     0
 10
99.933106025168712
 20
242.69846312770011
 30
0.0
 11
99.933106025168712
 21
242.69846312770011
 31
0.0
  0
LINE
  5
2490
  8
0
 62
     0
 10
98.89809707658614
 20
242.5622016145939
 30
0.0
 11
98.89809707658614
 21
242.5622016145939
 31
0.0
  0
LINE
  5
2491
  8
0
 62
     0
 10
98.278602669405331
 20
242.48064362864719
 30
0.0
 11
98.278602669405331
 21
242.48064362864719
 31
0.0
  0
LINE
  5
2492
  8
0
 62
     0
 10
97.881975152612725
 20
242.4284266254495
 30
0.0
 11
97.881975152612725
 21
242.4284266254495
 31
0.0
  0
LINE
  5
2493
  8
0
 62
     0
 10
96.846966204030167
 20
242.2921651123433
 30
0.0
 11
96.846966204030167
 21
242.2921651123433
 31
0.0
  0
LINE
  5
2494
  8
0
 62
     0
 10
96.227471796849343
 20
242.21060712639661
 30
0.0
 11
96.227471796849343
 21
242.21060712639661
 31
0.0
  0
LINE
  5
2495
  8
0
 62
     0
 10
95.830844280056766
 20
242.1583901231989
 30
0.0
 11
95.830844280056766
 21
242.1583901231989
 31
0.0
  0
LINE
  5
2496
  8
0
 62
     0
 10
94.795835331474194
 20
242.02212861009269
 30
0.0
 11
94.795835331474194
 21
242.02212861009269
 31
0.0
  0
LINE
  5
2497
  8
0
 62
     0
 10
94.176340924293385
 20
241.94057062414589
 30
0.0
 11
94.176340924293385
 21
241.94057062414589
 31
0.0
  0
LINE
  5
2498
  8
0
 62
     0
 10
93.779713407500793
 20
241.88835362094829
 30
0.0
 11
93.779713407500793
 21
241.88835362094829
 31
0.0
  0
LINE
  5
2499
  8
0
 62
     0
 10
92.744704458918221
 20
241.75209210784209
 30
0.0
 11
92.744704458918221
 21
241.75209210784209
 31
0.0
  0
LINE
  5
249A
  8
0
 62
     0
 10
92.125210051737412
 20
241.67053412189529
 30
0.0
 11
92.125210051737412
 21
241.67053412189529
 31
0.0
  0
LINE
  5
249B
  8
0
 62
     0
 10
91.72858253494482
 20
241.61831711869769
 30
0.0
 11
91.72858253494482
 21
241.61831711869769
 31
0.0
  0
LINE
  5
249C
  8
0
 62
     0
 10
90.693573586362234
 20
241.48205560559151
 30
0.0
 11
90.693573586362234
 21
241.48205560559151
 31
0.0
  0
LINE
  5
249D
  8
0
 62
     0
 10
90.074079179181425
 20
241.40049761964471
 30
0.0
 11
90.074079179181425
 21
241.40049761964471
 31
0.0
  0
LINE
  5
249E
  8
0
 62
     0
 10
89.677451662388833
 20
241.34828061644711
 30
0.0
 11
89.677451662388833
 21
241.34828061644711
 31
0.0
  0
LINE
  5
249F
  8
0
 62
     0
 10
88.642442713806275
 20
241.21201910334091
 30
0.0
 11
88.642442713806275
 21
241.21201910334091
 31
0.0
  0
LINE
  5
24A0
  8
0
 62
     0
 10
88.022948306625466
 20
241.13046111739419
 30
0.0
 11
88.022948306625466
 21
241.13046111739419
 31
0.0
  0
LINE
  5
24A1
  8
0
 62
     0
 10
87.626320789832874
 20
241.07824411419651
 30
0.0
 11
87.626320789832874
 21
241.07824411419651
 31
0.0
  0
LINE
  5
24A2
  8
0
 62
     0
 10
86.591311841250302
 20
240.9419826010903
 30
0.0
 11
86.591311841250302
 21
240.9419826010903
 31
0.0
  0
LINE
  5
24A3
  8
0
 62
     0
 10
85.971817434069493
 20
240.8604246151435
 30
0.0
 11
85.971817434069493
 21
240.8604246151435
 31
0.0
  0
LINE
  5
24A4
  8
0
 62
     0
 10
85.575189917276901
 20
240.8082076119459
 30
0.0
 11
85.575189917276901
 21
240.8082076119459
 31
0.0
  0
LINE
  5
24A5
  8
0
 62
     0
 10
84.540180968694315
 20
240.6719460988397
 30
0.0
 11
84.540180968694315
 21
240.6719460988397
 31
0.0
  0
LINE
  5
24A6
  8
0
 62
     0
 10
89.371518156039471
 20
243.28093641909919
 30
0.0
 11
89.371518156039471
 21
243.28093641909919
 31
0.0
  0
LINE
  5
24A7
  8
0
 62
     0
 10
88.974890639246865
 20
243.22871941590159
 30
0.0
 11
88.974890639246865
 21
243.22871941590159
 31
0.0
  0
LINE
  5
24A8
  8
0
 62
     0
 10
87.939881690664294
 20
243.0924579027953
 30
0.0
 11
87.939881690664294
 21
243.0924579027953
 31
0.0
  0
LINE
  5
24A9
  8
0
 62
     0
 10
87.320387283483484
 20
243.0108999168485
 30
0.0
 11
87.320387283483484
 21
243.0108999168485
 31
0.0
  0
LINE
  5
24AA
  8
0
 62
     0
 10
86.923759766690907
 20
242.9586829136509
 30
0.0
 11
86.923759766690907
 21
242.9586829136509
 31
0.0
  0
LINE
  5
24AB
  8
0
 62
     0
 10
85.888750818108335
 20
242.8224214005447
 30
0.0
 11
85.888750818108335
 21
242.8224214005447
 31
0.0
  0
LINE
  5
24AC
  8
0
 62
     0
 10
85.269256410927525
 20
242.7408634145979
 30
0.0
 11
85.269256410927525
 21
242.7408634145979
 31
0.0
  0
LINE
  5
24AD
  8
0
 62
     0
 10
84.872628894134934
 20
242.6886464114003
 30
0.0
 11
84.872628894134934
 21
242.6886464114003
 31
0.0
  0
LINE
  5
24AE
  8
0
 62
     0
 10
115.9482738616839
 20
238.66932588010451
 30
0.0
 11
115.9482738616839
 21
238.66932588010451
 31
0.0
  0
LINE
  5
24AF
  8
0
 62
     0
 10
114.9205639446707
 20
237.88073632496659
 30
0.0
 11
114.9205639446707
 21
237.88073632496659
 31
0.0
  0
LINE
  5
24B0
  8
0
 62
     0
 10
115.9002729228044
 20
240.1375655920925
 30
0.0
 11
115.9002729228044
 21
240.1375655920925
 31
0.0
  0
LINE
  5
24B1
  8
0
 62
     0
 10
114.87256300579109
 20
239.3489760369547
 30
0.0
 11
114.87256300579109
 21
239.3489760369547
 31
0.0
  0
LINE
  5
24B2
  8
0
 62
     0
 10
113.9536694329322
 20
238.6438841994196
 30
0.0
 11
113.9536694329322
 21
238.6438841994196
 31
0.0
  0
LINE
  5
24B3
  8
0
 62
     0
 10
112.9712996593166
 20
237.8900853599495
 30
0.0
 11
112.9712996593166
 21
237.8900853599495
 31
0.0
  0
LINE
  5
24B4
  8
0
 62
     0
 10
115.85227198392489
 20
241.6058053040806
 30
0.0
 11
115.85227198392489
 21
241.6058053040806
 31
0.0
  0
LINE
  5
24B5
  8
0
 62
     0
 10
114.8245620669116
 20
240.81721574894269
 30
0.0
 11
114.8245620669116
 21
240.81721574894269
 31
0.0
  0
LINE
  5
24B6
  8
0
 62
     0
 10
113.9056684940527
 20
240.11212391140759
 30
0.0
 11
113.9056684940527
 21
240.11212391140759
 31
0.0
  0
LINE
  5
24B7
  8
0
 62
     0
 10
112.9232987204371
 20
239.35832507193749
 30
0.0
 11
112.9232987204371
 21
239.35832507193749
 31
0.0
  0
LINE
  5
24B8
  8
0
 62
     0
 10
111.89558880342381
 20
238.56973551679971
 30
0.0
 11
111.89558880342381
 21
238.56973551679971
 31
0.0
  0
LINE
  5
24B9
  8
0
 62
     0
 10
110.9766952305649
 20
237.86464367926459
 30
0.0
 11
110.9766952305649
 21
237.86464367926459
 31
0.0
  0
LINE
  5
24BA
  8
0
 62
     0
 10
115.8042710450453
 20
243.0740450160686
 30
0.0
 11
115.8042710450453
 21
243.0740450160686
 31
0.0
  0
LINE
  5
24BB
  8
0
 62
     0
 10
114.7765611280321
 20
242.28545546093071
 30
0.0
 11
114.7765611280321
 21
242.28545546093071
 31
0.0
  0
LINE
  5
24BC
  8
0
 62
     0
 10
113.85766755517309
 20
241.58036362339561
 30
0.0
 11
113.85766755517309
 21
241.58036362339561
 31
0.0
  0
LINE
  5
24BD
  8
0
 62
     0
 10
112.87529778155751
 20
240.82656478392559
 30
0.0
 11
112.87529778155751
 21
240.82656478392559
 31
0.0
  0
LINE
  5
24BE
  8
0
 62
     0
 10
111.8475878645442
 20
240.0379752287877
 30
0.0
 11
111.8475878645442
 21
240.0379752287877
 31
0.0
  0
LINE
  5
24BF
  8
0
 62
     0
 10
110.9286942916853
 20
239.33288339125261
 30
0.0
 11
110.9286942916853
 21
239.33288339125261
 31
0.0
  0
LINE
  5
24C0
  8
0
 62
     0
 10
109.9463245180697
 20
238.57908455178261
 30
0.0
 11
109.9463245180697
 21
238.57908455178261
 31
0.0
  0
LINE
  5
24C1
  8
0
 62
     0
 10
108.9186146010564
 20
237.7904949966447
 30
0.0
 11
108.9186146010564
 21
237.7904949966447
 31
0.0
  0
LINE
  5
24C2
  8
0
 62
     0
 10
113.8096666162937
 20
243.04860333538369
 30
0.0
 11
113.8096666162937
 21
243.04860333538369
 31
0.0
  0
LINE
  5
24C3
  8
0
 62
     0
 10
112.827296842678
 20
242.29480449591361
 30
0.0
 11
112.827296842678
 21
242.29480449591361
 31
0.0
  0
LINE
  5
24C4
  8
0
 62
     0
 10
111.7995869256648
 20
241.50621494077569
 30
0.0
 11
111.7995869256648
 21
241.50621494077569
 31
0.0
  0
LINE
  5
24C5
  8
0
 62
     0
 10
110.88069335280591
 20
240.80112310324071
 30
0.0
 11
110.88069335280591
 21
240.80112310324071
 31
0.0
  0
LINE
  5
24C6
  8
0
 62
     0
 10
109.8983235791902
 20
240.04732426377061
 30
0.0
 11
109.8983235791902
 21
240.04732426377061
 31
0.0
  0
LINE
  5
24C7
  8
0
 62
     0
 10
108.87061366217701
 20
239.25873470863269
 30
0.0
 11
108.87061366217701
 21
239.25873470863269
 31
0.0
  0
LINE
  5
24C8
  8
0
 62
     0
 10
107.9517200893181
 20
238.55364287109771
 30
0.0
 11
107.9517200893181
 21
238.55364287109771
 31
0.0
  0
LINE
  5
24C9
  8
0
 62
     0
 10
106.9693503157024
 20
237.7998440316276
 30
0.0
 11
106.9693503157024
 21
237.7998440316276
 31
0.0
  0
LINE
  5
24CA
  8
0
 62
     0
 10
111.7515859867852
 20
242.97445465276371
 30
0.0
 11
111.7515859867852
 21
242.97445465276371
 31
0.0
  0
LINE
  5
24CB
  8
0
 62
     0
 10
110.8326924139263
 20
242.2693628152287
 30
0.0
 11
110.8326924139263
 21
242.2693628152287
 31
0.0
  0
LINE
  5
24CC
  8
0
 62
     0
 10
109.85032264031069
 20
241.5155639757586
 30
0.0
 11
109.85032264031069
 21
241.5155639757586
 31
0.0
  0
LINE
  5
24CD
  8
0
 62
     0
 10
108.8226127232974
 20
240.72697442062071
 30
0.0
 11
108.8226127232974
 21
240.72697442062071
 31
0.0
  0
LINE
  5
24CE
  8
0
 62
     0
 10
107.9037191504385
 20
240.0218825830857
 30
0.0
 11
107.9037191504385
 21
240.0218825830857
 31
0.0
  0
LINE
  5
24CF
  8
0
 62
     0
 10
106.9213493768229
 20
239.26808374361559
 30
0.0
 11
106.9213493768229
 21
239.26808374361559
 31
0.0
  0
LINE
  5
24D0
  8
0
 62
     0
 10
105.89363945980961
 20
238.4794941884777
 30
0.0
 11
105.89363945980961
 21
238.4794941884777
 31
0.0
  0
LINE
  5
24D1
  8
0
 62
     0
 10
104.9747458869507
 20
237.77440235094269
 30
0.0
 11
104.9747458869507
 21
237.77440235094269
 31
0.0
  0
LINE
  5
24D2
  8
0
 62
     0
 10
109.8023217014312
 20
242.9838036877467
 30
0.0
 11
109.8023217014312
 21
242.9838036877467
 31
0.0
  0
LINE
  5
24D3
  8
0
 62
     0
 10
108.7746117844179
 20
242.1952141326087
 30
0.0
 11
108.7746117844179
 21
242.1952141326087
 31
0.0
  0
LINE
  5
24D4
  8
0
 62
     0
 10
107.85571821155899
 20
241.49012229507369
 30
0.0
 11
107.85571821155899
 21
241.49012229507369
 31
0.0
  0
LINE
  5
24D5
  8
0
 62
     0
 10
106.87334843794341
 20
240.73632345560361
 30
0.0
 11
106.87334843794341
 21
240.73632345560361
 31
0.0
  0
LINE
  5
24D6
  8
0
 62
     0
 10
105.84563852093009
 20
239.94773390046581
 30
0.0
 11
105.84563852093009
 21
239.94773390046581
 31
0.0
  0
LINE
  5
24D7
  8
0
 62
     0
 10
104.9267449480712
 20
239.24264206293071
 30
0.0
 11
104.9267449480712
 21
239.24264206293071
 31
0.0
  0
LINE
  5
24D8
  8
0
 62
     0
 10
103.9443751744556
 20
238.48884322346061
 30
0.0
 11
103.9443751744556
 21
238.48884322346061
 31
0.0
  0
LINE
  5
24D9
  8
0
 62
     0
 10
102.9166652574423
 20
237.7002536683228
 30
0.0
 11
102.9166652574423
 21
237.7002536683228
 31
0.0
  0
LINE
  5
24DA
  8
0
 62
     0
 10
107.8077172726795
 20
242.95836200706171
 30
0.0
 11
107.8077172726795
 21
242.95836200706171
 31
0.0
  0
LINE
  5
24DB
  8
0
 62
     0
 10
106.8253474990638
 20
242.2045631675916
 30
0.0
 11
106.8253474990638
 21
242.2045631675916
 31
0.0
  0
LINE
  5
24DC
  8
0
 62
     0
 10
105.7976375820506
 20
241.41597361245371
 30
0.0
 11
105.7976375820506
 21
241.41597361245371
 31
0.0
  0
LINE
  5
24DD
  8
0
 62
     0
 10
104.87874400919161
 20
240.7108817749187
 30
0.0
 11
104.87874400919161
 21
240.7108817749187
 31
0.0
  0
LINE
  5
24DE
  8
0
 62
     0
 10
103.896374235576
 20
239.9570829354486
 30
0.0
 11
103.896374235576
 21
239.9570829354486
 31
0.0
  0
LINE
  5
24DF
  8
0
 62
     0
 10
102.86866431856279
 20
239.16849338031071
 30
0.0
 11
102.86866431856279
 21
239.16849338031071
 31
0.0
  0
LINE
  5
24E0
  8
0
 62
     0
 10
101.9497707457038
 20
238.46340154277561
 30
0.0
 11
101.9497707457038
 21
238.46340154277561
 31
0.0
  0
LINE
  5
24E1
  8
0
 62
     0
 10
100.9674009720882
 20
237.70960270330559
 30
0.0
 11
100.9674009720882
 21
237.70960270330559
 31
0.0
  0
LINE
  5
24E2
  8
0
 62
     0
 10
105.749636643171
 20
242.88421332444179
 30
0.0
 11
105.749636643171
 21
242.88421332444179
 31
0.0
  0
LINE
  5
24E3
  8
0
 62
     0
 10
104.8307430703121
 20
242.17912148690669
 30
0.0
 11
104.8307430703121
 21
242.17912148690669
 31
0.0
  0
LINE
  5
24E4
  8
0
 62
     0
 10
103.84837329669649
 20
241.4253226474367
 30
0.0
 11
103.84837329669649
 21
241.4253226474367
 31
0.0
  0
LINE
  5
24E5
  8
0
 62
     0
 10
102.8206633796832
 20
240.63673309229881
 30
0.0
 11
102.8206633796832
 21
240.63673309229881
 31
0.0
  0
LINE
  5
24E6
  8
0
 62
     0
 10
101.9017698068243
 20
239.93164125476369
 30
0.0
 11
101.9017698068243
 21
239.93164125476369
 31
0.0
  0
LINE
  5
24E7
  8
0
 62
     0
 10
100.9194000332087
 20
239.1778424152937
 30
0.0
 11
100.9194000332087
 21
239.1778424152937
 31
0.0
  0
LINE
  5
24E8
  8
0
 62
     0
 10
99.891690116195434
 20
238.38925286015581
 30
0.0
 11
99.891690116195434
 21
238.38925286015581
 31
0.0
  0
LINE
  5
24E9
  8
0
 62
     0
 10
98.972796543336528
 20
237.68416102262071
 30
0.0
 11
98.972796543336528
 21
237.68416102262071
 31
0.0
  0
LINE
  5
24EA
  8
0
 62
     0
 10
103.800372357817
 20
242.89356235942469
 30
0.0
 11
103.800372357817
 21
242.89356235942469
 31
0.0
  0
LINE
  5
24EB
  8
0
 62
     0
 10
102.7726624408037
 20
242.1049728042868
 30
0.0
 11
102.7726624408037
 21
242.1049728042868
 31
0.0
  0
LINE
  5
24EC
  8
0
 62
     0
 10
101.85376886794479
 20
241.39988096675179
 30
0.0
 11
101.85376886794479
 21
241.39988096675179
 31
0.0
  0
LINE
  5
24ED
  8
0
 62
     0
 10
100.87139909432921
 20
240.64608212728169
 30
0.0
 11
100.87139909432921
 21
240.64608212728169
 31
0.0
  0
LINE
  5
24EE
  8
0
 62
     0
 10
99.843689177315923
 20
239.8574925721438
 30
0.0
 11
99.843689177315923
 21
239.8574925721438
 31
0.0
  0
LINE
  5
24EF
  8
0
 62
     0
 10
98.924795604457017
 20
239.15240073460879
 30
0.0
 11
98.924795604457017
 21
239.15240073460879
 31
0.0
  0
LINE
  5
24F0
  8
0
 62
     0
 10
97.942425830841415
 20
238.39860189513871
 30
0.0
 11
97.942425830841415
 21
238.39860189513871
 31
0.0
  0
LINE
  5
24F1
  8
0
 62
     0
 10
96.914715913828147
 20
237.61001234000079
 30
0.0
 11
96.914715913828147
 21
237.61001234000079
 31
0.0
  0
LINE
  5
24F2
  8
0
 62
     0
 10
101.8057679290653
 20
242.86812067873981
 30
0.0
 11
101.8057679290653
 21
242.86812067873981
 31
0.0
  0
LINE
  5
24F3
  8
0
 62
     0
 10
100.82339815544969
 20
242.11432183926971
 30
0.0
 11
100.82339815544969
 21
242.11432183926971
 31
0.0
  0
LINE
  5
24F4
  8
0
 62
     0
 10
99.795688238436426
 20
241.3257322841319
 30
0.0
 11
99.795688238436426
 21
241.3257322841319
 31
0.0
  0
LINE
  5
24F5
  8
0
 62
     0
 10
98.876794665577506
 20
240.62064044659681
 30
0.0
 11
98.876794665577506
 21
240.62064044659681
 31
0.0
  0
LINE
  5
24F6
  8
0
 62
     0
 10
97.894424891961904
 20
239.8668416071267
 30
0.0
 11
97.894424891961904
 21
239.8668416071267
 31
0.0
  0
LINE
  5
24F7
  8
0
 62
     0
 10
96.866714974948636
 20
239.0782520519889
 30
0.0
 11
96.866714974948636
 21
239.0782520519889
 31
0.0
  0
LINE
  5
24F8
  8
0
 62
     0
 10
95.947821402089701
 20
238.3731602144538
 30
0.0
 11
95.947821402089701
 21
238.3731602144538
 31
0.0
  0
LINE
  5
24F9
  8
0
 62
     0
 10
94.965451628474085
 20
237.6193613749837
 30
0.0
 11
94.965451628474085
 21
237.6193613749837
 31
0.0
  0
LINE
  5
24FA
  8
0
 62
     0
 10
99.747687299556915
 20
242.79397199611989
 30
0.0
 11
99.747687299556915
 21
242.79397199611989
 31
0.0
  0
LINE
  5
24FB
  8
0
 62
     0
 10
98.828793726697981
 20
242.0888801585848
 30
0.0
 11
98.828793726697981
 21
242.0888801585848
 31
0.0
  0
LINE
  5
24FC
  8
0
 62
     0
 10
97.846423953082365
 20
241.33508131911481
 30
0.0
 11
97.846423953082365
 21
241.33508131911481
 31
0.0
  0
LINE
  5
24FD
  8
0
 62
     0
 10
96.818714036069096
 20
240.54649176397689
 30
0.0
 11
96.818714036069096
 21
240.54649176397689
 31
0.0
  0
LINE
  5
24FE
  8
0
 62
     0
 10
95.899820463210176
 20
239.8413999264418
 30
0.0
 11
95.899820463210176
 21
239.8413999264418
 31
0.0
  0
LINE
  5
24FF
  8
0
 62
     0
 10
94.91745068959456
 20
239.0876010869718
 30
0.0
 11
94.91745068959456
 21
239.0876010869718
 31
0.0
  0
LINE
  5
2500
  8
0
 62
     0
 10
93.889740772581291
 20
238.29901153183391
 30
0.0
 11
93.889740772581291
 21
238.29901153183391
 31
0.0
  0
LINE
  5
2501
  8
0
 62
     0
 10
92.970847199722385
 20
237.59391969429879
 30
0.0
 11
92.970847199722385
 21
237.59391969429879
 31
0.0
  0
LINE
  5
2502
  8
0
 62
     0
 10
97.798423014202839
 20
242.8033210311028
 30
0.0
 11
97.798423014202839
 21
242.8033210311028
 31
0.0
  0
LINE
  5
2503
  8
0
 62
     0
 10
96.770713097189571
 20
242.01473147596491
 30
0.0
 11
96.770713097189571
 21
242.01473147596491
 31
0.0
  0
LINE
  5
2504
  8
0
 62
     0
 10
95.851819524330665
 20
241.3096396384299
 30
0.0
 11
95.851819524330665
 21
241.3096396384299
 31
0.0
  0
LINE
  5
2505
  8
0
 62
     0
 10
94.869449750715034
 20
240.55584079895979
 30
0.0
 11
94.869449750715034
 21
240.55584079895979
 31
0.0
  0
LINE
  5
2506
  8
0
 62
     0
 10
93.841739833701766
 20
239.7672512438219
 30
0.0
 11
93.841739833701766
 21
239.7672512438219
 31
0.0
  0
LINE
  5
2507
  8
0
 62
     0
 10
92.922846260842846
 20
239.0621594062869
 30
0.0
 11
92.922846260842846
 21
239.0621594062869
 31
0.0
  0
LINE
  5
2508
  8
0
 62
     0
 10
91.940476487227215
 20
238.30836056681679
 30
0.0
 11
91.940476487227215
 21
238.30836056681679
 31
0.0
  0
LINE
  5
2509
  8
0
 62
     0
 10
90.912766570213961
 20
237.5197710116789
 30
0.0
 11
90.912766570213961
 21
237.5197710116789
 31
0.0
  0
LINE
  5
250A
  8
0
 62
     0
 10
95.803818585451111
 20
242.77787935041789
 30
0.0
 11
95.803818585451111
 21
242.77787935041789
 31
0.0
  0
LINE
  5
250B
  8
0
 62
     0
 10
94.821448811835495
 20
242.02408051094781
 30
0.0
 11
94.821448811835495
 21
242.02408051094781
 31
0.0
  0
LINE
  5
250C
  8
0
 62
     0
 10
93.793738894822226
 20
241.23549095580989
 30
0.0
 11
93.793738894822226
 21
241.23549095580989
 31
0.0
  0
LINE
  5
250D
  8
0
 62
     0
 10
92.874845321963306
 20
240.53039911827489
 30
0.0
 11
92.874845321963306
 21
240.53039911827489
 31
0.0
  0
LINE
  5
250E
  8
0
 62
     0
 10
91.892475548347704
 20
239.77660027880481
 30
0.0
 11
91.892475548347704
 21
239.77660027880481
 31
0.0
  0
LINE
  5
250F
  8
0
 62
     0
 10
90.864765631334436
 20
238.98801072366689
 30
0.0
 11
90.864765631334436
 21
238.98801072366689
 31
0.0
  0
LINE
  5
2510
  8
0
 62
     0
 10
89.945872058475487
 20
238.28291888613191
 30
0.0
 11
89.945872058475487
 21
238.28291888613191
 31
0.0
  0
LINE
  5
2511
  8
0
 62
     0
 10
88.963502284859885
 20
237.5291200466618
 30
0.0
 11
88.963502284859885
 21
237.5291200466618
 31
0.0
  0
LINE
  5
2512
  8
0
 62
     0
 10
93.745737955942715
 20
242.70373066779791
 30
0.0
 11
93.745737955942715
 21
242.70373066779791
 31
0.0
  0
LINE
  5
2513
  8
0
 62
     0
 10
92.826844383083795
 20
241.99863883026291
 30
0.0
 11
92.826844383083795
 21
241.99863883026291
 31
0.0
  0
LINE
  5
2514
  8
0
 62
     0
 10
91.844474609468179
 20
241.2448399907928
 30
0.0
 11
91.844474609468179
 21
241.2448399907928
 31
0.0
  0
LINE
  5
2515
  8
0
 62
     0
 10
90.816764692454925
 20
240.45625043565491
 30
0.0
 11
90.816764692454925
 21
240.45625043565491
 31
0.0
  0
LINE
  5
2516
  8
0
 62
     0
 10
89.897871119595976
 20
239.7511585981199
 30
0.0
 11
89.897871119595976
 21
239.7511585981199
 31
0.0
  0
LINE
  5
2517
  8
0
 62
     0
 10
88.915501345980374
 20
238.99735975864979
 30
0.0
 11
88.915501345980374
 21
238.99735975864979
 31
0.0
  0
LINE
  5
2518
  8
0
 62
     0
 10
87.887791428967105
 20
238.2087702035119
 30
0.0
 11
87.887791428967105
 21
238.2087702035119
 31
0.0
  0
LINE
  5
2519
  8
0
 62
     0
 10
86.968897856108185
 20
237.5036783659769
 30
0.0
 11
86.968897856108185
 21
237.5036783659769
 31
0.0
  0
LINE
  5
251A
  8
0
 62
     0
 10
91.796473670588625
 20
242.7130797027809
 30
0.0
 11
91.796473670588625
 21
242.7130797027809
 31
0.0
  0
LINE
  5
251B
  8
0
 62
     0
 10
90.768763753575357
 20
241.9244901476429
 30
0.0
 11
90.768763753575357
 21
241.9244901476429
 31
0.0
  0
LINE
  5
251C
  8
0
 62
     0
 10
89.849870180716437
 20
241.21939831010789
 30
0.0
 11
89.849870180716437
 21
241.21939831010789
 31
0.0
  0
LINE
  5
251D
  8
0
 62
     0
 10
88.867500407100806
 20
240.4655994706379
 30
0.0
 11
88.867500407100806
 21
240.4655994706379
 31
0.0
  0
LINE
  5
251E
  8
0
 62
     0
 10
87.839790490087537
 20
239.67700991549989
 30
0.0
 11
87.839790490087537
 21
239.67700991549989
 31
0.0
  0
LINE
  5
251F
  8
0
 62
     0
 10
86.920896917228632
 20
238.97191807796489
 30
0.0
 11
86.920896917228632
 21
238.97191807796489
 31
0.0
  0
LINE
  5
2520
  8
0
 62
     0
 10
85.938527143613015
 20
238.21811923849481
 30
0.0
 11
85.938527143613015
 21
238.21811923849481
 31
0.0
  0
LINE
  5
2521
  8
0
 62
     0
 10
89.80186924183694
 20
242.68763802209591
 30
0.0
 11
89.80186924183694
 21
242.68763802209591
 31
0.0
  0
LINE
  5
2522
  8
0
 62
     0
 10
88.819499468221323
 20
241.93383918262589
 30
0.0
 11
88.819499468221323
 21
241.93383918262589
 31
0.0
  0
LINE
  5
2523
  8
0
 62
     0
 10
87.791789551208055
 20
241.145249627488
 30
0.0
 11
87.791789551208055
 21
241.145249627488
 31
0.0
  0
LINE
  5
2524
  8
0
 62
     0
 10
86.872895978349135
 20
240.44015778995291
 30
0.0
 11
86.872895978349135
 21
240.44015778995291
 31
0.0
  0
LINE
  5
2525
  8
0
 62
     0
 10
85.890526204733504
 20
239.68635895048291
 30
0.0
 11
85.890526204733504
 21
239.68635895048291
 31
0.0
  0
LINE
  5
2526
  8
0
 62
     0
 10
84.862816287720236
 20
238.89776939534491
 30
0.0
 11
84.862816287720236
 21
238.89776939534491
 31
0.0
  0
LINE
  5
2527
  8
0
 62
     0
 10
87.743788612328515
 20
242.61348933947599
 30
0.0
 11
87.743788612328515
 21
242.61348933947599
 31
0.0
  0
LINE
  5
2528
  8
0
 62
     0
 10
86.824895039469595
 20
241.9083975019409
 30
0.0
 11
86.824895039469595
 21
241.9083975019409
 31
0.0
  0
LINE
  5
2529
  8
0
 62
     0
 10
85.842525265853979
 20
241.1545986624709
 30
0.0
 11
85.842525265853979
 21
241.1545986624709
 31
0.0
  0
LINE
  5
252A
  8
0
 62
     0
 10
84.81481534884071
 20
240.36600910733301
 30
0.0
 11
84.81481534884071
 21
240.36600910733301
 31
0.0
  0
LINE
  5
252B
  8
0
 62
     0
 10
85.794524326974496
 20
242.62283837445889
 30
0.0
 11
85.794524326974496
 21
242.62283837445889
 31
0.0
  0
LINE
  5
252C
  8
0
 62
     0
 10
84.766814409961214
 20
241.834248819321
 30
0.0
 11
84.766814409961214
 21
241.834248819321
 31
0.0
  0
ENDBLK
  5
252E
  8
0
  0
BLOCK
  8
0
  2
*U57
 70
     1
 10
0.0
 20
0.0
 30
0.0
  3
*U57
  1

  0
TEXT
  5
256D
  8
AM_5
 62
     2
 10
100.0243030266152
 20
181.36092886092339
 30
0.0
 40
3.5
  1
2
 50
90.0
  0
ENDBLK
  5
256F
  8
0
  0
BLOCK
  8
0
  2
*U58
 70
     1
 10
0.0
 20
0.0
 30
0.0
  3
*U58
  1

  0
TEXT
  5
2571
  8
AM_5
 62
     2
 10
147.8798345711192
 20
225.79705090816751
 30
0.0
 40
3.5
  1
6
  0
ENDBLK
  5
2573
  8
0
  0
BLOCK
  8
0
  2
*U59
 70
     1
 10
0.0
 20
0.0
 30
0.0
  3
*U59
  1

  0
TEXT
  5
2575
  8
AM_5
 62
     2
 10
73.586921185292425
 20
116.0919475617108
 30
0.0
 40
3.5
  1
12
 50
90.0
  0
ENDBLK
  5
2577
  8
0
  0
BLOCK
  8
0
  2
*U60
 70
     1
 10
0.0
 20
0.0
 30
0.0
  3
*U60
  1

  0
TEXT
  5
2579
  8
AM_5
 62
     2
 10
68.613608567298996
 20
218.21447696163591
 30
0.0
 40
3.5
  1
\U+22058
  0
ENDBLK
  5
257B
  8
0
  0
BLOCK
  8
0
  2
*U61
 70
     1
 10
0.0
 20
0.0
 30
0.0
  3
*U61
  1

  0
TEXT
  5
257D
  8
AM_5
 62
     2
 10
70.191806948205127
 20
226.46992321240509
 30
0.0
 40
3.5
  1
\U+22053.5
  0
ENDBLK
  5
257F
  8
0
  0
BLOCK
  8
0
  2
*U62
 70
     1
 10
0.0
 20
0.0
 30
0.0
  3
*U62
  1

  0
TEXT
  5
2581
  8
AM_5
 62
     2
 10
118.6159607291379
 20
100.3964226544995
 30
0.0
 40
3.5
  1
\U+22054
  0
ENDBLK
  5
2583
  8
0
  0
BLOCK
  8
0
  2
*U63
 70
     1
 10
0.0
 20
0.0
 30
0.0
  3
*U63
  1

  0
TEXT
  5
2585
  8
AM_5
 62
     2
 10
73.439034432601773
 20
100.74090171328569
 30
0.0
 40
3.5
  1
\U+22057
  0
ENDBLK
  5
2587
  8
0
  0
BLOCK
  8
0
  2
*U64
 70
     1
 10
0.0
 20
0.0
 30
0.0
  3
*U64
  1

  0
TEXT
  5
2589
  8
AM_5
 62
     2
 10
97.531817838835764
 20
147.7970519181674
 30
0.0
 40
3.5
  1
32
  0
ENDBLK
  5
258B
  8
0
  0
BLOCK
  8
0
  2
*U65
 70
     1
 10
0.0
 20
0.0
 30
0.0
  3
*U65
  1

  0
TEXT
  5
258D
  8
0
 10
145.39346705760681
 20
73.186522414816139
 30
0.0
 40
3.0
  1
注：加工先変更により再出図する
  0
ENDBLK
  5
258F
  8
0
  0
BLOCK
  8
0
  2
*U66
 70
     1
 10
0.0
 20
0.0
 30
0.0
  3
*U66
  1

  0
TEXT
  5
2591
  8
AM_5
 62
     2
 10
102.7428855950164
 20
159.1106648130839
 30
0.0
 40
3.5
  1
C0.5
  7
ACISOTS
  0
ENDBLK
  5
2593
  8
0
  0
BLOCK
  8
0
  2
*U67
 70
     1
 10
0.0
 20
0.0
 30
0.0
  3
*U67
  1

  0
TEXT
  5
2595
  8
AM_5
 62
     2
 10
149.09604583128871
 20
260.8964470679071
 30
0.0
 40
3.5
  1
シボ範囲
  7
ACISOTS
  0
TEXT
  5
2596
  8
AM_5
 62
     2
 10
149.09604583128871
 20
255.06311373457379
 30
0.0
 40
3.5
  1
日本エッチング梨地No.5相当 
  7
ACISOTS
  0
ENDBLK
  5
2598
  8
0
  0
ENDSEC
  0
SECTION
  2
ENTITIES
  0
ARC
  5
7F0
  8
TK1
 10
90.086921185292454
 20
118.29705090816751
 30
0.0
 40
5.5
 50
313.34175822722227
 51
46.658241772777139
  0
LINE
  5
7F3
  8
TK1
 10
95.586921185292496
 20
173.29705090816751
 30
0.0
 11
95.586921185292454
 21
169.29705090816751
 31
0.0
  0
LINE
  5
7F4
  8
TK1
 10
86.586921185292454
 20
172.29705090816751
 30
0.0
 11
86.586921185292468
 21
169.29705090816751
 31
0.0
  0
LINE
  5
7F5
  8
TK1
 10
93.586921185292482
 20
172.29705090816751
 30
0.0
 11
93.586921185292454
 21
169.29705090816751
 31
0.0
  0
ARC
  5
7F7
  8
TK1
 10
114.0869211852924
 20
173.29705090816751
 30
0.0
 40
2.0
 50
0.0
 51
90.0
  0
ARC
  5
7F8
  8
TK1
 10
86.086921185292454
 20
173.29705090816751
 30
0.0
 40
2.0
 50
90.0
 51
180.0
  0
ARC
  5
7F9
  8
TK1
 10
148.0869211852924
 20
202.29705090816751
 30
0.0
 40
2.0
 50
180.0
 51
270.0
  0
ARC
  5
7FA
  8
TK1
 10
148.0869211852924
 20
210.29705090816751
 30
0.0
 40
2.0
 50
90.0
 51
180.0
  0
LINE
  5
7FC
  8
TK1
 10
106.0869211852924
 20
173.29705090816751
 30
0.0
 11
95.586921185292454
 21
173.29705090816751
 31
0.0
  0
LINE
  5
7FD
  8
TK1
 10
106.0869211852924
 20
169.29705090816751
 30
0.0
 11
106.0869211852924
 21
173.29705090816751
 31
0.0
  0
LINE
  5
800
  8
TK1
 10
110.0869211852924
 20
122.29705090816751
 30
0.0
 11
93.861838402927958
 21
122.29705090816741
 31
0.0
  0
ARC
  5
801
  8
TK1
 10
110.0869211852924
 20
118.29705090816751
 30
0.0
 40
4.0
 50
90.0
 51
270.0
  0
ARC
  5
807
  8
TK1
 10
110.0869211852924
 20
118.29705090816751
 30
0.0
 40
5.9999999999999982
 50
270.0
 51
90.0
  0
CIRCLE
  5
808
  8
TK1
 10
110.0869211852924
 20
118.29705090816751
 30
0.0
 40
2.0
  0
LINE
  5
809
  8
TK1
 10
110.0869211852924
 20
112.29705090816751
 30
0.0
 11
87.086921185292454
 21
112.29705090816751
 31
0.0
  0
CIRCLE
  5
80A
  8
TK1
 10
90.086921185292454
 20
118.29705090816751
 30
0.0
 40
1.75
  0
LINE
  5
80B
  8
TK1
 10
87.086921185292454
 20
124.29705090816751
 30
0.0
 11
110.0869211852924
 21
124.29705090816751
 31
0.0
  0
ARC
  5
80C
  8
TK1
 10
87.086921185292454
 20
121.29705090816751
 30
0.0
 40
3.0
 50
90.0
 51
180.0
  0
LINE
  5
80D
  8
TK1
 10
84.086921185292454
 20
115.29705090816751
 30
0.0
 11
84.086921185292454
 21
121.29705090816751
 31
0.0
  0
ARC
  5
80E
  8
TK1
 10
87.086921185292454
 20
115.29705090816751
 30
0.0
 40
3.0
 50
180.0
 51
270.0
  0
ARC
  5
82C
  8
TK1
 10
87.086921185292454
 20
203.29705090816751
 30
0.0
 40
3.0
 50
180.0
 51
270.0
  0
ARC
  5
82D
  8
TK1
 10
87.086921185292454
 20
209.29705090816751
 30
0.0
 40
3.0
 50
90.0
 51
180.0
  0
LINE
  5
82E
  8
TK1
 10
108.0869211852924
 20
169.29705090816751
 30
0.0
 11
108.0869211852924
 21
175.29705090816751
 31
0.0
  0
LINE
  5
82F
  8
TK1
 10
112.0869211852924
 20
169.29705090816751
 30
0.0
 11
112.0869211852924
 21
175.29705090816751
 31
0.0
  0
LINE
  5
831
  8
TK1
 10
86.586921185292468
 20
172.29705090816739
 30
0.0
 11
93.586921185292482
 21
172.29705090816751
 31
0.0
  0
LINE
  5
832
  8
TK1
 10
88.336921185292439
 20
172.79705090816751
 30
0.0
 11
88.336921185292439
 21
175.29705090816751
 31
0.0
  0
LINE
  5
833
  8
TK1
 10
91.836921185292454
 20
172.79705090816751
 30
0.0
 11
91.836921185292425
 21
175.29705090816751
 31
0.0
  0
CIRCLE
  5
837
  8
TK1
 10
90.086921185292454
 20
206.29705090816751
 30
0.0
 40
1.75
  0
CIRCLE
  5
838
  8
TK1
 10
110.0869211852924
 20
206.29705090816751
 30
0.0
 40
2.0
  0
LINE
  5
83B
  8
TK1
 10
146.0869211852924
 20
202.29705090816751
 30
0.0
 11
146.0869211852924
 21
210.29705090816751
 31
0.0
  0
LINE
  5
83C
  8
TK1
 10
152.0869211852924
 20
200.29705090816751
 30
0.0
 11
148.0869211852924
 21
200.29705090816751
 31
0.0
  0
LINE
  5
83D
  8
TK1
 10
152.0869211852924
 20
212.29705090816751
 30
0.0
 11
152.0869211852924
 21
200.29705090816751
 31
0.0
  0
LINE
  5
83E
  8
TK1
 10
148.0869211852924
 20
212.29705090816751
 30
0.0
 11
152.0869211852924
 21
212.29705090816751
 31
0.0
  0
LINE
  5
83F
  8
TK1
 10
84.086921185292454
 20
169.29705090816751
 30
0.0
 11
84.086921185292454
 21
173.29705090816751
 31
0.0
  0
LINE
  5
840
  8
TK1
 10
116.0869211852924
 20
169.29705090816751
 30
0.0
 11
84.086921185292425
 21
169.29705090816751
 31
0.0
  0
LINE
  5
841
  8
TK1
 10
116.0869211852924
 20
173.29705090816751
 30
0.0
 11
116.0869211852924
 21
169.29705090816751
 31
0.0
  0
LINE
  5
842
  8
TK1
 10
86.086921185292454
 20
175.29705090816751
 30
0.0
 11
114.0869211852924
 21
175.29705090816751
 31
0.0
  0
LINE
  5
843
  8
TK1
 10
87.086921185292454
 20
200.29705090816751
 30
0.0
 11
110.0869211852924
 21
200.29705090816751
 31
0.0
  0
LINE
  5
844
  8
TK1
 10
84.086921185292454
 20
209.29705090816751
 30
0.0
 11
84.086921185292454
 21
203.29705090816751
 31
0.0
  0
LINE
  5
845
  8
TK1
 10
110.0869211852924
 20
212.29705090816751
 30
0.0
 11
87.086921185292454
 21
212.29705090816751
 31
0.0
  0
ARC
  5
846
  8
TK1
 10
110.0869211852924
 20
206.29705090816751
 30
0.0
 40
5.9999999999999982
 50
270.0
 51
90.0
  0
CIRCLE
  5
A0A
  8
TK1
 10
90.086921185292454
 20
118.29705090816751
 30
0.0
 40
3.5
  0
LINE
  5
A4C
  8
TK1
 10
93.861838402927773
 20
114.29705090816751
 30
0.0
 11
110.0869211852924
 21
114.29705090816751
 31
0.0
  0
LINE
  5
C1A
  8
AM_7
 10
81.086921185292454
 20
206.29705090816751
 30
0.0
 11
119.0869211852924
 21
206.29705090816751
 31
0.0
1001
GENIUS_GENOBJ-N-CEN_13
1002
{
1000
OWNER
1000
GEN
1002
}
1001
GENIUS_GENODEF_13
1002
{
1000
HIER
1070
     0
1002
}
1002
{
1000
MANEDIT
1070
     0
1002
}
1002
{
1000
NOSEL
1070
     0
1002
}
1002
{
1000
BEHIND
1070
     0
1002
}
1002
{
1000
OTHER
1070
     0
1002
}
1002
{
1000
REACTOR
1002
}
  0
LINE
  5
C27
  8
AM_7
  6
AM_ISO08W050X2
 10
143.0869211852924
 20
206.29705090816751
 30
0.0
 11
155.0869211852924
 21
206.29705090816751
 31
0.0
1001
GENIUS_GENODEF_13
1002
{
1000
HIER
1070
     0
1002
}
1002
{
1000
MANEDIT
1070
     0
1002
}
1002
{
1000
NOSEL
1070
     0
1002
}
1002
{
1000
BEHIND
1070
     0
1002
}
1002
{
1000
OTHER
1070
     0
1002
}
1002
{
1000
REACTOR
1002
}
1001
GENIUS_GENOBJ-N-CEN_13
1002
{
1000
OWNER
1000
GEN
1002
}
  0
LINE
  5
CBC
  8
AM_7
 10
81.086921185292454
 20
118.29705090816751
 30
0.0
 11
119.0869211852924
 21
118.29705090816751
 31
0.0
1001
GENIUS_GENODEF_13
1002
{
1000
HIER
1070
     0
1002
}
1002
{
1000
MANEDIT
1070
     0
1002
}
1002
{
1000
NOSEL
1070
     0
1002
}
1002
{
1000
BEHIND
1070
     0
1002
}
1002
{
1000
OTHER
1070
     0
1002
}
1002
{
1000
REACTOR
1002
}
1001
GENIUS_GENOBJ-N-CEN_13
1002
{
1000
OWNER
1000
GEN
1002
}
  0
LINE
  5
CF1
  8
AM_7
  6
AM_ISO08W050X2
 10
110.0869211852924
 20
127.29705090816751
 30
0.0
 11
110.0869211852924
 21
109.29705090816751
 31
0.0
1001
GENIUS_GENODEF_13
1002
{
1000
HIER
1070
     0
1002
}
1002
{
1000
MANEDIT
1070
     0
1002
}
1002
{
1000
NOSEL
1070
     0
1002
}
1002
{
1000
BEHIND
1070
     0
1002
}
1002
{
1000
OTHER
1070
     0
1002
}
1002
{
1000
REACTOR
1002
}
1001
GENIUS_GENOBJ-N-CEN_13
1002
{
1000
OWNER
1000
GEN
1002
}
  0
LINE
  5
D1E
  8
AM_7
  6
AM_ISO08W050X2
 10
90.086921185292454
 20
178.29705090816751
 30
0.0
 11
90.086921185292496
 21
166.29705090816751
 31
0.0
1001
GENIUS_GENOBJ-N-CEN_13
1002
{
1000
OWNER
1000
GEN
1002
}
1001
GENIUS_GENODEF_13
1002
{
1000
HIER
1070
     0
1002
}
1002
{
1000
MANEDIT
1070
     0
1002
}
1002
{
1000
NOSEL
1070
     0
1002
}
1002
{
1000
BEHIND
1070
     0
1002
}
1002
{
1000
OTHER
1070
     0
1002
}
1002
{
1000
REACTOR
1002
}
  0
LINE
  5
D2B
  8
AM_7
  6
AM_ISO08W050X2
 10
110.0869211852924
 20
178.29705090816751
 30
0.0
 11
110.0869211852924
 21
166.29705090816751
 31
0.0
1001
GENIUS_GENODEF_13
1002
{
1000
HIER
1070
     0
1002
}
1002
{
1000
MANEDIT
1070
     0
1002
}
1002
{
1000
NOSEL
1070
     0
1002
}
1002
{
1000
BEHIND
1070
     0
1002
}
1002
{
1000
OTHER
1070
     0
1002
}
1002
{
1000
REACTOR
1002
}
1001
GENIUS_GENOBJ-N-CEN_13
1002
{
1000
OWNER
1000
GEN
1002
}
  0
LINE
  5
D3A
  8
AM_7
  6
AM_ISO08W050X2
 10
90.086921185292454
 20
127.29705090816751
 30
0.0
 11
90.086921185292454
 21
109.29705090816751
 31
0.0
1001
GENIUS_GENOBJ-N-CEN_13
1002
{
1000
OWNER
1000
GEN
1002
}
1001
GENIUS_GENODEF_13
1002
{
1000
HIER
1070
     0
1002
}
1002
{
1000
MANEDIT
1070
     0
1002
}
1002
{
1000
NOSEL
1070
     0
1002
}
1002
{
1000
BEHIND
1070
     0
1002
}
1002
{
1000
OTHER
1070
     0
1002
}
1002
{
1000
REACTOR
1002
}
  0
LINE
  5
D47
  8
AM_7
  6
AM_ISO08W050X2
 10
110.0869211852924
 20
127.29705090816751
 30
0.0
 11
110.0869211852924
 21
109.29705090816751
 31
0.0
1001
GENIUS_GENOBJ-N-CEN_13
1002
{
1000
OWNER
1000
GEN
1002
}
1001
GENIUS_GENODEF_13
1002
{
1000
HIER
1070
     0
1002
}
1002
{
1000
MANEDIT
1070
     0
1002
}
1002
{
1000
NOSEL
1070
     0
1002
}
1002
{
1000
BEHIND
1070
     0
1002
}
1002
{
1000
OTHER
1070
     0
1002
}
1002
{
1000
REACTOR
1002
}
  0
LINE
  5
D55
  8
AM_7
  6
AM_ISO08W050X2
 10
90.086921185292454
 20
215.29705090816751
 30
0.0
 11
90.086921185292454
 21
197.29705090816751
 31
0.0
1001
GENIUS_GENODEF_13
1002
{
1000
HIER
1070
     0
1002
}
1002
{
1000
MANEDIT
1070
     0
1002
}
1002
{
1000
NOSEL
1070
     0
1002
}
1002
{
1000
BEHIND
1070
     0
1002
}
1002
{
1000
OTHER
1070
     0
1002
}
1002
{
1000
REACTOR
1002
}
1001
GENIUS_GENOBJ-N-CEN_13
1002
{
1000
OWNER
1000
GEN
1002
}
  0
LINE
  5
D62
  8
AM_7
  6
AM_ISO08W050X2
 10
110.0869211852924
 20
215.29705090816751
 30
0.0
 11
110.0869211852924
 21
197.29705090816751
 31
0.0
1001
GENIUS_GENODEF_13
1002
{
1000
HIER
1070
     0
1002
}
1002
{
1000
MANEDIT
1070
     0
1002
}
1002
{
1000
NOSEL
1070
     0
1002
}
1002
{
1000
BEHIND
1070
     0
1002
}
1002
{
1000
OTHER
1070
     0
1002
}
1002
{
1000
REACTOR
1002
}
1001
GENIUS_GENOBJ-N-CEN_13
1002
{
1000
OWNER
1000
GEN
1002
}
  0
CIRCLE
  5
143F
  8
TK1
 10
90.086921185292454
 20
206.29705090816751
 30
0.0
 40
4.0
  0
LINE
  5
1462
  8
TK1
 10
87.836921185292425
 20
172.29705090816751
 30
0.0
 11
88.336921185292439
 21
172.79705090816751
 31
0.0
1001
GENIUS_GENFIL_13
1070
     0
1040
0.5
1040
0.5
1040
20.0
1040
0.0
1002
{
1002
}
1001
GENIUS_GENOBJ-N-CHA_13
1002
{
1000
OWNER
1000
GEN
1002
}
1001
GENIUS_GENODEF_13
1002
{
1000
HIER
1070
     0
1002
}
1002
{
1000
MANEDIT
1070
     0
1002
}
1002
{
1000
NOSEL
1070
     0
1002
}
1002
{
1000
BEHIND
1070
     0
1002
}
1002
{
1000
OTHER
1070
     0
1002
}
1002
{
1000
REACTOR
1002
}
  0
LINE
  5
1467
  8
TK1
 10
91.836921185292454
 20
172.79705090816751
 30
0.0
 11
92.336921185292454
 21
172.29705090816751
 31
0.0
1001
GENIUS_GENFIL_13
1070
     0
1040
0.5
1040
0.5
1040
20.0
1040
0.0
1002
{
1002
}
1001
GENIUS_GENODEF_13
1002
{
1000
HIER
1070
     0
1002
}
1002
{
1000
MANEDIT
1070
     0
1002
}
1002
{
1000
NOSEL
1070
     0
1002
}
1002
{
1000
BEHIND
1070
     0
1002
}
1002
{
1000
OTHER
1070
     0
1002
}
1002
{
1000
REACTOR
1002
}
1001
GENIUS_GENOBJ-N-CHA_13
1002
{
1000
OWNER
1000
GEN
1002
}
  0
LINE
  5
1473
  8
TK1
 10
88.336921185292439
 20
172.79705090816751
 30
0.0
 11
91.836921185292454
 21
172.79705090816751
 31
0.0
  0
CIRCLE
  5
1528
  8
TK1
 10
90.086921185292454
 20
118.29705090816751
 30
0.0
 40
2.25
  0
LINE
  5
152C
  8
AM_7
  6
AM_ISO08W050X2
 10
110.0869211852924
 20
234.29705090816751
 30
0.0
 11
110.0869211852924
 21
246.29705090816751
 31
0.0
1001
GENIUS_GENODEF_13
1002
{
1000
HIER
1070
     0
1002
}
1002
{
1000
MANEDIT
1070
     0
1002
}
1002
{
1000
NOSEL
1070
     0
1002
}
1002
{
1000
BEHIND
1070
     0
1002
}
1002
{
1000
OTHER
1070
     0
1002
}
1002
{
1000
REACTOR
1002
}
1001
GENIUS_GENOBJ-N-CEN_13
1002
{
1000
OWNER
1000
GEN
1002
}
  0
LINE
  5
152D
  8
AM_7
  6
AM_ISO08W050X2
 10
90.086921185292454
 20
234.29705090816751
 30
0.0
 11
90.086921185292496
 21
246.29705090816751
 31
0.0
1001
GENIUS_GENOBJ-N-CEN_13
1002
{
1000
OWNER
1000
GEN
1002
}
1001
GENIUS_GENODEF_13
1002
{
1000
HIER
1070
     0
1002
}
1002
{
1000
MANEDIT
1070
     0
1002
}
1002
{
1000
NOSEL
1070
     0
1002
}
1002
{
1000
BEHIND
1070
     0
1002
}
1002
{
1000
OTHER
1070
     0
1002
}
1002
{
1000
REACTOR
1002
}
  0
LINE
  5
152E
  8
TK1
 10
86.086921185292454
 20
237.29705090816751
 30
0.0
 11
114.0869211852924
 21
237.29705090816751
 31
0.0
  0
LINE
  5
152F
  8
TK1
 10
116.0869211852924
 20
239.29705090816751
 30
0.0
 11
116.0869211852924
 21
243.29705090816759
 31
0.0
  0
LINE
  5
1530
  8
TK1
 10
116.0869211852924
 20
243.29705090816759
 30
0.0
 11
84.086921185292425
 21
243.29705090816759
 31
0.0
  0
LINE
  5
1531
  8
TK1
 10
84.086921185292454
 20
243.29705090816759
 30
0.0
 11
84.086921185292454
 21
239.29705090816751
 31
0.0
  0
ARC
  5
1539
  8
TK1
 10
86.086921185292454
 20
239.29705090816751
 30
0.0
 40
2.0
 50
180.0
 51
270.0
  0
ARC
  5
153A
  8
TK1
 10
114.0869211852924
 20
239.29705090816751
 30
0.0
 40
2.0
 50
270.0
 51
0.0
  0
INSERT
  5
1550
  8
AM_8
  6
CONTINUOUS
  2
*X51
 10
0.0
 20
0.0
 30
0.0
1001
GENIUS_GENOBJ-N-HTC_13
1002
{
1000
OWNER
1000
GEN
1002
}
1001
GENIUS_GENODEF_13
1002
{
1000
HIER
1070
     0
1002
}
1002
{
1000
MANEDIT
1070
     0
1002
}
1002
{
1000
NOSEL
1070
     0
1002
}
1002
{
1000
BEHIND
1070
     0
1002
}
1002
{
1000
OTHER
1070
     0
1002
}
1002
{
1000
REACTOR
1002
}
1001
GENIUS_GENHATCH_13
1002
{
1000
DATA
1040
45.0
1042
2.5
1000
_U
1070
     0
1011
85.834187874952804
1021
0.0
1031
9.5843747758113120E+015
1021
174.43359817555699
1031
0.0
1002
}
1002
{
1000
UCS
1010
0.0
1020
0.0
1030
0.0
1010
1.0
1020
0.0
1030
0.0
1010
0.0
1020
1.0
1030
0.0
1002
}
1001
ACAD
1000
HATCH
1002
{
1070
    19
1000
_U
1040
1.0
1040
0.7853981633974483
1070
     0
1000
R14_HATCH_DATA
1000
1550
1011
1.0
1021
0.0
1031
9.5843747758113120E+015
1021
0.0
1031
0.0
1011
0.0
1021
0.0
1031
9.5843747758113120E+015
1021
1.0
1031
0.0
1011
0.0
1021
0.0
1031
9.5843747758113120E+015
1021
0.0
1031
1.0
1040
0.0
1010
0.0
1020
0.0
1030
1.0
1000
_U
1070
     0
1070
     0
1071
        1
1071
        1
1071
        8
1070
     1
1040
84.086921185292454
1040
169.29705090816751
1040
86.586921185292468
1040
169.29705090816751
1070
     1
1040
86.586921185292468
1040
169.29705090816751
1040
86.586921185292454
1040
172.29705090816751
1070
     1
1040
86.586921185292454
1040
172.29705090816751
1040
87.836921185292425
1040
172.29705090816751
1070
     1
1040
87.836921185292425
1040
172.29705090816751
1040
88.336921185292439
1040
172.79705090816751
1070
     1
1040
88.336921185292439
1040
172.79705090816751
1040
88.336921185292439
1040
175.29705090816751
1070
     1
1040
88.336921185292439
1040
175.29705090816751
1040
86.086921185292454
1040
175.29705090816751
1070
     2
1040
86.086921185292454
1040
173.29705090816751
1040
2.0
1040
1.5707963267948959
1040
3.1415926535897931
1070
     1
1070
     1
1040
84.086921185292454
1040
173.29705090816751
1040
84.086921185292454
1040
169.29705090816751
1071
        0
1070
     0
1070
     0
1040
0.7853981633974483
1040
1.0
1070
     0
1070
     1
1040
0.7853981633974483
1040
4.5247220366968568
1040
95.978286610452301
1040
-0.7071067811865475
1040
0.7071067811865476
1070
     0
1071
        1
1040
4.5247220366968568
1040
95.978286610452301
1040
0.0
1002
}
  0
INSERT
  5
155A
  8
AM_8
  6
CONTINUOUS
  2
*X52
 10
0.0
 20
0.0
 30
0.0
1001
GENIUS_GENOBJ-N-HTC_13
1002
{
1000
OWNER
1000
GEN
1002
}
1001
GENIUS_GENODEF_13
1002
{
1000
HIER
1070
     0
1002
}
1002
{
1000
MANEDIT
1070
     0
1002
}
1002
{
1000
NOSEL
1070
     0
1002
}
1002
{
1000
BEHIND
1070
     0
1002
}
1002
{
1000
OTHER
1070
     0
1002
}
1002
{
1000
REACTOR
1002
}
1001
GENIUS_GENHATCH_13
1002
{
1000
DATA
1040
45.0
1042
2.5
1000
_U
1070
     0
1011
94.499213151319154
1021
0.0
1031
9.5843747758113120E+015
1021
173.0631080421112
1031
0.0
1002
}
1002
{
1000
UCS
1010
0.0
1020
0.0
1030
0.0
1010
1.0
1020
0.0
1030
0.0
1010
0.0
1020
1.0
1030
0.0
1002
}
1001
ACAD
1000
HATCH
1002
{
1070
    19
1000
_U
1040
2.5
1040
0.7853981633974483
1070
     0
1000
R14_HATCH_DATA
1000
155A
1011
1.0
1021
0.0
1031
9.5843747758113120E+015
1021
0.0
1031
0.0
1011
0.0
1021
0.0
1031
9.5843747758113120E+015
1021
1.0
1031
0.0
1011
0.0
1021
0.0
1031
9.5843747758113120E+015
1021
0.0
1031
1.0
1040
0.0
1010
0.0
1020
0.0
1030
1.0
1000
_U
1070
     0
1070
     0
1071
        1
1071
        1
1071
       11
1070
     1
1040
106.0869211852924
1040
173.29705090816751
1040
106.0869211852924
1040
169.29705090816751
1070
     1
1040
106.0869211852924
1040
169.29705090816751
1040
108.0869211852924
1040
169.29705090816751
1070
     1
1040
108.0869211852924
1040
169.29705090816751
1040
108.0869211852924
1040
175.29705090816751
1070
     1
1040
108.0869211852924
1040
175.29705090816751
1040
91.836921185292425
1040
175.29705090816751
1070
     1
1040
91.836921185292425
1040
175.29705090816751
1040
91.836921185292454
1040
172.79705090816751
1070
     1
1040
91.836921185292454
1040
172.79705090816751
1040
92.336921185292454
1040
172.29705090816751
1070
     1
1040
92.336921185292454
1040
172.29705090816751
1040
93.586921185292482
1040
172.29705090816751
1070
     1
1040
93.586921185292482
1040
172.29705090816751
1040
93.586921185292454
1040
169.29705090816751
1070
     1
1040
93.586921185292454
1040
169.29705090816751
1040
95.586921185292454
1040
169.29705090816751
1070
     1
1040
95.586921185292454
1040
169.29705090816751
1040
95.586921185292496
1040
173.29705090816751
1070
     1
1040
95.586921185292496
1040
173.29705090816751
1040
106.0869211852924
1040
173.29705090816751
1071
        0
1070
     0
1070
     0
1040
0.7853981633974483
1040
2.5
1070
     0
1070
     1
1040
0.7853981633974483
1040
4.5247220366968568
1040
95.978286610452301
1040
-1.767766952966368
1040
1.767766952966368
1070
     0
1071
        1
1040
4.5247220366968568
1040
95.978286610452301
1040
0.0
1002
}
  0
INSERT
  5
1563
  8
AM_8
  6
CONTINUOUS
  2
*X53
 10
0.0
 20
0.0
 30
0.0
1001
GENIUS_GENODEF_13
1002
{
1000
HIER
1070
     0
1002
}
1002
{
1000
MANEDIT
1070
     0
1002
}
1002
{
1000
NOSEL
1070
     0
1002
}
1002
{
1000
BEHIND
1070
     0
1002
}
1002
{
1000
OTHER
1070
     0
1002
}
1002
{
1000
REACTOR
1002
}
1001
GENIUS_GENOBJ-N-HTC_13
1002
{
1000
OWNER
1000
GEN
1002
}
1001
GENIUS_GENHATCH_13
1002
{
1000
DATA
1040
45.0
1042
2.5
1000
_U
1070
     0
1011
113.1454696315666
1021
0.0
1031
9.5843747758113120E+015
1021
172.35045319563409
1031
0.0
1002
}
1002
{
1000
UCS
1010
0.0
1020
0.0
1030
0.0
1010
1.0
1020
0.0
1030
0.0
1010
0.0
1020
1.0
1030
0.0
1002
}
1001
ACAD
1000
HATCH
1002
{
1070
    19
1000
_U
1040
1.5
1040
0.7853981633974483
1070
     0
1000
R14_HATCH_DATA
1000
1563
1011
1.0
1021
0.0
1031
9.5843747758113120E+015
1021
0.0
1031
0.0
1011
0.0
1021
0.0
1031
9.5843747758113120E+015
1021
1.0
1031
0.0
1011
0.0
1021
0.0
1031
9.5843747758113120E+015
1021
0.0
1031
1.0
1040
0.0
1010
0.0
1020
0.0
1030
1.0
1000
_U
1070
     0
1070
     0
1071
        1
1071
        1
1071
        5
1070
     1
1040
116.0869211852924
1040
169.29705090816751
1040
116.0869211852924
1040
173.29705090816751
1070
     2
1040
114.0869211852924
1040
173.29705090816751
1040
2.0
1040
0.0
1040
1.5707963267948959
1070
     1
1070
     1
1040
114.0869211852924
1040
175.29705090816751
1040
112.0869211852924
1040
175.29705090816751
1070
     1
1040
112.0869211852924
1040
175.29705090816751
1040
112.0869211852924
1040
169.29705090816751
1070
     1
1040
112.0869211852924
1040
169.29705090816751
1040
116.0869211852924
1040
169.29705090816751
1071
        0
1070
     0
1070
     0
1040
0.7853981633974483
1040
1.5
1070
     0
1070
     1
1040
0.7853981633974483
1040
4.5247220366968568
1040
95.978286610452301
1040
-1.060660171779821
1040
1.060660171779821
1070
     0
1071
        1
1040
4.5247220366968568
1040
95.978286610452301
1040
0.0
1002
}
  0
INSERT
  5
15A9
  8
AM_8
  6
CONTINUOUS
  2
*X54
 10
0.0
 20
0.0
 30
0.0
1001
GENIUS_GENODEF_13
1002
{
1000
HIER
1070
     0
1002
}
1002
{
1000
MANEDIT
1070
     0
1002
}
1002
{
1000
NOSEL
1070
     0
1002
}
1002
{
1000
BEHIND
1070
     0
1002
}
1002
{
1000
OTHER
1070
     0
1002
}
1002
{
1000
REACTOR
1002
}
1001
GENIUS_GENOBJ-N-HTC_13
1002
{
1000
OWNER
1000
GEN
1002
}
1001
GENIUS_GENHATCH_13
1002
{
1000
DATA
1040
0.0
1042
0.03
1000
AR-SAND
1070
     0
1011
101.1528372302821
1021
0.0
1031
9.5843747758113120E+015
1021
202.39723604907451
1031
0.0
1002
}
1002
{
1000
UCS
1010
0.0
1020
0.0
1030
0.0
1010
1.0
1020
0.0
1030
0.0
1010
0.0
1020
1.0
1030
0.0
1002
}
1001
ACAD
1000
HATCH
1002
{
1070
    19
1000
AR-SAND
1040
0.03
1040
0.0
1000
R14_HATCH_DATA
1000
15A9
1011
1.0
1021
0.0
1031
9.5843747758113120E+015
1021
0.0
1031
0.0
1011
0.0
1021
0.0
1031
9.5843747758113120E+015
1021
1.0
1031
0.0
1011
0.0
1021
0.0
1031
9.5843747758113120E+015
1021
0.0
1031
1.0
1040
0.0
1010
0.0
1020
0.0
1030
1.0
1000
AR-SAND
1070
     0
1070
     0
1071
        3
1071
        1
1071
        6
1070
     1
1040
110.0869211852924
1040
212.29705090816751
1040
87.086921185292454
1040
212.29705090816751
1070
     2
1040
87.086921185292454
1040
209.29705090816751
1040
3.0
1040
1.5707963267948959
1040
3.1415926535897931
1070
     1
1070
     1
1040
84.086921185292454
1040
209.29705090816751
1040
84.086921185292454
1040
203.29705090816751
1070
     2
1040
87.086921185292454
1040
203.29705090816751
1040
3.0
1040
3.1415926535897931
1040
4.7123889803846888
1070
     1
1070
     1
1040
87.086921185292454
1040
200.29705090816751
1040
110.0869211852924
1040
200.29705090816751
1070
     2
1040
110.0869211852924
1040
206.29705090816751
1040
6.0
1040
4.7123889803846888
1040
7.8539816339744819
1070
     1
1071
        0
1071
       16
1071
        2
1070
     2
1040
110.0869211852924
1040
206.29705090816751
1040
1.9999999999999929
1040
2.9415926535897761
1040
9.0131989720727663
1070
     0
1070
     2
1040
110.0869211852924
1040
206.29705090816751
1040
1.999999999999992
1040
2.7300136648931801
1040
2.9415926535897761
1070
     0
1071
        0
1071
       16
1071
        2
1070
     2
1040
90.086921185292454
1040
206.29705090816751
1040
4.0
1040
2.9415926535897938
1040
6.6220115642719488
1070
     0
1070
     2
1040
90.086921185292454
1040
206.29705090816751
1040
4.0000000000000009
1040
0.3388262570923635
1040
2.9415926535897938
1070
     0
1071
        0
1070
     0
1070
     1
1040
0.0
1040
0.03
1070
     0
1070
     4
1040
0.6544984694978737
1040
4.5247220366968568
1040
95.978286610452301
1040
-0.0480009388795214
1040
1.4682397119880271
1070
     6
1040
0.0
1040
-1.1582399999999999
1040
0.0
1040
-1.295399999999999
1040
0.0
1040
-1.238249999999999
1040
0.1308996938995747
1040
4.5247220366968568
1040
95.978286610452301
1040
1.348569849414007
1040
2.150475301705062
1070
     6
1040
0.0
1040
-0.6248400000000001
1040
0.0
1040
-1.0439400000000001
1040
0.0
1040
-0.4000500000000001
1040
5.715953300281428
1040
3.587462036696857
1040
95.978286610452301
1040
2.3729771107243729
1040
0.0043115540356371
1070
     6
1040
0.0
1040
-0.381
1040
0.0
1040
-1.371599999999999
1040
0.0
1040
-1.7907
1040
5.5414203750819961
1040
3.587462036696857
1040
95.978286610452301
1040
2.290669357416891
1040
0.6687879697716487
1070
     6
1040
0.0
1040
-0.1905
1040
0.0
1040
-0.8991599999999999
1040
0.0
1040
-1.0286999999999991
1071
        1
1040
4.5247220366968568
1040
95.978286610452301
1040
0.0
1002
}
  0
INSERT
  5
15B2
  8
AM_8
  6
CONTINUOUS
  2
*X55
 10
0.0
 20
0.0
 30
0.0
1001
GENIUS_GENOBJ-N-HTC_13
1002
{
1000
OWNER
1000
GEN
1002
}
1001
GENIUS_GENODEF_13
1002
{
1000
HIER
1070
     0
1002
}
1002
{
1000
MANEDIT
1070
     0
1002
}
1002
{
1000
NOSEL
1070
     0
1002
}
1002
{
1000
BEHIND
1070
     0
1002
}
1002
{
1000
OTHER
1070
     0
1002
}
1002
{
1000
REACTOR
1002
}
1001
GENIUS_GENHATCH_13
1002
{
1000
DATA
1040
0.0
1042
0.03
1000
AR-SAND
1070
     0
1011
148.0869211852924
1021
0.0
1031
9.5843747758113120E+015
1021
202.29705090816751
1031
0.0
1002
}
1002
{
1000
UCS
1010
0.0
1020
0.0
1030
0.0
1010
1.0
1020
0.0
1030
0.0
1010
0.0
1020
1.0
1030
0.0
1002
}
1001
ACAD
1000
HATCH
1002
{
1070
    19
1000
AR-SAND
1040
0.03
1040
0.0
1000
R14_HATCH_DATA
1000
15B2
1011
1.0
1021
0.0
1031
9.5843747758113120E+015
1021
0.0
1031
0.0
1011
0.0
1021
0.0
1031
9.5843747758113120E+015
1021
1.0
1031
0.0
1011
0.0
1021
0.0
1031
9.5843747758113120E+015
1021
0.0
1031
1.0
1040
0.0
1010
0.0
1020
0.0
1030
1.0
1000
AR-SAND
1070
     0
1070
     0
1071
        1
1071
        1
1071
        6
1070
     1
1040
148.0869211852924
1040
200.29705090816751
1040
152.0869211852924
1040
200.29705090816751
1070
     1
1040
152.0869211852924
1040
200.29705090816751
1040
152.0869211852924
1040
212.29705090816751
1070
     1
1040
152.0869211852924
1040
212.29705090816751
1040
148.0869211852924
1040
212.29705090816751
1070
     2
1040
148.0869211852924
1040
210.29705090816751
1040
2.0
1040
1.5707963267948959
1040
3.1415926535897931
1070
     1
1070
     1
1040
146.0869211852924
1040
210.29705090816751
1040
146.0869211852924
1040
202.29705090816751
1070
     2
1040
148.0869211852924
1040
202.29705090816751
1040
2.0
1040
3.1415926535897931
1040
4.7123889803846888
1070
     1
1071
        0
1070
     0
1070
     1
1040
0.0
1040
0.03
1070
     0
1070
     4
1040
0.6544984694978737
1040
4.5247220366968568
1040
95.978286610452301
1040
-0.0480009388795214
1040
1.4682397119880271
1070
     6
1040
0.0
1040
-1.1582399999999999
1040
0.0
1040
-1.295399999999999
1040
0.0
1040
-1.238249999999999
1040
0.1308996938995747
1040
4.5247220366968568
1040
95.978286610452301
1040
1.348569849414007
1040
2.150475301705062
1070
     6
1040
0.0
1040
-0.6248400000000001
1040
0.0
1040
-1.0439400000000001
1040
0.0
1040
-0.4000500000000001
1040
5.715953300281428
1040
3.587462036696857
1040
95.978286610452301
1040
2.3729771107243729
1040
0.0043115540356371
1070
     6
1040
0.0
1040
-0.381
1040
0.0
1040
-1.371599999999999
1040
0.0
1040
-1.7907
1040
5.5414203750819961
1040
3.587462036696857
1040
95.978286610452301
1040
2.290669357416891
1040
0.6687879697716487
1070
     6
1040
0.0
1040
-0.1905
1040
0.0
1040
-0.8991599999999999
1040
0.0
1040
-1.0286999999999991
1071
        1
1040
4.5247220366968568
1040
95.978286610452301
1040
0.0
1002
}
  0
INSERT
  5
15BB
  8
AM_8
  6
CONTINUOUS
  2
*X56
 10
0.0
 20
0.0
 30
0.0
1001
GENIUS_GENOBJ-N-HTC_13
1002
{
1000
OWNER
1000
GEN
1002
}
1001
GENIUS_GENODEF_13
1002
{
1000
HIER
1070
     0
1002
}
1002
{
1000
MANEDIT
1070
     0
1002
}
1002
{
1000
NOSEL
1070
     0
1002
}
1002
{
1000
BEHIND
1070
     0
1002
}
1002
{
1000
OTHER
1070
     0
1002
}
1002
{
1000
REACTOR
1002
}
1001
GENIUS_GENHATCH_13
1002
{
1000
DATA
1040
0.0
1042
0.03
1000
AR-SAND
1070
     0
1011
100.182050519
1021
0.0
1031
9.5843747758113120E+015
1021
239.133496627141
1031
0.0
1002
}
1002
{
1000
UCS
1010
0.0
1020
0.0
1030
0.0
1010
1.0
1020
0.0
1030
0.0
1010
0.0
1020
1.0
1030
0.0
1002
}
1001
ACAD
1000
HATCH
1002
{
1070
    19
1000
AR-SAND
1040
0.03
1040
0.0
1000
R14_HATCH_DATA
1000
15BB
1011
1.0
1021
0.0
1031
9.5843747758113120E+015
1021
0.0
1031
0.0
1011
0.0
1021
0.0
1031
9.5843747758113120E+015
1021
1.0
1031
0.0
1011
0.0
1021
0.0
1031
9.5843747758113120E+015
1021
0.0
1031
1.0
1040
0.0
1010
0.0
1020
0.0
1030
1.0
1000
AR-SAND
1070
     0
1070
     0
1071
        1
1071
        1
1071
        6
1070
     1
1040
116.0869211852924
1040
239.29705090816751
1040
116.0869211852924
1040
243.29705090816759
1070
     1
1040
116.0869211852924
1040
243.29705090816759
1040
84.086921185292425
1040
243.29705090816759
1070
     1
1040
84.086921185292425
1040
243.29705090816759
1040
84.086921185292454
1040
239.29705090816751
1070
     2
1040
86.086921185292454
1040
239.29705090816751
1040
2.0
1040
3.1415926535897931
1040
4.7123889803846888
1070
     1
1070
     1
1040
86.086921185292454
1040
237.29705090816751
1040
114.0869211852924
1040
237.29705090816751
1070
     2
1040
114.0869211852924
1040
239.29705090816751
1040
2.0
1040
4.7123889803846888
1040
6.2831853071795862
1070
     1
1071
        0
1070
     0
1070
     1
1040
0.0
1040
0.03
1070
     0
1070
     4
1040
0.6544984694978737
1040
4.5247220366968568
1040
95.978286610452301
1040
-0.0480009388795214
1040
1.4682397119880271
1070
     6
1040
0.0
1040
-1.1582399999999999
1040
0.0
1040
-1.295399999999999
1040
0.0
1040
-1.238249999999999
1040
0.1308996938995747
1040
4.5247220366968568
1040
95.978286610452301
1040
1.348569849414007
1040
2.150475301705062
1070
     6
1040
0.0
1040
-0.6248400000000001
1040
0.0
1040
-1.0439400000000001
1040
0.0
1040
-0.4000500000000001
1040
5.715953300281428
1040
3.587462036696857
1040
95.978286610452301
1040
2.3729771107243729
1040
0.0043115540356371
1070
     6
1040
0.0
1040
-0.381
1040
0.0
1040
-1.371599999999999
1040
0.0
1040
-1.7907
1040
5.5414203750819961
1040
3.587462036696857
1040
95.978286610452301
1040
2.290669357416891
1040
0.6687879697716487
1070
     6
1040
0.0
1040
-0.1905
1040
0.0
1040
-0.8991599999999999
1040
0.0
1040
-1.0286999999999991
1071
        1
1040
4.5247220366968568
1040
95.978286610452301
1040
0.0
1002
}
  0
DIMENSION
  5
17B0
  8
AM_5
  2
*D8
 10
110.0869211852924
 20
136.29705191816751
 30
0.0
 11
100.0869211852924
 21
139.54739640635651
 31
0.0
 70
     0
 13
90.086921185292454
 23
127.29705090816751
 33
0.0
 14
110.0869211852924
 24
127.29705090816751
 34
0.0
1001
ACAD
1000
DSTYLE
1002
{
1070
   173
1070
     1
1070
   174
1070
     1
1070
     6
1000
GENDOT
1070
     7
1000
OPEN30
1002
}
  0
DIMENSION
  5
17EC
  8
AM_5
  2
*D9
 10
84.086921185292454
 20
136.29705191816751
 30
0.0
 11
87.086921185292454
 21
139.54705191816751
 31
0.0
 70
     0
 13
90.086921185292454
 23
127.29705090816751
 33
0.0
 14
84.086921185292454
 24
121.29705090816751
 34
0.0
1001
ACAD
1000
DSTYLE
1002
{
1070
   173
1070
     1
1070
   174
1070
     1
1070
     6
1000
GENDOT
1070
     7
1000
OPEN30
1002
}
  0
DIMENSION
  5
1844
  8
AM_5
  2
*D10
 10
116.0869211852924
 20
146.29705191816751
 30
0.0
 11
100.0869211852924
 21
149.5473964063564
 31
0.0
 70
     0
 13
84.086921185292454
 23
121.29705090816751
 33
0.0
 14
116.0869211852924
 24
118.29705090816751
 34
0.0
  0
DIMENSION
  5
1880
  8
AM_5
  2
*D11
 10
75.086921185292439
 20
112.29705090816751
 30
0.0
 11
71.836576697103453
 21
118.29705090816751
 31
0.0
 70
     0
 13
87.086921185292454
 23
124.29705090816751
 33
0.0
 14
87.086921185292454
 24
112.29705090816751
 34
0.0
 50
90.0
  0
DIMENSION
  5
18CF
  8
AM_5
  2
*D12
 10
87.086921185292425
 20
121.29705090816751
 30
0.0
 11
68.340977927376926
 21
137.59732279894149
 31
0.0
 70
   132
 15
84.823071830195119
 25
123.2655493454098
 35
0.0
 40
0.0
1001
ACAD
1000
DSTYLE
1002
{
1070
   287
1070
     4
1070
    74
1070
     0
1070
   279
1070
     1
1070
   281
1070
     1
1002
}
  0
DIMENSION
  5
18FA
  8
AM_5
  2
*D13
 10
110.0869211852925
 20
118.29705090816751
 30
0.0
 11
131.02180734079661
 21
137.35355612695511
 31
0.0
 70
   132
 15
114.5239454782802
 25
122.3359635617708
 35
0.0
 40
0.0
1001
ACAD
1000
DSTYLE
1002
{
1070
   287
1070
     4
1070
    74
1070
     0
1070
   279
1070
     1
1070
   281
1070
     1
1002
}
  0
DIMENSION
  5
1933
  8
AM_5
  2
*D14
 10
152.0869211852924
 20
224.29705090816759
 30
0.0
 11
149.0869211852924
 21
227.54705090816751
 31
0.0
 70
     0
 13
146.0869211852924
 23
210.29705090816751
 33
0.0
 14
152.0869211852924
 24
212.29705090816751
 34
0.0
  0
DIMENSION
  5
198A
  8
AM_5
  2
*D15
 10
148.0869211852924
 20
202.29705090816759
 30
0.0
 11
140.5984240317909
 21
190.7938021724666
 31
0.0
 70
   132
 15
146.99577851353621
 25
200.62092213331979
 35
0.0
 40
0.0
1001
ACAD
1000
DSTYLE
1002
{
1070
   287
1070
     4
1070
    74
1070
     0
1070
   279
1070
     1
1070
   281
1070
     1
1002
}
  0
DIMENSION
  5
19C4
  8
AM_5
  2
*D16
 10
72.086920175292477
 20
169.29705090816751
 30
0.0
 11
72.086920175292434
 21
162.02456353475219
 31
0.0
 70
   128
 13
86.586921185292454
 23
172.29705090816739
 33
0.0
 14
84.086921185292454
 24
169.29705090816751
 34
0.0
 50
90.000000000000185
1001
ACAD
1000
DSTYLE
1002
{
1070
   173
1070
     1
1070
   174
1070
     1
1070
     6
1000
GENDOT
1070
     7
1000
OPEN30
1002
}
  0
DIMENSION
  5
1A0A
  8
AM_5
  2
*D17
 10
72.086920175292462
 20
172.29705090816739
 30
0.0
 11
72.086920175292434
 21
182.56953828158279
 31
0.0
 70
   128
 13
86.086921185292454
 23
175.29705090816751
 33
0.0
 14
86.586921185292454
 24
172.29705090816739
 34
0.0
 50
90.0
1001
ACAD
1000
DSTYLE
1002
{
1070
   173
1070
     1
1070
   174
1070
     1
1070
     6
1000
OPEN30
1070
     7
1000
GENDOT
1002
}
  0
INSERT
  5
1AFC
  8
AM_5
  2
*S27
 10
0.0
 20
0.0
 30
0.0
  0
DIMENSION
  5
1B08
  8
AM_5
  2
*D18
 10
91.722541341433967
 20
121.3913596685894
 30
0.0
 11
76.239034432601784
 21
99.240901713285695
 31
0.0
 70
   131
 15
88.451301029150969
 25
115.2027421477456
 35
0.0
 40
0.0
  0
DIMENSION
  5
1B38
  8
AM_5
  2
*D19
 10
109.3612484554337
 20
120.16075664919509
 30
0.0
 11
121.5909607291379
 21
98.896422654499531
 31
0.0
 70
   131
 15
110.8125939151512
 25
116.4333451671399
 35
0.0
 40
0.0
  0
DIMENSION
  5
1B6C
  8
AM_5
  2
*D20
 10
90.892011184196576
 20
204.74323943515529
 30
0.0
 11
74.814294321620423
 21
224.96992321240521
 31
0.0
 70
   131
 15
89.281831186388359
 25
207.85086238117989
 35
0.0
 40
0.0
  0
DIMENSION
  5
1B97
  8
AM_5
  2
*D21
 10
93.365026115266588
 20
204.0048842327098
 30
0.0
 11
71.413608567298994
 21
216.71447696163591
 31
0.0
 70
   131
 15
86.808816255318277
 25
208.58921758362521
 35
0.0
 40
0.0
  0
DIMENSION
  5
1BCD
  8
AM_5
  2
*D22
 10
101.5243030266152
 20
175.29705090816751
 30
0.0
 11
98.2739585384262
 21
182.64659323100221
 31
0.0
 70
     0
 13
95.586921185292496
 23
173.29705090816751
 33
0.0
 14
95.586921185292468
 24
175.29705090816751
 34
0.0
 50
90.0
  0
INSERT
  5
1C02
  8
AM_5
  2
*S28
 10
0.0
 20
0.0
 30
0.0
  0
INSERT
  5
1C36
  8
0
  2
TAKACHI-A4
 10
0.0
 20
0.0
 30
0.0
1001
GENIUS_GENOREF_13
1005
1C42
1001
GENIUS_GENOBJ-N-SDF_13
1002
{
1000
OWNER
1000
GEN
1002
}
1001
GENIUS_GENODEF_13
1002
{
1000
HIER
1070
     0
1002
}
1002
{
1000
MANEDIT
1070
     0
1002
}
1002
{
1000
NOSEL
1070
     0
1002
}
1002
{
1000
BEHIND
1070
     0
1002
}
1002
{
1000
OTHER
1070
     0
1002
}
1002
{
1000
REACTOR
1002
}
1001
GENIUS_GENSCREG_13
1040
1.0
1040
1.0
1011
0.0
1021
0.0
1031
9.5843747758113120E+015
1021
0.0
1031
0.0
1011
195.00000000000011
1021
0.0
1031
9.5843747758113120E+015
1021
275.0
1031
0.0
1070
     3
  0
INSERT
  5
1C38
  8
0
 66
     1
  2
TAKACHI-TITLE
 10
215.0
 20
15.0
 30
0.0
1001
GENIUS_GENOREF_13
1005
1C42
  0
ATTRIB
  5
1C3A
  8
0
 10
31.756147285439312
 20
23.95085052442808
 30
0.0
 40
2.5
  1
プラスチック外部取付足
 11
31.756147285439312
 21
23.617517191094748
 31
0.0
  2
GEN-TITLE-DES2
 70
     0
 74
     1
  0
ATTRIB
  5
1C3B
  8
0
 10
31.756147285439312
 20
17.01751719109475
 30
0.0
 40
3.0
  1
C070001
 11
31.756147285439312
 21
16.617517191094748
 31
0.0
  2
GEN-TITLE-NR
 70
     0
 74
     1
  0
ATTRIB
  5
1C3C
  8
0
 10
31.756147285439312
 20
29.407286195018351
 30
0.0
 40
4.0
  1
CKF-1□
 11
31.756147285439312
 21
28.873952861685009
 31
0.0
  2
GEN-TITLE-DES1
 70
     0
 74
     1
  0
ATTRIB
  5
1C3D
  8
0
 10
153.53594880200259
 20
54.255005561783491
 30
0.0
 40
3.0
  1
1:1
 72
     2
 11
156.98594880200261
 21
54.255005561783491
 31
0.0
  2
GEN-TITLE-SCA
 70
     0
  0
ATTRIB
  5
1C3E
  8
0
 10
137.99715033350989
 20
46.021807879434753
 30
0.0
 40
3.0
  1
ABS HB
 11
137.99715033350989
 21
45.621807879434748
 31
0.0
  2
GEN-TITLE-MAT1
 70
     0
 74
     1
  0
ATTRIB
  5
1C3F
  8
0
 10
137.99715033350989
 20
36.021807879434753
 30
0.0
 40
3.0
  1
ｼﾎﾞ/ｱｲﾎﾞﾘｰ・ﾌﾞﾗｯｸ・ﾗｲﾄｸﾞﾚｰ
 11
137.99715033350989
 21
35.621807879434748
 31
0.0
  2
GEN-TITLE-MAT2
 70
     0
 74
     1
  0
ATTRIB
  5
1C40
  8
0
 10
137.99715033350989
 20
27.01751719109475
 30
0.0
 40
3.0
  1
2007/05/21
 11
137.99715033350989
 21
26.617517191094748
 31
0.0
  2
GEN-TITLE-DAT
 70
     0
 74
     1
  0
ATTRIB
  5
1C41
  8
0
 10
175.28682620608501
 20
54.255005561783491
 30
0.0
 40
3.0
  1
4
 72
     2
 11
177.236826206085
 21
54.255005561783491
 31
0.0
  2
GEN-TITLE-QTY
 70
     0
  0
SEQEND
  5
1C39
  8
0
  0
POINT
  5
1C42
  8
0
 10
0.0
 20
0.0
 30
0.0
1001
GENIUS_GENODEF_13
1002
{
1000
HIER
1070
     1
1002
}
1002
{
1000
MANEDIT
1070
     0
1002
}
1002
{
1000
NOSEL
1070
     0
1002
}
1002
{
1000
BEHIND
1070
     0
1002
}
1002
{
1000
OTHER
1070
     0
1002
}
1002
{
1000
REACTOR
1002
}
1001
GENIUS_GENOLIS_13
1002
{
1000
ENT
1005
1C38
1005
1C36
1002
}
1001
GENIUS_GENOENT_13
1002
{
1000
MYREF
1005
1C42
1002
}
1002
{
1000
GRP
1005
0
1002
}
1001
GENIUS_GENOBJ-N-TIT_13
1002
{
1000
OWNER
1000
GEN
1002
}
1001
GENIUS_GENTITLE_13
1002
{
1000
BORDER
1000
TAKACHI-A4
1002
}
1002
{
1000
TITLE
1000
TAKACHI-TITLE
1002
}
1002
{
1000
SCALE
1000
1:1
1002
}
1002
{
1000
TITLESTD
1000
ISO
1002
}
1002
{
1000
HRA
1005
1C36
1002
}
1002
{
1000
HTIT
1005
1C38
1002
}
1002
{
1000
UNCHG
1002
{
1000
GEN-TITLE-SIZ
1000
GEN-TITLE-SCA
1002
}
1002
}
1002
{
1000
GENIUSID
1005
1C42
1002
}
  0
INSERT
  5
1DFD
  8
0
  2
*U65
 10
0.0
 20
0.0
 30
0.0
  0
VIEWPORT
  5
17C
 67
     1
  8
0
 10
133.34999084472651
 20
101.5999970436096
 30
0.0
 40
370.22669129365238
 41
228.4221935424805
 68
     1
 69
     1
1001
ACAD
1000
MVIEW
1002
{
1070
    16
1010
0.0
1020
0.0
1030
0.0
1010
0.0
1020
0.0
1030
1.0
1040
0.0
1040
228.4221935424805
1040
133.34999084472651
1040
101.5999970436096
1040
50.0
1040
0.0
1040
0.0
1070
     0
1070
   100
1070
     1
1070
     1
1070
     0
1070
     0
1070
     0
1070
     0
1040
0.0
1040
0.0
1040
0.0
1040
10.0
1040
10.0
1040
10.0
1040
10.0
1070
     0
1002
{
1002
}
1002
}
1001
GENIUS_GENODEF_13
1002
{
1000
HIER
1070
     0
1002
}
1002
{
1000
MANEDIT
1070
     0
1002
}
1002
{
1000
NOSEL
1070
     0
1002
}
1002
{
1000
BEHIND
1070
     0
1002
}
1002
{
1000
OTHER
1070
     0
1002
}
1002
{
1000
REACTOR
1002
}
1001
GENIUS_GENOBJ-N-SDF_13
1002
{
1000
OWNER
1000
GEN
1002
}
1001
GENIUS_GENSCREG_15
1000
PF
1040
1.0
1000
DF
1040
1.0
1000
MIN
1011
-51.763354802099627
1021
0.0
1031
9.5843747758113120E+015
1021
-12.6110997276306
1031
0.0
1000
MAX
1011
318.4633364915527
1021
0.0
1031
9.5843747758113120E+015
1021
215.8110938148499
1031
0.0
1000
FLAGS
1070
     4
  0
ENDSEC
  0
EOF
